  0
SECTION
  2
HEADER
  9
$ACADVER
  1
AC1018
  9
$ACADMAINTVER
 70
     0
  9
$DWGCODEPAGE
  3
ANSI_1252
  9
$INSBASE
 10
0.0
 20
0.0
 30
0.0
  9
$EXTMIN
 10
295.30085809732
 20
36.602306903712
 30
0.0
  9
$EXTMAX
 10
674.011094495557
 20
190.151306903712
 30
0.0
  9
$LIMMIN
 10
0.0
 20
0.0
  9
$LIMMAX
 10
420.0
 20
297.0
  9
$ORTHOMODE
 70
     0
  9
$REGENMODE
 70
     1
  9
$FILLMODE
 70
     1
  9
$QTEXTMODE
 70
     0
  9
$MIRRTEXT
 70
     1
  9
$LTSCALE
 40
5.0
  9
$ATTMODE
 70
     1
  9
$TEXTSIZE
 40
2.5
  9
$TRACEWID
 40
1.0
  9
$TEXTSTYLE
  7
Standard
  9
$CLAYER
  8
0
  9
$CELTYPE
  6
ByLayer
  9
$CECOLOR
 62
   256
  9
$CELTSCALE
 40
1.0
  9
$DISPSILH
 70
     0
  9
$DIMSCALE
 40
1.0
  9
$DIMASZ
 40
2.5
  9
$DIMEXO
 40
0.625
  9
$DIMDLI
 40
3.75
  9
$DIMRND
 40
0.0
  9
$DIMDLE
 40
0.0
  9
$DIMEXE
 40
1.25
  9
$DIMTP
 40
0.0
  9
$DIMTM
 40
0.0
  9
$DIMTXT
 40
2.5
  9
$DIMCEN
 40
2.5
  9
$DIMTSZ
 40
0.0
  9
$DIMTOL
 70
     0
  9
$DIMLIM
 70
     0
  9
$DIMTIH
 70
     0
  9
$DIMTOH
 70
     0
  9
$DIMSE1
 70
     0
  9
$DIMSE2
 70
     0
  9
$DIMTAD
 70
     1
  9
$DIMZIN
 70
     8
  9
$DIMBLK
  1

  9
$DIMASO
 70
     1
  9
$DIMSHO
 70
     1
  9
$DIMPOST
  1

  9
$DIMAPOST
  1

  9
$DIMALT
 70
     0
  9
$DIMALTD
 70
     3
  9
$DIMALTF
 40
0.03937007874
  9
$DIMLFAC
 40
1.0
  9
$DIMTOFL
 70
     1
  9
$DIMTVP
 40
0.0
  9
$DIMTIX
 70
     0
  9
$DIMSOXD
 70
     0
  9
$DIMSAH
 70
     0
  9
$DIMBLK1
  1

  9
$DIMBLK2
  1

  9
$DIMSTYLE
  2
ISO-25
  9
$DIMCLRD
 70
     0
  9
$DIMCLRE
 70
     0
  9
$DIMCLRT
 70
     0
  9
$DIMTFAC
 40
1.0
  9
$DIMGAP
 40
0.625
  9
$DIMJUST
 70
     0
  9
$DIMSD1
 70
     0
  9
$DIMSD2
 70
     0
  9
$DIMTOLJ
 70
     0
  9
$DIMTZIN
 70
     8
  9
$DIMALTZ
 70
     0
  9
$DIMALTTZ
 70
     0
  9
$DIMUPT
 70
     0
  9
$DIMDEC
 70
     2
  9
$DIMTDEC
 70
     2
  9
$DIMALTU
 70
     2
  9
$DIMALTTD
 70
     3
  9
$DIMTXSTY
  7
Standard
  9
$DIMAUNIT
 70
     0
  9
$DIMADEC
 70
     0
  9
$DIMALTRND
 40
0.0
  9
$DIMAZIN
 70
     0
  9
$DIMDSEP
 70
    44
  9
$DIMATFIT
 70
     3
  9
$DIMFRAC
 70
     0
  9
$DIMLDRBLK
  1

  9
$DIMLUNIT
 70
     2
  9
$DIMLWD
 70
    -2
  9
$DIMLWE
 70
    -2
  9
$DIMTMOVE
 70
     0
  9
$LUNITS
 70
     2
  9
$LUPREC
 70
     4
  9
$SKETCHINC
 40
1.0
  9
$FILLETRAD
 40
10.0
  9
$AUNITS
 70
     0
  9
$AUPREC
 70
     0
  9
$MENU
  1
.
  9
$ELEVATION
 40
0.0
  9
$PELEVATION
 40
0.0
  9
$THICKNESS
 40
0.0
  9
$LIMCHECK
 70
     0
  9
$CHAMFERA
 40
10.0
  9
$CHAMFERB
 40
10.0
  9
$CHAMFERC
 40
20.0
  9
$CHAMFERD
 40
0.0
  9
$SKPOLY
 70
     0
  9
$TDCREATE
 40
2459047.397053542
  9
$TDUCREATE
 40
2459047.313720208
  9
$TDUPDATE
 40
2459047.397059167
  9
$TDUUPDATE
 40
2459047.313725833
  9
$TDINDWG
 40
0.0000000116
  9
$TDUSRTIMER
 40
0.0000000116
  9
$USRTIMER
 70
     1
  9
$ANGBASE
 50
0.0
  9
$ANGDIR
 70
     0
  9
$PDMODE
 70
     2
  9
$PDSIZE
 40
1.0
  9
$PLINEWID
 40
0.0
  9
$SPLFRAME
 70
     0
  9
$SPLINETYPE
 70
     6
  9
$SPLINESEGS
 70
     8
  9
$HANDSEED
  5
3FA
  9
$SURFTAB1
 70
     6
  9
$SURFTAB2
 70
     6
  9
$SURFTYPE
 70
     6
  9
$SURFU
 70
     6
  9
$SURFV
 70
     6
  9
$UCSBASE
  2

  9
$UCSNAME
  2

  9
$UCSORG
 10
0.0
 20
0.0
 30
0.0
  9
$UCSXDIR
 10
1.0
 20
0.0
 30
0.0
  9
$UCSYDIR
 10
0.0
 20
1.0
 30
0.0
  9
$UCSORTHOREF
  2

  9
$UCSORTHOVIEW
 70
     0
  9
$UCSORGTOP
 10
0.0
 20
0.0
 30
0.0
  9
$UCSORGBOTTOM
 10
0.0
 20
0.0
 30
0.0
  9
$UCSORGLEFT
 10
0.0
 20
0.0
 30
0.0
  9
$UCSORGRIGHT
 10
0.0
 20
0.0
 30
0.0
  9
$UCSORGFRONT
 10
0.0
 20
0.0
 30
0.0
  9
$UCSORGBACK
 10
0.0
 20
0.0
 30
0.0
  9
$PUCSBASE
  2

  9
$PUCSNAME
  2

  9
$PUCSORG
 10
0.0
 20
0.0
 30
0.0
  9
$PUCSXDIR
 10
1.0
 20
0.0
 30
0.0
  9
$PUCSYDIR
 10
0.0
 20
1.0
 30
0.0
  9
$PUCSORTHOREF
  2

  9
$PUCSORTHOVIEW
 70
     0
  9
$PUCSORGTOP
 10
0.0
 20
0.0
 30
0.0
  9
$PUCSORGBOTTOM
 10
0.0
 20
0.0
 30
0.0
  9
$PUCSORGLEFT
 10
0.0
 20
0.0
 30
0.0
  9
$PUCSORGRIGHT
 10
0.0
 20
0.0
 30
0.0
  9
$PUCSORGFRONT
 10
0.0
 20
0.0
 30
0.0
  9
$PUCSORGBACK
 10
0.0
 20
0.0
 30
0.0
  9
$USERI1
 70
     0
  9
$USERI2
 70
     0
  9
$USERI3
 70
     0
  9
$USERI4
 70
     0
  9
$USERI5
 70
     0
  9
$USERR1
 40
0.0
  9
$USERR2
 40
0.0
  9
$USERR3
 40
0.0
  9
$USERR4
 40
0.0
  9
$USERR5
 40
0.0
  9
$WORLDVIEW
 70
     1
  9
$SHADEDGE
 70
     3
  9
$SHADEDIF
 70
    70
  9
$TILEMODE
 70
     1
  9
$MAXACTVP
 70
    64
  9
$PINSBASE
 10
0.0
 20
0.0
 30
0.0
  9
$PLIMCHECK
 70
     0
  9
$PEXTMIN
 10
1.000000000000E+20
 20
1.000000000000E+20
 30
1.000000000000E+20
  9
$PEXTMAX
 10
-1.000000000000E+20
 20
-1.000000000000E+20
 30
-1.000000000000E+20
  9
$PLIMMIN
 10
0.0
 20
0.0
  9
$PLIMMAX
 10
420.0
 20
297.0
  9
$UNITMODE
 70
     0
  9
$VISRETAIN
 70
     1
  9
$PLINEGEN
 70
     0
  9
$PSLTSCALE
 70
     1
  9
$TREEDEPTH
 70
  3020
  9
$CMLSTYLE
  2
Standard
  9
$CMLJUST
 70
     0
  9
$CMLSCALE
 40
20.0
  9
$PROXYGRAPHICS
 70
     1
  9
$MEASUREMENT
 70
     1
  9
$CELWEIGHT
370
    -1
  9
$ENDCAPS
280
     0
  9
$JOINSTYLE
280
     0
  9
$LWDISPLAY
290
     0
  9
$INSUNITS
 70
     4
  9
$HYPERLINKBASE
  1

  9
$STYLESHEET
  1

  9
$XEDIT
290
     1
  9
$CEPSNTYPE
380
     0
  9
$PSTYLEMODE
290
     1
  9
$FINGERPRINTGUID
  2
{D72D6943-0D13-4C39-A12D-419D722ACD80}
  9
$VERSIONGUID
  2
{FAEB1C32-E019-11D5-929B-00C0DF256EC4}
  9
$EXTNAMES
290
     1
  9
$PSVPSCALE
 40
0.0
  9
$OLESTARTUP
290
     0
  9
$SORTENTS
280
   127
  9
$INDEXCTL
280
     0
  9
$HIDETEXT
280
     1
  9
$XCLIPFRAME
290
     0
  9
$HALOGAP
280
     0
  9
$OBSCOLOR
 70
   257
  9
$OBSLTYPE
280
     0
  9
$INTERSECTIONDISPLAY
280
     0
  9
$INTERSECTIONCOLOR
 70
   257
  9
$DIMASSOC
280
     2
  9
$PROJECTNAME
  1

  0
ENDSEC
  0
SECTION
  2
CLASSES
  0
CLASS
  1
ACDBDICTIONARYWDFLT
  2
AcDbDictionaryWithDefault
  3
ObjectDBX Classes
 90
        0
 91
        4
280
     0
281
     0
  0
CLASS
  1
VISUALSTYLE
  2
AcDbVisualStyle
  3
ObjectDBX Classes
 90
     4095
 91
        4
280
     0
281
     0
  0
CLASS
  1
MATERIAL
  2
AcDbMaterial
  3
ObjectDBX Classes
 90
     1153
 91
        4
280
     0
281
     0
  0
CLASS
  1
WIPEOUTVARIABLES
  2
AcDbWipeoutVariables
  3
WipeOut|AutoCAD Express Tool|expresstools@autodesk.com
 90
        0
 91
        4
280
     0
281
     0
  0
CLASS
  1
WIPEOUT
  2
AcDbWipeout
  3
WipeOut|AutoCAD Express Tool|expresstools@autodesk.com
 90
      127
 91
        4
280
     0
281
     1
  0
ENDSEC
  0
SECTION
  2
TABLES
  0
TABLE
  2
VPORT
  5
8
330
0
100
AcDbSymbolTable
 70
     1
  0
VPORT
  5
29
330
8
100
AcDbSymbolTableRecord
100
AcDbViewportTableRecord
  2
*Active
 70
     0
 10
0.0
 20
0.0
 11
1.0
 21
1.0
 12
484.655976296439
 22
113.376806903712
 13
0.0
 23
0.0
 14
10.0
 24
10.0
 15
10.0
 25
10.0
 16
0.0
 26
0.0
 36
1.0
 17
0.0
 27
0.0
 37
0.0
 40
153.549
 41
2.466380350235
 42
50.0
 43
0.0
 44
0.0
 50
0.0
 51
0.0
 71
     0
 72
   100
 73
     1
 74
     3
 75
     0
 76
     0
 77
     0
 78
     0
281
     0
 65
     1
110
0.0
120
0.0
130
0.0
111
1.0
121
0.0
131
0.0
112
0.0
122
1.0
132
0.0
 79
     0
146
0.0
  0
ENDTAB
  0
TABLE
  2
LTYPE
  5
5
330
0
100
AcDbSymbolTable
 70
     3
  0
LTYPE
  5
14
330
5
100
AcDbSymbolTableRecord
100
AcDbLinetypeTableRecord
  2
ByBlock
 70
     0
  3

 72
    65
 73
     0
 40
0.0
  0
LTYPE
  5
15
330
5
100
AcDbSymbolTableRecord
100
AcDbLinetypeTableRecord
  2
ByLayer
 70
     0
  3

 72
    65
 73
     0
 40
0.0
  0
LTYPE
  5
16
330
5
100
AcDbSymbolTableRecord
100
AcDbLinetypeTableRecord
  2
Continuous
 70
     0
  3
Solid line
 72
    65
 73
     0
 40
0.0
  0
LTYPE
  5
40
330
5
100
AcDbSymbolTableRecord
100
AcDbLinetypeTableRecord
  2
AUSGEZOGEN
 70
     0
  3

 72
    65
 73
     0
 40
0.0
  0
LTYPE
  5
43
330
5
100
AcDbSymbolTableRecord
100
AcDbLinetypeTableRecord
  2
DASHDOT
 70
     0
  3

 72
    65
 73
     4
 40
1.0
 49
0.5
 74
     0
 49
-0.25
 74
     0
 49
0.0
 74
     0
 49
-0.25
 74
     0
  0
ENDTAB
  0
TABLE
  2
LAYER
  5
2
330
0
100
AcDbSymbolTable
 70
   257
  0
LAYER
  5
10
330
2
100
AcDbSymbolTableRecord
100
AcDbLayerTableRecord
  2
0
 70
     0
 62
     7
  6
Continuous
370
    -3
390
F
  0
LAYER
  5
45
330
2
100
AcDbSymbolTableRecord
100
AcDbLayerTableRecord
  2
Layer0
 70
     0
 62
     7
  6
Continuous
370
    -3
390
F
  0
LAYER
  5
46
330
2
100
AcDbSymbolTableRecord
100
AcDbLayerTableRecord
  2
Stammform
 70
     0
 62
     7
  6
Continuous
370
    -3
390
F
  0
LAYER
  5
47
330
2
100
AcDbSymbolTableRecord
100
AcDbLayerTableRecord
  2
Formteil
 70
     0
 62
     7
  6
Continuous
370
    -3
390
F
  0
LAYER
  5
48
330
2
100
AcDbSymbolTableRecord
100
AcDbLayerTableRecord
  2
Kühlsystem
 70
     0
 62
     7
  6
Continuous
370
    -3
390
F
  0
LAYER
  5
49
330
2
100
AcDbSymbolTableRecord
100
AcDbLayerTableRecord
  2
Auswerfsystem
 70
     0
 62
     7
  6
Continuous
370
    -3
390
F
  0
LAYER
  5
4A
330
2
100
AcDbSymbolTableRecord
100
AcDbLayerTableRecord
  2
Text
 70
     0
 62
     7
  6
Continuous
370
    -3
390
F
  0
LAYER
  5
4B
330
2
100
AcDbSymbolTableRecord
100
AcDbLayerTableRecord
  2
Schraffur
 70
     0
 62
     7
  6
Continuous
370
    -3
390
F
  0
LAYER
  5
4C
330
2
100
AcDbSymbolTableRecord
100
AcDbLayerTableRecord
  2
Bemaßung
 70
     0
 62
     7
  6
Continuous
370
    -3
390
F
  0
LAYER
  5
4D
330
2
100
AcDbSymbolTableRecord
100
AcDbLayerTableRecord
  2
Heißkanal
 70
     0
 62
     7
  6
Continuous
370
    -3
390
F
  0
LAYER
  5
4E
330
2
100
AcDbSymbolTableRecord
100
AcDbLayerTableRecord
  2
Layer9
 70
     0
 62
     7
  6
Continuous
370
    -3
390
F
  0
LAYER
  5
4F
330
2
100
AcDbSymbolTableRecord
100
AcDbLayerTableRecord
  2
Hilsgeometrie
 70
     0
 62
     7
  6
Continuous
370
    -3
390
F
  0
LAYER
  5
50
330
2
100
AcDbSymbolTableRecord
100
AcDbLayerTableRecord
  2
Layer11
 70
     0
 62
     7
  6
Continuous
370
    -3
390
F
  0
LAYER
  5
51
330
2
100
AcDbSymbolTableRecord
100
AcDbLayerTableRecord
  2
Layer12
 70
     0
 62
     7
  6
Continuous
370
    -3
390
F
  0
LAYER
  5
52
330
2
100
AcDbSymbolTableRecord
100
AcDbLayerTableRecord
  2
Layer13
 70
     0
 62
     7
  6
Continuous
370
    -3
390
F
  0
LAYER
  5
53
330
2
100
AcDbSymbolTableRecord
100
AcDbLayerTableRecord
  2
Layer14
 70
     0
 62
     7
  6
Continuous
370
    -3
390
F
  0
LAYER
  5
54
330
2
100
AcDbSymbolTableRecord
100
AcDbLayerTableRecord
  2
Layer15
 70
     0
 62
     7
  6
Continuous
370
    -3
390
F
  0
LAYER
  5
55
330
2
100
AcDbSymbolTableRecord
100
AcDbLayerTableRecord
  2
Layer16
 70
     0
 62
     7
  6
Continuous
370
    -3
390
F
  0
LAYER
  5
56
330
2
100
AcDbSymbolTableRecord
100
AcDbLayerTableRecord
  2
Layer17
 70
     0
 62
     7
  6
Continuous
370
    -3
390
F
  0
LAYER
  5
57
330
2
100
AcDbSymbolTableRecord
100
AcDbLayerTableRecord
  2
Layer18
 70
     0
 62
     7
  6
Continuous
370
    -3
390
F
  0
LAYER
  5
58
330
2
100
AcDbSymbolTableRecord
100
AcDbLayerTableRecord
  2
Layer19
 70
     0
 62
     7
  6
Continuous
370
    -3
390
F
  0
LAYER
  5
59
330
2
100
AcDbSymbolTableRecord
100
AcDbLayerTableRecord
  2
Layer20
 70
     0
 62
     7
  6
Continuous
370
    -3
390
F
  0
LAYER
  5
5A
330
2
100
AcDbSymbolTableRecord
100
AcDbLayerTableRecord
  2
Layer21
 70
     0
 62
     7
  6
Continuous
370
    -3
390
F
  0
LAYER
  5
5B
330
2
100
AcDbSymbolTableRecord
100
AcDbLayerTableRecord
  2
Layer22
 70
     0
 62
     7
  6
Continuous
370
    -3
390
F
  0
LAYER
  5
5C
330
2
100
AcDbSymbolTableRecord
100
AcDbLayerTableRecord
  2
Layer23
 70
     0
 62
     7
  6
Continuous
370
    -3
390
F
  0
LAYER
  5
5D
330
2
100
AcDbSymbolTableRecord
100
AcDbLayerTableRecord
  2
Layer24
 70
     0
 62
     7
  6
Continuous
370
    -3
390
F
  0
LAYER
  5
5E
330
2
100
AcDbSymbolTableRecord
100
AcDbLayerTableRecord
  2
Layer25
 70
     0
 62
     7
  6
Continuous
370
    -3
390
F
  0
LAYER
  5
5F
330
2
100
AcDbSymbolTableRecord
100
AcDbLayerTableRecord
  2
Layer26
 70
     0
 62
     7
  6
Continuous
370
    -3
390
F
  0
LAYER
  5
60
330
2
100
AcDbSymbolTableRecord
100
AcDbLayerTableRecord
  2
Layer27
 70
     0
 62
     7
  6
Continuous
370
    -3
390
F
  0
LAYER
  5
61
330
2
100
AcDbSymbolTableRecord
100
AcDbLayerTableRecord
  2
Layer28
 70
     0
 62
     7
  6
Continuous
370
    -3
390
F
  0
LAYER
  5
62
330
2
100
AcDbSymbolTableRecord
100
AcDbLayerTableRecord
  2
Layer29
 70
     0
 62
     7
  6
Continuous
370
    -3
390
F
  0
LAYER
  5
63
330
2
100
AcDbSymbolTableRecord
100
AcDbLayerTableRecord
  2
Layer30
 70
     0
 62
     7
  6
Continuous
370
    -3
390
F
  0
LAYER
  5
64
330
2
100
AcDbSymbolTableRecord
100
AcDbLayerTableRecord
  2
Layer31
 70
     0
 62
     7
  6
Continuous
370
    -3
390
F
  0
LAYER
  5
65
330
2
100
AcDbSymbolTableRecord
100
AcDbLayerTableRecord
  2
Layer32
 70
     0
 62
     7
  6
Continuous
370
    -3
390
F
  0
LAYER
  5
66
330
2
100
AcDbSymbolTableRecord
100
AcDbLayerTableRecord
  2
Layer33
 70
     0
 62
     7
  6
Continuous
370
    -3
390
F
  0
LAYER
  5
67
330
2
100
AcDbSymbolTableRecord
100
AcDbLayerTableRecord
  2
Layer34
 70
     0
 62
     7
  6
Continuous
370
    -3
390
F
  0
LAYER
  5
68
330
2
100
AcDbSymbolTableRecord
100
AcDbLayerTableRecord
  2
Layer35
 70
     0
 62
     7
  6
Continuous
370
    -3
390
F
  0
LAYER
  5
69
330
2
100
AcDbSymbolTableRecord
100
AcDbLayerTableRecord
  2
Layer36
 70
     0
 62
     7
  6
Continuous
370
    -3
390
F
  0
LAYER
  5
6A
330
2
100
AcDbSymbolTableRecord
100
AcDbLayerTableRecord
  2
Layer37
 70
     0
 62
     7
  6
Continuous
370
    -3
390
F
  0
LAYER
  5
6B
330
2
100
AcDbSymbolTableRecord
100
AcDbLayerTableRecord
  2
Layer38
 70
     0
 62
     7
  6
Continuous
370
    -3
390
F
  0
LAYER
  5
6C
330
2
100
AcDbSymbolTableRecord
100
AcDbLayerTableRecord
  2
Layer39
 70
     0
 62
     7
  6
Continuous
370
    -3
390
F
  0
LAYER
  5
6D
330
2
100
AcDbSymbolTableRecord
100
AcDbLayerTableRecord
  2
Layer40
 70
     0
 62
     7
  6
Continuous
370
    -3
390
F
  0
LAYER
  5
6E
330
2
100
AcDbSymbolTableRecord
100
AcDbLayerTableRecord
  2
Layer41
 70
     0
 62
     7
  6
Continuous
370
    -3
390
F
  0
LAYER
  5
6F
330
2
100
AcDbSymbolTableRecord
100
AcDbLayerTableRecord
  2
Layer42
 70
     0
 62
     7
  6
Continuous
370
    -3
390
F
  0
LAYER
  5
70
330
2
100
AcDbSymbolTableRecord
100
AcDbLayerTableRecord
  2
Layer43
 70
     0
 62
     7
  6
Continuous
370
    -3
390
F
  0
LAYER
  5
71
330
2
100
AcDbSymbolTableRecord
100
AcDbLayerTableRecord
  2
Layer44
 70
     0
 62
     7
  6
Continuous
370
    -3
390
F
  0
LAYER
  5
72
330
2
100
AcDbSymbolTableRecord
100
AcDbLayerTableRecord
  2
Layer45
 70
     0
 62
     7
  6
Continuous
370
    -3
390
F
  0
LAYER
  5
73
330
2
100
AcDbSymbolTableRecord
100
AcDbLayerTableRecord
  2
Layer46
 70
     0
 62
     7
  6
Continuous
370
    -3
390
F
  0
LAYER
  5
74
330
2
100
AcDbSymbolTableRecord
100
AcDbLayerTableRecord
  2
Layer47
 70
     0
 62
     7
  6
Continuous
370
    -3
390
F
  0
LAYER
  5
75
330
2
100
AcDbSymbolTableRecord
100
AcDbLayerTableRecord
  2
Layer48
 70
     0
 62
     7
  6
Continuous
370
    -3
390
F
  0
LAYER
  5
76
330
2
100
AcDbSymbolTableRecord
100
AcDbLayerTableRecord
  2
Layer49
 70
     0
 62
     7
  6
Continuous
370
    -3
390
F
  0
LAYER
  5
77
330
2
100
AcDbSymbolTableRecord
100
AcDbLayerTableRecord
  2
Layer50
 70
     0
 62
     7
  6
Continuous
370
    -3
390
F
  0
LAYER
  5
78
330
2
100
AcDbSymbolTableRecord
100
AcDbLayerTableRecord
  2
Layer51
 70
     0
 62
     7
  6
Continuous
370
    -3
390
F
  0
LAYER
  5
79
330
2
100
AcDbSymbolTableRecord
100
AcDbLayerTableRecord
  2
Layer52
 70
     0
 62
     7
  6
Continuous
370
    -3
390
F
  0
LAYER
  5
7A
330
2
100
AcDbSymbolTableRecord
100
AcDbLayerTableRecord
  2
Layer53
 70
     0
 62
     7
  6
Continuous
370
    -3
390
F
  0
LAYER
  5
7B
330
2
100
AcDbSymbolTableRecord
100
AcDbLayerTableRecord
  2
Layer54
 70
     0
 62
     7
  6
Continuous
370
    -3
390
F
  0
LAYER
  5
7C
330
2
100
AcDbSymbolTableRecord
100
AcDbLayerTableRecord
  2
Layer55
 70
     0
 62
     7
  6
Continuous
370
    -3
390
F
  0
LAYER
  5
7D
330
2
100
AcDbSymbolTableRecord
100
AcDbLayerTableRecord
  2
Layer56
 70
     0
 62
     7
  6
Continuous
370
    -3
390
F
  0
LAYER
  5
7E
330
2
100
AcDbSymbolTableRecord
100
AcDbLayerTableRecord
  2
Layer57
 70
     0
 62
     7
  6
Continuous
370
    -3
390
F
  0
LAYER
  5
7F
330
2
100
AcDbSymbolTableRecord
100
AcDbLayerTableRecord
  2
Layer58
 70
     0
 62
     7
  6
Continuous
370
    -3
390
F
  0
LAYER
  5
80
330
2
100
AcDbSymbolTableRecord
100
AcDbLayerTableRecord
  2
Layer59
 70
     0
 62
     7
  6
Continuous
370
    -3
390
F
  0
LAYER
  5
81
330
2
100
AcDbSymbolTableRecord
100
AcDbLayerTableRecord
  2
Layer60
 70
     0
 62
     7
  6
Continuous
370
    -3
390
F
  0
LAYER
  5
82
330
2
100
AcDbSymbolTableRecord
100
AcDbLayerTableRecord
  2
Layer61
 70
     0
 62
     7
  6
Continuous
370
    -3
390
F
  0
LAYER
  5
83
330
2
100
AcDbSymbolTableRecord
100
AcDbLayerTableRecord
  2
Layer62
 70
     0
 62
     7
  6
Continuous
370
    -3
390
F
  0
LAYER
  5
84
330
2
100
AcDbSymbolTableRecord
100
AcDbLayerTableRecord
  2
Layer63
 70
     0
 62
     7
  6
Continuous
370
    -3
390
F
  0
LAYER
  5
85
330
2
100
AcDbSymbolTableRecord
100
AcDbLayerTableRecord
  2
Layer64
 70
     0
 62
     7
  6
Continuous
370
    -3
390
F
  0
LAYER
  5
86
330
2
100
AcDbSymbolTableRecord
100
AcDbLayerTableRecord
  2
Layer65
 70
     0
 62
     7
  6
Continuous
370
    -3
390
F
  0
LAYER
  5
87
330
2
100
AcDbSymbolTableRecord
100
AcDbLayerTableRecord
  2
Layer66
 70
     0
 62
     7
  6
Continuous
370
    -3
390
F
  0
LAYER
  5
88
330
2
100
AcDbSymbolTableRecord
100
AcDbLayerTableRecord
  2
Layer67
 70
     0
 62
     7
  6
Continuous
370
    -3
390
F
  0
LAYER
  5
89
330
2
100
AcDbSymbolTableRecord
100
AcDbLayerTableRecord
  2
Layer68
 70
     0
 62
     7
  6
Continuous
370
    -3
390
F
  0
LAYER
  5
8A
330
2
100
AcDbSymbolTableRecord
100
AcDbLayerTableRecord
  2
Layer69
 70
     0
 62
     7
  6
Continuous
370
    -3
390
F
  0
LAYER
  5
8B
330
2
100
AcDbSymbolTableRecord
100
AcDbLayerTableRecord
  2
Layer70
 70
     0
 62
     7
  6
Continuous
370
    -3
390
F
  0
LAYER
  5
8C
330
2
100
AcDbSymbolTableRecord
100
AcDbLayerTableRecord
  2
Layer71
 70
     0
 62
     7
  6
Continuous
370
    -3
390
F
  0
LAYER
  5
8D
330
2
100
AcDbSymbolTableRecord
100
AcDbLayerTableRecord
  2
Layer72
 70
     0
 62
     7
  6
Continuous
370
    -3
390
F
  0
LAYER
  5
8E
330
2
100
AcDbSymbolTableRecord
100
AcDbLayerTableRecord
  2
Layer73
 70
     0
 62
     7
  6
Continuous
370
    -3
390
F
  0
LAYER
  5
8F
330
2
100
AcDbSymbolTableRecord
100
AcDbLayerTableRecord
  2
Layer74
 70
     0
 62
     7
  6
Continuous
370
    -3
390
F
  0
LAYER
  5
90
330
2
100
AcDbSymbolTableRecord
100
AcDbLayerTableRecord
  2
Layer75
 70
     0
 62
     7
  6
Continuous
370
    -3
390
F
  0
LAYER
  5
91
330
2
100
AcDbSymbolTableRecord
100
AcDbLayerTableRecord
  2
Layer76
 70
     0
 62
     7
  6
Continuous
370
    -3
390
F
  0
LAYER
  5
92
330
2
100
AcDbSymbolTableRecord
100
AcDbLayerTableRecord
  2
Layer77
 70
     0
 62
     7
  6
Continuous
370
    -3
390
F
  0
LAYER
  5
93
330
2
100
AcDbSymbolTableRecord
100
AcDbLayerTableRecord
  2
Layer78
 70
     0
 62
     7
  6
Continuous
370
    -3
390
F
  0
LAYER
  5
94
330
2
100
AcDbSymbolTableRecord
100
AcDbLayerTableRecord
  2
Layer79
 70
     0
 62
     7
  6
Continuous
370
    -3
390
F
  0
LAYER
  5
95
330
2
100
AcDbSymbolTableRecord
100
AcDbLayerTableRecord
  2
Layer80
 70
     0
 62
     7
  6
Continuous
370
    -3
390
F
  0
LAYER
  5
96
330
2
100
AcDbSymbolTableRecord
100
AcDbLayerTableRecord
  2
Layer81
 70
     0
 62
     7
  6
Continuous
370
    -3
390
F
  0
LAYER
  5
97
330
2
100
AcDbSymbolTableRecord
100
AcDbLayerTableRecord
  2
Layer82
 70
     0
 62
     7
  6
Continuous
370
    -3
390
F
  0
LAYER
  5
98
330
2
100
AcDbSymbolTableRecord
100
AcDbLayerTableRecord
  2
Layer83
 70
     0
 62
     7
  6
Continuous
370
    -3
390
F
  0
LAYER
  5
99
330
2
100
AcDbSymbolTableRecord
100
AcDbLayerTableRecord
  2
Layer84
 70
     0
 62
     7
  6
Continuous
370
    -3
390
F
  0
LAYER
  5
9A
330
2
100
AcDbSymbolTableRecord
100
AcDbLayerTableRecord
  2
Layer85
 70
     0
 62
     7
  6
Continuous
370
    -3
390
F
  0
LAYER
  5
9B
330
2
100
AcDbSymbolTableRecord
100
AcDbLayerTableRecord
  2
Layer86
 70
     0
 62
     7
  6
Continuous
370
    -3
390
F
  0
LAYER
  5
9C
330
2
100
AcDbSymbolTableRecord
100
AcDbLayerTableRecord
  2
Layer87
 70
     0
 62
     7
  6
Continuous
370
    -3
390
F
  0
LAYER
  5
9D
330
2
100
AcDbSymbolTableRecord
100
AcDbLayerTableRecord
  2
Layer88
 70
     0
 62
     7
  6
Continuous
370
    -3
390
F
  0
LAYER
  5
9E
330
2
100
AcDbSymbolTableRecord
100
AcDbLayerTableRecord
  2
Layer89
 70
     0
 62
     7
  6
Continuous
370
    -3
390
F
  0
LAYER
  5
9F
330
2
100
AcDbSymbolTableRecord
100
AcDbLayerTableRecord
  2
Layer90
 70
     0
 62
     7
  6
Continuous
370
    -3
390
F
  0
LAYER
  5
A0
330
2
100
AcDbSymbolTableRecord
100
AcDbLayerTableRecord
  2
Layer91
 70
     0
 62
     7
  6
Continuous
370
    -3
390
F
  0
LAYER
  5
A1
330
2
100
AcDbSymbolTableRecord
100
AcDbLayerTableRecord
  2
Layer92
 70
     0
 62
     7
  6
Continuous
370
    -3
390
F
  0
LAYER
  5
A2
330
2
100
AcDbSymbolTableRecord
100
AcDbLayerTableRecord
  2
Layer93
 70
     0
 62
     7
  6
Continuous
370
    -3
390
F
  0
LAYER
  5
A3
330
2
100
AcDbSymbolTableRecord
100
AcDbLayerTableRecord
  2
Layer94
 70
     0
 62
     7
  6
Continuous
370
    -3
390
F
  0
LAYER
  5
A4
330
2
100
AcDbSymbolTableRecord
100
AcDbLayerTableRecord
  2
Layer95
 70
     0
 62
     7
  6
Continuous
370
    -3
390
F
  0
LAYER
  5
A5
330
2
100
AcDbSymbolTableRecord
100
AcDbLayerTableRecord
  2
Layer96
 70
     0
 62
     7
  6
Continuous
370
    -3
390
F
  0
LAYER
  5
A6
330
2
100
AcDbSymbolTableRecord
100
AcDbLayerTableRecord
  2
Layer97
 70
     0
 62
     7
  6
Continuous
370
    -3
390
F
  0
LAYER
  5
A7
330
2
100
AcDbSymbolTableRecord
100
AcDbLayerTableRecord
  2
Layer98
 70
     0
 62
     7
  6
Continuous
370
    -3
390
F
  0
LAYER
  5
A8
330
2
100
AcDbSymbolTableRecord
100
AcDbLayerTableRecord
  2
Layer99
 70
     0
 62
     7
  6
Continuous
370
    -3
390
F
  0
LAYER
  5
A9
330
2
100
AcDbSymbolTableRecord
100
AcDbLayerTableRecord
  2
Layer100
 70
     0
 62
     7
  6
Continuous
370
    -3
390
F
  0
LAYER
  5
AA
330
2
100
AcDbSymbolTableRecord
100
AcDbLayerTableRecord
  2
Layer101
 70
     0
 62
     7
  6
Continuous
370
    -3
390
F
  0
LAYER
  5
AB
330
2
100
AcDbSymbolTableRecord
100
AcDbLayerTableRecord
  2
Layer102
 70
     0
 62
     7
  6
Continuous
370
    -3
390
F
  0
LAYER
  5
AC
330
2
100
AcDbSymbolTableRecord
100
AcDbLayerTableRecord
  2
Layer103
 70
     0
 62
     7
  6
Continuous
370
    -3
390
F
  0
LAYER
  5
AD
330
2
100
AcDbSymbolTableRecord
100
AcDbLayerTableRecord
  2
Layer104
 70
     0
 62
     7
  6
Continuous
370
    -3
390
F
  0
LAYER
  5
AE
330
2
100
AcDbSymbolTableRecord
100
AcDbLayerTableRecord
  2
Layer105
 70
     0
 62
     7
  6
Continuous
370
    -3
390
F
  0
LAYER
  5
AF
330
2
100
AcDbSymbolTableRecord
100
AcDbLayerTableRecord
  2
Layer106
 70
     0
 62
     7
  6
Continuous
370
    -3
390
F
  0
LAYER
  5
B0
330
2
100
AcDbSymbolTableRecord
100
AcDbLayerTableRecord
  2
Layer107
 70
     0
 62
     7
  6
Continuous
370
    -3
390
F
  0
LAYER
  5
B1
330
2
100
AcDbSymbolTableRecord
100
AcDbLayerTableRecord
  2
Layer108
 70
     0
 62
     7
  6
Continuous
370
    -3
390
F
  0
LAYER
  5
B2
330
2
100
AcDbSymbolTableRecord
100
AcDbLayerTableRecord
  2
Layer109
 70
     0
 62
     7
  6
Continuous
370
    -3
390
F
  0
LAYER
  5
B3
330
2
100
AcDbSymbolTableRecord
100
AcDbLayerTableRecord
  2
Layer110
 70
     0
 62
     7
  6
Continuous
370
    -3
390
F
  0
LAYER
  5
B4
330
2
100
AcDbSymbolTableRecord
100
AcDbLayerTableRecord
  2
Layer111
 70
     0
 62
     7
  6
Continuous
370
    -3
390
F
  0
LAYER
  5
B5
330
2
100
AcDbSymbolTableRecord
100
AcDbLayerTableRecord
  2
Layer112
 70
     0
 62
     7
  6
Continuous
370
    -3
390
F
  0
LAYER
  5
B6
330
2
100
AcDbSymbolTableRecord
100
AcDbLayerTableRecord
  2
Layer113
 70
     0
 62
     7
  6
Continuous
370
    -3
390
F
  0
LAYER
  5
B7
330
2
100
AcDbSymbolTableRecord
100
AcDbLayerTableRecord
  2
Layer114
 70
     0
 62
     7
  6
Continuous
370
    -3
390
F
  0
LAYER
  5
B8
330
2
100
AcDbSymbolTableRecord
100
AcDbLayerTableRecord
  2
Layer115
 70
     0
 62
     7
  6
Continuous
370
    -3
390
F
  0
LAYER
  5
B9
330
2
100
AcDbSymbolTableRecord
100
AcDbLayerTableRecord
  2
Layer116
 70
     0
 62
     7
  6
Continuous
370
    -3
390
F
  0
LAYER
  5
BA
330
2
100
AcDbSymbolTableRecord
100
AcDbLayerTableRecord
  2
Layer117
 70
     0
 62
     7
  6
Continuous
370
    -3
390
F
  0
LAYER
  5
BB
330
2
100
AcDbSymbolTableRecord
100
AcDbLayerTableRecord
  2
Layer118
 70
     0
 62
     7
  6
Continuous
370
    -3
390
F
  0
LAYER
  5
BC
330
2
100
AcDbSymbolTableRecord
100
AcDbLayerTableRecord
  2
Layer119
 70
     0
 62
     7
  6
Continuous
370
    -3
390
F
  0
LAYER
  5
BD
330
2
100
AcDbSymbolTableRecord
100
AcDbLayerTableRecord
  2
Layer120
 70
     0
 62
     7
  6
Continuous
370
    -3
390
F
  0
LAYER
  5
BE
330
2
100
AcDbSymbolTableRecord
100
AcDbLayerTableRecord
  2
Layer121
 70
     0
 62
     7
  6
Continuous
370
    -3
390
F
  0
LAYER
  5
BF
330
2
100
AcDbSymbolTableRecord
100
AcDbLayerTableRecord
  2
Layer122
 70
     0
 62
     7
  6
Continuous
370
    -3
390
F
  0
LAYER
  5
C0
330
2
100
AcDbSymbolTableRecord
100
AcDbLayerTableRecord
  2
Layer123
 70
     0
 62
     7
  6
Continuous
370
    -3
390
F
  0
LAYER
  5
C1
330
2
100
AcDbSymbolTableRecord
100
AcDbLayerTableRecord
  2
Layer124
 70
     0
 62
     7
  6
Continuous
370
    -3
390
F
  0
LAYER
  5
C2
330
2
100
AcDbSymbolTableRecord
100
AcDbLayerTableRecord
  2
Layer125
 70
     0
 62
     7
  6
Continuous
370
    -3
390
F
  0
LAYER
  5
C3
330
2
100
AcDbSymbolTableRecord
100
AcDbLayerTableRecord
  2
Layer126
 70
     0
 62
     7
  6
Continuous
370
    -3
390
F
  0
LAYER
  5
C4
330
2
100
AcDbSymbolTableRecord
100
AcDbLayerTableRecord
  2
Layer127
 70
     0
 62
     7
  6
Continuous
370
    -3
390
F
  0
LAYER
  5
C5
330
2
100
AcDbSymbolTableRecord
100
AcDbLayerTableRecord
  2
Layer128
 70
     0
 62
     7
  6
Continuous
370
    -3
390
F
  0
LAYER
  5
C6
330
2
100
AcDbSymbolTableRecord
100
AcDbLayerTableRecord
  2
Layer129
 70
     0
 62
     7
  6
Continuous
370
    -3
390
F
  0
LAYER
  5
C7
330
2
100
AcDbSymbolTableRecord
100
AcDbLayerTableRecord
  2
Layer130
 70
     0
 62
     7
  6
Continuous
370
    -3
390
F
  0
LAYER
  5
C8
330
2
100
AcDbSymbolTableRecord
100
AcDbLayerTableRecord
  2
Layer131
 70
     0
 62
     7
  6
Continuous
370
    -3
390
F
  0
LAYER
  5
C9
330
2
100
AcDbSymbolTableRecord
100
AcDbLayerTableRecord
  2
Layer132
 70
     0
 62
     7
  6
Continuous
370
    -3
390
F
  0
LAYER
  5
CA
330
2
100
AcDbSymbolTableRecord
100
AcDbLayerTableRecord
  2
Layer133
 70
     0
 62
     7
  6
Continuous
370
    -3
390
F
  0
LAYER
  5
CB
330
2
100
AcDbSymbolTableRecord
100
AcDbLayerTableRecord
  2
Layer134
 70
     0
 62
     7
  6
Continuous
370
    -3
390
F
  0
LAYER
  5
CC
330
2
100
AcDbSymbolTableRecord
100
AcDbLayerTableRecord
  2
Layer135
 70
     0
 62
     7
  6
Continuous
370
    -3
390
F
  0
LAYER
  5
CD
330
2
100
AcDbSymbolTableRecord
100
AcDbLayerTableRecord
  2
Layer136
 70
     0
 62
     7
  6
Continuous
370
    -3
390
F
  0
LAYER
  5
CE
330
2
100
AcDbSymbolTableRecord
100
AcDbLayerTableRecord
  2
Layer137
 70
     0
 62
     7
  6
Continuous
370
    -3
390
F
  0
LAYER
  5
CF
330
2
100
AcDbSymbolTableRecord
100
AcDbLayerTableRecord
  2
Layer138
 70
     0
 62
     7
  6
Continuous
370
    -3
390
F
  0
LAYER
  5
D0
330
2
100
AcDbSymbolTableRecord
100
AcDbLayerTableRecord
  2
Layer139
 70
     0
 62
     7
  6
Continuous
370
    -3
390
F
  0
LAYER
  5
D1
330
2
100
AcDbSymbolTableRecord
100
AcDbLayerTableRecord
  2
Layer140
 70
     0
 62
     7
  6
Continuous
370
    -3
390
F
  0
LAYER
  5
D2
330
2
100
AcDbSymbolTableRecord
100
AcDbLayerTableRecord
  2
Layer141
 70
     0
 62
     7
  6
Continuous
370
    -3
390
F
  0
LAYER
  5
D3
330
2
100
AcDbSymbolTableRecord
100
AcDbLayerTableRecord
  2
Layer142
 70
     0
 62
     7
  6
Continuous
370
    -3
390
F
  0
LAYER
  5
D4
330
2
100
AcDbSymbolTableRecord
100
AcDbLayerTableRecord
  2
Layer143
 70
     0
 62
     7
  6
Continuous
370
    -3
390
F
  0
LAYER
  5
D5
330
2
100
AcDbSymbolTableRecord
100
AcDbLayerTableRecord
  2
Layer144
 70
     0
 62
     7
  6
Continuous
370
    -3
390
F
  0
LAYER
  5
D6
330
2
100
AcDbSymbolTableRecord
100
AcDbLayerTableRecord
  2
Layer145
 70
     0
 62
     7
  6
Continuous
370
    -3
390
F
  0
LAYER
  5
D7
330
2
100
AcDbSymbolTableRecord
100
AcDbLayerTableRecord
  2
Layer146
 70
     0
 62
     7
  6
Continuous
370
    -3
390
F
  0
LAYER
  5
D8
330
2
100
AcDbSymbolTableRecord
100
AcDbLayerTableRecord
  2
Layer147
 70
     0
 62
     7
  6
Continuous
370
    -3
390
F
  0
LAYER
  5
D9
330
2
100
AcDbSymbolTableRecord
100
AcDbLayerTableRecord
  2
Layer148
 70
     0
 62
     7
  6
Continuous
370
    -3
390
F
  0
LAYER
  5
DA
330
2
100
AcDbSymbolTableRecord
100
AcDbLayerTableRecord
  2
Layer149
 70
     0
 62
     7
  6
Continuous
370
    -3
390
F
  0
LAYER
  5
DB
330
2
100
AcDbSymbolTableRecord
100
AcDbLayerTableRecord
  2
Layer150
 70
     0
 62
     7
  6
Continuous
370
    -3
390
F
  0
LAYER
  5
DC
330
2
100
AcDbSymbolTableRecord
100
AcDbLayerTableRecord
  2
Layer151
 70
     0
 62
     7
  6
Continuous
370
    -3
390
F
  0
LAYER
  5
DD
330
2
100
AcDbSymbolTableRecord
100
AcDbLayerTableRecord
  2
Layer152
 70
     0
 62
     7
  6
Continuous
370
    -3
390
F
  0
LAYER
  5
DE
330
2
100
AcDbSymbolTableRecord
100
AcDbLayerTableRecord
  2
Layer153
 70
     0
 62
     7
  6
Continuous
370
    -3
390
F
  0
LAYER
  5
DF
330
2
100
AcDbSymbolTableRecord
100
AcDbLayerTableRecord
  2
Layer154
 70
     0
 62
     7
  6
Continuous
370
    -3
390
F
  0
LAYER
  5
E0
330
2
100
AcDbSymbolTableRecord
100
AcDbLayerTableRecord
  2
Layer155
 70
     0
 62
     7
  6
Continuous
370
    -3
390
F
  0
LAYER
  5
E1
330
2
100
AcDbSymbolTableRecord
100
AcDbLayerTableRecord
  2
Layer156
 70
     0
 62
     7
  6
Continuous
370
    -3
390
F
  0
LAYER
  5
E2
330
2
100
AcDbSymbolTableRecord
100
AcDbLayerTableRecord
  2
Layer157
 70
     0
 62
     7
  6
Continuous
370
    -3
390
F
  0
LAYER
  5
E3
330
2
100
AcDbSymbolTableRecord
100
AcDbLayerTableRecord
  2
Layer158
 70
     0
 62
     7
  6
Continuous
370
    -3
390
F
  0
LAYER
  5
E4
330
2
100
AcDbSymbolTableRecord
100
AcDbLayerTableRecord
  2
Layer159
 70
     0
 62
     7
  6
Continuous
370
    -3
390
F
  0
LAYER
  5
E5
330
2
100
AcDbSymbolTableRecord
100
AcDbLayerTableRecord
  2
Layer160
 70
     0
 62
     7
  6
Continuous
370
    -3
390
F
  0
LAYER
  5
E6
330
2
100
AcDbSymbolTableRecord
100
AcDbLayerTableRecord
  2
Layer161
 70
     0
 62
     7
  6
Continuous
370
    -3
390
F
  0
LAYER
  5
E7
330
2
100
AcDbSymbolTableRecord
100
AcDbLayerTableRecord
  2
Layer162
 70
     0
 62
     7
  6
Continuous
370
    -3
390
F
  0
LAYER
  5
E8
330
2
100
AcDbSymbolTableRecord
100
AcDbLayerTableRecord
  2
Layer163
 70
     0
 62
     7
  6
Continuous
370
    -3
390
F
  0
LAYER
  5
E9
330
2
100
AcDbSymbolTableRecord
100
AcDbLayerTableRecord
  2
Layer164
 70
     0
 62
     7
  6
Continuous
370
    -3
390
F
  0
LAYER
  5
EA
330
2
100
AcDbSymbolTableRecord
100
AcDbLayerTableRecord
  2
Layer165
 70
     0
 62
     7
  6
Continuous
370
    -3
390
F
  0
LAYER
  5
EB
330
2
100
AcDbSymbolTableRecord
100
AcDbLayerTableRecord
  2
Layer166
 70
     0
 62
     7
  6
Continuous
370
    -3
390
F
  0
LAYER
  5
EC
330
2
100
AcDbSymbolTableRecord
100
AcDbLayerTableRecord
  2
Layer167
 70
     0
 62
     7
  6
Continuous
370
    -3
390
F
  0
LAYER
  5
ED
330
2
100
AcDbSymbolTableRecord
100
AcDbLayerTableRecord
  2
Layer168
 70
     0
 62
     7
  6
Continuous
370
    -3
390
F
  0
LAYER
  5
EE
330
2
100
AcDbSymbolTableRecord
100
AcDbLayerTableRecord
  2
Layer169
 70
     0
 62
     7
  6
Continuous
370
    -3
390
F
  0
LAYER
  5
EF
330
2
100
AcDbSymbolTableRecord
100
AcDbLayerTableRecord
  2
Layer170
 70
     0
 62
     7
  6
Continuous
370
    -3
390
F
  0
LAYER
  5
F0
330
2
100
AcDbSymbolTableRecord
100
AcDbLayerTableRecord
  2
Layer171
 70
     0
 62
     7
  6
Continuous
370
    -3
390
F
  0
LAYER
  5
F1
330
2
100
AcDbSymbolTableRecord
100
AcDbLayerTableRecord
  2
Layer172
 70
     0
 62
     7
  6
Continuous
370
    -3
390
F
  0
LAYER
  5
F2
330
2
100
AcDbSymbolTableRecord
100
AcDbLayerTableRecord
  2
Layer173
 70
     0
 62
     7
  6
Continuous
370
    -3
390
F
  0
LAYER
  5
F3
330
2
100
AcDbSymbolTableRecord
100
AcDbLayerTableRecord
  2
Layer174
 70
     0
 62
     7
  6
Continuous
370
    -3
390
F
  0
LAYER
  5
F4
330
2
100
AcDbSymbolTableRecord
100
AcDbLayerTableRecord
  2
Layer175
 70
     0
 62
     7
  6
Continuous
370
    -3
390
F
  0
LAYER
  5
F5
330
2
100
AcDbSymbolTableRecord
100
AcDbLayerTableRecord
  2
Layer176
 70
     0
 62
     7
  6
Continuous
370
    -3
390
F
  0
LAYER
  5
F6
330
2
100
AcDbSymbolTableRecord
100
AcDbLayerTableRecord
  2
Layer177
 70
     0
 62
     7
  6
Continuous
370
    -3
390
F
  0
LAYER
  5
F7
330
2
100
AcDbSymbolTableRecord
100
AcDbLayerTableRecord
  2
Layer178
 70
     0
 62
     7
  6
Continuous
370
    -3
390
F
  0
LAYER
  5
F8
330
2
100
AcDbSymbolTableRecord
100
AcDbLayerTableRecord
  2
Layer179
 70
     0
 62
     7
  6
Continuous
370
    -3
390
F
  0
LAYER
  5
F9
330
2
100
AcDbSymbolTableRecord
100
AcDbLayerTableRecord
  2
Layer180
 70
     0
 62
     7
  6
Continuous
370
    -3
390
F
  0
LAYER
  5
FA
330
2
100
AcDbSymbolTableRecord
100
AcDbLayerTableRecord
  2
Layer181
 70
     0
 62
     7
  6
Continuous
370
    -3
390
F
  0
LAYER
  5
FB
330
2
100
AcDbSymbolTableRecord
100
AcDbLayerTableRecord
  2
Layer182
 70
     0
 62
     7
  6
Continuous
370
    -3
390
F
  0
LAYER
  5
FC
330
2
100
AcDbSymbolTableRecord
100
AcDbLayerTableRecord
  2
Layer183
 70
     0
 62
     7
  6
Continuous
370
    -3
390
F
  0
LAYER
  5
FD
330
2
100
AcDbSymbolTableRecord
100
AcDbLayerTableRecord
  2
Layer184
 70
     0
 62
     7
  6
Continuous
370
    -3
390
F
  0
LAYER
  5
FE
330
2
100
AcDbSymbolTableRecord
100
AcDbLayerTableRecord
  2
Layer185
 70
     0
 62
     7
  6
Continuous
370
    -3
390
F
  0
LAYER
  5
FF
330
2
100
AcDbSymbolTableRecord
100
AcDbLayerTableRecord
  2
Layer186
 70
     0
 62
     7
  6
Continuous
370
    -3
390
F
  0
LAYER
  5
100
330
2
100
AcDbSymbolTableRecord
100
AcDbLayerTableRecord
  2
Layer187
 70
     0
 62
     7
  6
Continuous
370
    -3
390
F
  0
LAYER
  5
101
330
2
100
AcDbSymbolTableRecord
100
AcDbLayerTableRecord
  2
Layer188
 70
     0
 62
     7
  6
Continuous
370
    -3
390
F
  0
LAYER
  5
102
330
2
100
AcDbSymbolTableRecord
100
AcDbLayerTableRecord
  2
Layer189
 70
     0
 62
     7
  6
Continuous
370
    -3
390
F
  0
LAYER
  5
103
330
2
100
AcDbSymbolTableRecord
100
AcDbLayerTableRecord
  2
Layer190
 70
     0
 62
     7
  6
Continuous
370
    -3
390
F
  0
LAYER
  5
104
330
2
100
AcDbSymbolTableRecord
100
AcDbLayerTableRecord
  2
Layer191
 70
     0
 62
     7
  6
Continuous
370
    -3
390
F
  0
LAYER
  5
105
330
2
100
AcDbSymbolTableRecord
100
AcDbLayerTableRecord
  2
Layer192
 70
     0
 62
     7
  6
Continuous
370
    -3
390
F
  0
LAYER
  5
106
330
2
100
AcDbSymbolTableRecord
100
AcDbLayerTableRecord
  2
Layer193
 70
     0
 62
     7
  6
Continuous
370
    -3
390
F
  0
LAYER
  5
107
330
2
100
AcDbSymbolTableRecord
100
AcDbLayerTableRecord
  2
Layer194
 70
     0
 62
     7
  6
Continuous
370
    -3
390
F
  0
LAYER
  5
108
330
2
100
AcDbSymbolTableRecord
100
AcDbLayerTableRecord
  2
Layer195
 70
     0
 62
     7
  6
Continuous
370
    -3
390
F
  0
LAYER
  5
109
330
2
100
AcDbSymbolTableRecord
100
AcDbLayerTableRecord
  2
Layer196
 70
     0
 62
     7
  6
Continuous
370
    -3
390
F
  0
LAYER
  5
10A
330
2
100
AcDbSymbolTableRecord
100
AcDbLayerTableRecord
  2
Layer197
 70
     0
 62
     7
  6
Continuous
370
    -3
390
F
  0
LAYER
  5
10B
330
2
100
AcDbSymbolTableRecord
100
AcDbLayerTableRecord
  2
Layer198
 70
     0
 62
     7
  6
Continuous
370
    -3
390
F
  0
LAYER
  5
10C
330
2
100
AcDbSymbolTableRecord
100
AcDbLayerTableRecord
  2
Layer199
 70
     0
 62
     7
  6
Continuous
370
    -3
390
F
  0
LAYER
  5
10D
330
2
100
AcDbSymbolTableRecord
100
AcDbLayerTableRecord
  2
Layer200
 70
     0
 62
     7
  6
Continuous
370
    -3
390
F
  0
LAYER
  5
10E
330
2
100
AcDbSymbolTableRecord
100
AcDbLayerTableRecord
  2
Layer201
 70
     0
 62
     7
  6
Continuous
370
    -3
390
F
  0
LAYER
  5
10F
330
2
100
AcDbSymbolTableRecord
100
AcDbLayerTableRecord
  2
Layer202
 70
     0
 62
     7
  6
Continuous
370
    -3
390
F
  0
LAYER
  5
110
330
2
100
AcDbSymbolTableRecord
100
AcDbLayerTableRecord
  2
Layer203
 70
     0
 62
     7
  6
Continuous
370
    -3
390
F
  0
LAYER
  5
111
330
2
100
AcDbSymbolTableRecord
100
AcDbLayerTableRecord
  2
Layer204
 70
     0
 62
     7
  6
Continuous
370
    -3
390
F
  0
LAYER
  5
112
330
2
100
AcDbSymbolTableRecord
100
AcDbLayerTableRecord
  2
Layer205
 70
     0
 62
     7
  6
Continuous
370
    -3
390
F
  0
LAYER
  5
113
330
2
100
AcDbSymbolTableRecord
100
AcDbLayerTableRecord
  2
Layer206
 70
     0
 62
     7
  6
Continuous
370
    -3
390
F
  0
LAYER
  5
114
330
2
100
AcDbSymbolTableRecord
100
AcDbLayerTableRecord
  2
Layer207
 70
     0
 62
     7
  6
Continuous
370
    -3
390
F
  0
LAYER
  5
115
330
2
100
AcDbSymbolTableRecord
100
AcDbLayerTableRecord
  2
Layer208
 70
     0
 62
     7
  6
Continuous
370
    -3
390
F
  0
LAYER
  5
116
330
2
100
AcDbSymbolTableRecord
100
AcDbLayerTableRecord
  2
Layer209
 70
     0
 62
     7
  6
Continuous
370
    -3
390
F
  0
LAYER
  5
117
330
2
100
AcDbSymbolTableRecord
100
AcDbLayerTableRecord
  2
Layer210
 70
     0
 62
     7
  6
Continuous
370
    -3
390
F
  0
LAYER
  5
118
330
2
100
AcDbSymbolTableRecord
100
AcDbLayerTableRecord
  2
Layer211
 70
     0
 62
     7
  6
Continuous
370
    -3
390
F
  0
LAYER
  5
119
330
2
100
AcDbSymbolTableRecord
100
AcDbLayerTableRecord
  2
Layer212
 70
     0
 62
     7
  6
Continuous
370
    -3
390
F
  0
LAYER
  5
11A
330
2
100
AcDbSymbolTableRecord
100
AcDbLayerTableRecord
  2
Layer213
 70
     0
 62
     7
  6
Continuous
370
    -3
390
F
  0
LAYER
  5
11B
330
2
100
AcDbSymbolTableRecord
100
AcDbLayerTableRecord
  2
Layer214
 70
     0
 62
     7
  6
Continuous
370
    -3
390
F
  0
LAYER
  5
11C
330
2
100
AcDbSymbolTableRecord
100
AcDbLayerTableRecord
  2
Layer215
 70
     0
 62
     7
  6
Continuous
370
    -3
390
F
  0
LAYER
  5
11D
330
2
100
AcDbSymbolTableRecord
100
AcDbLayerTableRecord
  2
Layer216
 70
     0
 62
     7
  6
Continuous
370
    -3
390
F
  0
LAYER
  5
11E
330
2
100
AcDbSymbolTableRecord
100
AcDbLayerTableRecord
  2
Layer217
 70
     0
 62
     7
  6
Continuous
370
    -3
390
F
  0
LAYER
  5
11F
330
2
100
AcDbSymbolTableRecord
100
AcDbLayerTableRecord
  2
Layer218
 70
     0
 62
     7
  6
Continuous
370
    -3
390
F
  0
LAYER
  5
120
330
2
100
AcDbSymbolTableRecord
100
AcDbLayerTableRecord
  2
Layer219
 70
     0
 62
     7
  6
Continuous
370
    -3
390
F
  0
LAYER
  5
121
330
2
100
AcDbSymbolTableRecord
100
AcDbLayerTableRecord
  2
Layer220
 70
     0
 62
     7
  6
Continuous
370
    -3
390
F
  0
LAYER
  5
122
330
2
100
AcDbSymbolTableRecord
100
AcDbLayerTableRecord
  2
Layer221
 70
     0
 62
     7
  6
Continuous
370
    -3
390
F
  0
LAYER
  5
123
330
2
100
AcDbSymbolTableRecord
100
AcDbLayerTableRecord
  2
Layer222
 70
     0
 62
     7
  6
Continuous
370
    -3
390
F
  0
LAYER
  5
124
330
2
100
AcDbSymbolTableRecord
100
AcDbLayerTableRecord
  2
Layer223
 70
     0
 62
     7
  6
Continuous
370
    -3
390
F
  0
LAYER
  5
125
330
2
100
AcDbSymbolTableRecord
100
AcDbLayerTableRecord
  2
Layer224
 70
     0
 62
     7
  6
Continuous
370
    -3
390
F
  0
LAYER
  5
126
330
2
100
AcDbSymbolTableRecord
100
AcDbLayerTableRecord
  2
Layer225
 70
     0
 62
     7
  6
Continuous
370
    -3
390
F
  0
LAYER
  5
127
330
2
100
AcDbSymbolTableRecord
100
AcDbLayerTableRecord
  2
Layer226
 70
     0
 62
     7
  6
Continuous
370
    -3
390
F
  0
LAYER
  5
128
330
2
100
AcDbSymbolTableRecord
100
AcDbLayerTableRecord
  2
Layer227
 70
     0
 62
     7
  6
Continuous
370
    -3
390
F
  0
LAYER
  5
129
330
2
100
AcDbSymbolTableRecord
100
AcDbLayerTableRecord
  2
Layer228
 70
     0
 62
     7
  6
Continuous
370
    -3
390
F
  0
LAYER
  5
12A
330
2
100
AcDbSymbolTableRecord
100
AcDbLayerTableRecord
  2
Layer229
 70
     0
 62
     7
  6
Continuous
370
    -3
390
F
  0
LAYER
  5
12B
330
2
100
AcDbSymbolTableRecord
100
AcDbLayerTableRecord
  2
Layer230
 70
     0
 62
     7
  6
Continuous
370
    -3
390
F
  0
LAYER
  5
12C
330
2
100
AcDbSymbolTableRecord
100
AcDbLayerTableRecord
  2
Layer231
 70
     0
 62
     7
  6
Continuous
370
    -3
390
F
  0
LAYER
  5
12D
330
2
100
AcDbSymbolTableRecord
100
AcDbLayerTableRecord
  2
Layer232
 70
     0
 62
     7
  6
Continuous
370
    -3
390
F
  0
LAYER
  5
12E
330
2
100
AcDbSymbolTableRecord
100
AcDbLayerTableRecord
  2
Layer233
 70
     0
 62
     7
  6
Continuous
370
    -3
390
F
  0
LAYER
  5
12F
330
2
100
AcDbSymbolTableRecord
100
AcDbLayerTableRecord
  2
Layer234
 70
     0
 62
     7
  6
Continuous
370
    -3
390
F
  0
LAYER
  5
130
330
2
100
AcDbSymbolTableRecord
100
AcDbLayerTableRecord
  2
Layer235
 70
     0
 62
     7
  6
Continuous
370
    -3
390
F
  0
LAYER
  5
131
330
2
100
AcDbSymbolTableRecord
100
AcDbLayerTableRecord
  2
Layer236
 70
     0
 62
     7
  6
Continuous
370
    -3
390
F
  0
LAYER
  5
132
330
2
100
AcDbSymbolTableRecord
100
AcDbLayerTableRecord
  2
Layer237
 70
     0
 62
     7
  6
Continuous
370
    -3
390
F
  0
LAYER
  5
133
330
2
100
AcDbSymbolTableRecord
100
AcDbLayerTableRecord
  2
Layer238
 70
     0
 62
     7
  6
Continuous
370
    -3
390
F
  0
LAYER
  5
134
330
2
100
AcDbSymbolTableRecord
100
AcDbLayerTableRecord
  2
Layer239
 70
     0
 62
     7
  6
Continuous
370
    -3
390
F
  0
LAYER
  5
135
330
2
100
AcDbSymbolTableRecord
100
AcDbLayerTableRecord
  2
Layer240
 70
     0
 62
     7
  6
Continuous
370
    -3
390
F
  0
LAYER
  5
136
330
2
100
AcDbSymbolTableRecord
100
AcDbLayerTableRecord
  2
Layer241
 70
     0
 62
     7
  6
Continuous
370
    -3
390
F
  0
LAYER
  5
137
330
2
100
AcDbSymbolTableRecord
100
AcDbLayerTableRecord
  2
Layer242
 70
     0
 62
     7
  6
Continuous
370
    -3
390
F
  0
LAYER
  5
138
330
2
100
AcDbSymbolTableRecord
100
AcDbLayerTableRecord
  2
Layer243
 70
     0
 62
     7
  6
Continuous
370
    -3
390
F
  0
LAYER
  5
139
330
2
100
AcDbSymbolTableRecord
100
AcDbLayerTableRecord
  2
Layer244
 70
     0
 62
     7
  6
Continuous
370
    -3
390
F
  0
LAYER
  5
13A
330
2
100
AcDbSymbolTableRecord
100
AcDbLayerTableRecord
  2
Layer245
 70
     0
 62
     7
  6
Continuous
370
    -3
390
F
  0
LAYER
  5
13B
330
2
100
AcDbSymbolTableRecord
100
AcDbLayerTableRecord
  2
Layer246
 70
     0
 62
     7
  6
Continuous
370
    -3
390
F
  0
LAYER
  5
13C
330
2
100
AcDbSymbolTableRecord
100
AcDbLayerTableRecord
  2
Layer247
 70
     0
 62
     7
  6
Continuous
370
    -3
390
F
  0
LAYER
  5
13D
330
2
100
AcDbSymbolTableRecord
100
AcDbLayerTableRecord
  2
Layer248
 70
     0
 62
     7
  6
Continuous
370
    -3
390
F
  0
LAYER
  5
13E
330
2
100
AcDbSymbolTableRecord
100
AcDbLayerTableRecord
  2
Layer249
 70
     0
 62
     7
  6
Continuous
370
    -3
390
F
  0
LAYER
  5
13F
330
2
100
AcDbSymbolTableRecord
100
AcDbLayerTableRecord
  2
Layer250
 70
     0
 62
     7
  6
Continuous
370
    -3
390
F
  0
LAYER
  5
140
330
2
100
AcDbSymbolTableRecord
100
AcDbLayerTableRecord
  2
Layer251
 70
     0
 62
     7
  6
Continuous
370
    -3
390
F
  0
LAYER
  5
141
330
2
100
AcDbSymbolTableRecord
100
AcDbLayerTableRecord
  2
Layer252
 70
     0
 62
     7
  6
Continuous
370
    -3
390
F
  0
LAYER
  5
142
330
2
100
AcDbSymbolTableRecord
100
AcDbLayerTableRecord
  2
Layer253
 70
     0
 62
     7
  6
Continuous
370
    -3
390
F
  0
LAYER
  5
143
330
2
100
AcDbSymbolTableRecord
100
AcDbLayerTableRecord
  2
Layer254
 70
     0
 62
     7
  6
Continuous
370
    -3
390
F
  0
LAYER
  5
144
330
2
100
AcDbSymbolTableRecord
100
AcDbLayerTableRecord
  2
Layer255
 70
     0
 62
     7
  6
Continuous
370
    -3
390
F
  0
ENDTAB
  0
TABLE
  2
STYLE
  5
3
330
0
100
AcDbSymbolTable
 70
     4
  0
STYLE
  5
11
330
3
100
AcDbSymbolTableRecord
100
AcDbTextStyleTableRecord
  2
Standard
 70
     0
 40
0.0
 41
1.0
 50
0.0
 71
     0
 42
2.5
  3
txt
  4

  0
STYLE
  5
41
330
3
100
AcDbSymbolTableRecord
100
AcDbTextStyleTableRecord
  2
Arial
 70
     0
 40
0.0
 41
1.0
 50
0.0
 71
     0
 42
0.2
  3
arial.ttf
  4

1001
ACAD
1000
Arial
1071
       34
  0
STYLE
  5
42
330
3
100
AcDbSymbolTableRecord
100
AcDbTextStyleTableRecord
  2
Arial Black
 70
     0
 40
0.0
 41
1.0
 50
0.0
 71
     0
 42
0.2
  3
ariblk.ttf
  4

1001
ACAD
1000
Arial Black
1071
       34
  0
STYLE
  5
44
330
3
100
AcDbSymbolTableRecord
100
AcDbTextStyleTableRecord
  2
Toleranzfont
 70
     0
 40
0.0
 41
1.0
 50
0.0
 71
     0
 42
0.2
  3
IGES1003.SHX
  4

  0
ENDTAB
  0
TABLE
  2
VIEW
  5
6
330
0
100
AcDbSymbolTable
 70
     0
  0
ENDTAB
  0
TABLE
  2
UCS
  5
7
330
0
100
AcDbSymbolTable
 70
     0
  0
ENDTAB
  0
TABLE
  2
APPID
  5
9
330
0
100
AcDbSymbolTable
 70
     1
  0
APPID
  5
12
330
9
100
AcDbSymbolTableRecord
100
AcDbRegAppTableRecord
  2
ACAD
 70
     0
  0
ENDTAB
  0
TABLE
  2
DIMSTYLE
  5
A
330
0
100
AcDbSymbolTable
 70
     1
100
AcDbDimStyleTable
  0
DIMSTYLE
105
27
102
{ACAD_REACTORS
330
323
330
33B
330
349
330
357
330
365
330
373
330
381
330
391
330
3B1
330
3D1
102
}
330
A
100
AcDbSymbolTableRecord
100
AcDbDimStyleTableRecord
  2
ISO-25
 70
     0
 41
2.5
 42
0.625
 43
3.75
 44
1.25
 73
     0
 74
     0
 77
     1
 78
     8
140
2.5
141
2.5
143
0.03937007874
147
0.625
171
     3
172
     1
178
     0
271
     2
272
     2
274
     3
278
    44
283
     0
284
     8
340
11
  0
ENDTAB
  0
TABLE
  2
BLOCK_RECORD
  5
1
330
0
100
AcDbSymbolTable
 70
    19
  0
BLOCK_RECORD
  5
1F
330
1
100
AcDbSymbolTableRecord
100
AcDbBlockTableRecord
  2
*Model_Space
340
22
  0
BLOCK_RECORD
  5
1B
330
1
100
AcDbSymbolTableRecord
100
AcDbBlockTableRecord
  2
*Paper_Space
340
1E
  0
BLOCK_RECORD
  5
23
330
1
100
AcDbSymbolTableRecord
100
AcDbBlockTableRecord
  2
*Paper_Space0
340
26
  0
BLOCK_RECORD
  5
145
330
1
100
AcDbSymbolTableRecord
100
AcDbBlockTableRecord
  2
A4_nNn00
340
0
102
{BLKREFS
331
19C
102
}
  0
BLOCK_RECORD
  5
150
330
1
100
AcDbSymbolTableRecord
100
AcDbBlockTableRecord
  2
Schriftfeld_nNn01
340
0
102
{BLKREFS
331
19B
102
}
  0
BLOCK_RECORD
  5
17C
330
1
100
AcDbSymbolTableRecord
100
AcDbBlockTableRecord
  2
ULTRAREFLEX_nNn02
340
0
102
{BLKREFS
331
194
102
}
  0
BLOCK_RECORD
  5
1C1
330
1
100
AcDbSymbolTableRecord
100
AcDbBlockTableRecord
  2
ingrid1_nNn03
340
0
102
{BLKREFS
331
311
102
}
  0
BLOCK_RECORD
  5
313
330
1
100
AcDbSymbolTableRecord
100
AcDbBlockTableRecord
  2
*D5
340
0
  0
BLOCK_RECORD
  5
324
330
1
100
AcDbSymbolTableRecord
100
AcDbBlockTableRecord
  2
_CLOSED
340
0
  0
BLOCK_RECORD
  5
32B
330
1
100
AcDbSymbolTableRecord
100
AcDbBlockTableRecord
  2
*D7
340
0
  0
BLOCK_RECORD
  5
33C
330
1
100
AcDbSymbolTableRecord
100
AcDbBlockTableRecord
  2
*D8
340
0
  0
BLOCK_RECORD
  5
34A
330
1
100
AcDbSymbolTableRecord
100
AcDbBlockTableRecord
  2
*D9
340
0
  0
BLOCK_RECORD
  5
358
330
1
100
AcDbSymbolTableRecord
100
AcDbBlockTableRecord
  2
*D10
340
0
  0
BLOCK_RECORD
  5
366
330
1
100
AcDbSymbolTableRecord
100
AcDbBlockTableRecord
  2
*D11
340
0
  0
BLOCK_RECORD
  5
374
330
1
100
AcDbSymbolTableRecord
100
AcDbBlockTableRecord
  2
*D12
340
0
  0
BLOCK_RECORD
  5
384
330
1
100
AcDbSymbolTableRecord
100
AcDbBlockTableRecord
  2
*D13
340
0
  0
BLOCK_RECORD
  5
39D
330
1
100
AcDbSymbolTableRecord
100
AcDbBlockTableRecord
  2
teat_nNn012
340
0
102
{BLKREFS
331
3A2
102
}
  0
BLOCK_RECORD
  5
3A4
330
1
100
AcDbSymbolTableRecord
100
AcDbBlockTableRecord
  2
*D15
340
0
  0
BLOCK_RECORD
  5
3B2
330
1
100
AcDbSymbolTableRecord
100
AcDbBlockTableRecord
  2
Reflexwerte_nNn014
340
0
102
{BLKREFS
331
3B6
102
}
  0
BLOCK_RECORD
  5
3B7
330
1
100
AcDbSymbolTableRecord
100
AcDbBlockTableRecord
  2
QS_nNn015
340
0
102
{BLKREFS
331
3BD
102
}
  0
BLOCK_RECORD
  5
3C1
330
1
100
AcDbSymbolTableRecord
100
AcDbBlockTableRecord
  2
*D18
340
0
  0
ENDTAB
  0
ENDSEC
  0
SECTION
  2
BLOCKS
  0
BLOCK
  5
20
330
1F
100
AcDbEntity
  8
0
100
AcDbBlockBegin
  2
*Model_Space
 70
     0
 10
0.0
 20
0.0
 30
0.0
  3
*Model_Space
  1

  0
ENDBLK
  5
21
330
1F
100
AcDbEntity
  8
0
100
AcDbBlockEnd
  0
BLOCK
  5
1C
330
1B
100
AcDbEntity
 67
     1
  8
0
100
AcDbBlockBegin
  2
*Paper_Space
 70
     0
 10
0.0
 20
0.0
 30
0.0
  3
*Paper_Space
  1

  0
ENDBLK
  5
1D
330
1B
100
AcDbEntity
 67
     1
  8
0
100
AcDbBlockEnd
  0
BLOCK
  5
24
330
23
100
AcDbEntity
  8
0
100
AcDbBlockBegin
  2
*Paper_Space0
 70
     0
 10
0.0
 20
0.0
 30
0.0
  3
*Paper_Space0
  1

  0
ENDBLK
  5
25
330
23
100
AcDbEntity
  8
0
100
AcDbBlockEnd
  0
BLOCK
  5
146
330
145
100
AcDbEntity
  8
0
100
AcDbBlockBegin
  2
A4_nNn00
 70
     0
 10
0.0
 20
0.0
 30
0.0
  3
A4_nNn00
  1

  0
LINE
  5
148
330
145
100
AcDbEntity
  8
Layer99
  6
AUSGEZOGEN
 62
     9
370
    18
100
AcDbLine
 10
437.655976296439
 20
45.931806903712
 30
0.0
 11
531.655976296439
 21
45.931806903712
 31
0.0
  0
LINE
  5
149
330
145
100
AcDbEntity
  8
Layer99
  6
AUSGEZOGEN
 62
     9
370
    18
100
AcDbLine
 10
531.655976296439
 20
45.931806903712
 30
0.0
 11
531.655976296439
 21
180.821806903712
 31
0.0
  0
LINE
  5
14A
330
145
100
AcDbEntity
  8
Layer0
  6
AUSGEZOGEN
 62
     9
370
    18
100
AcDbLine
 10
437.655976296439
 20
45.931806903712
 30
0.0
 11
437.655976296439
 21
180.821806903712
 31
0.0
  0
LINE
  5
14B
330
145
100
AcDbEntity
  8
Layer0
  6
AUSGEZOGEN
 62
     9
370
    18
100
AcDbLine
 10
437.655976296439
 20
180.821806903712
 30
0.0
 11
531.655976296439
 21
180.821806903712
 31
0.0
  0
LINE
  5
14C
330
145
100
AcDbEntity
  8
Layer0
  6
AUSGEZOGEN
 62
    56
370
    18
100
AcDbLine
 10
435.305976296439
 20
183.171806903712
 30
0.0
 11
534.005976296439
 21
183.171806903712
 31
0.0
  0
LINE
  5
14D
330
145
100
AcDbEntity
  8
Layer0
  6
AUSGEZOGEN
 62
    56
370
    18
100
AcDbLine
 10
435.305976296439
 20
43.581806903712
 30
0.0
 11
435.305976296439
 21
183.171806903712
 31
0.0
  0
LINE
  5
14E
330
145
100
AcDbEntity
  8
Layer0
  6
AUSGEZOGEN
 62
    56
370
    18
100
AcDbLine
 10
435.305976296439
 20
43.581806903712
 30
0.0
 11
534.005976296439
 21
43.581806903712
 31
0.0
  0
LINE
  5
14F
330
145
100
AcDbEntity
  8
Layer0
  6
AUSGEZOGEN
 62
    56
370
    18
100
AcDbLine
 10
534.005976296439
 20
43.581806903712
 30
0.0
 11
534.005976296439
 21
183.171806903712
 31
0.0
  0
INSERT
  5
19B
330
145
100
AcDbEntity
  8
0
100
AcDbBlockReference
  2
Schriftfeld_nNn01
 10
0.0
 20
0.0
 30
0.0
  0
ENDBLK
  5
147
330
145
100
AcDbEntity
  8
0
100
AcDbBlockEnd
  0
BLOCK
  5
151
330
150
100
AcDbEntity
  8
0
100
AcDbBlockBegin
  2
Schriftfeld_nNn01
 70
     0
 10
0.0
 20
0.0
 30
0.0
  3
Schriftfeld_nNn01
  1

  0
LINE
  5
153
330
150
100
AcDbEntity
  8
Layer99
  6
AUSGEZOGEN
 62
    56
370
    18
100
AcDbLine
 10
475.255976296439
 20
63.909306903712
 30
0.0
 11
475.255976296439
 21
55.919306903712
 31
0.0
  0
LINE
  5
154
330
150
100
AcDbEntity
  8
Layer99
  6
AUSGEZOGEN
 62
    56
370
    18
100
AcDbLine
 10
448.371999245657
 20
63.909306903712
 30
0.0
 11
448.371999245657
 21
45.931806903712
 31
0.0
  0
LINE
  5
155
330
150
100
AcDbEntity
  8
Layer99
  6
AUSGEZOGEN
 62
     9
370
    18
100
AcDbLine
 10
525.545976296439
 20
53.921806903712
 30
0.0
 11
525.545976296439
 21
48.211307979456
 31
0.0
  0
LINE
  5
156
330
150
100
AcDbEntity
  8
Layer99
  6
AUSGEZOGEN
 62
    56
370
    18
100
AcDbLine
 10
470.367964821829
 20
47.929306903712
 30
0.0
 11
444.705976296439
 21
47.929306903712
 31
0.0
  0
LINE
  5
157
330
150
100
AcDbEntity
  8
Layer99
  6
AUSGEZOGEN
 62
    56
370
    18
100
AcDbLine
 10
470.367964821829
 20
49.926806903712
 30
0.0
 11
444.705976296439
 21
49.926806903712
 31
0.0
  0
LINE
  5
158
330
150
100
AcDbEntity
  8
Layer99
  6
AUSGEZOGEN
 62
    56
370
    18
100
AcDbLine
 10
470.367964821829
 20
51.924306903712
 30
0.0
 11
444.705976296439
 21
51.924306903712
 31
0.0
  0
LINE
  5
159
330
150
100
AcDbEntity
  8
Layer99
  6
AUSGEZOGEN
 62
    56
370
    18
100
AcDbLine
 10
470.367964821829
 20
53.921806903712
 30
0.0
 11
444.705976296439
 21
53.921806903712
 31
0.0
  0
LINE
  5
15A
330
150
100
AcDbEntity
  8
Layer99
  6
AUSGEZOGEN
 62
     9
370
    18
100
AcDbLine
 10
531.655976296439
 20
53.921806903712
 30
0.0
 11
470.367964821829
 21
53.921806903712
 31
0.0
  0
LINE
  5
15B
330
150
100
AcDbEntity
  8
Layer99
  6
AUSGEZOGEN
 62
    56
370
    18
100
AcDbLine
 10
491.141999245657
 20
55.919306903712
 30
0.0
 11
444.705976296439
 21
55.919306903712
 31
0.0
  0
LINE
  5
15C
330
150
100
AcDbEntity
  8
Layer99
  6
AUSGEZOGEN
 62
    56
370
    18
100
AcDbLine
 10
491.141999245657
 20
57.916806903712
 30
0.0
 11
444.705976296439
 21
57.916806903712
 31
0.0
  0
LINE
  5
15D
330
150
100
AcDbEntity
  8
Layer99
  6
AUSGEZOGEN
 62
    56
370
    18
100
AcDbLine
 10
491.141999245657
 20
59.914306903712
 30
0.0
 11
444.705976296439
 21
59.914306903712
 31
0.0
  0
LINE
  5
15E
330
150
100
AcDbEntity
  8
Layer99
  6
AUSGEZOGEN
 62
    56
370
    18
100
AcDbLine
 10
491.141999245657
 20
61.911806903712
 30
0.0
 11
444.705976296439
 21
61.911806903712
 31
0.0
  0
LINE
  5
15F
330
150
100
AcDbEntity
  8
Layer99
  6
AUSGEZOGEN
 62
     9
370
    18
100
AcDbLine
 10
531.655976296439
 20
63.909306903712
 30
0.0
 11
444.705976296439
 21
63.909306903712
 31
0.0
  0
LINE
  5
160
330
150
100
AcDbEntity
  8
Layer99
  6
AUSGEZOGEN
 62
    56
370
    18
100
AcDbLine
 10
470.367964821829
 20
68.903056903712
 30
0.0
 11
444.705976296439
 21
68.903056903712
 31
0.0
  0
LINE
  5
161
330
150
100
AcDbEntity
  8
Layer99
  6
AUSGEZOGEN
 62
    56
370
    18
100
AcDbLine
 10
531.655976296439
 20
68.903056903712
 30
0.0
 11
491.141999245657
 21
68.903056903712
 31
0.0
  0
LINE
  5
162
330
150
100
AcDbEntity
  8
Layer99
  6
AUSGEZOGEN
 62
    56
370
    18
100
AcDbLine
 10
514.547964821829
 20
71.899306903712
 30
0.0
 11
514.547964821829
 21
68.903056903712
 31
0.0
  0
LINE
  5
163
330
150
100
AcDbEntity
  8
Layer99
  6
AUSGEZOGEN
 62
     9
370
    18
100
AcDbLine
 10
491.141999245657
 20
71.899306903712
 30
0.0
 11
491.141999245657
 21
48.211307979456
 31
0.0
  0
LINE
  5
164
330
150
100
AcDbEntity
  8
Layer99
  6
AUSGEZOGEN
 62
    56
370
    18
100
AcDbLine
 10
482.587964821829
 20
63.909306903712
 30
0.0
 11
482.587964821829
 21
53.921806903712
 31
0.0
  0
LINE
  5
165
330
150
100
AcDbEntity
  8
Layer99
  6
AUSGEZOGEN
 62
     9
370
    18
100
AcDbLine
 10
470.367964821829
 20
71.899306903712
 30
0.0
 11
470.367964821829
 21
45.931806903712
 31
0.0
  0
LINE
  5
166
330
150
100
AcDbEntity
  8
Layer99
  6
AUSGEZOGEN
 62
     9
370
    18
100
AcDbLine
 10
444.705976296439
 20
71.899306903712
 30
0.0
 11
444.705976296439
 21
45.931806903712
 31
0.0
  0
LINE
  5
167
330
150
100
AcDbEntity
  8
Layer99
  6
AUSGEZOGEN
 62
     9
370
    18
100
AcDbLine
 10
531.655976296439
 20
71.899306903712
 30
0.0
 11
444.705976296439
 21
71.899306903712
 31
0.0
  0
TEXT
  5
168
330
150
100
AcDbEntity
  8
Layer99
  6
AUSGEZOGEN
 62
    56
370
    18
100
AcDbText
 10
470.695679665579
 20
60.36096216952
 30
0.0
 40
0.94
  1
Bearb. 05.02.03   MS
 41
1.267237127053
  7
Arial
 72
     5
 11
486.407645909061
 21
60.36096216952
 31
0.0
100
AcDbText
  0
TEXT
  5
169
330
150
100
AcDbEntity
  8
Layer99
  6
AUSGEZOGEN
 62
    56
370
    18
100
AcDbText
 10
470.804401589407
 20
58.402820079676
 30
0.0
 40
0.94
  1
Gepr.
 41
1.215533862924
  7
Arial
 72
     5
 11
474.793224581947
 21
58.402820079676
 31
0.0
100
AcDbText
  0
TEXT
  5
16A
330
150
100
AcDbEntity
  8
Layer99
  6
AUSGEZOGEN
 62
    56
370
    18
100
AcDbText
 10
470.804401589407
 20
56.335898692957
 30
0.0
 40
0.94
  1
Norm
 41
1.171328125812
  7
Arial
 72
     5
 11
474.561178860762
 21
56.335898692957
 31
0.0
100
AcDbText
  0
TEXT
  5
16B
330
150
100
AcDbEntity
  8
Layer99
  6
AUSGEZOGEN
 62
    56
370
    18
100
AcDbText
 10
526.457748757376
 20
52.394597354761
 30
0.0
 40
1.175
  1
Blatt
 41
1.26499927539
  7
Arial
 72
     5
 11
530.60919175437
 21
52.394597354761
 31
0.0
100
AcDbText
  0
TEXT
  5
16C
330
150
100
AcDbEntity
  8
Layer0
  6
AUSGEZOGEN
 62
   136
370
    18
100
AcDbText
 10
471.79649631597
 20
69.782750659815
 30
0.0
 40
1.175
  1
Allgemeintoleranzen
 41
1.263559891189
  7
Arial
 72
     5
 11
490.570311234264
 21
69.782750659815
 31
0.0
100
AcDbText
  0
TEXT
  5
16D
330
150
100
AcDbEntity
  8
Layer0
  6
AUSGEZOGEN
 62
   136
370
    18
100
AcDbText
 10
471.469756814017
 20
67.603880115382
 30
0.0
 40
1.175
  1
Nach: TG5
 41
1.223038375192
  7
Arial
 72
     5
 11
481.168542857169
 21
67.603880115382
 31
0.0
100
AcDbText
  0
TEXT
  5
16E
330
150
100
AcDbEntity
  8
Layer0
  6
AUSGEZOGEN
 62
   136
370
    18
100
AcDbText
 10
471.54881687261
 20
65.425002399317
 30
0.0
 40
1.175
  1
DIN: 16742
 41
1.239741037486
  7
Arial
 72
     5
 11
481.833088649078
 21
65.425002399317
 31
0.0
100
AcDbText
  0
TEXT
  5
16F
330
150
100
AcDbEntity
  8
Layer0
  6
AUSGEZOGEN
 62
    56
370
    18
100
AcDbText
 10
515.305862771048
 20
69.8916949042
 30
0.0
 40
1.175
  1
Gewicht:
 41
1.240831402125
  7
Arial
 72
     5
 11
523.222677324458
 21
69.8916949042
 31
0.0
100
AcDbText
  0
TEXT
  5
170
330
150
100
AcDbEntity
  8
Layer0
  6
AUSGEZOGEN
 62
    56
370
    18
100
AcDbText
 10
491.759275856985
 20
69.901656299464
 30
0.0
 40
1.175
  1
Maßstab: 2:1
 41
1.251587148984
  7
Arial
 72
     5
 11
503.738904832839
 21
69.901656299464
 31
0.0
100
AcDbText
  0
TEXT
  5
171
330
150
100
AcDbEntity
  8
Layer0
  6
AUSGEZOGEN
 62
    56
370
    18
100
AcDbText
 10
445.270010720267
 20
69.901806903712
 30
0.0
 40
1.175
  1
Schwindung:
 41
1.234746274162
  7
Arial
 72
     5
 11
456.863568255542
 21
69.901806903712
 31
0.0
100
AcDbText
  0
TEXT
  5
172
330
150
100
AcDbEntity
  8
Layer0
  6
AUSGEZOGEN
 62
    56
370
    18
100
AcDbText
 10
445.326695290579
 20
66.961495624415
 30
0.0
 40
1.175
  1
Diese Zeichnung darf nur
 41
1.271210741346
  7
Arial
 72
     5
 11
468.734038935541
 21
66.961495624415
 31
0.0
100
AcDbText
  0
TEXT
  5
173
330
150
100
AcDbEntity
  8
Layer0
  6
AUSGEZOGEN
 62
    56
370
    18
100
AcDbText
 10
445.326695290579
 20
65.081495596401
 30
0.0
 40
1.175
  1
mit CAD geändert werden
 41
1.255342283876
  7
Arial
 72
     5
 11
469.012681804089
 21
65.081495596401
 31
0.0
100
AcDbText
  0
LINE
  5
174
330
150
100
AcDbEntity
  8
Layer99
  6
AUSGEZOGEN
 62
    56
370
    18
100
AcDbLine
 10
531.655976296439
 20
48.211307979456
 30
0.0
 11
491.141999245657
 21
48.211307979456
 31
0.0
  0
LINE
  5
175
330
150
100
AcDbEntity
  8
Layer99
  6
AUSGEZOGEN
 62
    56
370
    18
100
AcDbLine
 10
531.655976296439
 20
50.208807979456
 30
0.0
 11
525.545976296439
 21
50.208807979456
 31
0.0
  0
TEXT
  5
176
330
150
100
AcDbEntity
  8
Layer99
  6
AUSGEZOGEN
 62
    56
370
    18
100
AcDbText
 10
529.014004860892
 20
48.658330074183
 30
0.0
 40
1.175
  1
Bl.
 41
1.229150265254
  7
Arial
 72
     5
 11
531.366690654858
 21
48.658330074183
 31
0.0
100
AcDbText
  0
LINE
  5
177
330
150
100
AcDbEntity
  8
Layer99
  6
AUSGEZOGEN
 62
    56
370
    18
100
AcDbLine
 10
491.141999245657
 20
48.211307979456
 30
0.0
 11
470.367964821829
 21
48.211307979456
 31
0.0
  0
LINE
  5
178
330
150
100
AcDbEntity
  8
Layer99
  6
AUSGEZOGEN
 62
    56
370
    18
100
AcDbLine
 10
462.518873024954
 20
63.909306903712
 30
0.0
 11
462.518873024954
 21
45.931806903712
 31
0.0
  0
TEXT
  5
179
330
150
100
AcDbEntity
  8
Layer50
  6
AUSGEZOGEN
 62
   136
370
    18
100
AcDbText
 10
446.743264504446
 20
48.360622947565
 30
0.0
 40
0.94
  1
-  ---
 41
1.340992890965
  7
Arial
 72
     5
 11
450.066030329396
 21
48.360622947565
 31
0.0
100
AcDbText
  0
TEXT
  5
17A
330
150
100
AcDbEntity
  8
Layer50
  6
AUSGEZOGEN
 62
   136
370
    18
100
AcDbText
 10
462.629086648001
 20
48.475775134913
 30
0.0
 40
0.94
  1
--.--.--/--
 41
1.366444411798
  7
Arial
 72
     5
 11
468.90237828479
 21
48.475775134913
 31
0.0
100
AcDbText
  0
TEXT
  5
17B
330
150
100
AcDbEntity
  8
Layer0
  6
AUSGEZOGEN
 62
    56
370
    18
100
AcDbText
 10
470.952997780814
 20
46.446514178149
 30
0.0
 40
1.175
  1
Schutzvermerk nach DIN 34 beachten .        Copyright reserved
 41
1.286227457357
  7
Arial
 72
     5
 11
530.279756916119
 21
46.446514178149
 31
0.0
100
AcDbText
  0
INSERT
  5
194
330
150
100
AcDbEntity
  8
0
100
AcDbBlockReference
  2
ULTRAREFLEX_nNn02
 10
0.0
 20
0.0
 30
0.0
  0
TEXT
  5
195
330
150
100
AcDbEntity
  8
Layer50
  6
AUSGEZOGEN
 62
   136
370
    18
100
AcDbText
 10
492.153690444994
 20
54.530100346012
 30
0.0
 40
0.94
  1
---
 41
1.259600656861
  7
Arial
 72
     5
 11
493.805404786336
 21
54.530100346012
 31
0.0
100
AcDbText
  0
TEXT
  5
196
330
150
100
AcDbEntity
  8
Layer99
  6
AUSGEZOGEN
 62
    56
370
    18
100
AcDbText
 10
462.770914067183
 20
46.398657472144
 30
0.0
 40
0.94
  1
Dat./Nam.
 41
1.239717192527
  7
Arial
 72
     5
 11
470.092708600591
 21
46.398657472144
 31
0.0
100
AcDbText
  0
TEXT
  5
197
330
150
100
AcDbEntity
  8
Layer99
  6
AUSGEZOGEN
 62
    56
370
    18
100
AcDbText
 10
444.798494076445
 20
46.396526374743
 30
0.0
 40
0.94
  1
Zust.
 41
1.239906123597
  7
Arial
 72
     5
 11
448.415077055874
 21
46.396526374743
 31
0.0
100
AcDbText
  0
TEXT
  5
198
330
150
100
AcDbEntity
  8
Layer0
  6
AUSGEZOGEN
 62
    56
370
    18
100
AcDbText
 10
476.032281036078
 20
62.315003162257
 30
0.0
 40
1.175
  1
Datum
 41
1.188171149402
  7
Arial
 72
     5
 11
481.771652660429
 21
62.315003162257
 31
0.0
100
AcDbText
  0
TEXT
  5
199
330
150
100
AcDbEntity
  8
Layer0
  6
AUSGEZOGEN
 62
    56
370
    18
100
AcDbText
 10
484.334920234635
 20
62.318930818276
 30
0.0
 40
1.175
  1
Name
 41
1.15958716227
  7
Arial
 72
     5
 11
489.407563265666
 21
62.318930818276
 31
0.0
100
AcDbText
  0
TEXT
  5
19A
330
150
100
AcDbEntity
  8
Layer99
  6
AUSGEZOGEN
 62
    56
370
    18
100
AcDbText
 10
449.042256184674
 20
46.396638205621
 30
0.0
 40
0.94
  1
Änderung
 41
1.218204176926
  7
Arial
 72
     5
 11
455.972473562706
 21
46.396638205621
 31
0.0
100
AcDbText
  0
ENDBLK
  5
152
330
150
100
AcDbEntity
  8
0
100
AcDbBlockEnd
  0
BLOCK
  5
17D
330
17C
100
AcDbEntity
  8
0
100
AcDbBlockBegin
  2
ULTRAREFLEX_nNn02
 70
     0
 10
0.0
 20
0.0
 30
0.0
  3
ULTRAREFLEX_nNn02
  1

  0
LINE
  5
17F
330
17C
100
AcDbEntity
  8
Layer0
  6
AUSGEZOGEN
 62
    30
370
    18
100
AcDbLine
 10
489.642967679528
 20
52.43826294842
 30
0.0
 11
488.212928797772
 21
52.43826294842
 31
0.0
  0
LINE
  5
180
330
17C
100
AcDbEntity
  8
Layer0
  6
AUSGEZOGEN
 62
    30
370
    18
100
AcDbLine
 10
488.074537938248
 20
52.35836294842
 30
0.0
 11
487.35951849737
 21
51.11991294842
 31
0.0
  0
LINE
  5
181
330
17C
100
AcDbEntity
  8
Layer0
  6
AUSGEZOGEN
 62
    30
370
    18
100
AcDbLine
 10
487.35951849737
 20
50.96011294842
 30
0.0
 11
488.074537938248
 21
49.72166294842
 31
0.0
  0
LINE
  5
182
330
17C
100
AcDbEntity
  8
Layer0
  6
AUSGEZOGEN
 62
    30
370
    18
100
AcDbLine
 10
488.212928797772
 20
49.64176294842
 30
0.0
 11
489.642967679528
 21
49.64176294842
 31
0.0
  0
LINE
  5
183
330
17C
100
AcDbEntity
  8
Layer0
  6
AUSGEZOGEN
 62
    30
370
    18
100
AcDbLine
 10
489.781358539053
 20
49.72166294842
 30
0.0
 11
490.496377979931
 21
50.96011294842
 31
0.0
  0
LINE
  5
184
330
17C
100
AcDbEntity
  8
Layer0
  6
AUSGEZOGEN
 62
    30
370
    18
100
AcDbLine
 10
490.496377979931
 20
51.11991294842
 30
0.0
 11
489.781358539053
 21
52.35836294842
 31
0.0
  0
LINE
  5
185
330
17C
100
AcDbEntity
  8
Layer0
  6
AUSGEZOGEN
 62
    30
370
    18
100
AcDbLine
 10
489.066339098175
 20
51.11991294842
 30
0.0
 11
490.496377979931
 21
51.11991294842
 31
0.0
  0
LINE
  5
186
330
17C
100
AcDbEntity
  8
Layer0
  6
AUSGEZOGEN
 62
    30
370
    18
100
AcDbLine
 10
487.35951849737
 20
51.11991294842
 30
0.0
 11
488.789557379126
 21
51.11991294842
 31
0.0
  0
LINE
  5
187
330
17C
100
AcDbEntity
  8
Layer0
  6
AUSGEZOGEN
 62
    30
370
    18
100
AcDbLine
 10
489.066339098175
 20
50.96011294842
 30
0.0
 11
490.496377979931
 21
50.96011294842
 31
0.0
  0
LINE
  5
188
330
17C
100
AcDbEntity
  8
Layer0
  6
AUSGEZOGEN
 62
    30
370
    18
100
AcDbLine
 10
487.35951849737
 20
50.96011294842
 30
0.0
 11
488.789557379126
 21
50.96011294842
 31
0.0
  0
LINE
  5
189
330
17C
100
AcDbEntity
  8
Layer0
  6
AUSGEZOGEN
 62
    30
370
    18
100
AcDbLine
 10
489.066339098175
 20
50.96011294842
 30
0.0
 11
489.781358539053
 21
49.72166294842
 31
0.0
  0
LINE
  5
18A
330
17C
100
AcDbEntity
  8
Layer0
  6
AUSGEZOGEN
 62
    30
370
    18
100
AcDbLine
 10
488.212928797772
 20
52.43826294842
 30
0.0
 11
488.92794823865
 21
51.19981294842
 31
0.0
  0
LINE
  5
18B
330
17C
100
AcDbEntity
  8
Layer0
  6
AUSGEZOGEN
 62
    30
370
    18
100
AcDbLine
 10
488.92794823865
 20
50.88021294842
 30
0.0
 11
489.642967679528
 21
49.64176294842
 31
0.0
  0
LINE
  5
18C
330
17C
100
AcDbEntity
  8
Layer0
  6
AUSGEZOGEN
 62
    30
370
    18
100
AcDbLine
 10
488.074537938248
 20
52.35836294842
 30
0.0
 11
488.789557379126
 21
51.11991294842
 31
0.0
  0
LINE
  5
18D
330
17C
100
AcDbEntity
  8
Layer0
  6
AUSGEZOGEN
 62
    30
370
    18
100
AcDbLine
 10
488.92794823865
 20
50.88021294842
 30
0.0
 11
488.212928797772
 21
49.64176294842
 31
0.0
  0
LINE
  5
18E
330
17C
100
AcDbEntity
  8
Layer0
  6
AUSGEZOGEN
 62
    30
370
    18
100
AcDbLine
 10
489.781358539053
 20
52.35836294842
 30
0.0
 11
489.066339098175
 21
51.11991294842
 31
0.0
  0
LINE
  5
18F
330
17C
100
AcDbEntity
  8
Layer0
  6
AUSGEZOGEN
 62
    30
370
    18
100
AcDbLine
 10
488.789557379126
 20
50.96011294842
 30
0.0
 11
488.074537938248
 21
49.72166294842
 31
0.0
  0
LINE
  5
190
330
17C
100
AcDbEntity
  8
Layer0
  6
AUSGEZOGEN
 62
    30
370
    18
100
AcDbLine
 10
489.642967679528
 20
52.43826294842
 30
0.0
 11
488.92794823865
 21
51.19981294842
 31
0.0
  0
HATCH
  5
191
330
17C
100
AcDbEntity
  8
Layer0
  6
AUSGEZOGEN
 62
    30
370
    18
100
AcDbHatch
 10
0.0
 20
0.0
 30
0.0
210
0.0
220
0.0
230
1.0
  2
SOLID
 70
     1
 71
     0
 91
        6
 92
        2
 72
     0
 73
     1
 93
        3
 10
488.7895573791257
 20
50.96011294842023
 10
487.3595184973698
 20
50.96011294842023
 10
488.0745379382477
 20
49.72166294842024
 97
        0
 92
        2
 72
     0
 73
     1
 93
        3
 10
488.7895573791257
 20
51.11991294842024
 10
488.0745379382477
 20
52.35836294842024
 10
487.3595184973698
 20
51.11991294842024
 97
        0
 92
        2
 72
     0
 73
     1
 93
        3
 10
488.9279482386504
 20
51.19981294842023
 10
489.6429676795282
 20
52.43826294842023
 10
488.2129287977725
 20
52.43826294842023
 97
        0
 92
        2
 72
     0
 73
     1
 93
        3
 10
489.0663390981751
 20
51.11991294842024
 10
490.4963779799309
 20
51.11991294842024
 10
489.781358539053
 20
52.35836294842022
 97
        0
 92
        2
 72
     0
 73
     1
 93
        3
 10
489.781358539053
 20
49.72166294842023
 10
490.4963779799309
 20
50.96011294842023
 10
489.0663390981751
 20
50.96011294842023
 97
        0
 92
        2
 72
     0
 73
     1
 93
        3
 10
488.9279482386504
 20
50.88021294842023
 10
488.2129287977725
 20
49.64176294842024
 10
489.6429676795282
 20
49.64176294842024
 97
        0
 75
     0
 76
     1
 98
        0
  0
TEXT
  5
192
330
17C
100
AcDbEntity
  8
Layer0
  6
AUSGEZOGEN
 62
     7
370
    18
100
AcDbText
 10
478.81910359918
 20
50.139895833163
 30
0.0
 40
1.8377
  1
REFLEX
 41
0.705366510959
  7
Arial Black
 72
     5
 11
486.66927859918
 21
50.139895833163
 31
0.0
100
AcDbText
  0
TEXT
  5
193
330
17C
100
AcDbEntity
  8
Layer0
  6
AUSGEZOGEN
 62
     7
370
    18
100
AcDbText
 10
471.069597580129
 20
50.226588451592
 30
0.0
 40
1.39825
  1
ULTRA
 41
1.159777722278
  7
Arial
 72
     5
 11
478.490310080129
 21
50.226588451592
 31
0.0
100
AcDbText
  0
ENDBLK
  5
17E
330
17C
100
AcDbEntity
  8
0
100
AcDbBlockEnd
  0
BLOCK
  5
1C2
330
1C1
100
AcDbEntity
  8
0
100
AcDbBlockBegin
  2
ingrid1_nNn03
 70
     0
 10
0.0
 20
0.0
 30
0.0
  3
ingrid1_nNn03
  1

  0
LINE
  5
1C4
330
1C1
100
AcDbEntity
  8
Stammform
  6
AUSGEZOGEN
 62
     9
370
    18
100
AcDbLine
 10
496.22443496271
 20
130.175213245547
 30
0.0
 11
496.82680431034
 21
130.175213245547
 31
0.0
  0
LINE
  5
1C5
330
1C1
100
AcDbEntity
  8
Stammform
  6
AUSGEZOGEN
 62
     9
370
    18
100
AcDbLine
 10
496.82680431034
 20
118.199184968769
 30
0.0
 11
496.22443496271
 21
118.199184968769
 31
0.0
  0
LINE
  5
1C6
330
1C1
100
AcDbEntity
  8
Stammform
  6
AUSGEZOGEN
 62
     9
370
    18
100
AcDbLine
 10
496.22443496271
 20
114.207186750151
 30
0.0
 11
496.82680431034
 21
114.207186750151
 31
0.0
  0
LINE
  5
1C7
330
1C1
100
AcDbEntity
  8
Stammform
  6
AUSGEZOGEN
 62
    56
370
    18
100
AcDbLine
 10
496.82680431034
 20
116.203177948655
 30
0.0
 11
495.072052080135
 21
116.203177948655
 31
0.0
  0
LINE
  5
1C8
330
1C1
100
AcDbEntity
  8
Stammform
  6
AUSGEZOGEN
 62
     9
370
    18
100
AcDbLine
 10
496.22443496271
 20
122.191183187387
 30
0.0
 11
496.82680431034
 21
122.191183187387
 31
0.0
  0
LINE
  5
1C9
330
1C1
100
AcDbEntity
  8
Stammform
  6
AUSGEZOGEN
 62
    56
370
    18
100
AcDbLine
 10
496.82680431034
 20
120.195191988884
 30
0.0
 11
495.072052080135
 21
120.195191988884
 31
0.0
  0
LINE
  5
1CA
330
1C1
100
AcDbEntity
  8
Stammform
  6
AUSGEZOGEN
 62
     9
370
    18
100
AcDbLine
 10
496.22443496271
 20
126.183199205318
 30
0.0
 11
495.072052080135
 21
128.179206225432
 31
0.0
  0
LINE
  5
1CB
330
1C1
100
AcDbEntity
  8
Stammform
  6
AUSGEZOGEN
 62
     9
370
    18
100
AcDbLine
 10
495.072052080135
 20
128.179206225432
 30
0.0
 11
496.22443496271
 21
130.175213245547
 31
0.0
  0
LINE
  5
1CC
330
1C1
100
AcDbEntity
  8
Stammform
  6
AUSGEZOGEN
 62
     9
370
    18
100
AcDbLine
 10
496.82680431034
 20
126.183199205318
 30
0.0
 11
496.22443496271
 21
126.183199205318
 31
0.0
  0
LINE
  5
1CD
330
1C1
100
AcDbEntity
  8
Stammform
  6
AUSGEZOGEN
 62
    56
370
    18
100
AcDbLine
 10
496.82680431034
 20
128.179206225432
 30
0.0
 11
495.072052080135
 21
128.179206225432
 31
0.0
  0
LINE
  5
1CE
330
1C1
100
AcDbEntity
  8
Stammform
  6
AUSGEZOGEN
 62
     9
370
    18
100
AcDbLine
 10
495.072052080135
 20
124.187192185203
 30
0.0
 11
496.22443496271
 21
122.191183187387
 31
0.0
  0
LINE
  5
1CF
330
1C1
100
AcDbEntity
  8
Stammform
  6
AUSGEZOGEN
 62
    56
370
    18
100
AcDbLine
 10
496.82680431034
 20
124.187192185203
 30
0.0
 11
495.072052080135
 21
124.187192185203
 31
0.0
  0
LINE
  5
1D0
330
1C1
100
AcDbEntity
  8
Stammform
  6
AUSGEZOGEN
 62
     9
370
    18
100
AcDbLine
 10
496.22443496271
 20
110.215172709922
 30
0.0
 11
495.072052080135
 21
112.211179730037
 31
0.0
  0
LINE
  5
1D1
330
1C1
100
AcDbEntity
  8
Stammform
  6
AUSGEZOGEN
 62
     9
370
    18
100
AcDbLine
 10
496.82680431034
 20
110.215172709922
 30
0.0
 11
496.22443496271
 21
110.215172709922
 31
0.0
  0
LINE
  5
1D2
330
1C1
100
AcDbEntity
  8
Stammform
  6
AUSGEZOGEN
 62
    56
370
    18
100
AcDbLine
 10
496.82680431034
 20
112.211179730037
 30
0.0
 11
495.072052080135
 21
112.211179730037
 31
0.0
  0
LINE
  5
1D3
330
1C1
100
AcDbEntity
  8
Stammform
  6
AUSGEZOGEN
 62
     9
370
    18
100
AcDbLine
 10
492.521298892974
 20
131.745191988884
 30
0.0
 11
491.614871789186
 21
130.175197423935
 31
0.0
  0
LINE
  5
1D4
330
1C1
100
AcDbEntity
  8
Stammform
  6
AUSGEZOGEN
 62
     9
370
    18
100
AcDbLine
 10
491.614871789186
 20
130.175197423935
 30
0.0
 11
492.767254671762
 21
128.179190403821
 31
0.0
  0
LINE
  5
1D5
330
1C1
100
AcDbEntity
  8
Stammform
  6
AUSGEZOGEN
 62
     9
370
    18
100
AcDbLine
 10
496.22443496271
 20
130.175197423935
 30
0.0
 11
495.318007858923
 21
131.745191988884
 31
0.0
  0
LINE
  5
1D6
330
1C1
100
AcDbEntity
  8
Stammform
  6
AUSGEZOGEN
 62
     9
370
    18
100
AcDbLine
 10
492.767254671762
 20
128.179190403821
 30
0.0
 11
495.072052080135
 21
128.179190403821
 31
0.0
  0
LINE
  5
1D7
330
1C1
100
AcDbEntity
  8
Stammform
  6
AUSGEZOGEN
 62
    56
370
    18
100
AcDbLine
 10
495.072052080135
 20
128.179190403821
 30
0.0
 11
493.919653375948
 21
130.175197423935
 31
0.0
  0
LINE
  5
1D8
330
1C1
100
AcDbEntity
  8
Stammform
  6
AUSGEZOGEN
 62
    56
370
    18
100
AcDbLine
 10
493.919653375948
 20
130.175197423935
 30
0.0
 11
494.826092924504
 21
131.745191988884
 31
0.0
  0
LINE
  5
1D9
330
1C1
100
AcDbEntity
  8
Stammform
  6
AUSGEZOGEN
 62
    56
370
    18
100
AcDbLine
 10
493.919653375948
 20
130.175197423935
 30
0.0
 11
491.614871789186
 21
130.175197423935
 31
0.0
  0
LINE
  5
1DA
330
1C1
100
AcDbEntity
  8
Stammform
  6
AUSGEZOGEN
 62
     9
370
    18
100
AcDbLine
 10
492.767254671762
 20
116.203177948655
 30
0.0
 11
491.614871789186
 21
114.20717092854
 31
0.0
  0
LINE
  5
1DB
330
1C1
100
AcDbEntity
  8
Stammform
  6
AUSGEZOGEN
 62
     9
370
    18
100
AcDbLine
 10
491.614871789186
 20
114.20717092854
 30
0.0
 11
492.767254671762
 21
112.211163908425
 31
0.0
  0
LINE
  5
1DC
330
1C1
100
AcDbEntity
  8
Stammform
  6
AUSGEZOGEN
 62
     9
370
    18
100
AcDbLine
 10
495.072052080135
 20
112.211163908425
 30
0.0
 11
496.22443496271
 21
114.20717092854
 31
0.0
  0
LINE
  5
1DD
330
1C1
100
AcDbEntity
  8
Stammform
  6
AUSGEZOGEN
 62
     9
370
    18
100
AcDbLine
 10
496.22443496271
 20
114.20717092854
 30
0.0
 11
495.072052080135
 21
116.203177948655
 31
0.0
  0
LINE
  5
1DE
330
1C1
100
AcDbEntity
  8
Stammform
  6
AUSGEZOGEN
 62
     9
370
    18
100
AcDbLine
 10
495.072052080135
 20
116.203177948655
 30
0.0
 11
492.767254671762
 21
116.203177948655
 31
0.0
  0
LINE
  5
1DF
330
1C1
100
AcDbEntity
  8
Stammform
  6
AUSGEZOGEN
 62
     9
370
    18
100
AcDbLine
 10
492.767254671762
 20
112.211163908425
 30
0.0
 11
495.072052080135
 21
112.211163908425
 31
0.0
  0
LINE
  5
1E0
330
1C1
100
AcDbEntity
  8
Stammform
  6
AUSGEZOGEN
 62
    56
370
    18
100
AcDbLine
 10
495.072052080135
 20
112.211163908425
 30
0.0
 11
493.919653375948
 21
114.20717092854
 31
0.0
  0
LINE
  5
1E1
330
1C1
100
AcDbEntity
  8
Stammform
  6
AUSGEZOGEN
 62
    56
370
    18
100
AcDbLine
 10
493.919653375948
 20
114.20717092854
 30
0.0
 11
495.072052080135
 21
116.203177948655
 31
0.0
  0
LINE
  5
1E2
330
1C1
100
AcDbEntity
  8
Stammform
  6
AUSGEZOGEN
 62
    56
370
    18
100
AcDbLine
 10
493.919653375948
 20
114.20717092854
 30
0.0
 11
491.614871789186
 21
114.20717092854
 31
0.0
  0
LINE
  5
1E3
330
1C1
100
AcDbEntity
  8
Stammform
  6
AUSGEZOGEN
 62
     9
370
    18
100
AcDbLine
 10
492.767254671762
 20
116.203177948655
 30
0.0
 11
491.614871789186
 21
118.199184968769
 31
0.0
  0
LINE
  5
1E4
330
1C1
100
AcDbEntity
  8
Stammform
  6
AUSGEZOGEN
 62
     9
370
    18
100
AcDbLine
 10
491.614871789186
 20
118.199184968769
 30
0.0
 11
492.767254671762
 21
120.195191988884
 31
0.0
  0
LINE
  5
1E5
330
1C1
100
AcDbEntity
  8
Stammform
  6
AUSGEZOGEN
 62
     9
370
    18
100
AcDbLine
 10
495.072052080135
 20
120.195191988884
 30
0.0
 11
496.22443496271
 21
118.199184968769
 31
0.0
  0
LINE
  5
1E6
330
1C1
100
AcDbEntity
  8
Stammform
  6
AUSGEZOGEN
 62
     9
370
    18
100
AcDbLine
 10
496.22443496271
 20
118.199184968769
 30
0.0
 11
495.072052080135
 21
116.203177948655
 31
0.0
  0
LINE
  5
1E7
330
1C1
100
AcDbEntity
  8
Stammform
  6
AUSGEZOGEN
 62
     9
370
    18
100
AcDbLine
 10
495.072052080135
 20
116.203177948655
 30
0.0
 11
492.767254671762
 21
116.203177948655
 31
0.0
  0
LINE
  5
1E8
330
1C1
100
AcDbEntity
  8
Stammform
  6
AUSGEZOGEN
 62
     9
370
    18
100
AcDbLine
 10
492.767254671762
 20
120.195191988884
 30
0.0
 11
495.072052080135
 21
120.195191988884
 31
0.0
  0
LINE
  5
1E9
330
1C1
100
AcDbEntity
  8
Stammform
  6
AUSGEZOGEN
 62
    56
370
    18
100
AcDbLine
 10
495.072052080135
 20
120.195191988884
 30
0.0
 11
493.919653375948
 21
118.199184968769
 31
0.0
  0
LINE
  5
1EA
330
1C1
100
AcDbEntity
  8
Stammform
  6
AUSGEZOGEN
 62
    56
370
    18
100
AcDbLine
 10
493.919653375948
 20
118.199184968769
 30
0.0
 11
495.072052080135
 21
116.203177948655
 31
0.0
  0
LINE
  5
1EB
330
1C1
100
AcDbEntity
  8
Stammform
  6
AUSGEZOGEN
 62
    56
370
    18
100
AcDbLine
 10
493.919653375948
 20
118.199184968769
 30
0.0
 11
491.614871789186
 21
118.199184968769
 31
0.0
  0
LINE
  5
1EC
330
1C1
100
AcDbEntity
  8
Stammform
  6
AUSGEZOGEN
 62
     9
370
    18
100
AcDbLine
 10
492.767254671762
 20
124.187192185203
 30
0.0
 11
491.614871789186
 21
126.183199205318
 31
0.0
  0
LINE
  5
1ED
330
1C1
100
AcDbEntity
  8
Stammform
  6
AUSGEZOGEN
 62
     9
370
    18
100
AcDbLine
 10
491.614871789186
 20
126.183199205318
 30
0.0
 11
492.767254671762
 21
128.179190403821
 31
0.0
  0
LINE
  5
1EE
330
1C1
100
AcDbEntity
  8
Stammform
  6
AUSGEZOGEN
 62
     9
370
    18
100
AcDbLine
 10
496.22443496271
 20
126.183199205318
 30
0.0
 11
495.072052080135
 21
124.187192185203
 31
0.0
  0
LINE
  5
1EF
330
1C1
100
AcDbEntity
  8
Stammform
  6
AUSGEZOGEN
 62
     9
370
    18
100
AcDbLine
 10
495.072052080135
 20
124.187192185203
 30
0.0
 11
492.767254671762
 21
124.187192185203
 31
0.0
  0
LINE
  5
1F0
330
1C1
100
AcDbEntity
  8
Stammform
  6
AUSGEZOGEN
 62
     9
370
    18
100
AcDbLine
 10
492.767254671762
 20
128.179190403821
 30
0.0
 11
495.072052080135
 21
128.179190403821
 31
0.0
  0
LINE
  5
1F1
330
1C1
100
AcDbEntity
  8
Stammform
  6
AUSGEZOGEN
 62
    56
370
    18
100
AcDbLine
 10
495.072052080135
 20
128.179190403821
 30
0.0
 11
493.919653375948
 21
126.183199205318
 31
0.0
  0
LINE
  5
1F2
330
1C1
100
AcDbEntity
  8
Stammform
  6
AUSGEZOGEN
 62
    56
370
    18
100
AcDbLine
 10
493.919653375948
 20
126.183199205318
 30
0.0
 11
495.072052080135
 21
124.187192185203
 31
0.0
  0
LINE
  5
1F3
330
1C1
100
AcDbEntity
  8
Stammform
  6
AUSGEZOGEN
 62
    56
370
    18
100
AcDbLine
 10
493.919653375948
 20
126.183199205318
 30
0.0
 11
491.614871789186
 21
126.183199205318
 31
0.0
  0
LINE
  5
1F4
330
1C1
100
AcDbEntity
  8
Stammform
  6
AUSGEZOGEN
 62
     9
370
    18
100
AcDbLine
 10
492.767254671762
 20
124.187192185203
 30
0.0
 11
491.614871789186
 21
122.191183187387
 31
0.0
  0
LINE
  5
1F5
330
1C1
100
AcDbEntity
  8
Stammform
  6
AUSGEZOGEN
 62
     9
370
    18
100
AcDbLine
 10
491.614871789186
 20
122.191183187387
 30
0.0
 11
492.767254671762
 21
120.195191988884
 31
0.0
  0
LINE
  5
1F6
330
1C1
100
AcDbEntity
  8
Stammform
  6
AUSGEZOGEN
 62
     9
370
    18
100
AcDbLine
 10
495.072052080135
 20
120.195191988884
 30
0.0
 11
496.22443496271
 21
122.191183187387
 31
0.0
  0
LINE
  5
1F7
330
1C1
100
AcDbEntity
  8
Stammform
  6
AUSGEZOGEN
 62
     9
370
    18
100
AcDbLine
 10
495.072052080135
 20
124.187192185203
 30
0.0
 11
492.767254671762
 21
124.187192185203
 31
0.0
  0
LINE
  5
1F8
330
1C1
100
AcDbEntity
  8
Stammform
  6
AUSGEZOGEN
 62
     9
370
    18
100
AcDbLine
 10
492.767254671762
 20
120.195191988884
 30
0.0
 11
495.072052080135
 21
120.195191988884
 31
0.0
  0
LINE
  5
1F9
330
1C1
100
AcDbEntity
  8
Stammform
  6
AUSGEZOGEN
 62
    56
370
    18
100
AcDbLine
 10
495.072052080135
 20
120.195191988884
 30
0.0
 11
493.919653375948
 21
122.191183187387
 31
0.0
  0
LINE
  5
1FA
330
1C1
100
AcDbEntity
  8
Stammform
  6
AUSGEZOGEN
 62
    56
370
    18
100
AcDbLine
 10
493.919653375948
 20
122.191183187387
 30
0.0
 11
495.072052080135
 21
124.187192185203
 31
0.0
  0
LINE
  5
1FB
330
1C1
100
AcDbEntity
  8
Stammform
  6
AUSGEZOGEN
 62
    56
370
    18
100
AcDbLine
 10
493.919653375948
 20
122.191183187387
 30
0.0
 11
491.614871789186
 21
122.191183187387
 31
0.0
  0
LINE
  5
1FC
330
1C1
100
AcDbEntity
  8
Stammform
  6
AUSGEZOGEN
 62
     9
370
    18
100
AcDbLine
 10
492.521290900274
 20
108.645191988884
 30
0.0
 11
491.614871789186
 21
110.215172709922
 31
0.0
  0
LINE
  5
1FD
330
1C1
100
AcDbEntity
  8
Stammform
  6
AUSGEZOGEN
 62
     9
370
    18
100
AcDbLine
 10
491.614871789186
 20
110.215172709922
 30
0.0
 11
492.767254671762
 21
112.211163908425
 31
0.0
  0
LINE
  5
1FE
330
1C1
100
AcDbEntity
  8
Stammform
  6
AUSGEZOGEN
 62
     9
370
    18
100
AcDbLine
 10
496.22443496271
 20
110.215172709922
 30
0.0
 11
495.318015851622
 21
108.645191988884
 31
0.0
  0
LINE
  5
1FF
330
1C1
100
AcDbEntity
  8
Stammform
  6
AUSGEZOGEN
 62
     9
370
    18
100
AcDbLine
 10
492.767254671762
 20
112.211163908425
 30
0.0
 11
495.072052080135
 21
112.211163908425
 31
0.0
  0
LINE
  5
200
330
1C1
100
AcDbEntity
  8
Stammform
  6
AUSGEZOGEN
 62
    56
370
    18
100
AcDbLine
 10
495.072052080135
 20
112.211163908425
 30
0.0
 11
493.919653375948
 21
110.215172709922
 31
0.0
  0
LINE
  5
201
330
1C1
100
AcDbEntity
  8
Stammform
  6
AUSGEZOGEN
 62
    56
370
    18
100
AcDbLine
 10
493.919653375948
 20
110.215172709922
 30
0.0
 11
494.826084931695
 21
108.645191988884
 31
0.0
  0
LINE
  5
202
330
1C1
100
AcDbEntity
  8
Stammform
  6
AUSGEZOGEN
 62
    56
370
    18
100
AcDbLine
 10
493.919653375948
 20
110.215172709922
 30
0.0
 11
491.614871789186
 21
110.215172709922
 31
0.0
  0
LINE
  5
203
330
1C1
100
AcDbEntity
  8
Stammform
  6
AUSGEZOGEN
 62
     9
370
    18
100
AcDbLine
 10
488.403649226641
 20
131.745191988884
 30
0.0
 11
489.310074380813
 21
130.175213245547
 31
0.0
  0
LINE
  5
204
330
1C1
100
AcDbEntity
  8
Stammform
  6
AUSGEZOGEN
 62
     9
370
    18
100
AcDbLine
 10
489.310074380813
 20
130.175213245547
 30
0.0
 11
491.614871789186
 21
130.175213245547
 31
0.0
  0
LINE
  5
205
330
1C1
100
AcDbEntity
  8
Stammform
  6
AUSGEZOGEN
 62
    56
370
    18
100
AcDbLine
 10
491.614871789186
 20
130.175213245547
 30
0.0
 11
490.708434190273
 21
131.745191988884
 31
0.0
  0
LINE
  5
206
330
1C1
100
AcDbEntity
  8
Stammform
  6
AUSGEZOGEN
 62
     9
370
    18
100
AcDbLine
 10
489.310074380813
 20
118.199184968769
 30
0.0
 11
488.157691498237
 21
116.203177948655
 31
0.0
  0
LINE
  5
207
330
1C1
100
AcDbEntity
  8
Stammform
  6
AUSGEZOGEN
 62
     9
370
    18
100
AcDbLine
 10
488.157691498237
 20
116.203177948655
 30
0.0
 11
489.310074380813
 21
114.207186750151
 31
0.0
  0
LINE
  5
208
330
1C1
100
AcDbEntity
  8
Stammform
  6
AUSGEZOGEN
 62
     9
370
    18
100
AcDbLine
 10
491.614871789186
 20
114.207186750151
 30
0.0
 11
492.767254671762
 21
116.203177948655
 31
0.0
  0
LINE
  5
209
330
1C1
100
AcDbEntity
  8
Stammform
  6
AUSGEZOGEN
 62
     9
370
    18
100
AcDbLine
 10
492.767254671762
 20
116.203177948655
 30
0.0
 11
491.614871789186
 21
118.199184968769
 31
0.0
  0
LINE
  5
20A
330
1C1
100
AcDbEntity
  8
Stammform
  6
AUSGEZOGEN
 62
     9
370
    18
100
AcDbLine
 10
491.614871789186
 20
118.199184968769
 30
0.0
 11
489.310074380813
 21
118.199184968769
 31
0.0
  0
LINE
  5
20B
330
1C1
100
AcDbEntity
  8
Stammform
  6
AUSGEZOGEN
 62
     9
370
    18
100
AcDbLine
 10
489.310074380813
 20
114.207186750151
 30
0.0
 11
491.614871789186
 21
114.207186750151
 31
0.0
  0
LINE
  5
20C
330
1C1
100
AcDbEntity
  8
Stammform
  6
AUSGEZOGEN
 62
    56
370
    18
100
AcDbLine
 10
491.614871789186
 20
114.207186750151
 30
0.0
 11
490.462473084999
 21
116.203177948655
 31
0.0
  0
LINE
  5
20D
330
1C1
100
AcDbEntity
  8
Stammform
  6
AUSGEZOGEN
 62
    56
370
    18
100
AcDbLine
 10
490.462473084999
 20
116.203177948655
 30
0.0
 11
491.614871789186
 21
118.199184968769
 31
0.0
  0
LINE
  5
20E
330
1C1
100
AcDbEntity
  8
Stammform
  6
AUSGEZOGEN
 62
    56
370
    18
100
AcDbLine
 10
490.462473084999
 20
116.203177948655
 30
0.0
 11
488.157691498237
 21
116.203177948655
 31
0.0
  0
LINE
  5
20F
330
1C1
100
AcDbEntity
  8
Stammform
  6
AUSGEZOGEN
 62
     9
370
    18
100
AcDbLine
 10
489.310074380813
 20
118.199184968769
 30
0.0
 11
488.157691498237
 21
120.195191988884
 31
0.0
  0
LINE
  5
210
330
1C1
100
AcDbEntity
  8
Stammform
  6
AUSGEZOGEN
 62
     9
370
    18
100
AcDbLine
 10
488.157691498237
 20
120.195191988884
 30
0.0
 11
489.310074380813
 21
122.191183187387
 31
0.0
  0
LINE
  5
211
330
1C1
100
AcDbEntity
  8
Stammform
  6
AUSGEZOGEN
 62
     9
370
    18
100
AcDbLine
 10
491.614871789186
 20
122.191183187387
 30
0.0
 11
492.767254671762
 21
120.195191988884
 31
0.0
  0
LINE
  5
212
330
1C1
100
AcDbEntity
  8
Stammform
  6
AUSGEZOGEN
 62
     9
370
    18
100
AcDbLine
 10
492.767254671762
 20
120.195191988884
 30
0.0
 11
491.614871789186
 21
118.199184968769
 31
0.0
  0
LINE
  5
213
330
1C1
100
AcDbEntity
  8
Stammform
  6
AUSGEZOGEN
 62
     9
370
    18
100
AcDbLine
 10
491.614871789186
 20
118.199184968769
 30
0.0
 11
489.310074380813
 21
118.199184968769
 31
0.0
  0
LINE
  5
214
330
1C1
100
AcDbEntity
  8
Stammform
  6
AUSGEZOGEN
 62
     9
370
    18
100
AcDbLine
 10
489.310074380813
 20
122.191183187387
 30
0.0
 11
491.614871789186
 21
122.191183187387
 31
0.0
  0
LINE
  5
215
330
1C1
100
AcDbEntity
  8
Stammform
  6
AUSGEZOGEN
 62
    56
370
    18
100
AcDbLine
 10
491.614871789186
 20
122.191183187387
 30
0.0
 11
490.462473084999
 21
120.195191988884
 31
0.0
  0
LINE
  5
216
330
1C1
100
AcDbEntity
  8
Stammform
  6
AUSGEZOGEN
 62
    56
370
    18
100
AcDbLine
 10
490.462473084999
 20
120.195191988884
 30
0.0
 11
491.614871789186
 21
118.199184968769
 31
0.0
  0
LINE
  5
217
330
1C1
100
AcDbEntity
  8
Stammform
  6
AUSGEZOGEN
 62
    56
370
    18
100
AcDbLine
 10
490.462473084999
 20
120.195191988884
 30
0.0
 11
488.157691498237
 21
120.195191988884
 31
0.0
  0
LINE
  5
218
330
1C1
100
AcDbEntity
  8
Stammform
  6
AUSGEZOGEN
 62
     9
370
    18
100
AcDbLine
 10
489.310074380813
 20
126.183199205318
 30
0.0
 11
488.157691498237
 21
128.179206225432
 31
0.0
  0
LINE
  5
219
330
1C1
100
AcDbEntity
  8
Stammform
  6
AUSGEZOGEN
 62
     9
370
    18
100
AcDbLine
 10
488.157691498237
 20
128.179206225432
 30
0.0
 11
489.310074380813
 21
130.175213245547
 31
0.0
  0
LINE
  5
21A
330
1C1
100
AcDbEntity
  8
Stammform
  6
AUSGEZOGEN
 62
     9
370
    18
100
AcDbLine
 10
491.614871789186
 20
130.175213245547
 30
0.0
 11
492.767254671762
 21
128.179206225432
 31
0.0
  0
LINE
  5
21B
330
1C1
100
AcDbEntity
  8
Stammform
  6
AUSGEZOGEN
 62
     9
370
    18
100
AcDbLine
 10
492.767254671762
 20
128.179206225432
 30
0.0
 11
491.614871789186
 21
126.183199205318
 31
0.0
  0
LINE
  5
21C
330
1C1
100
AcDbEntity
  8
Stammform
  6
AUSGEZOGEN
 62
     9
370
    18
100
AcDbLine
 10
491.614871789186
 20
126.183199205318
 30
0.0
 11
489.310074380813
 21
126.183199205318
 31
0.0
  0
LINE
  5
21D
330
1C1
100
AcDbEntity
  8
Stammform
  6
AUSGEZOGEN
 62
     9
370
    18
100
AcDbLine
 10
489.310074380813
 20
130.175213245547
 30
0.0
 11
491.614871789186
 21
130.175213245547
 31
0.0
  0
LINE
  5
21E
330
1C1
100
AcDbEntity
  8
Stammform
  6
AUSGEZOGEN
 62
    56
370
    18
100
AcDbLine
 10
491.614871789186
 20
130.175213245547
 30
0.0
 11
490.462473084999
 21
128.179206225432
 31
0.0
  0
LINE
  5
21F
330
1C1
100
AcDbEntity
  8
Stammform
  6
AUSGEZOGEN
 62
    56
370
    18
100
AcDbLine
 10
490.462473084999
 20
128.179206225432
 30
0.0
 11
491.614871789186
 21
126.183199205318
 31
0.0
  0
LINE
  5
220
330
1C1
100
AcDbEntity
  8
Stammform
  6
AUSGEZOGEN
 62
    56
370
    18
100
AcDbLine
 10
490.462473084999
 20
128.179206225432
 30
0.0
 11
488.157691498237
 21
128.179206225432
 31
0.0
  0
LINE
  5
221
330
1C1
100
AcDbEntity
  8
Stammform
  6
AUSGEZOGEN
 62
     9
370
    18
100
AcDbLine
 10
489.310074380813
 20
126.183199205318
 30
0.0
 11
488.157691498237
 21
124.187192185203
 31
0.0
  0
LINE
  5
222
330
1C1
100
AcDbEntity
  8
Stammform
  6
AUSGEZOGEN
 62
     9
370
    18
100
AcDbLine
 10
488.157691498237
 20
124.187192185203
 30
0.0
 11
489.310074380813
 21
122.191183187387
 31
0.0
  0
LINE
  5
223
330
1C1
100
AcDbEntity
  8
Stammform
  6
AUSGEZOGEN
 62
     9
370
    18
100
AcDbLine
 10
491.614871789186
 20
122.191183187387
 30
0.0
 11
492.767254671762
 21
124.187192185203
 31
0.0
  0
LINE
  5
224
330
1C1
100
AcDbEntity
  8
Stammform
  6
AUSGEZOGEN
 62
     9
370
    18
100
AcDbLine
 10
492.767254671762
 20
124.187192185203
 30
0.0
 11
491.614871789186
 21
126.183199205318
 31
0.0
  0
LINE
  5
225
330
1C1
100
AcDbEntity
  8
Stammform
  6
AUSGEZOGEN
 62
     9
370
    18
100
AcDbLine
 10
491.614871789186
 20
126.183199205318
 30
0.0
 11
489.310074380813
 21
126.183199205318
 31
0.0
  0
LINE
  5
226
330
1C1
100
AcDbEntity
  8
Stammform
  6
AUSGEZOGEN
 62
     9
370
    18
100
AcDbLine
 10
489.310074380813
 20
122.191183187387
 30
0.0
 11
491.614871789186
 21
122.191183187387
 31
0.0
  0
LINE
  5
227
330
1C1
100
AcDbEntity
  8
Stammform
  6
AUSGEZOGEN
 62
    56
370
    18
100
AcDbLine
 10
491.614871789186
 20
122.191183187387
 30
0.0
 11
490.462473084999
 21
124.187192185203
 31
0.0
  0
LINE
  5
228
330
1C1
100
AcDbEntity
  8
Stammform
  6
AUSGEZOGEN
 62
    56
370
    18
100
AcDbLine
 10
490.462473084999
 20
124.187192185203
 30
0.0
 11
491.614871789186
 21
126.183199205318
 31
0.0
  0
LINE
  5
229
330
1C1
100
AcDbEntity
  8
Stammform
  6
AUSGEZOGEN
 62
    56
370
    18
100
AcDbLine
 10
490.462473084999
 20
124.187192185203
 30
0.0
 11
488.157691498237
 21
124.187192185203
 31
0.0
  0
LINE
  5
22A
330
1C1
100
AcDbEntity
  8
Stammform
  6
AUSGEZOGEN
 62
     9
370
    18
100
AcDbLine
 10
489.310074380813
 20
110.215172709922
 30
0.0
 11
488.157691498237
 21
112.211179730037
 31
0.0
  0
LINE
  5
22B
330
1C1
100
AcDbEntity
  8
Stammform
  6
AUSGEZOGEN
 62
     9
370
    18
100
AcDbLine
 10
488.157691498237
 20
112.211179730037
 30
0.0
 11
489.310074380813
 21
114.207186750151
 31
0.0
  0
LINE
  5
22C
330
1C1
100
AcDbEntity
  8
Stammform
  6
AUSGEZOGEN
 62
     9
370
    18
100
AcDbLine
 10
491.614871789186
 20
114.207186750151
 30
0.0
 11
492.767254671762
 21
112.211179730037
 31
0.0
  0
LINE
  5
22D
330
1C1
100
AcDbEntity
  8
Stammform
  6
AUSGEZOGEN
 62
     9
370
    18
100
AcDbLine
 10
492.767254671762
 20
112.211179730037
 30
0.0
 11
491.614871789186
 21
110.215172709922
 31
0.0
  0
LINE
  5
22E
330
1C1
100
AcDbEntity
  8
Stammform
  6
AUSGEZOGEN
 62
     9
370
    18
100
AcDbLine
 10
491.614871789186
 20
110.215172709922
 30
0.0
 11
489.310074380813
 21
110.215172709922
 31
0.0
  0
LINE
  5
22F
330
1C1
100
AcDbEntity
  8
Stammform
  6
AUSGEZOGEN
 62
     9
370
    18
100
AcDbLine
 10
489.310074380813
 20
114.207186750151
 30
0.0
 11
491.614871789186
 21
114.207186750151
 31
0.0
  0
LINE
  5
230
330
1C1
100
AcDbEntity
  8
Stammform
  6
AUSGEZOGEN
 62
    56
370
    18
100
AcDbLine
 10
491.614871789186
 20
114.207186750151
 30
0.0
 11
490.462473084999
 21
112.211179730037
 31
0.0
  0
LINE
  5
231
330
1C1
100
AcDbEntity
  8
Stammform
  6
AUSGEZOGEN
 62
    56
370
    18
100
AcDbLine
 10
490.462473084999
 20
112.211179730037
 30
0.0
 11
491.614871789186
 21
110.215172709922
 31
0.0
  0
LINE
  5
232
330
1C1
100
AcDbEntity
  8
Stammform
  6
AUSGEZOGEN
 62
    56
370
    18
100
AcDbLine
 10
490.462473084999
 20
112.211179730037
 30
0.0
 11
488.157691498237
 21
112.211179730037
 31
0.0
  0
LINE
  5
233
330
1C1
100
AcDbEntity
  8
Stammform
  6
AUSGEZOGEN
 62
     9
370
    18
100
AcDbLine
 10
489.310074380813
 20
110.215172709922
 30
0.0
 11
488.403655269724
 21
108.645191988884
 31
0.0
  0
LINE
  5
234
330
1C1
100
AcDbEntity
  8
Stammform
  6
AUSGEZOGEN
 62
     9
370
    18
100
AcDbLine
 10
491.614871789186
 20
110.215172709922
 30
0.0
 11
489.310074380813
 21
110.215172709922
 31
0.0
  0
LINE
  5
235
330
1C1
100
AcDbEntity
  8
Stammform
  6
AUSGEZOGEN
 62
    56
370
    18
100
AcDbLine
 10
490.70844023344
 20
108.645191988884
 30
0.0
 11
491.614871789186
 21
110.215172709922
 31
0.0
  0
LINE
  5
236
330
1C1
100
AcDbEntity
  8
Stammform
  6
AUSGEZOGEN
 62
     9
370
    18
100
AcDbLine
 10
485.606940288778
 20
131.745191988884
 30
0.0
 11
484.70051318499
 21
130.175197423935
 31
0.0
  0
LINE
  5
237
330
1C1
100
AcDbEntity
  8
Stammform
  6
AUSGEZOGEN
 62
     9
370
    18
100
AcDbLine
 10
484.70051318499
 20
130.175197423935
 30
0.0
 11
485.852896067565
 21
128.179190403821
 31
0.0
  0
LINE
  5
238
330
1C1
100
AcDbEntity
  8
Stammform
  6
AUSGEZOGEN
 62
     9
370
    18
100
AcDbLine
 10
488.157691498237
 20
128.179190403821
 30
0.0
 11
489.310074380813
 21
130.175197423935
 31
0.0
  0
LINE
  5
239
330
1C1
100
AcDbEntity
  8
Stammform
  6
AUSGEZOGEN
 62
     9
370
    18
100
AcDbLine
 10
485.852896067565
 20
128.179190403821
 30
0.0
 11
488.157691498237
 21
128.179190403821
 31
0.0
  0
LINE
  5
23A
330
1C1
100
AcDbEntity
  8
Stammform
  6
AUSGEZOGEN
 62
    56
370
    18
100
AcDbLine
 10
488.157691498237
 20
128.179190403821
 30
0.0
 11
487.005294771752
 21
130.175197423935
 31
0.0
  0
LINE
  5
23B
330
1C1
100
AcDbEntity
  8
Stammform
  6
AUSGEZOGEN
 62
    56
370
    18
100
AcDbLine
 10
487.005294771752
 20
130.175197423935
 30
0.0
 11
487.911732764712
 21
131.745191988884
 31
0.0
  0
LINE
  5
23C
330
1C1
100
AcDbEntity
  8
Stammform
  6
AUSGEZOGEN
 62
    56
370
    18
100
AcDbLine
 10
487.005294771752
 20
130.175197423935
 30
0.0
 11
484.70051318499
 21
130.175197423935
 31
0.0
  0
LINE
  5
23D
330
1C1
100
AcDbEntity
  8
Stammform
  6
AUSGEZOGEN
 62
     9
370
    18
100
AcDbLine
 10
485.852896067565
 20
116.203177948655
 30
0.0
 11
484.70051318499
 21
114.20717092854
 31
0.0
  0
LINE
  5
23E
330
1C1
100
AcDbEntity
  8
Stammform
  6
AUSGEZOGEN
 62
     9
370
    18
100
AcDbLine
 10
484.70051318499
 20
114.20717092854
 30
0.0
 11
485.852896067565
 21
112.211163908425
 31
0.0
  0
LINE
  5
23F
330
1C1
100
AcDbEntity
  8
Stammform
  6
AUSGEZOGEN
 62
     9
370
    18
100
AcDbLine
 10
488.157691498237
 20
112.211163908425
 30
0.0
 11
489.310074380813
 21
114.20717092854
 31
0.0
  0
LINE
  5
240
330
1C1
100
AcDbEntity
  8
Stammform
  6
AUSGEZOGEN
 62
     9
370
    18
100
AcDbLine
 10
489.310074380813
 20
114.20717092854
 30
0.0
 11
488.157691498237
 21
116.203177948655
 31
0.0
  0
LINE
  5
241
330
1C1
100
AcDbEntity
  8
Stammform
  6
AUSGEZOGEN
 62
     9
370
    18
100
AcDbLine
 10
488.157691498237
 20
116.203177948655
 30
0.0
 11
485.852896067565
 21
116.203177948655
 31
0.0
  0
LINE
  5
242
330
1C1
100
AcDbEntity
  8
Stammform
  6
AUSGEZOGEN
 62
     9
370
    18
100
AcDbLine
 10
485.852896067565
 20
112.211163908425
 30
0.0
 11
488.157691498237
 21
112.211163908425
 31
0.0
  0
LINE
  5
243
330
1C1
100
AcDbEntity
  8
Stammform
  6
AUSGEZOGEN
 62
    56
370
    18
100
AcDbLine
 10
488.157691498237
 20
112.211163908425
 30
0.0
 11
487.005294771752
 21
114.20717092854
 31
0.0
  0
LINE
  5
244
330
1C1
100
AcDbEntity
  8
Stammform
  6
AUSGEZOGEN
 62
    56
370
    18
100
AcDbLine
 10
487.005294771752
 20
114.20717092854
 30
0.0
 11
488.157691498237
 21
116.203177948655
 31
0.0
  0
LINE
  5
245
330
1C1
100
AcDbEntity
  8
Stammform
  6
AUSGEZOGEN
 62
    56
370
    18
100
AcDbLine
 10
487.005294771752
 20
114.20717092854
 30
0.0
 11
484.70051318499
 21
114.20717092854
 31
0.0
  0
LINE
  5
246
330
1C1
100
AcDbEntity
  8
Stammform
  6
AUSGEZOGEN
 62
     9
370
    18
100
AcDbLine
 10
485.852896067565
 20
116.203177948655
 30
0.0
 11
484.70051318499
 21
118.199184968769
 31
0.0
  0
LINE
  5
247
330
1C1
100
AcDbEntity
  8
Stammform
  6
AUSGEZOGEN
 62
     9
370
    18
100
AcDbLine
 10
484.70051318499
 20
118.199184968769
 30
0.0
 11
485.852896067565
 21
120.195191988884
 31
0.0
  0
LINE
  5
248
330
1C1
100
AcDbEntity
  8
Stammform
  6
AUSGEZOGEN
 62
     9
370
    18
100
AcDbLine
 10
488.157691498237
 20
120.195191988884
 30
0.0
 11
489.310074380813
 21
118.199184968769
 31
0.0
  0
LINE
  5
249
330
1C1
100
AcDbEntity
  8
Stammform
  6
AUSGEZOGEN
 62
     9
370
    18
100
AcDbLine
 10
489.310074380813
 20
118.199184968769
 30
0.0
 11
488.157691498237
 21
116.203177948655
 31
0.0
  0
LINE
  5
24A
330
1C1
100
AcDbEntity
  8
Stammform
  6
AUSGEZOGEN
 62
     9
370
    18
100
AcDbLine
 10
488.157691498237
 20
116.203177948655
 30
0.0
 11
485.852896067565
 21
116.203177948655
 31
0.0
  0
LINE
  5
24B
330
1C1
100
AcDbEntity
  8
Stammform
  6
AUSGEZOGEN
 62
     9
370
    18
100
AcDbLine
 10
485.852896067565
 20
120.195191988884
 30
0.0
 11
488.157691498237
 21
120.195191988884
 31
0.0
  0
LINE
  5
24C
330
1C1
100
AcDbEntity
  8
Stammform
  6
AUSGEZOGEN
 62
    56
370
    18
100
AcDbLine
 10
488.157691498237
 20
120.195191988884
 30
0.0
 11
487.005294771752
 21
118.199184968769
 31
0.0
  0
LINE
  5
24D
330
1C1
100
AcDbEntity
  8
Stammform
  6
AUSGEZOGEN
 62
    56
370
    18
100
AcDbLine
 10
487.005294771752
 20
118.199184968769
 30
0.0
 11
488.157691498237
 21
116.203177948655
 31
0.0
  0
LINE
  5
24E
330
1C1
100
AcDbEntity
  8
Stammform
  6
AUSGEZOGEN
 62
    56
370
    18
100
AcDbLine
 10
487.005294771752
 20
118.199184968769
 30
0.0
 11
484.70051318499
 21
118.199184968769
 31
0.0
  0
LINE
  5
24F
330
1C1
100
AcDbEntity
  8
Stammform
  6
AUSGEZOGEN
 62
     9
370
    18
100
AcDbLine
 10
485.852896067565
 20
124.187192185203
 30
0.0
 11
484.70051318499
 21
126.183199205318
 31
0.0
  0
LINE
  5
250
330
1C1
100
AcDbEntity
  8
Stammform
  6
AUSGEZOGEN
 62
     9
370
    18
100
AcDbLine
 10
484.70051318499
 20
126.183199205318
 30
0.0
 11
485.852896067565
 21
128.179190403821
 31
0.0
  0
LINE
  5
251
330
1C1
100
AcDbEntity
  8
Stammform
  6
AUSGEZOGEN
 62
     9
370
    18
100
AcDbLine
 10
488.157691498237
 20
128.179190403821
 30
0.0
 11
489.310074380813
 21
126.183199205318
 31
0.0
  0
LINE
  5
252
330
1C1
100
AcDbEntity
  8
Stammform
  6
AUSGEZOGEN
 62
     9
370
    18
100
AcDbLine
 10
489.310074380813
 20
126.183199205318
 30
0.0
 11
488.157691498237
 21
124.187192185203
 31
0.0
  0
LINE
  5
253
330
1C1
100
AcDbEntity
  8
Stammform
  6
AUSGEZOGEN
 62
     9
370
    18
100
AcDbLine
 10
488.157691498237
 20
124.187192185203
 30
0.0
 11
485.852896067565
 21
124.187192185203
 31
0.0
  0
LINE
  5
254
330
1C1
100
AcDbEntity
  8
Stammform
  6
AUSGEZOGEN
 62
     9
370
    18
100
AcDbLine
 10
485.852896067565
 20
128.179190403821
 30
0.0
 11
488.157691498237
 21
128.179190403821
 31
0.0
  0
LINE
  5
255
330
1C1
100
AcDbEntity
  8
Stammform
  6
AUSGEZOGEN
 62
    56
370
    18
100
AcDbLine
 10
488.157691498237
 20
128.179190403821
 30
0.0
 11
487.005294771752
 21
126.183199205318
 31
0.0
  0
LINE
  5
256
330
1C1
100
AcDbEntity
  8
Stammform
  6
AUSGEZOGEN
 62
    56
370
    18
100
AcDbLine
 10
487.005294771752
 20
126.183199205318
 30
0.0
 11
488.157691498237
 21
124.187192185203
 31
0.0
  0
LINE
  5
257
330
1C1
100
AcDbEntity
  8
Stammform
  6
AUSGEZOGEN
 62
    56
370
    18
100
AcDbLine
 10
487.005294771752
 20
126.183199205318
 30
0.0
 11
484.70051318499
 21
126.183199205318
 31
0.0
  0
LINE
  5
258
330
1C1
100
AcDbEntity
  8
Stammform
  6
AUSGEZOGEN
 62
     9
370
    18
100
AcDbLine
 10
485.852896067565
 20
124.187192185203
 30
0.0
 11
484.70051318499
 21
122.191183187387
 31
0.0
  0
LINE
  5
259
330
1C1
100
AcDbEntity
  8
Stammform
  6
AUSGEZOGEN
 62
     9
370
    18
100
AcDbLine
 10
484.70051318499
 20
122.191183187387
 30
0.0
 11
485.852896067565
 21
120.195191988884
 31
0.0
  0
LINE
  5
25A
330
1C1
100
AcDbEntity
  8
Stammform
  6
AUSGEZOGEN
 62
     9
370
    18
100
AcDbLine
 10
488.157691498237
 20
120.195191988884
 30
0.0
 11
489.310074380813
 21
122.191183187387
 31
0.0
  0
LINE
  5
25B
330
1C1
100
AcDbEntity
  8
Stammform
  6
AUSGEZOGEN
 62
     9
370
    18
100
AcDbLine
 10
489.310074380813
 20
122.191183187387
 30
0.0
 11
488.157691498237
 21
124.187192185203
 31
0.0
  0
LINE
  5
25C
330
1C1
100
AcDbEntity
  8
Stammform
  6
AUSGEZOGEN
 62
     9
370
    18
100
AcDbLine
 10
488.157691498237
 20
124.187192185203
 30
0.0
 11
485.852896067565
 21
124.187192185203
 31
0.0
  0
LINE
  5
25D
330
1C1
100
AcDbEntity
  8
Stammform
  6
AUSGEZOGEN
 62
     9
370
    18
100
AcDbLine
 10
485.852896067565
 20
120.195191988884
 30
0.0
 11
488.157691498237
 21
120.195191988884
 31
0.0
  0
LINE
  5
25E
330
1C1
100
AcDbEntity
  8
Stammform
  6
AUSGEZOGEN
 62
    56
370
    18
100
AcDbLine
 10
488.157691498237
 20
120.195191988884
 30
0.0
 11
487.005294771752
 21
122.191183187387
 31
0.0
  0
LINE
  5
25F
330
1C1
100
AcDbEntity
  8
Stammform
  6
AUSGEZOGEN
 62
    56
370
    18
100
AcDbLine
 10
487.005294771752
 20
122.191183187387
 30
0.0
 11
488.157691498237
 21
124.187192185203
 31
0.0
  0
LINE
  5
260
330
1C1
100
AcDbEntity
  8
Stammform
  6
AUSGEZOGEN
 62
    56
370
    18
100
AcDbLine
 10
487.005294771752
 20
122.191183187387
 30
0.0
 11
484.70051318499
 21
122.191183187387
 31
0.0
  0
LINE
  5
261
330
1C1
100
AcDbEntity
  8
Stammform
  6
AUSGEZOGEN
 62
     9
370
    18
100
AcDbLine
 10
485.606932296078
 20
108.645191988884
 30
0.0
 11
484.70051318499
 21
110.215172709922
 31
0.0
  0
LINE
  5
262
330
1C1
100
AcDbEntity
  8
Stammform
  6
AUSGEZOGEN
 62
     9
370
    18
100
AcDbLine
 10
484.70051318499
 20
110.215172709922
 30
0.0
 11
485.852896067565
 21
112.211163908425
 31
0.0
  0
LINE
  5
263
330
1C1
100
AcDbEntity
  8
Stammform
  6
AUSGEZOGEN
 62
     9
370
    18
100
AcDbLine
 10
488.157691498237
 20
112.211163908425
 30
0.0
 11
489.310074380813
 21
110.215172709922
 31
0.0
  0
LINE
  5
264
330
1C1
100
AcDbEntity
  8
Stammform
  6
AUSGEZOGEN
 62
     9
370
    18
100
AcDbLine
 10
485.852896067565
 20
112.211163908425
 30
0.0
 11
488.157691498237
 21
112.211163908425
 31
0.0
  0
LINE
  5
265
330
1C1
100
AcDbEntity
  8
Stammform
  6
AUSGEZOGEN
 62
    56
370
    18
100
AcDbLine
 10
488.157691498237
 20
112.211163908425
 30
0.0
 11
487.005294771752
 21
110.215172709922
 31
0.0
  0
LINE
  5
266
330
1C1
100
AcDbEntity
  8
Stammform
  6
AUSGEZOGEN
 62
    56
370
    18
100
AcDbLine
 10
487.005294771752
 20
110.215172709922
 30
0.0
 11
487.911724771916
 21
108.645191988884
 31
0.0
  0
LINE
  5
267
330
1C1
100
AcDbEntity
  8
Stammform
  6
AUSGEZOGEN
 62
    56
370
    18
100
AcDbLine
 10
487.005294771752
 20
110.215172709922
 30
0.0
 11
484.70051318499
 21
110.215172709922
 31
0.0
  0
LINE
  5
268
330
1C1
100
AcDbEntity
  8
Stammform
  6
AUSGEZOGEN
 62
     9
370
    18
100
AcDbLine
 10
481.489290622445
 20
131.745191988884
 30
0.0
 11
482.395715776616
 21
130.175213245547
 31
0.0
  0
LINE
  5
269
330
1C1
100
AcDbEntity
  8
Stammform
  6
AUSGEZOGEN
 62
     9
370
    18
100
AcDbLine
 10
482.395715776616
 20
130.175213245547
 30
0.0
 11
484.70051318499
 21
130.175213245547
 31
0.0
  0
LINE
  5
26A
330
1C1
100
AcDbEntity
  8
Stammform
  6
AUSGEZOGEN
 62
    56
370
    18
100
AcDbLine
 10
484.70051318499
 20
130.175213245547
 30
0.0
 11
483.794075586077
 21
131.745191988884
 31
0.0
  0
LINE
  5
26B
330
1C1
100
AcDbEntity
  8
Stammform
  6
AUSGEZOGEN
 62
     9
370
    18
100
AcDbLine
 10
482.395715776616
 20
118.199184968769
 30
0.0
 11
481.243332894041
 21
116.203177948655
 31
0.0
  0
LINE
  5
26C
330
1C1
100
AcDbEntity
  8
Stammform
  6
AUSGEZOGEN
 62
     9
370
    18
100
AcDbLine
 10
481.243332894041
 20
116.203177948655
 30
0.0
 11
482.395715776616
 21
114.207186750151
 31
0.0
  0
LINE
  5
26D
330
1C1
100
AcDbEntity
  8
Stammform
  6
AUSGEZOGEN
 62
     9
370
    18
100
AcDbLine
 10
484.70051318499
 20
114.207186750151
 30
0.0
 11
485.852896067565
 21
116.203177948655
 31
0.0
  0
LINE
  5
26E
330
1C1
100
AcDbEntity
  8
Stammform
  6
AUSGEZOGEN
 62
     9
370
    18
100
AcDbLine
 10
485.852896067565
 20
116.203177948655
 30
0.0
 11
484.70051318499
 21
118.199184968769
 31
0.0
  0
LINE
  5
26F
330
1C1
100
AcDbEntity
  8
Stammform
  6
AUSGEZOGEN
 62
     9
370
    18
100
AcDbLine
 10
484.70051318499
 20
118.199184968769
 30
0.0
 11
482.395715776616
 21
118.199184968769
 31
0.0
  0
LINE
  5
270
330
1C1
100
AcDbEntity
  8
Stammform
  6
AUSGEZOGEN
 62
     9
370
    18
100
AcDbLine
 10
482.395715776616
 20
114.207186750151
 30
0.0
 11
484.70051318499
 21
114.207186750151
 31
0.0
  0
LINE
  5
271
330
1C1
100
AcDbEntity
  8
Stammform
  6
AUSGEZOGEN
 62
    56
370
    18
100
AcDbLine
 10
484.70051318499
 20
114.207186750151
 30
0.0
 11
483.548114480803
 21
116.203177948655
 31
0.0
  0
LINE
  5
272
330
1C1
100
AcDbEntity
  8
Stammform
  6
AUSGEZOGEN
 62
    56
370
    18
100
AcDbLine
 10
483.548114480803
 20
116.203177948655
 30
0.0
 11
484.70051318499
 21
118.199184968769
 31
0.0
  0
LINE
  5
273
330
1C1
100
AcDbEntity
  8
Stammform
  6
AUSGEZOGEN
 62
    56
370
    18
100
AcDbLine
 10
483.548114480803
 20
116.203177948655
 30
0.0
 11
481.243332894041
 21
116.203177948655
 31
0.0
  0
LINE
  5
274
330
1C1
100
AcDbEntity
  8
Stammform
  6
AUSGEZOGEN
 62
     9
370
    18
100
AcDbLine
 10
482.395715776616
 20
118.199184968769
 30
0.0
 11
481.243332894041
 21
120.195191988884
 31
0.0
  0
LINE
  5
275
330
1C1
100
AcDbEntity
  8
Stammform
  6
AUSGEZOGEN
 62
     9
370
    18
100
AcDbLine
 10
481.243332894041
 20
120.195191988884
 30
0.0
 11
482.395715776616
 21
122.191183187387
 31
0.0
  0
LINE
  5
276
330
1C1
100
AcDbEntity
  8
Stammform
  6
AUSGEZOGEN
 62
     9
370
    18
100
AcDbLine
 10
484.70051318499
 20
122.191183187387
 30
0.0
 11
485.852896067565
 21
120.195191988884
 31
0.0
  0
LINE
  5
277
330
1C1
100
AcDbEntity
  8
Stammform
  6
AUSGEZOGEN
 62
     9
370
    18
100
AcDbLine
 10
485.852896067565
 20
120.195191988884
 30
0.0
 11
484.70051318499
 21
118.199184968769
 31
0.0
  0
LINE
  5
278
330
1C1
100
AcDbEntity
  8
Stammform
  6
AUSGEZOGEN
 62
     9
370
    18
100
AcDbLine
 10
484.70051318499
 20
118.199184968769
 30
0.0
 11
482.395715776616
 21
118.199184968769
 31
0.0
  0
LINE
  5
279
330
1C1
100
AcDbEntity
  8
Stammform
  6
AUSGEZOGEN
 62
     9
370
    18
100
AcDbLine
 10
482.395715776616
 20
122.191183187387
 30
0.0
 11
484.70051318499
 21
122.191183187387
 31
0.0
  0
LINE
  5
27A
330
1C1
100
AcDbEntity
  8
Stammform
  6
AUSGEZOGEN
 62
    56
370
    18
100
AcDbLine
 10
484.70051318499
 20
122.191183187387
 30
0.0
 11
483.548114480803
 21
120.195191988884
 31
0.0
  0
LINE
  5
27B
330
1C1
100
AcDbEntity
  8
Stammform
  6
AUSGEZOGEN
 62
    56
370
    18
100
AcDbLine
 10
483.548114480803
 20
120.195191988884
 30
0.0
 11
484.70051318499
 21
118.199184968769
 31
0.0
  0
LINE
  5
27C
330
1C1
100
AcDbEntity
  8
Stammform
  6
AUSGEZOGEN
 62
    56
370
    18
100
AcDbLine
 10
483.548114480803
 20
120.195191988884
 30
0.0
 11
481.243332894041
 21
120.195191988884
 31
0.0
  0
LINE
  5
27D
330
1C1
100
AcDbEntity
  8
Stammform
  6
AUSGEZOGEN
 62
     9
370
    18
100
AcDbLine
 10
482.395715776616
 20
126.183199205318
 30
0.0
 11
481.243332894041
 21
128.179206225432
 31
0.0
  0
LINE
  5
27E
330
1C1
100
AcDbEntity
  8
Stammform
  6
AUSGEZOGEN
 62
     9
370
    18
100
AcDbLine
 10
481.243332894041
 20
128.179206225432
 30
0.0
 11
482.395715776616
 21
130.175213245547
 31
0.0
  0
LINE
  5
27F
330
1C1
100
AcDbEntity
  8
Stammform
  6
AUSGEZOGEN
 62
     9
370
    18
100
AcDbLine
 10
484.70051318499
 20
130.175213245547
 30
0.0
 11
485.852896067565
 21
128.179206225432
 31
0.0
  0
LINE
  5
280
330
1C1
100
AcDbEntity
  8
Stammform
  6
AUSGEZOGEN
 62
     9
370
    18
100
AcDbLine
 10
485.852896067565
 20
128.179206225432
 30
0.0
 11
484.70051318499
 21
126.183199205318
 31
0.0
  0
LINE
  5
281
330
1C1
100
AcDbEntity
  8
Stammform
  6
AUSGEZOGEN
 62
     9
370
    18
100
AcDbLine
 10
484.70051318499
 20
126.183199205318
 30
0.0
 11
482.395715776616
 21
126.183199205318
 31
0.0
  0
LINE
  5
282
330
1C1
100
AcDbEntity
  8
Stammform
  6
AUSGEZOGEN
 62
     9
370
    18
100
AcDbLine
 10
482.395715776616
 20
130.175213245547
 30
0.0
 11
484.70051318499
 21
130.175213245547
 31
0.0
  0
LINE
  5
283
330
1C1
100
AcDbEntity
  8
Stammform
  6
AUSGEZOGEN
 62
    56
370
    18
100
AcDbLine
 10
484.70051318499
 20
130.175213245547
 30
0.0
 11
483.548114480803
 21
128.179206225432
 31
0.0
  0
LINE
  5
284
330
1C1
100
AcDbEntity
  8
Stammform
  6
AUSGEZOGEN
 62
    56
370
    18
100
AcDbLine
 10
483.548114480803
 20
128.179206225432
 30
0.0
 11
484.70051318499
 21
126.183199205318
 31
0.0
  0
LINE
  5
285
330
1C1
100
AcDbEntity
  8
Stammform
  6
AUSGEZOGEN
 62
    56
370
    18
100
AcDbLine
 10
483.548114480803
 20
128.179206225432
 30
0.0
 11
481.243332894041
 21
128.179206225432
 31
0.0
  0
LINE
  5
286
330
1C1
100
AcDbEntity
  8
Stammform
  6
AUSGEZOGEN
 62
     9
370
    18
100
AcDbLine
 10
482.395715776616
 20
126.183199205318
 30
0.0
 11
481.243332894041
 21
124.187192185203
 31
0.0
  0
LINE
  5
287
330
1C1
100
AcDbEntity
  8
Stammform
  6
AUSGEZOGEN
 62
     9
370
    18
100
AcDbLine
 10
481.243332894041
 20
124.187192185203
 30
0.0
 11
482.395715776616
 21
122.191183187387
 31
0.0
  0
LINE
  5
288
330
1C1
100
AcDbEntity
  8
Stammform
  6
AUSGEZOGEN
 62
     9
370
    18
100
AcDbLine
 10
484.70051318499
 20
122.191183187387
 30
0.0
 11
485.852896067565
 21
124.187192185203
 31
0.0
  0
LINE
  5
289
330
1C1
100
AcDbEntity
  8
Stammform
  6
AUSGEZOGEN
 62
     9
370
    18
100
AcDbLine
 10
485.852896067565
 20
124.187192185203
 30
0.0
 11
484.70051318499
 21
126.183199205318
 31
0.0
  0
LINE
  5
28A
330
1C1
100
AcDbEntity
  8
Stammform
  6
AUSGEZOGEN
 62
     9
370
    18
100
AcDbLine
 10
484.70051318499
 20
126.183199205318
 30
0.0
 11
482.395715776616
 21
126.183199205318
 31
0.0
  0
LINE
  5
28B
330
1C1
100
AcDbEntity
  8
Stammform
  6
AUSGEZOGEN
 62
     9
370
    18
100
AcDbLine
 10
482.395715776616
 20
122.191183187387
 30
0.0
 11
484.70051318499
 21
122.191183187387
 31
0.0
  0
LINE
  5
28C
330
1C1
100
AcDbEntity
  8
Stammform
  6
AUSGEZOGEN
 62
    56
370
    18
100
AcDbLine
 10
484.70051318499
 20
122.191183187387
 30
0.0
 11
483.548114480803
 21
124.187192185203
 31
0.0
  0
LINE
  5
28D
330
1C1
100
AcDbEntity
  8
Stammform
  6
AUSGEZOGEN
 62
    56
370
    18
100
AcDbLine
 10
483.548114480803
 20
124.187192185203
 30
0.0
 11
484.70051318499
 21
126.183199205318
 31
0.0
  0
LINE
  5
28E
330
1C1
100
AcDbEntity
  8
Stammform
  6
AUSGEZOGEN
 62
    56
370
    18
100
AcDbLine
 10
483.548114480803
 20
124.187192185203
 30
0.0
 11
481.243332894041
 21
124.187192185203
 31
0.0
  0
LINE
  5
28F
330
1C1
100
AcDbEntity
  8
Stammform
  6
AUSGEZOGEN
 62
     9
370
    18
100
AcDbLine
 10
482.395715776616
 20
110.215172709922
 30
0.0
 11
481.243332894041
 21
112.211179730037
 31
0.0
  0
LINE
  5
290
330
1C1
100
AcDbEntity
  8
Stammform
  6
AUSGEZOGEN
 62
     9
370
    18
100
AcDbLine
 10
481.243332894041
 20
112.211179730037
 30
0.0
 11
482.395715776616
 21
114.207186750151
 31
0.0
  0
LINE
  5
291
330
1C1
100
AcDbEntity
  8
Stammform
  6
AUSGEZOGEN
 62
     9
370
    18
100
AcDbLine
 10
484.70051318499
 20
114.207186750151
 30
0.0
 11
485.852896067565
 21
112.211179730037
 31
0.0
  0
LINE
  5
292
330
1C1
100
AcDbEntity
  8
Stammform
  6
AUSGEZOGEN
 62
     9
370
    18
100
AcDbLine
 10
485.852896067565
 20
112.211179730037
 30
0.0
 11
484.70051318499
 21
110.215172709922
 31
0.0
  0
LINE
  5
293
330
1C1
100
AcDbEntity
  8
Stammform
  6
AUSGEZOGEN
 62
     9
370
    18
100
AcDbLine
 10
484.70051318499
 20
110.215172709922
 30
0.0
 11
482.395715776616
 21
110.215172709922
 31
0.0
  0
LINE
  5
294
330
1C1
100
AcDbEntity
  8
Stammform
  6
AUSGEZOGEN
 62
     9
370
    18
100
AcDbLine
 10
482.395715776616
 20
114.207186750151
 30
0.0
 11
484.70051318499
 21
114.207186750151
 31
0.0
  0
LINE
  5
295
330
1C1
100
AcDbEntity
  8
Stammform
  6
AUSGEZOGEN
 62
    56
370
    18
100
AcDbLine
 10
484.70051318499
 20
114.207186750151
 30
0.0
 11
483.548114480803
 21
112.211179730037
 31
0.0
  0
LINE
  5
296
330
1C1
100
AcDbEntity
  8
Stammform
  6
AUSGEZOGEN
 62
    56
370
    18
100
AcDbLine
 10
483.548114480803
 20
112.211179730037
 30
0.0
 11
484.70051318499
 21
110.215172709922
 31
0.0
  0
LINE
  5
297
330
1C1
100
AcDbEntity
  8
Stammform
  6
AUSGEZOGEN
 62
    56
370
    18
100
AcDbLine
 10
483.548114480803
 20
112.211179730037
 30
0.0
 11
481.243332894041
 21
112.211179730037
 31
0.0
  0
LINE
  5
298
330
1C1
100
AcDbEntity
  8
Stammform
  6
AUSGEZOGEN
 62
     9
370
    18
100
AcDbLine
 10
482.395715776616
 20
110.215172709922
 30
0.0
 11
481.489296665528
 21
108.645191988884
 31
0.0
  0
LINE
  5
299
330
1C1
100
AcDbEntity
  8
Stammform
  6
AUSGEZOGEN
 62
     9
370
    18
100
AcDbLine
 10
484.70051318499
 20
110.215172709922
 30
0.0
 11
482.395715776616
 21
110.215172709922
 31
0.0
  0
LINE
  5
29A
330
1C1
100
AcDbEntity
  8
Stammform
  6
AUSGEZOGEN
 62
    56
370
    18
100
AcDbLine
 10
483.794081629244
 20
108.645191988884
 30
0.0
 11
484.70051318499
 21
110.215172709922
 31
0.0
  0
LINE
  5
29B
330
1C1
100
AcDbEntity
  8
Stammform
  6
AUSGEZOGEN
 62
     9
370
    18
100
AcDbLine
 10
478.69257970688
 20
131.745191988884
 30
0.0
 11
477.786152603092
 21
130.175197423935
 31
0.0
  0
LINE
  5
29C
330
1C1
100
AcDbEntity
  8
Stammform
  6
AUSGEZOGEN
 62
     9
370
    18
100
AcDbLine
 10
477.786152603092
 20
130.175197423935
 30
0.0
 11
478.938535485668
 21
128.179190403821
 31
0.0
  0
LINE
  5
29D
330
1C1
100
AcDbEntity
  8
Stammform
  6
AUSGEZOGEN
 62
     9
370
    18
100
AcDbLine
 10
481.243332894041
 20
128.179190403821
 30
0.0
 11
482.395715776616
 21
130.175197423935
 31
0.0
  0
LINE
  5
29E
330
1C1
100
AcDbEntity
  8
Stammform
  6
AUSGEZOGEN
 62
     9
370
    18
100
AcDbLine
 10
478.938535485668
 20
128.179190403821
 30
0.0
 11
481.243332894041
 21
128.179190403821
 31
0.0
  0
LINE
  5
29F
330
1C1
100
AcDbEntity
  8
Stammform
  6
AUSGEZOGEN
 62
    56
370
    18
100
AcDbLine
 10
481.243332894041
 20
128.179190403821
 30
0.0
 11
480.090934189854
 21
130.175197423935
 31
0.0
  0
LINE
  5
2A0
330
1C1
100
AcDbEntity
  8
Stammform
  6
AUSGEZOGEN
 62
    56
370
    18
100
AcDbLine
 10
480.090934189854
 20
130.175197423935
 30
0.0
 11
480.99737373841
 21
131.745191988884
 31
0.0
  0
LINE
  5
2A1
330
1C1
100
AcDbEntity
  8
Stammform
  6
AUSGEZOGEN
 62
    56
370
    18
100
AcDbLine
 10
480.090934189854
 20
130.175197423935
 30
0.0
 11
477.786152603092
 21
130.175197423935
 31
0.0
  0
LINE
  5
2A2
330
1C1
100
AcDbEntity
  8
Stammform
  6
AUSGEZOGEN
 62
     9
370
    18
100
AcDbLine
 10
478.938535485668
 20
116.203177948655
 30
0.0
 11
477.786152603092
 21
114.20717092854
 31
0.0
  0
LINE
  5
2A3
330
1C1
100
AcDbEntity
  8
Stammform
  6
AUSGEZOGEN
 62
     9
370
    18
100
AcDbLine
 10
477.786152603092
 20
114.20717092854
 30
0.0
 11
478.938535485668
 21
112.211163908425
 31
0.0
  0
LINE
  5
2A4
330
1C1
100
AcDbEntity
  8
Stammform
  6
AUSGEZOGEN
 62
     9
370
    18
100
AcDbLine
 10
481.243332894041
 20
112.211163908425
 30
0.0
 11
482.395715776616
 21
114.20717092854
 31
0.0
  0
LINE
  5
2A5
330
1C1
100
AcDbEntity
  8
Stammform
  6
AUSGEZOGEN
 62
     9
370
    18
100
AcDbLine
 10
482.395715776616
 20
114.20717092854
 30
0.0
 11
481.243332894041
 21
116.203177948655
 31
0.0
  0
LINE
  5
2A6
330
1C1
100
AcDbEntity
  8
Stammform
  6
AUSGEZOGEN
 62
     9
370
    18
100
AcDbLine
 10
481.243332894041
 20
116.203177948655
 30
0.0
 11
478.938535485668
 21
116.203177948655
 31
0.0
  0
LINE
  5
2A7
330
1C1
100
AcDbEntity
  8
Stammform
  6
AUSGEZOGEN
 62
     9
370
    18
100
AcDbLine
 10
478.938535485668
 20
112.211163908425
 30
0.0
 11
481.243332894041
 21
112.211163908425
 31
0.0
  0
LINE
  5
2A8
330
1C1
100
AcDbEntity
  8
Stammform
  6
AUSGEZOGEN
 62
    56
370
    18
100
AcDbLine
 10
481.243332894041
 20
112.211163908425
 30
0.0
 11
480.090934189854
 21
114.20717092854
 31
0.0
  0
LINE
  5
2A9
330
1C1
100
AcDbEntity
  8
Stammform
  6
AUSGEZOGEN
 62
    56
370
    18
100
AcDbLine
 10
480.090934189854
 20
114.20717092854
 30
0.0
 11
481.243332894041
 21
116.203177948655
 31
0.0
  0
LINE
  5
2AA
330
1C1
100
AcDbEntity
  8
Stammform
  6
AUSGEZOGEN
 62
    56
370
    18
100
AcDbLine
 10
480.090934189854
 20
114.20717092854
 30
0.0
 11
477.786152603092
 21
114.20717092854
 31
0.0
  0
LINE
  5
2AB
330
1C1
100
AcDbEntity
  8
Stammform
  6
AUSGEZOGEN
 62
     9
370
    18
100
AcDbLine
 10
478.938535485668
 20
116.203177948655
 30
0.0
 11
477.786152603092
 21
118.199184968769
 31
0.0
  0
LINE
  5
2AC
330
1C1
100
AcDbEntity
  8
Stammform
  6
AUSGEZOGEN
 62
     9
370
    18
100
AcDbLine
 10
477.786152603092
 20
118.199184968769
 30
0.0
 11
478.938535485668
 21
120.195191988884
 31
0.0
  0
LINE
  5
2AD
330
1C1
100
AcDbEntity
  8
Stammform
  6
AUSGEZOGEN
 62
     9
370
    18
100
AcDbLine
 10
481.243332894041
 20
120.195191988884
 30
0.0
 11
482.395715776616
 21
118.199184968769
 31
0.0
  0
LINE
  5
2AE
330
1C1
100
AcDbEntity
  8
Stammform
  6
AUSGEZOGEN
 62
     9
370
    18
100
AcDbLine
 10
482.395715776616
 20
118.199184968769
 30
0.0
 11
481.243332894041
 21
116.203177948655
 31
0.0
  0
LINE
  5
2AF
330
1C1
100
AcDbEntity
  8
Stammform
  6
AUSGEZOGEN
 62
     9
370
    18
100
AcDbLine
 10
481.243332894041
 20
116.203177948655
 30
0.0
 11
478.938535485668
 21
116.203177948655
 31
0.0
  0
LINE
  5
2B0
330
1C1
100
AcDbEntity
  8
Stammform
  6
AUSGEZOGEN
 62
     9
370
    18
100
AcDbLine
 10
478.938535485668
 20
120.195191988884
 30
0.0
 11
481.243332894041
 21
120.195191988884
 31
0.0
  0
LINE
  5
2B1
330
1C1
100
AcDbEntity
  8
Stammform
  6
AUSGEZOGEN
 62
    56
370
    18
100
AcDbLine
 10
481.243332894041
 20
120.195191988884
 30
0.0
 11
480.090934189854
 21
118.199184968769
 31
0.0
  0
LINE
  5
2B2
330
1C1
100
AcDbEntity
  8
Stammform
  6
AUSGEZOGEN
 62
    56
370
    18
100
AcDbLine
 10
480.090934189854
 20
118.199184968769
 30
0.0
 11
481.243332894041
 21
116.203177948655
 31
0.0
  0
LINE
  5
2B3
330
1C1
100
AcDbEntity
  8
Stammform
  6
AUSGEZOGEN
 62
    56
370
    18
100
AcDbLine
 10
480.090934189854
 20
118.199184968769
 30
0.0
 11
477.786152603092
 21
118.199184968769
 31
0.0
  0
LINE
  5
2B4
330
1C1
100
AcDbEntity
  8
Stammform
  6
AUSGEZOGEN
 62
     9
370
    18
100
AcDbLine
 10
478.938535485668
 20
124.187192185203
 30
0.0
 11
477.786152603092
 21
126.183199205318
 31
0.0
  0
LINE
  5
2B5
330
1C1
100
AcDbEntity
  8
Stammform
  6
AUSGEZOGEN
 62
     9
370
    18
100
AcDbLine
 10
477.786152603092
 20
126.183199205318
 30
0.0
 11
478.938535485668
 21
128.179190403821
 31
0.0
  0
LINE
  5
2B6
330
1C1
100
AcDbEntity
  8
Stammform
  6
AUSGEZOGEN
 62
     9
370
    18
100
AcDbLine
 10
481.243332894041
 20
128.179190403821
 30
0.0
 11
482.395715776616
 21
126.183199205318
 31
0.0
  0
LINE
  5
2B7
330
1C1
100
AcDbEntity
  8
Stammform
  6
AUSGEZOGEN
 62
     9
370
    18
100
AcDbLine
 10
482.395715776616
 20
126.183199205318
 30
0.0
 11
481.243332894041
 21
124.187192185203
 31
0.0
  0
LINE
  5
2B8
330
1C1
100
AcDbEntity
  8
Stammform
  6
AUSGEZOGEN
 62
     9
370
    18
100
AcDbLine
 10
481.243332894041
 20
124.187192185203
 30
0.0
 11
478.938535485668
 21
124.187192185203
 31
0.0
  0
LINE
  5
2B9
330
1C1
100
AcDbEntity
  8
Stammform
  6
AUSGEZOGEN
 62
     9
370
    18
100
AcDbLine
 10
478.938535485668
 20
128.179190403821
 30
0.0
 11
481.243332894041
 21
128.179190403821
 31
0.0
  0
LINE
  5
2BA
330
1C1
100
AcDbEntity
  8
Stammform
  6
AUSGEZOGEN
 62
    56
370
    18
100
AcDbLine
 10
481.243332894041
 20
128.179190403821
 30
0.0
 11
480.090934189854
 21
126.183199205318
 31
0.0
  0
LINE
  5
2BB
330
1C1
100
AcDbEntity
  8
Stammform
  6
AUSGEZOGEN
 62
    56
370
    18
100
AcDbLine
 10
480.090934189854
 20
126.183199205318
 30
0.0
 11
481.243332894041
 21
124.187192185203
 31
0.0
  0
LINE
  5
2BC
330
1C1
100
AcDbEntity
  8
Stammform
  6
AUSGEZOGEN
 62
    56
370
    18
100
AcDbLine
 10
480.090934189854
 20
126.183199205318
 30
0.0
 11
477.786152603092
 21
126.183199205318
 31
0.0
  0
LINE
  5
2BD
330
1C1
100
AcDbEntity
  8
Stammform
  6
AUSGEZOGEN
 62
     9
370
    18
100
AcDbLine
 10
478.938535485668
 20
124.187192185203
 30
0.0
 11
477.786152603092
 21
122.191183187387
 31
0.0
  0
LINE
  5
2BE
330
1C1
100
AcDbEntity
  8
Stammform
  6
AUSGEZOGEN
 62
     9
370
    18
100
AcDbLine
 10
477.786152603092
 20
122.191183187387
 30
0.0
 11
478.938535485668
 21
120.195191988884
 31
0.0
  0
LINE
  5
2BF
330
1C1
100
AcDbEntity
  8
Stammform
  6
AUSGEZOGEN
 62
     9
370
    18
100
AcDbLine
 10
481.243332894041
 20
120.195191988884
 30
0.0
 11
482.395715776616
 21
122.191183187387
 31
0.0
  0
LINE
  5
2C0
330
1C1
100
AcDbEntity
  8
Stammform
  6
AUSGEZOGEN
 62
     9
370
    18
100
AcDbLine
 10
482.395715776616
 20
122.191183187387
 30
0.0
 11
481.243332894041
 21
124.187192185203
 31
0.0
  0
LINE
  5
2C1
330
1C1
100
AcDbEntity
  8
Stammform
  6
AUSGEZOGEN
 62
     9
370
    18
100
AcDbLine
 10
481.243332894041
 20
124.187192185203
 30
0.0
 11
478.938535485668
 21
124.187192185203
 31
0.0
  0
LINE
  5
2C2
330
1C1
100
AcDbEntity
  8
Stammform
  6
AUSGEZOGEN
 62
     9
370
    18
100
AcDbLine
 10
478.938535485668
 20
120.195191988884
 30
0.0
 11
481.243332894041
 21
120.195191988884
 31
0.0
  0
LINE
  5
2C3
330
1C1
100
AcDbEntity
  8
Stammform
  6
AUSGEZOGEN
 62
    56
370
    18
100
AcDbLine
 10
481.243332894041
 20
120.195191988884
 30
0.0
 11
480.090934189854
 21
122.191183187387
 31
0.0
  0
LINE
  5
2C4
330
1C1
100
AcDbEntity
  8
Stammform
  6
AUSGEZOGEN
 62
    56
370
    18
100
AcDbLine
 10
480.090934189854
 20
122.191183187387
 30
0.0
 11
481.243332894041
 21
124.187192185203
 31
0.0
  0
LINE
  5
2C5
330
1C1
100
AcDbEntity
  8
Stammform
  6
AUSGEZOGEN
 62
    56
370
    18
100
AcDbLine
 10
480.090934189854
 20
122.191183187387
 30
0.0
 11
477.786152603092
 21
122.191183187387
 31
0.0
  0
LINE
  5
2C6
330
1C1
100
AcDbEntity
  8
Stammform
  6
AUSGEZOGEN
 62
     9
370
    18
100
AcDbLine
 10
478.69257171418
 20
108.645191988884
 30
0.0
 11
477.786152603092
 21
110.215172709922
 31
0.0
  0
LINE
  5
2C7
330
1C1
100
AcDbEntity
  8
Stammform
  6
AUSGEZOGEN
 62
     9
370
    18
100
AcDbLine
 10
477.786152603092
 20
110.215172709922
 30
0.0
 11
478.938535485668
 21
112.211163908425
 31
0.0
  0
LINE
  5
2C8
330
1C1
100
AcDbEntity
  8
Stammform
  6
AUSGEZOGEN
 62
     9
370
    18
100
AcDbLine
 10
481.243332894041
 20
112.211163908425
 30
0.0
 11
482.395715776616
 21
110.215172709922
 31
0.0
  0
LINE
  5
2C9
330
1C1
100
AcDbEntity
  8
Stammform
  6
AUSGEZOGEN
 62
     9
370
    18
100
AcDbLine
 10
478.938535485668
 20
112.211163908425
 30
0.0
 11
481.243332894041
 21
112.211163908425
 31
0.0
  0
LINE
  5
2CA
330
1C1
100
AcDbEntity
  8
Stammform
  6
AUSGEZOGEN
 62
    56
370
    18
100
AcDbLine
 10
481.243332894041
 20
112.211163908425
 30
0.0
 11
480.090934189854
 21
110.215172709922
 31
0.0
  0
LINE
  5
2CB
330
1C1
100
AcDbEntity
  8
Stammform
  6
AUSGEZOGEN
 62
    56
370
    18
100
AcDbLine
 10
480.090934189854
 20
110.215172709922
 30
0.0
 11
480.9973657456
 21
108.645191988884
 31
0.0
  0
LINE
  5
2CC
330
1C1
100
AcDbEntity
  8
Stammform
  6
AUSGEZOGEN
 62
    56
370
    18
100
AcDbLine
 10
480.090934189854
 20
110.215172709922
 30
0.0
 11
477.786152603092
 21
110.215172709922
 31
0.0
  0
LINE
  5
2CD
330
1C1
100
AcDbEntity
  8
Stammform
  6
AUSGEZOGEN
 62
     9
370
    18
100
AcDbLine
 10
475.481355194719
 20
130.175213245547
 30
0.0
 11
477.786152603092
 21
130.175213245547
 31
0.0
  0
LINE
  5
2CE
330
1C1
100
AcDbEntity
  8
Stammform
  6
AUSGEZOGEN
 62
    56
370
    18
100
AcDbLine
 10
477.786152603092
 20
130.175213245547
 30
0.0
 11
476.879715004179
 21
131.745191988884
 31
0.0
  0
LINE
  5
2CF
330
1C1
100
AcDbEntity
  8
Stammform
  6
AUSGEZOGEN
 62
     9
370
    18
100
AcDbLine
 10
477.786152603092
 20
114.207186750151
 30
0.0
 11
478.938535485668
 21
116.203177948655
 31
0.0
  0
LINE
  5
2D0
330
1C1
100
AcDbEntity
  8
Stammform
  6
AUSGEZOGEN
 62
     9
370
    18
100
AcDbLine
 10
478.938535485668
 20
116.203177948655
 30
0.0
 11
477.786152603092
 21
118.199184968769
 31
0.0
  0
LINE
  5
2D1
330
1C1
100
AcDbEntity
  8
Stammform
  6
AUSGEZOGEN
 62
     9
370
    18
100
AcDbLine
 10
477.786152603092
 20
118.199184968769
 30
0.0
 11
475.481355194719
 21
118.199184968769
 31
0.0
  0
LINE
  5
2D2
330
1C1
100
AcDbEntity
  8
Stammform
  6
AUSGEZOGEN
 62
     9
370
    18
100
AcDbLine
 10
475.481355194719
 20
114.207186750151
 30
0.0
 11
477.786152603092
 21
114.207186750151
 31
0.0
  0
LINE
  5
2D3
330
1C1
100
AcDbEntity
  8
Stammform
  6
AUSGEZOGEN
 62
    56
370
    18
100
AcDbLine
 10
477.786152603092
 20
114.207186750151
 30
0.0
 11
476.633753898905
 21
116.203177948655
 31
0.0
  0
LINE
  5
2D4
330
1C1
100
AcDbEntity
  8
Stammform
  6
AUSGEZOGEN
 62
    56
370
    18
100
AcDbLine
 10
476.633753898905
 20
116.203177948655
 30
0.0
 11
477.786152603092
 21
118.199184968769
 31
0.0
  0
LINE
  5
2D5
330
1C1
100
AcDbEntity
  8
Stammform
  6
AUSGEZOGEN
 62
    56
370
    18
100
AcDbLine
 10
476.633753898905
 20
116.203177948655
 30
0.0
 11
474.328972312143
 21
116.203177948655
 31
0.0
  0
LINE
  5
2D6
330
1C1
100
AcDbEntity
  8
Stammform
  6
AUSGEZOGEN
 62
     9
370
    18
100
AcDbLine
 10
477.786152603092
 20
122.191183187387
 30
0.0
 11
478.938535485668
 21
120.195191988884
 31
0.0
  0
LINE
  5
2D7
330
1C1
100
AcDbEntity
  8
Stammform
  6
AUSGEZOGEN
 62
     9
370
    18
100
AcDbLine
 10
478.938535485668
 20
120.195191988884
 30
0.0
 11
477.786152603092
 21
118.199184968769
 31
0.0
  0
LINE
  5
2D8
330
1C1
100
AcDbEntity
  8
Stammform
  6
AUSGEZOGEN
 62
     9
370
    18
100
AcDbLine
 10
477.786152603092
 20
118.199184968769
 30
0.0
 11
475.481355194719
 21
118.199184968769
 31
0.0
  0
LINE
  5
2D9
330
1C1
100
AcDbEntity
  8
Stammform
  6
AUSGEZOGEN
 62
     9
370
    18
100
AcDbLine
 10
475.481355194719
 20
122.191183187387
 30
0.0
 11
477.786152603092
 21
122.191183187387
 31
0.0
  0
LINE
  5
2DA
330
1C1
100
AcDbEntity
  8
Stammform
  6
AUSGEZOGEN
 62
    56
370
    18
100
AcDbLine
 10
477.786152603092
 20
122.191183187387
 30
0.0
 11
476.633753898905
 21
120.195191988884
 31
0.0
  0
LINE
  5
2DB
330
1C1
100
AcDbEntity
  8
Stammform
  6
AUSGEZOGEN
 62
    56
370
    18
100
AcDbLine
 10
476.633753898905
 20
120.195191988884
 30
0.0
 11
477.786152603092
 21
118.199184968769
 31
0.0
  0
LINE
  5
2DC
330
1C1
100
AcDbEntity
  8
Stammform
  6
AUSGEZOGEN
 62
    56
370
    18
100
AcDbLine
 10
476.633753898905
 20
120.195191988884
 30
0.0
 11
474.328972312143
 21
120.195191988884
 31
0.0
  0
LINE
  5
2DD
330
1C1
100
AcDbEntity
  8
Stammform
  6
AUSGEZOGEN
 62
     9
370
    18
100
AcDbLine
 10
474.328972312143
 20
128.179206225432
 30
0.0
 11
475.481355194719
 21
130.175213245547
 31
0.0
  0
LINE
  5
2DE
330
1C1
100
AcDbEntity
  8
Stammform
  6
AUSGEZOGEN
 62
     9
370
    18
100
AcDbLine
 10
477.786152603092
 20
130.175213245547
 30
0.0
 11
478.938535485668
 21
128.179206225432
 31
0.0
  0
LINE
  5
2DF
330
1C1
100
AcDbEntity
  8
Stammform
  6
AUSGEZOGEN
 62
     9
370
    18
100
AcDbLine
 10
478.938535485668
 20
128.179206225432
 30
0.0
 11
477.786152603092
 21
126.183199205318
 31
0.0
  0
LINE
  5
2E0
330
1C1
100
AcDbEntity
  8
Stammform
  6
AUSGEZOGEN
 62
     9
370
    18
100
AcDbLine
 10
477.786152603092
 20
126.183199205318
 30
0.0
 11
475.481355194719
 21
126.183199205318
 31
0.0
  0
LINE
  5
2E1
330
1C1
100
AcDbEntity
  8
Stammform
  6
AUSGEZOGEN
 62
     9
370
    18
100
AcDbLine
 10
475.481355194719
 20
130.175213245547
 30
0.0
 11
477.786152603092
 21
130.175213245547
 31
0.0
  0
LINE
  5
2E2
330
1C1
100
AcDbEntity
  8
Stammform
  6
AUSGEZOGEN
 62
    56
370
    18
100
AcDbLine
 10
477.786152603092
 20
130.175213245547
 30
0.0
 11
476.633753898905
 21
128.179206225432
 31
0.0
  0
LINE
  5
2E3
330
1C1
100
AcDbEntity
  8
Stammform
  6
AUSGEZOGEN
 62
    56
370
    18
100
AcDbLine
 10
476.633753898905
 20
128.179206225432
 30
0.0
 11
477.786152603092
 21
126.183199205318
 31
0.0
  0
LINE
  5
2E4
330
1C1
100
AcDbEntity
  8
Stammform
  6
AUSGEZOGEN
 62
    56
370
    18
100
AcDbLine
 10
476.633753898905
 20
128.179206225432
 30
0.0
 11
474.328972312143
 21
128.179206225432
 31
0.0
  0
LINE
  5
2E5
330
1C1
100
AcDbEntity
  8
Stammform
  6
AUSGEZOGEN
 62
     9
370
    18
100
AcDbLine
 10
474.328972312143
 20
124.187192185203
 30
0.0
 11
475.481355194719
 21
122.191183187387
 31
0.0
  0
LINE
  5
2E6
330
1C1
100
AcDbEntity
  8
Stammform
  6
AUSGEZOGEN
 62
     9
370
    18
100
AcDbLine
 10
477.786152603092
 20
122.191183187387
 30
0.0
 11
478.938535485668
 21
124.187192185203
 31
0.0
  0
LINE
  5
2E7
330
1C1
100
AcDbEntity
  8
Stammform
  6
AUSGEZOGEN
 62
     9
370
    18
100
AcDbLine
 10
478.938535485668
 20
124.187192185203
 30
0.0
 11
477.786152603092
 21
126.183199205318
 31
0.0
  0
LINE
  5
2E8
330
1C1
100
AcDbEntity
  8
Stammform
  6
AUSGEZOGEN
 62
     9
370
    18
100
AcDbLine
 10
477.786152603092
 20
126.183199205318
 30
0.0
 11
475.481355194719
 21
126.183199205318
 31
0.0
  0
LINE
  5
2E9
330
1C1
100
AcDbEntity
  8
Stammform
  6
AUSGEZOGEN
 62
     9
370
    18
100
AcDbLine
 10
475.481355194719
 20
122.191183187387
 30
0.0
 11
477.786152603092
 21
122.191183187387
 31
0.0
  0
LINE
  5
2EA
330
1C1
100
AcDbEntity
  8
Stammform
  6
AUSGEZOGEN
 62
    56
370
    18
100
AcDbLine
 10
477.786152603092
 20
122.191183187387
 30
0.0
 11
476.633753898905
 21
124.187192185203
 31
0.0
  0
LINE
  5
2EB
330
1C1
100
AcDbEntity
  8
Stammform
  6
AUSGEZOGEN
 62
    56
370
    18
100
AcDbLine
 10
476.633753898905
 20
124.187192185203
 30
0.0
 11
477.786152603092
 21
126.183199205318
 31
0.0
  0
LINE
  5
2EC
330
1C1
100
AcDbEntity
  8
Stammform
  6
AUSGEZOGEN
 62
    56
370
    18
100
AcDbLine
 10
476.633753898905
 20
124.187192185203
 30
0.0
 11
474.328972312143
 21
124.187192185203
 31
0.0
  0
LINE
  5
2ED
330
1C1
100
AcDbEntity
  8
Stammform
  6
AUSGEZOGEN
 62
     9
370
    18
100
AcDbLine
 10
477.786152603092
 20
114.207186750151
 30
0.0
 11
478.938535485668
 21
112.211179730037
 31
0.0
  0
LINE
  5
2EE
330
1C1
100
AcDbEntity
  8
Stammform
  6
AUSGEZOGEN
 62
     9
370
    18
100
AcDbLine
 10
478.938535485668
 20
112.211179730037
 30
0.0
 11
477.786152603092
 21
110.215172709922
 31
0.0
  0
LINE
  5
2EF
330
1C1
100
AcDbEntity
  8
Stammform
  6
AUSGEZOGEN
 62
     9
370
    18
100
AcDbLine
 10
477.786152603092
 20
110.215172709922
 30
0.0
 11
475.481355194719
 21
110.215172709922
 31
0.0
  0
LINE
  5
2F0
330
1C1
100
AcDbEntity
  8
Stammform
  6
AUSGEZOGEN
 62
     9
370
    18
100
AcDbLine
 10
475.481355194719
 20
114.207186750151
 30
0.0
 11
477.786152603092
 21
114.207186750151
 31
0.0
  0
LINE
  5
2F1
330
1C1
100
AcDbEntity
  8
Stammform
  6
AUSGEZOGEN
 62
    56
370
    18
100
AcDbLine
 10
477.786152603092
 20
114.207186750151
 30
0.0
 11
476.633753898905
 21
112.211179730037
 31
0.0
  0
LINE
  5
2F2
330
1C1
100
AcDbEntity
  8
Stammform
  6
AUSGEZOGEN
 62
    56
370
    18
100
AcDbLine
 10
476.633753898905
 20
112.211179730037
 30
0.0
 11
477.786152603092
 21
110.215172709922
 31
0.0
  0
LINE
  5
2F3
330
1C1
100
AcDbEntity
  8
Stammform
  6
AUSGEZOGEN
 62
    56
370
    18
100
AcDbLine
 10
476.633753898905
 20
112.211179730037
 30
0.0
 11
474.328972312143
 21
112.211179730037
 31
0.0
  0
LINE
  5
2F4
330
1C1
100
AcDbEntity
  8
Stammform
  6
AUSGEZOGEN
 62
     9
370
    18
100
AcDbLine
 10
477.786152603092
 20
110.215172709922
 30
0.0
 11
475.481355194719
 21
110.215172709922
 31
0.0
  0
LINE
  5
2F5
330
1C1
100
AcDbEntity
  8
Stammform
  6
AUSGEZOGEN
 62
    56
370
    18
100
AcDbLine
 10
476.879721047346
 20
108.645191988884
 30
0.0
 11
477.786152603092
 21
110.215172709922
 31
0.0
  0
LINE
  5
2F6
330
1C1
100
AcDbEntity
  8
Stammform
  6
AUSGEZOGEN
 62
     9
370
    18
100
AcDbLine
 10
475.481355194719
 20
130.175197423935
 30
0.0
 11
474.574928090931
 21
131.745191988884
 31
0.0
  0
LINE
  5
2F7
330
1C1
100
AcDbEntity
  8
Stammform
  6
AUSGEZOGEN
 62
     9
370
    18
100
AcDbLine
 10
473.72680431034
 20
128.179190403821
 30
0.0
 11
474.328972312143
 21
128.179190403821
 31
0.0
  0
LINE
  5
2F8
330
1C1
100
AcDbEntity
  8
Stammform
  6
AUSGEZOGEN
 62
    56
370
    18
100
AcDbLine
 10
474.328972312143
 20
128.179190403821
 30
0.0
 11
473.72680431034
 21
129.222172797433
 31
0.0
  0
LINE
  5
2F9
330
1C1
100
AcDbEntity
  8
Stammform
  6
AUSGEZOGEN
 62
    56
370
    18
100
AcDbLine
 10
473.72680431034
 20
131.128222050438
 30
0.0
 11
474.083013156512
 21
131.745191988884
 31
0.0
  0
LINE
  5
2FA
330
1C1
100
AcDbEntity
  8
Stammform
  6
AUSGEZOGEN
 62
     9
370
    18
100
AcDbLine
 10
474.328972312143
 20
112.211163908425
 30
0.0
 11
475.481355194719
 21
114.20717092854
 31
0.0
  0
LINE
  5
2FB
330
1C1
100
AcDbEntity
  8
Stammform
  6
AUSGEZOGEN
 62
     9
370
    18
100
AcDbLine
 10
475.481355194719
 20
114.20717092854
 30
0.0
 11
474.328972312143
 21
116.203177948655
 31
0.0
  0
LINE
  5
2FC
330
1C1
100
AcDbEntity
  8
Stammform
  6
AUSGEZOGEN
 62
     9
370
    18
100
AcDbLine
 10
474.328972312143
 20
116.203177948655
 30
0.0
 11
473.72680431034
 21
116.203177948655
 31
0.0
  0
LINE
  5
2FD
330
1C1
100
AcDbEntity
  8
Stammform
  6
AUSGEZOGEN
 62
     9
370
    18
100
AcDbLine
 10
473.72680431034
 20
112.211163908425
 30
0.0
 11
474.328972312143
 21
112.211163908425
 31
0.0
  0
LINE
  5
2FE
330
1C1
100
AcDbEntity
  8
Stammform
  6
AUSGEZOGEN
 62
    56
370
    18
100
AcDbLine
 10
474.328972312143
 20
112.211163908425
 30
0.0
 11
473.72680431034
 21
113.254146302038
 31
0.0
  0
LINE
  5
2FF
330
1C1
100
AcDbEntity
  8
Stammform
  6
AUSGEZOGEN
 62
    56
370
    18
100
AcDbLine
 10
473.72680431034
 20
115.160195555043
 30
0.0
 11
474.328972312143
 21
116.203177948655
 31
0.0
  0
LINE
  5
300
330
1C1
100
AcDbEntity
  8
Stammform
  6
AUSGEZOGEN
 62
     9
370
    18
100
AcDbLine
 10
474.328972312143
 20
120.195191988884
 30
0.0
 11
475.481355194719
 21
118.199184968769
 31
0.0
  0
LINE
  5
301
330
1C1
100
AcDbEntity
  8
Stammform
  6
AUSGEZOGEN
 62
     9
370
    18
100
AcDbLine
 10
475.481355194719
 20
118.199184968769
 30
0.0
 11
474.328972312143
 21
116.203177948655
 31
0.0
  0
LINE
  5
302
330
1C1
100
AcDbEntity
  8
Stammform
  6
AUSGEZOGEN
 62
    56
370
    18
100
AcDbLine
 10
474.328972312143
 20
120.195191988884
 30
0.0
 11
473.72680431034
 21
119.152209595272
 31
0.0
  0
LINE
  5
303
330
1C1
100
AcDbEntity
  8
Stammform
  6
AUSGEZOGEN
 62
    56
370
    18
100
AcDbLine
 10
473.72680431034
 20
117.246160342267
 30
0.0
 11
474.328972312143
 21
116.203177948655
 31
0.0
  0
LINE
  5
304
330
1C1
100
AcDbEntity
  8
Stammform
  6
AUSGEZOGEN
 62
     9
370
    18
100
AcDbLine
 10
474.328972312143
 20
128.179190403821
 30
0.0
 11
475.481355194719
 21
126.183199205318
 31
0.0
  0
LINE
  5
305
330
1C1
100
AcDbEntity
  8
Stammform
  6
AUSGEZOGEN
 62
     9
370
    18
100
AcDbLine
 10
475.481355194719
 20
126.183199205318
 30
0.0
 11
474.328972312143
 21
124.187192185203
 31
0.0
  0
LINE
  5
306
330
1C1
100
AcDbEntity
  8
Stammform
  6
AUSGEZOGEN
 62
     9
370
    18
100
AcDbLine
 10
474.328972312143
 20
124.187192185203
 30
0.0
 11
473.72680431034
 21
124.187192185203
 31
0.0
  0
LINE
  5
307
330
1C1
100
AcDbEntity
  8
Stammform
  6
AUSGEZOGEN
 62
    56
370
    18
100
AcDbLine
 10
474.328972312143
 20
128.179190403821
 30
0.0
 11
473.72680431034
 21
127.136216277545
 31
0.0
  0
LINE
  5
308
330
1C1
100
AcDbEntity
  8
Stammform
  6
AUSGEZOGEN
 62
    56
370
    18
100
AcDbLine
 10
473.72680431034
 20
125.230174578815
 30
0.0
 11
474.328972312143
 21
124.187192185203
 31
0.0
  0
LINE
  5
309
330
1C1
100
AcDbEntity
  8
Stammform
  6
AUSGEZOGEN
 62
     9
370
    18
100
AcDbLine
 10
474.328972312143
 20
120.195191988884
 30
0.0
 11
475.481355194719
 21
122.191183187387
 31
0.0
  0
LINE
  5
30A
330
1C1
100
AcDbEntity
  8
Stammform
  6
AUSGEZOGEN
 62
     9
370
    18
100
AcDbLine
 10
473.72680431034
 20
120.195191988884
 30
0.0
 11
474.328972312143
 21
120.195191988884
 31
0.0
  0
LINE
  5
30B
330
1C1
100
AcDbEntity
  8
Stammform
  6
AUSGEZOGEN
 62
    56
370
    18
100
AcDbLine
 10
474.328972312143
 20
120.195191988884
 30
0.0
 11
473.72680431034
 21
121.238166115159
 31
0.0
  0
LINE
  5
30C
330
1C1
100
AcDbEntity
  8
Stammform
  6
AUSGEZOGEN
 62
    56
370
    18
100
AcDbLine
 10
473.72680431034
 20
123.144208758174
 30
0.0
 11
474.328972312143
 21
124.187192185203
 31
0.0
  0
LINE
  5
30D
330
1C1
100
AcDbEntity
  8
Stammform
  6
AUSGEZOGEN
 62
     9
370
    18
100
AcDbLine
 10
474.328972312143
 20
112.211163908425
 30
0.0
 11
475.481355194719
 21
110.215172709922
 31
0.0
  0
LINE
  5
30E
330
1C1
100
AcDbEntity
  8
Stammform
  6
AUSGEZOGEN
 62
     9
370
    18
100
AcDbLine
 10
475.481355194719
 20
110.215172709922
 30
0.0
 11
474.57493608363
 21
108.645191988884
 31
0.0
  0
LINE
  5
30F
330
1C1
100
AcDbEntity
  8
Stammform
  6
AUSGEZOGEN
 62
    56
370
    18
100
AcDbLine
 10
474.328972312143
 20
112.211163908425
 30
0.0
 11
473.72680431034
 21
111.16818978215
 31
0.0
  0
LINE
  5
310
330
1C1
100
AcDbEntity
  8
Stammform
  6
AUSGEZOGEN
 62
    56
370
    18
100
AcDbLine
 10
473.72680431034
 20
109.26214808342
 30
0.0
 11
474.083005163703
 21
108.645191988884
 31
0.0
  0
ENDBLK
  5
1C3
330
1C1
100
AcDbEntity
  8
0
100
AcDbBlockEnd
  0
BLOCK
  5
314
330
313
100
AcDbEntity
  8
0
100
AcDbBlockBegin
  2
*D5
 70
     1
 10
0.0
 20
0.0
 30
0.0
  3
*D5
  1

  0
LINE
  5
316
330
313
100
AcDbEntity
  8
Layer70
  6
AUSGEZOGEN
 62
   136
370
    18
100
AcDbLine
 10
488.276811939734
 20
149.441491935484
 30
0.0
 11
488.276811939734
 21
149.941491935484
 31
0.0
  0
LINE
  5
317
330
313
100
AcDbEntity
  8
Layer70
  6
AUSGEZOGEN
 62
   136
370
    18
100
AcDbLine
 10
488.276811939734
 20
149.441491935484
 30
0.0
 11
487.026811939734
 21
149.691491935484
 31
0.0
  0
LINE
  5
318
330
313
100
AcDbEntity
  8
Layer70
  6
AUSGEZOGEN
 62
   136
370
    18
100
AcDbLine
 10
487.026811939734
 20
149.691491935484
 30
0.0
 11
488.276811939734
 21
149.941491935484
 31
0.0
  0
LINE
  5
319
330
313
100
AcDbEntity
  8
Layer70
  6
AUSGEZOGEN
 62
   136
370
    18
100
AcDbLine
 10
482.276811939734
 20
149.941491935484
 30
0.0
 11
482.276811939734
 21
149.441491935484
 31
0.0
  0
LINE
  5
31A
330
313
100
AcDbEntity
  8
Layer70
  6
AUSGEZOGEN
 62
   136
370
    18
100
AcDbLine
 10
482.276811939734
 20
149.941491935484
 30
0.0
 11
483.526811939734
 21
149.691491935484
 31
0.0
  0
LINE
  5
31B
330
313
100
AcDbEntity
  8
Layer70
  6
AUSGEZOGEN
 62
   136
370
    18
100
AcDbLine
 10
483.526811939734
 20
149.691491935484
 30
0.0
 11
482.276811939734
 21
149.441491935484
 31
0.0
  0
LINE
  5
31C
330
313
100
AcDbEntity
  8
Layer70
  6
AUSGEZOGEN
 62
   136
370
    18
100
AcDbLine
 10
483.526811939734
 20
149.691491935484
 30
0.0
 11
487.026811939734
 21
149.691491935484
 31
0.0
  0
LINE
  5
31D
330
313
100
AcDbEntity
  8
Layer70
  6
AUSGEZOGEN
 62
   136
370
    18
100
AcDbLine
 10
487.026811939734
 20
149.691491935484
 30
0.0
 11
490.776811939734
 21
149.691491935484
 31
0.0
  0
LINE
  5
31E
330
313
100
AcDbEntity
  8
Layer70
  6
AUSGEZOGEN
 62
   136
370
    18
100
AcDbLine
 10
483.526811939734
 20
149.691491935484
 30
0.0
 11
479.776811939734
 21
149.691491935484
 31
0.0
  0
LINE
  5
31F
330
313
100
AcDbEntity
  8
Layer70
  6
AUSGEZOGEN
 62
   136
370
    18
100
AcDbLine
 10
487.026811939734
 20
149.691491935484
 30
0.0
 11
492.591687796312
 21
149.691491935484
 31
0.0
  0
LINE
  5
320
330
313
100
AcDbEntity
  8
Layer70
  6
AUSGEZOGEN
 62
   136
370
    18
100
AcDbLine
 10
483.526811939734
 20
153.585661116666
 30
0.0
 11
483.526811939734
 21
148.977206221198
 31
0.0
  0
LINE
  5
321
330
313
100
AcDbEntity
  8
Layer70
  6
AUSGEZOGEN
 62
   136
370
    18
100
AcDbLine
 10
487.026811939734
 20
153.585661116666
 30
0.0
 11
487.026811939734
 21
148.977206221198
 31
0.0
  0
TEXT
  5
322
330
313
100
AcDbEntity
  8
Layer70
  6
AUSGEZOGEN
 62
   136
370
    18
100
AcDbText
 10
488.282401881712
 20
150.191491935484
 30
0.0
 40
1.25
  1
%%c3.5
 41
1.110943306383
  7
Arial
 72
     5
 11
492.484544938105
 21
150.191491935484
 31
0.0
100
AcDbText
  0
ENDBLK
  5
315
330
313
100
AcDbEntity
  8
0
100
AcDbBlockEnd
  0
BLOCK
  5
325
330
324
100
AcDbEntity
  8
0
100
AcDbBlockBegin
  2
_CLOSED
 70
     0
 10
0.0
 20
0.0
 30
0.0
  3
_CLOSED
  1

  0
LINE
  5
327
330
324
100
AcDbEntity
  8
0
  6
ByBlock
 62
     0
370
    -2
100
AcDbLine
 10
-1.0
 20
0.166667
 30
0.0
 11
0.0
 21
0.0
 31
0.0
  0
LINE
  5
328
330
324
100
AcDbEntity
  8
0
  6
ByBlock
 62
     0
370
    -2
100
AcDbLine
 10
0.0
 20
0.0
 30
0.0
 11
-1.0
 21
-0.166667
 31
0.0
  0
LINE
  5
329
330
324
100
AcDbEntity
  8
0
  6
ByBlock
 62
     0
370
    -2
100
AcDbLine
 10
-1.0
 20
0.166667
 30
0.0
 11
-1.0
 21
-0.166667
 31
0.0
  0
LINE
  5
32A
330
324
100
AcDbEntity
  8
0
  6
ByBlock
 62
     0
370
    -2
100
AcDbLine
 10
0.0
 20
0.0
 30
0.0
 11
-1.0
 21
0.0
 31
0.0
  0
ENDBLK
  5
326
330
324
100
AcDbEntity
  8
0
100
AcDbBlockEnd
  0
BLOCK
  5
32C
330
32B
100
AcDbEntity
  8
0
100
AcDbBlockBegin
  2
*D7
 70
     1
 10
0.0
 20
0.0
 30
0.0
  3
*D7
  1

  0
LINE
  5
32E
330
32B
100
AcDbEntity
  8
Layer70
  6
AUSGEZOGEN
 62
   136
370
    18
100
AcDbLine
 10
502.032401881712
 20
157.135661116666
 30
0.0
 11
502.532401881712
 21
157.135661116666
 31
0.0
  0
LINE
  5
32F
330
32B
100
AcDbEntity
  8
Layer70
  6
AUSGEZOGEN
 62
   136
370
    18
100
AcDbLine
 10
502.032401881712
 20
157.135661116666
 30
0.0
 11
502.282401881712
 21
158.385661116666
 31
0.0
  0
LINE
  5
330
330
32B
100
AcDbEntity
  8
Layer70
  6
AUSGEZOGEN
 62
   136
370
    18
100
AcDbLine
 10
502.282401881712
 20
158.385661116666
 30
0.0
 11
502.532401881712
 21
157.135661116666
 31
0.0
  0
LINE
  5
331
330
32B
100
AcDbEntity
  8
Layer70
  6
AUSGEZOGEN
 62
   136
370
    18
100
AcDbLine
 10
502.532401881712
 20
162.835661116666
 30
0.0
 11
502.032401881712
 21
162.835661116666
 31
0.0
  0
LINE
  5
332
330
32B
100
AcDbEntity
  8
Layer70
  6
AUSGEZOGEN
 62
   136
370
    18
100
AcDbLine
 10
502.532401881712
 20
162.835661116666
 30
0.0
 11
502.282401881712
 21
161.585661116666
 31
0.0
  0
LINE
  5
333
330
32B
100
AcDbEntity
  8
Layer70
  6
AUSGEZOGEN
 62
   136
370
    18
100
AcDbLine
 10
502.282401881712
 20
161.585661116666
 30
0.0
 11
502.032401881712
 21
162.835661116666
 31
0.0
  0
LINE
  5
334
330
32B
100
AcDbEntity
  8
Layer70
  6
AUSGEZOGEN
 62
   136
370
    18
100
AcDbLine
 10
502.282401881712
 20
161.585661116666
 30
0.0
 11
502.282401881712
 21
158.385661116666
 31
0.0
  0
LINE
  5
335
330
32B
100
AcDbEntity
  8
Layer70
  6
AUSGEZOGEN
 62
   136
370
    18
100
AcDbLine
 10
502.282401881712
 20
158.385661116666
 30
0.0
 11
502.282401881712
 21
154.635661116666
 31
0.0
  0
LINE
  5
336
330
32B
100
AcDbEntity
  8
Layer70
  6
AUSGEZOGEN
 62
   136
370
    18
100
AcDbLine
 10
502.282401881712
 20
161.585661116666
 30
0.0
 11
502.282401881712
 21
165.335661116666
 31
0.0
  0
LINE
  5
337
330
32B
100
AcDbEntity
  8
Layer70
  6
AUSGEZOGEN
 62
   136
370
    18
100
AcDbLine
 10
502.282401881712
 20
161.585661116666
 30
0.0
 11
502.282401881712
 21
165.85220636063
 31
0.0
  0
LINE
  5
338
330
32B
100
AcDbEntity
  8
Layer70
  6
AUSGEZOGEN
 62
   136
370
    18
100
AcDbLine
 10
488.276811939734
 20
161.585661116666
 30
0.0
 11
502.996687595998
 21
161.585661116666
 31
0.0
  0
LINE
  5
339
330
32B
100
AcDbEntity
  8
Layer70
  6
AUSGEZOGEN
 62
   136
370
    18
100
AcDbLine
 10
488.276811939734
 20
158.385661116666
 30
0.0
 11
502.996687595998
 21
158.385661116666
 31
0.0
  0
TEXT
  5
33A
330
32B
100
AcDbEntity
  8
Layer70
  6
AUSGEZOGEN
 62
   136
370
    18
100
AcDbText
 10
501.782401881712
 20
162.841491935484
 30
0.0
 40
1.25
  1
3.2
 50
90.0
 41
1.197349099769
  7
Arial
 72
     5
 11
501.782401881712
 21
165.745063502423
 31
0.0
100
AcDbText
  0
ENDBLK
  5
32D
330
32B
100
AcDbEntity
  8
0
100
AcDbBlockEnd
  0
BLOCK
  5
33D
330
33C
100
AcDbEntity
  8
0
100
AcDbBlockBegin
  2
*D8
 70
     1
 10
0.0
 20
0.0
 30
0.0
  3
*D8
  1

  0
LINE
  5
33F
330
33C
100
AcDbEntity
  8
Layer70
  6
AUSGEZOGEN
 62
   136
370
    18
100
AcDbLine
 10
495.57680431034
 20
94.941491935484
 30
0.0
 11
495.57680431034
 21
94.441491935484
 31
0.0
  0
LINE
  5
340
330
33C
100
AcDbEntity
  8
Layer70
  6
AUSGEZOGEN
 62
   136
370
    18
100
AcDbLine
 10
495.57680431034
 20
94.941491935484
 30
0.0
 11
496.82680431034
 21
94.691491935484
 31
0.0
  0
LINE
  5
341
330
33C
100
AcDbEntity
  8
Layer70
  6
AUSGEZOGEN
 62
   136
370
    18
100
AcDbLine
 10
496.82680431034
 20
94.691491935484
 30
0.0
 11
495.57680431034
 21
94.441491935484
 31
0.0
  0
LINE
  5
342
330
33C
100
AcDbEntity
  8
Layer70
  6
AUSGEZOGEN
 62
   136
370
    18
100
AcDbLine
 10
474.97680431034
 20
94.441491935484
 30
0.0
 11
474.97680431034
 21
94.941491935484
 31
0.0
  0
LINE
  5
343
330
33C
100
AcDbEntity
  8
Layer70
  6
AUSGEZOGEN
 62
   136
370
    18
100
AcDbLine
 10
474.97680431034
 20
94.441491935484
 30
0.0
 11
473.72680431034
 21
94.691491935484
 31
0.0
  0
LINE
  5
344
330
33C
100
AcDbEntity
  8
Layer70
  6
AUSGEZOGEN
 62
   136
370
    18
100
AcDbLine
 10
473.72680431034
 20
94.691491935484
 30
0.0
 11
474.97680431034
 21
94.941491935484
 31
0.0
  0
LINE
  5
345
330
33C
100
AcDbEntity
  8
Layer70
  6
AUSGEZOGEN
 62
   136
370
    18
100
AcDbLine
 10
473.72680431034
 20
94.691491935484
 30
0.0
 11
496.82680431034
 21
94.691491935484
 31
0.0
  0
LINE
  5
346
330
33C
100
AcDbEntity
  8
Layer70
  6
AUSGEZOGEN
 62
   136
370
    18
100
AcDbLine
 10
473.72680431034
 20
108.645191988884
 30
0.0
 11
473.72680431034
 21
93.977206221198
 31
0.0
  0
LINE
  5
347
330
33C
100
AcDbEntity
  8
Layer70
  6
AUSGEZOGEN
 62
   136
370
    18
100
AcDbLine
 10
496.82680431034
 20
108.645191988884
 30
0.0
 11
496.82680431034
 21
93.977206221198
 31
0.0
  0
TEXT
  5
348
330
33C
100
AcDbEntity
  8
Layer70
  6
AUSGEZOGEN
 62
   136
370
    18
100
AcDbText
 10
483.782401881712
 20
95.191491935484
 30
0.0
 40
1.25
  1
23.1
 41
1.209972706038
  7
Arial
 72
     5
 11
487.89025921871
 21
95.191491935484
 31
0.0
100
AcDbText
  0
ENDBLK
  5
33E
330
33C
100
AcDbEntity
  8
0
100
AcDbBlockEnd
  0
BLOCK
  5
34B
330
34A
100
AcDbEntity
  8
0
100
AcDbBlockBegin
  2
*D9
 70
     1
 10
0.0
 20
0.0
 30
0.0
  3
*D9
  1

  0
LINE
  5
34D
330
34A
100
AcDbEntity
  8
Layer70
  6
AUSGEZOGEN
 62
   136
370
    18
100
AcDbLine
 10
496.77680431034
 20
91.941491935484
 30
0.0
 11
496.77680431034
 21
91.441491935484
 31
0.0
  0
LINE
  5
34E
330
34A
100
AcDbEntity
  8
Layer70
  6
AUSGEZOGEN
 62
   136
370
    18
100
AcDbLine
 10
496.77680431034
 20
91.941491935484
 30
0.0
 11
498.02680431034
 21
91.691491935484
 31
0.0
  0
LINE
  5
34F
330
34A
100
AcDbEntity
  8
Layer70
  6
AUSGEZOGEN
 62
   136
370
    18
100
AcDbLine
 10
498.02680431034
 20
91.691491935484
 30
0.0
 11
496.77680431034
 21
91.441491935484
 31
0.0
  0
LINE
  5
350
330
34A
100
AcDbEntity
  8
Layer70
  6
AUSGEZOGEN
 62
   136
370
    18
100
AcDbLine
 10
473.77680431034
 20
91.441491935484
 30
0.0
 11
473.77680431034
 21
91.941491935484
 31
0.0
  0
LINE
  5
351
330
34A
100
AcDbEntity
  8
Layer70
  6
AUSGEZOGEN
 62
   136
370
    18
100
AcDbLine
 10
473.77680431034
 20
91.441491935484
 30
0.0
 11
472.52680431034
 21
91.691491935484
 31
0.0
  0
LINE
  5
352
330
34A
100
AcDbEntity
  8
Layer70
  6
AUSGEZOGEN
 62
   136
370
    18
100
AcDbLine
 10
472.52680431034
 20
91.691491935484
 30
0.0
 11
473.77680431034
 21
91.941491935484
 31
0.0
  0
LINE
  5
353
330
34A
100
AcDbEntity
  8
Layer70
  6
AUSGEZOGEN
 62
   136
370
    18
100
AcDbLine
 10
472.52680431034
 20
91.691491935484
 30
0.0
 11
498.02680431034
 21
91.691491935484
 31
0.0
  0
LINE
  5
354
330
34A
100
AcDbEntity
  8
Layer70
  6
AUSGEZOGEN
 62
   136
370
    18
100
AcDbLine
 10
472.52680431034
 20
102.495191988884
 30
0.0
 11
472.52680431034
 21
90.977206221198
 31
0.0
  0
LINE
  5
355
330
34A
100
AcDbEntity
  8
Layer70
  6
AUSGEZOGEN
 62
   136
370
    18
100
AcDbLine
 10
498.02680431034
 20
102.495191988884
 30
0.0
 11
498.02680431034
 21
90.977206221198
 31
0.0
  0
TEXT
  5
356
330
34A
100
AcDbEntity
  8
Layer70
  6
AUSGEZOGEN
 62
   136
370
    18
100
AcDbText
 10
483.782401881712
 20
92.191491935484
 30
0.0
 40
1.25
  1
25.5
 41
1.209972706038
  7
Arial
 72
     5
 11
487.89025921871
 21
92.191491935484
 31
0.0
100
AcDbText
  0
ENDBLK
  5
34C
330
34A
100
AcDbEntity
  8
0
100
AcDbBlockEnd
  0
BLOCK
  5
359
330
358
100
AcDbEntity
  8
0
100
AcDbBlockBegin
  2
*D10
 70
     1
 10
0.0
 20
0.0
 30
0.0
  3
*D10
  1

  0
LINE
  5
35B
330
358
100
AcDbEntity
  8
Layer70
  6
AUSGEZOGEN
 62
   136
370
    18
100
AcDbLine
 10
502.032401881712
 20
130.495191988884
 30
0.0
 11
502.532401881712
 21
130.495191988884
 31
0.0
  0
LINE
  5
35C
330
358
100
AcDbEntity
  8
Layer70
  6
AUSGEZOGEN
 62
   136
370
    18
100
AcDbLine
 10
502.032401881712
 20
130.495191988884
 30
0.0
 11
502.282401881712
 21
131.745191988884
 31
0.0
  0
LINE
  5
35D
330
358
100
AcDbEntity
  8
Layer70
  6
AUSGEZOGEN
 62
   136
370
    18
100
AcDbLine
 10
502.282401881712
 20
131.745191988884
 30
0.0
 11
502.532401881712
 21
130.495191988884
 31
0.0
  0
LINE
  5
35E
330
358
100
AcDbEntity
  8
Layer70
  6
AUSGEZOGEN
 62
   136
370
    18
100
AcDbLine
 10
502.532401881712
 20
109.895191988884
 30
0.0
 11
502.032401881712
 21
109.895191988884
 31
0.0
  0
LINE
  5
35F
330
358
100
AcDbEntity
  8
Layer70
  6
AUSGEZOGEN
 62
   136
370
    18
100
AcDbLine
 10
502.532401881712
 20
109.895191988884
 30
0.0
 11
502.282401881712
 21
108.645191988884
 31
0.0
  0
LINE
  5
360
330
358
100
AcDbEntity
  8
Layer70
  6
AUSGEZOGEN
 62
   136
370
    18
100
AcDbLine
 10
502.282401881712
 20
108.645191988884
 30
0.0
 11
502.032401881712
 21
109.895191988884
 31
0.0
  0
LINE
  5
361
330
358
100
AcDbEntity
  8
Layer70
  6
AUSGEZOGEN
 62
   136
370
    18
100
AcDbLine
 10
502.282401881712
 20
108.645191988884
 30
0.0
 11
502.282401881712
 21
131.745191988884
 31
0.0
  0
LINE
  5
362
330
358
100
AcDbEntity
  8
Layer70
  6
AUSGEZOGEN
 62
   136
370
    18
100
AcDbLine
 10
496.82680431034
 20
108.645191988884
 30
0.0
 11
502.996687595998
 21
108.645191988884
 31
0.0
  0
LINE
  5
363
330
358
100
AcDbEntity
  8
Layer70
  6
AUSGEZOGEN
 62
   136
370
    18
100
AcDbLine
 10
496.82680431034
 20
131.745191988884
 30
0.0
 11
502.996687595998
 21
131.745191988884
 31
0.0
  0
TEXT
  5
364
330
358
100
AcDbEntity
  8
Layer70
  6
AUSGEZOGEN
 62
   136
370
    18
100
AcDbText
 10
501.782401881712
 20
118.191491935484
 30
0.0
 40
1.25
  1
23.1
 50
90.0
 41
1.209972706038
  7
Arial
 72
     5
 11
501.782401881712
 21
122.299349272482
 31
0.0
100
AcDbText
  0
ENDBLK
  5
35A
330
358
100
AcDbEntity
  8
0
100
AcDbBlockEnd
  0
BLOCK
  5
367
330
366
100
AcDbEntity
  8
0
100
AcDbBlockBegin
  2
*D11
 70
     1
 10
0.0
 20
0.0
 30
0.0
  3
*D11
  1

  0
LINE
  5
369
330
366
100
AcDbEntity
  8
Layer70
  6
AUSGEZOGEN
 62
   136
370
    18
100
AcDbLine
 10
504.532401881712
 20
134.95140536779
 30
0.0
 11
505.032401881712
 21
134.95140536779
 31
0.0
  0
LINE
  5
36A
330
366
100
AcDbEntity
  8
Layer70
  6
AUSGEZOGEN
 62
   136
370
    18
100
AcDbLine
 10
504.532401881712
 20
134.95140536779
 30
0.0
 11
504.782401881712
 21
136.20140536779
 31
0.0
  0
LINE
  5
36B
330
366
100
AcDbEntity
  8
Layer70
  6
AUSGEZOGEN
 62
   136
370
    18
100
AcDbLine
 10
504.782401881712
 20
136.20140536779
 30
0.0
 11
505.032401881712
 21
134.95140536779
 31
0.0
  0
LINE
  5
36C
330
366
100
AcDbEntity
  8
Layer70
  6
AUSGEZOGEN
 62
   136
370
    18
100
AcDbLine
 10
505.032401881712
 20
105.451778445183
 30
0.0
 11
504.532401881712
 21
105.451778445183
 31
0.0
  0
LINE
  5
36D
330
366
100
AcDbEntity
  8
Layer70
  6
AUSGEZOGEN
 62
   136
370
    18
100
AcDbLine
 10
505.032401881712
 20
105.451778445183
 30
0.0
 11
504.782401881712
 21
104.201778445183
 31
0.0
  0
LINE
  5
36E
330
366
100
AcDbEntity
  8
Layer70
  6
AUSGEZOGEN
 62
   136
370
    18
100
AcDbLine
 10
504.782401881712
 20
104.201778445183
 30
0.0
 11
504.532401881712
 21
105.451778445183
 31
0.0
  0
LINE
  5
36F
330
366
100
AcDbEntity
  8
Layer70
  6
AUSGEZOGEN
 62
   136
370
    18
100
AcDbLine
 10
504.782401881712
 20
104.201778445183
 30
0.0
 11
504.782401881712
 21
136.20140536779
 31
0.0
  0
LINE
  5
370
330
366
100
AcDbEntity
  8
Layer70
  6
AUSGEZOGEN
 62
   136
370
    18
100
AcDbLine
 10
490.56156156118
 20
104.201778445183
 30
0.0
 11
505.496687595998
 21
104.201778445183
 31
0.0
  0
LINE
  5
371
330
366
100
AcDbEntity
  8
Layer70
  6
AUSGEZOGEN
 62
   136
370
    18
100
AcDbLine
 10
490.648099876542
 20
136.20140536779
 30
0.0
 11
505.496687595998
 21
136.20140536779
 31
0.0
  0
TEXT
  5
372
330
366
100
AcDbEntity
  8
Layer70
  6
AUSGEZOGEN
 62
   136
370
    18
100
AcDbText
 10
504.282401881712
 20
119.191491935484
 30
0.0
 40
1.25
  1
32
 50
90.0
 41
1.131075166857
  7
Arial
 72
     5
 11
504.282401881712
 21
121.385777759187
 31
0.0
100
AcDbText
  0
ENDBLK
  5
368
330
366
100
AcDbEntity
  8
0
100
AcDbBlockEnd
  0
BLOCK
  5
375
330
374
100
AcDbEntity
  8
0
100
AcDbBlockBegin
  2
*D12
 70
     1
 10
0.0
 20
0.0
 30
0.0
  3
*D12
  1

  0
LINE
  5
377
330
374
100
AcDbEntity
  8
Layer70
  6
AUSGEZOGEN
 62
   136
370
    18
100
AcDbLine
 10
507.032401881712
 20
138.945191988884
 30
0.0
 11
507.532401881712
 21
138.945191988884
 31
0.0
  0
LINE
  5
378
330
374
100
AcDbEntity
  8
Layer70
  6
AUSGEZOGEN
 62
   136
370
    18
100
AcDbLine
 10
507.032401881712
 20
138.945191988884
 30
0.0
 11
507.282401881712
 21
140.195191988884
 31
0.0
  0
LINE
  5
379
330
374
100
AcDbEntity
  8
Layer70
  6
AUSGEZOGEN
 62
   136
370
    18
100
AcDbLine
 10
507.282401881712
 20
140.195191988884
 30
0.0
 11
507.532401881712
 21
138.945191988884
 31
0.0
  0
LINE
  5
37A
330
374
100
AcDbEntity
  8
Layer70
  6
AUSGEZOGEN
 62
   136
370
    18
100
AcDbLine
 10
507.532401881712
 20
101.445191988884
 30
0.0
 11
507.032401881712
 21
101.445191988884
 31
0.0
  0
LINE
  5
37B
330
374
100
AcDbEntity
  8
Layer70
  6
AUSGEZOGEN
 62
   136
370
    18
100
AcDbLine
 10
507.532401881712
 20
101.445191988884
 30
0.0
 11
507.282401881712
 21
100.195191988884
 31
0.0
  0
LINE
  5
37C
330
374
100
AcDbEntity
  8
Layer70
  6
AUSGEZOGEN
 62
   136
370
    18
100
AcDbLine
 10
507.282401881712
 20
100.195191988884
 30
0.0
 11
507.032401881712
 21
101.445191988884
 31
0.0
  0
LINE
  5
37D
330
374
100
AcDbEntity
  8
Layer70
  6
AUSGEZOGEN
 62
   136
370
    18
100
AcDbLine
 10
507.282401881712
 20
100.195191988884
 30
0.0
 11
507.282401881712
 21
140.195191988884
 31
0.0
  0
LINE
  5
37E
330
374
100
AcDbEntity
  8
Layer70
  6
AUSGEZOGEN
 62
   136
370
    18
100
AcDbLine
 10
495.72680431034
 20
100.195191988884
 30
0.0
 11
507.996687595998
 21
100.195191988884
 31
0.0
  0
LINE
  5
37F
330
374
100
AcDbEntity
  8
Layer70
  6
AUSGEZOGEN
 62
   136
370
    18
100
AcDbLine
 10
495.72680431034
 20
140.195191988884
 30
0.0
 11
507.996687595998
 21
140.195191988884
 31
0.0
  0
TEXT
  5
380
330
374
100
AcDbEntity
  8
Layer70
  6
AUSGEZOGEN
 62
   136
370
    18
100
AcDbText
 10
506.782401881712
 20
119.191491935484
 30
0.0
 40
1.25
  1
40
 50
90.0
 41
1.131075166857
  7
Arial
 72
     5
 11
506.782401881712
 21
121.385777759187
 31
0.0
100
AcDbText
  0
ENDBLK
  5
376
330
374
100
AcDbEntity
  8
0
100
AcDbBlockEnd
  0
BLOCK
  5
385
330
384
100
AcDbEntity
  8
0
100
AcDbBlockBegin
  2
*D13
 70
     1
 10
0.0
 20
0.0
 30
0.0
  3
*D13
  1

  0
LINE
  5
387
330
384
100
AcDbEntity
  8
Layer70
  6
AUSGEZOGEN
 62
   136
370
    18
100
AcDbLine
 10
469.032401881712
 20
124.937192185203
 30
0.0
 11
469.532401881712
 21
124.937192185203
 31
0.0
  0
LINE
  5
388
330
384
100
AcDbEntity
  8
Layer70
  6
AUSGEZOGEN
 62
   136
370
    18
100
AcDbLine
 10
469.032401881712
 20
124.937192185203
 30
0.0
 11
469.282401881712
 21
126.187192185203
 31
0.0
  0
LINE
  5
389
330
384
100
AcDbEntity
  8
Layer70
  6
AUSGEZOGEN
 62
   136
370
    18
100
AcDbLine
 10
469.282401881712
 20
126.187192185203
 30
0.0
 11
469.532401881712
 21
124.937192185203
 31
0.0
  0
LINE
  5
38A
330
384
100
AcDbEntity
  8
Layer70
  6
AUSGEZOGEN
 62
   136
370
    18
100
AcDbLine
 10
469.532401881712
 20
123.437192185203
 30
0.0
 11
469.032401881712
 21
123.437192185203
 31
0.0
  0
LINE
  5
38B
330
384
100
AcDbEntity
  8
Layer70
  6
AUSGEZOGEN
 62
   136
370
    18
100
AcDbLine
 10
469.532401881712
 20
123.437192185203
 30
0.0
 11
469.282401881712
 21
122.187192185203
 31
0.0
  0
LINE
  5
38C
330
384
100
AcDbEntity
  8
Layer70
  6
AUSGEZOGEN
 62
   136
370
    18
100
AcDbLine
 10
469.282401881712
 20
122.187192185203
 30
0.0
 11
469.032401881712
 21
123.437192185203
 31
0.0
  0
LINE
  5
38D
330
384
100
AcDbEntity
  8
Layer70
  6
AUSGEZOGEN
 62
   136
370
    18
100
AcDbLine
 10
469.282401881712
 20
122.187192185203
 30
0.0
 11
469.282401881712
 21
126.187192185203
 31
0.0
  0
LINE
  5
38E
330
384
100
AcDbEntity
  8
Layer70
  6
AUSGEZOGEN
 62
   136
370
    18
100
AcDbLine
 10
474.328972312143
 20
122.187192185203
 30
0.0
 11
468.568116167426
 21
122.187192185203
 31
0.0
  0
LINE
  5
38F
330
384
100
AcDbEntity
  8
Layer70
  6
AUSGEZOGEN
 62
   136
370
    18
100
AcDbLine
 10
474.328972312143
 20
126.187192185203
 30
0.0
 11
468.568116167426
 21
126.187192185203
 31
0.0
  0
TEXT
  5
390
330
384
100
AcDbEntity
  8
Layer70
  6
AUSGEZOGEN
 62
   136
370
    18
100
AcDbText
 10
468.782401881712
 20
124.191491935484
 30
0.0
 40
1.25
  1
4
 50
90.0
 41
1.020618612004
  7
Arial
 72
     5
 11
468.782401881712
 21
125.181491989128
 31
0.0
100
AcDbText
  0
ENDBLK
  5
386
330
384
100
AcDbEntity
  8
0
100
AcDbBlockEnd
  0
BLOCK
  5
39E
330
39D
100
AcDbEntity
  8
0
100
AcDbBlockBegin
  2
teat_nNn012
 70
     0
 10
0.0
 20
0.0
 30
0.0
  3
teat_nNn012
  1

  0
TEXT
  5
3A0
330
39D
100
AcDbEntity
  8
Layer0
  6
AUSGEZOGEN
 62
    56
370
    18
100
AcDbText
 10
491.759275856985
 20
66.633558460108
 30
0.0
 40
1.175
  1
Werkstoff/Farbe: Reflektor PMMA glasklar
 41
1.275963231013
  7
Arial
 72
     5
 11
530.834405742599
 21
66.633558460108
 31
0.0
100
AcDbText
  0
TEXT
  5
3A1
330
39D
100
AcDbEntity
  8
Layer0
  6
AUSGEZOGEN
 62
    56
370
    18
100
AcDbText
 10
491.759275856985
 20
64.753558432094
 30
0.0
 40
1.175
  1
                        Halterung PMMA weiss
 41
1.329806485169
  7
Arial
 72
     5
 11
528.973877099274
 21
64.753558432094
 31
0.0
100
AcDbText
  0
ENDBLK
  5
39F
330
39D
100
AcDbEntity
  8
0
100
AcDbBlockEnd
  0
BLOCK
  5
3A5
330
3A4
100
AcDbEntity
  8
0
100
AcDbBlockBegin
  2
*D15
 70
     1
 10
0.0
 20
0.0
 30
0.0
  3
*D15
  1

  0
LINE
  5
3A7
330
3A4
100
AcDbEntity
  8
Layer70
  6
AUSGEZOGEN
 62
   136
370
    18
100
AcDbLine
 10
487.276811939734
 20
165.599742860805
 30
0.0
 11
487.276811939734
 21
165.099742860805
 31
0.0
  0
LINE
  5
3A8
330
3A4
100
AcDbEntity
  8
Layer70
  6
AUSGEZOGEN
 62
   136
370
    18
100
AcDbLine
 10
487.276811939734
 20
165.599742860805
 30
0.0
 11
488.526811939734
 21
165.349742860805
 31
0.0
  0
LINE
  5
3A9
330
3A4
100
AcDbEntity
  8
Layer70
  6
AUSGEZOGEN
 62
   136
370
    18
100
AcDbLine
 10
488.526811939734
 20
165.349742860805
 30
0.0
 11
487.276811939734
 21
165.099742860805
 31
0.0
  0
LINE
  5
3AA
330
3A4
100
AcDbEntity
  8
Layer70
  6
AUSGEZOGEN
 62
   136
370
    18
100
AcDbLine
 10
483.276811939734
 20
165.099742860805
 30
0.0
 11
483.276811939734
 21
165.599742860805
 31
0.0
  0
LINE
  5
3AB
330
3A4
100
AcDbEntity
  8
Layer70
  6
AUSGEZOGEN
 62
   136
370
    18
100
AcDbLine
 10
483.276811939734
 20
165.099742860805
 30
0.0
 11
482.026811939734
 21
165.349742860805
 31
0.0
  0
LINE
  5
3AC
330
3A4
100
AcDbEntity
  8
Layer70
  6
AUSGEZOGEN
 62
   136
370
    18
100
AcDbLine
 10
482.026811939734
 20
165.349742860805
 30
0.0
 11
483.276811939734
 21
165.599742860805
 31
0.0
  0
LINE
  5
3AD
330
3A4
100
AcDbEntity
  8
Layer70
  6
AUSGEZOGEN
 62
   136
370
    18
100
AcDbLine
 10
482.026811939734
 20
165.349742860805
 30
0.0
 11
488.526811939734
 21
165.349742860805
 31
0.0
  0
LINE
  5
3AE
330
3A4
100
AcDbEntity
  8
Layer70
  6
AUSGEZOGEN
 62
   136
370
    18
100
AcDbLine
 10
482.026811939734
 20
161.585661116666
 30
0.0
 11
482.026811939734
 21
166.06402857509
 31
0.0
  0
LINE
  5
3AF
330
3A4
100
AcDbEntity
  8
Layer70
  6
AUSGEZOGEN
 62
   136
370
    18
100
AcDbLine
 10
488.526811939734
 20
161.585661116666
 30
0.0
 11
488.526811939734
 21
166.06402857509
 31
0.0
  0
TEXT
  5
3B0
330
3A4
100
AcDbEntity
  8
Layer70
  6
AUSGEZOGEN
 62
   136
370
    18
100
AcDbText
 10
483.0711471178
 20
165.849742860805
 30
0.0
 40
1.25
  1
%%c6.5
 41
1.110943306383
  7
Arial
 72
     5
 11
487.273290174193
 21
165.849742860805
 31
0.0
100
AcDbText
  0
ENDBLK
  5
3A6
330
3A4
100
AcDbEntity
  8
0
100
AcDbBlockEnd
  0
BLOCK
  5
3B3
330
3B2
100
AcDbEntity
  8
0
100
AcDbBlockBegin
  2
Reflexwerte_nNn014
 70
     0
 10
0.0
 20
0.0
 30
0.0
  3
Reflexwerte_nNn014
  1

  0
TEXT
  5
3B5
330
3B2
100
AcDbEntity
  8
Layer0
  6
AUSGEZOGEN
 62
   136
370
    18
100
AcDbText
 10
444.84915104217
 20
75.042104832514
 30
0.0
 40
1.25
  1
Reflexionswerte werden gesondert vereinbart
 41
1.135633679475
  7
Arial
 72
     5
 11
484.714151818052
 21
75.042104832514
 31
0.0
100
AcDbText
  0
ENDBLK
  5
3B4
330
3B2
100
AcDbEntity
  8
0
100
AcDbBlockEnd
  0
BLOCK
  5
3B8
330
3B7
100
AcDbEntity
  8
0
100
AcDbBlockBegin
  2
QS_nNn015
 70
     0
 10
0.0
 20
0.0
 30
0.0
  3
QS_nNn015
  1

  0
TEXT
  5
3BA
330
3B7
100
AcDbEntity
  8
Layer0
  6
AUSGEZOGEN
 62
   136
370
    18
100
AcDbText
 10
444.894795170753
 20
83.549318700812
 30
0.0
 40
1.25
  1
Teil frei von Rissen, Grat, Blasen, Einfallstellen,
 41
1.13496141796
  7
Arial
 72
     5
 11
486.606045982568
 21
83.549318700812
 31
0.0
100
AcDbText
  0
TEXT
  5
3BB
330
3B7
100
AcDbEntity
  8
Layer0
  6
AUSGEZOGEN
 62
   136
370
    18
100
AcDbText
 10
444.894795170753
 20
81.54931867101
 30
0.0
 40
1.25
  1
Fliesslinien, Einschlüssen, Formbelag, Kratzer, Schlieren
 41
1.134732261281
  7
Arial
 72
     5
 11
494.84854614299
 21
81.54931867101
 31
0.0
100
AcDbText
  0
TEXT
  5
3BC
330
3B7
100
AcDbEntity
  8
Layer0
  6
AUSGEZOGEN
 62
   136
370
    18
100
AcDbText
 10
444.894795170753
 20
79.549318641207
 30
0.0
 40
1.25
  1
Grenzwertmuster werden gesondert vereinbart
 41
1.135456394682
  7
Arial
 72
     5
 11
485.853545967922
 21
79.549318641207
 31
0.0
100
AcDbText
  0
ENDBLK
  5
3B9
330
3B7
100
AcDbEntity
  8
0
100
AcDbBlockEnd
  0
BLOCK
  5
3C2
330
3C1
100
AcDbEntity
  8
0
100
AcDbBlockBegin
  2
*D18
 70
     1
 10
0.0
 20
0.0
 30
0.0
  3
*D18
  1

  0
LINE
  5
3C4
330
3C1
100
AcDbEntity
  8
Layer70
  6
AUSGEZOGEN
 62
   136
370
    18
100
AcDbLine
 10
505.25
 20
160.735661116666
 30
0.0
 11
505.75
 21
160.735661116666
 31
0.0
  0
LINE
  5
3C5
330
3C1
100
AcDbEntity
  8
Layer70
  6
AUSGEZOGEN
 62
   136
370
    18
100
AcDbLine
 10
505.25
 20
160.735661116666
 30
0.0
 11
505.5
 21
161.985661116666
 31
0.0
  0
LINE
  5
3C6
330
3C1
100
AcDbEntity
  8
Layer70
  6
AUSGEZOGEN
 62
   136
370
    18
100
AcDbLine
 10
505.5
 20
161.985661116666
 30
0.0
 11
505.75
 21
160.735661116666
 31
0.0
  0
LINE
  5
3C7
330
3C1
100
AcDbEntity
  8
Layer70
  6
AUSGEZOGEN
 62
   136
370
    18
100
AcDbLine
 10
505.75
 20
154.835661116666
 30
0.0
 11
505.25
 21
154.835661116666
 31
0.0
  0
LINE
  5
3C8
330
3C1
100
AcDbEntity
  8
Layer70
  6
AUSGEZOGEN
 62
   136
370
    18
100
AcDbLine
 10
505.75
 20
154.835661116666
 30
0.0
 11
505.5
 21
153.585661116666
 31
0.0
  0
LINE
  5
3C9
330
3C1
100
AcDbEntity
  8
Layer70
  6
AUSGEZOGEN
 62
   136
370
    18
100
AcDbLine
 10
505.5
 20
153.585661116666
 30
0.0
 11
505.25
 21
154.835661116666
 31
0.0
  0
LINE
  5
3CA
330
3C1
100
AcDbEntity
  8
Layer70
  6
AUSGEZOGEN
 62
   136
370
    18
100
AcDbLine
 10
505.5
 20
153.585661116666
 30
0.0
 11
505.5
 21
161.985661116666
 31
0.0
  0
LINE
  5
3CB
330
3C1
100
AcDbEntity
  8
Layer70
  6
AUSGEZOGEN
 62
   136
370
    18
100
AcDbLine
 10
498.02680431034
 20
153.585661116666
 30
0.0
 11
506.214285714286
 21
153.585661116666
 31
0.0
  0
LINE
  5
3CC
330
3C1
100
AcDbEntity
  8
Layer70
  6
AUSGEZOGEN
 62
   136
370
    18
100
AcDbLine
 10
497.776811939734
 20
161.985661116666
 30
0.0
 11
506.214285714286
 21
161.985661116666
 31
0.0
  0
WIPEOUT
  5
3CD
330
3C1
100
AcDbEntity
  8
Layer70
  6
AUSGEZOGEN
 62
   136
370
    18
 92
      152
310
98000000040000000C0000000E000000120000000C00000016000000000000C20C00000014000000010000006C00000007000000040000000000000000967F400000DCB66D63634000000000000000000000000000967F40C8762680E42F644000000000000000000000000000767F40C8762680E42F644000000000000000
310
000000000000767F400000DCB66D6363400000000000000000
100
AcDbWipeout
 90
        0
 10
503.375
 20
155.107142858207
 30
0.0
 11
6.389500279843816
 21
0.0
 31
0.0
 12
0.0
 22
6.389500279843816
 32
0.0
 13
1.0
 23
1.0
340
0
 70
     7
280
     1
281
    50
282
    50
283
     0
360
0
 71
     2
 91
        5
 14
-0.186986475874
 24
0.5
 14
-0.186986475874
 24
-0.5
 14
-0.5
 24
-0.5
 14
-0.5
 24
0.5
 14
-0.186986475874
 24
0.5
  0
TEXT
  5
3CE
330
3C1
100
AcDbEntity
  8
Layer70
  6
AUSGEZOGEN
 62
   136
370
    18
100
AcDbText
 10
505.0
 20
155.107142858207
 30
0.0
 40
1.25
  1
8.4
 50
90.0
 41
1.197349099769
  7
Arial
 72
     5
 11
505.0
 21
158.010714425147
 31
0.0
100
AcDbText
  0
WIPEOUT
  5
3CF
330
3C1
100
AcDbEntity
  8
Layer70
  6
AUSGEZOGEN
 62
   136
370
    18
 92
      152
310
98000000040000000C0000000E000000120000000C00000016000000000000C20C00000014000000010000006C00000007000000040000003333333333917F4034337F3333C7634000000000000000003333333333917F40FCA9C9FCA99364400000000000000000CDCCCCCCCC7A7F40FCA9C9FCA993644000000000000000
310
00CDCCCCCCCC7A7F4034337F3333C763400000000000000000
100
AcDbWipeout
 90
        0
 10
503.675
 20
158.225000141561
 30
0.0
 11
6.389500279843816
 21
0.0
 31
0.0
 12
0.0
 22
6.389500279843816
 32
0.0
 13
1.0
 23
1.0
340
0
 70
     7
280
     1
281
    50
282
    50
283
     0
360
0
 71
     2
 91
        5
 14
-0.280890533112
 24
0.5
 14
-0.280890533112
 24
-0.5
 14
-0.5
 24
-0.5
 14
-0.5
 24
0.5
 14
-0.280890533112
 24
0.5
  0
TEXT
  5
3D0
330
3C1
100
AcDbEntity
  8
Layer70
  6
AUSGEZOGEN
 62
   136
370
    18
100
AcDbText
 10
504.8125
 20
158.225000141561
 30
0.0
 40
0.875
  1
%%p0.3
 50
90.0
 41
1.291250039099
  7
Arial
 72
     5
 11
504.8125
 21
161.282357421637
 31
0.0
100
AcDbText
  0
ENDBLK
  5
3C3
330
3C1
100
AcDbEntity
  8
0
100
AcDbBlockEnd
  0
ENDSEC
  0
SECTION
  2
ENTITIES
  0
INSERT
  5
19C
330
1F
100
AcDbEntity
  8
0
100
AcDbBlockReference
  2
A4_nNn00
 10
0.0
 20
0.0
 30
0.0
  0
TEXT
  5
19D
330
1F
100
AcDbEntity
  8
Layer50
  6
AUSGEZOGEN
 62
     9
370
    18
100
AcDbText
 10
491.487714019527
 20
58.771662073738
 30
0.0
 40
2.35
  1
Reflektor 25x25LH
 41
1.257449401602
  7
Arial
 72
     5
 11
525.644629457345
 21
58.771662073738
 31
0.0
100
AcDbText
  0
LINE
  5
19E
330
1F
100
AcDbEntity
  8
Layer0
  6
DASHDOT
 62
    56
370
    18
100
AcDbLine
 10
485.27680431034
 20
143.609071383415
 30
0.0
 11
485.27680431034
 21
97.364012942253
 31
0.0
  0
LINE
  5
19F
330
1F
100
AcDbEntity
  8
Layer0
  6
AUSGEZOGEN
 62
     9
370
    18
100
AcDbLine
 10
472.52680431034
 20
137.895191988884
 30
0.0
 11
472.52680431034
 21
102.495191988884
 31
0.0
  0
LINE
  5
1A0
330
1F
100
AcDbEntity
  8
Layer0
  6
AUSGEZOGEN
 62
     9
370
    18
100
AcDbLine
 10
498.02680431034
 20
137.895191988884
 30
0.0
 11
498.02680431034
 21
102.495191988884
 31
0.0
  0
LINE
  5
1A1
330
1F
100
AcDbEntity
  8
Layer0
  6
DASHDOT
 62
    56
370
    18
100
AcDbLine
 10
478.792350671919
 20
136.20140536779
 30
0.0
 11
490.648099876542
 21
136.20140536779
 31
0.0
  0
CIRCLE
  5
1A2
330
1F
100
AcDbEntity
  8
Layer0
  6
AUSGEZOGEN
 62
     9
370
    18
100
AcDbCircle
 10
485.27680431034
 20
136.20140536779
 30
0.0
 40
1.75
  0
LINE
  5
1A3
330
1F
100
AcDbEntity
  8
Layer0
  6
DASHDOT
 62
    56
370
    18
100
AcDbLine
 10
479.657733825541
 20
104.201778445183
 30
0.0
 11
490.56156156118
 21
104.201778445183
 31
0.0
  0
CIRCLE
  5
1A4
330
1F
100
AcDbEntity
  8
Layer0
  6
AUSGEZOGEN
 62
     9
370
    18
100
AcDbCircle
 10
485.27680431034
 20
104.201778445183
 30
0.0
 40
1.75
  0
LINE
  5
1A5
330
1F
100
AcDbEntity
  8
Layer0
  6
AUSGEZOGEN
 62
     9
370
    18
100
AcDbLine
 10
474.82680431034
 20
140.195191988884
 30
0.0
 11
495.72680431034
 21
140.195191988884
 31
0.0
  0
ARC
  5
1A6
330
1F
100
AcDbEntity
  8
Layer0
  6
AUSGEZOGEN
 62
     9
370
    18
100
AcDbCircle
 10
474.82680431034
 20
137.895191988884
 30
0.0
 40
2.300000000000014
100
AcDbArc
 50
90.0
 51
180.0
  0
ARC
  5
1A7
330
1F
100
AcDbEntity
  8
Layer0
  6
AUSGEZOGEN
 62
     9
370
    18
100
AcDbCircle
 10
495.72680431034
 20
137.895191988884
 30
0.0
 40
2.299999999999964
100
AcDbArc
 50
359.999999999999
 51
90.0
  0
LINE
  5
1A8
330
1F
100
AcDbEntity
  8
Layer0
  6
AUSGEZOGEN
 62
     9
370
    18
100
AcDbLine
 10
474.82680431034
 20
100.195191988884
 30
0.0
 11
495.72680431034
 21
100.195191988884
 31
0.0
  0
ARC
  5
1A9
330
1F
100
AcDbEntity
  8
Layer0
  6
AUSGEZOGEN
 62
     9
370
    18
100
AcDbCircle
 10
474.82680431034
 20
102.495191988884
 30
0.0
 40
2.300000000000013
100
AcDbArc
 50
180.0
 51
270.0
  0
ARC
  5
1AA
330
1F
100
AcDbEntity
  8
Layer0
  6
AUSGEZOGEN
 62
     9
370
    18
100
AcDbCircle
 10
495.72680431034
 20
102.495191988884
 30
0.0
 40
2.300000000000013
100
AcDbArc
 50
270.0
 51
360.0
  0
LINE
  5
1AB
330
1F
100
AcDbEntity
  8
Layer0
  6
AUSGEZOGEN
 62
     9
370
    18
100
AcDbLine
 10
472.52680431034
 20
153.585661116666
 30
0.0
 11
498.02680431034
 21
153.585661116666
 31
0.0
  0
LINE
  5
1AC
330
1F
100
AcDbEntity
  8
Layer0
  6
DASHDOT
 62
    56
370
    18
100
AcDbLine
 10
485.276811939734
 20
151.852461043424
 30
0.0
 11
485.276811939734
 21
160.518430892057
 31
0.0
  0
LINE
  5
1AD
330
1F
100
AcDbEntity
  8
Layer0
  6
AUSGEZOGEN
 62
     9
370
    18
100
AcDbLine
 10
487.026811939734
 20
153.585661116666
 30
0.0
 11
487.026811939734
 21
158.385661116666
 31
0.0
  0
LINE
  5
1AE
330
1F
100
AcDbEntity
  8
Layer0
  6
AUSGEZOGEN
 62
     9
370
    18
100
AcDbLine
 10
483.526811939734
 20
153.585661116666
 30
0.0
 11
483.526811939734
 21
158.385661116666
 31
0.0
  0
LINE
  5
1AF
330
1F
100
AcDbEntity
  8
Layer0
  6
AUSGEZOGEN
 62
     9
370
    18
100
AcDbLine
 10
472.52680431034
 20
153.585661116666
 30
0.0
 11
472.661299700153
 21
161.290896838597
 31
0.0
  0
LINE
  5
1B0
330
1F
100
AcDbEntity
  8
Layer0
  6
AUSGEZOGEN
 62
     9
370
    18
100
AcDbLine
 10
498.02680431034
 20
153.585661116666
 30
0.0
 11
497.892308920526
 21
161.290896838597
 31
0.0
  0
LINE
  5
1B1
330
1F
100
AcDbEntity
  8
Layer0
  6
AUSGEZOGEN
 62
     9
370
    18
100
AcDbLine
 10
473.726987103992
 20
153.585661116666
 30
0.0
 11
473.964448336536
 21
160.385661116666
 31
0.0
  0
LINE
  5
1B2
330
1F
100
AcDbEntity
  8
Layer0
  6
AUSGEZOGEN
 62
     9
370
    18
100
AcDbLine
 10
496.826621516687
 20
153.585661116666
 30
0.0
 11
496.589160284143
 21
160.385661116666
 31
0.0
  0
LINE
  5
1B3
330
1F
100
AcDbEntity
  8
Layer0
  6
AUSGEZOGEN
 62
     9
370
    18
100
AcDbLine
 10
498.02680431034
 20
132.945191988884
 30
0.0
 11
498.02680431034
 21
107.445191988884
 31
0.0
  0
LINE
  5
1B4
330
1F
100
AcDbEntity
  8
Layer0
  6
AUSGEZOGEN
 62
     9
370
    18
100
AcDbLine
 10
472.52680431034
 20
132.945191988884
 30
0.0
 11
472.52680431034
 21
107.445191988884
 31
0.0
  0
LINE
  5
1B5
330
1F
100
AcDbEntity
  8
Layer0
  6
AUSGEZOGEN
 62
     9
370
    18
100
AcDbLine
 10
472.52680431034
 20
132.945191988884
 30
0.0
 11
498.02680431034
 21
132.945191988884
 31
0.0
  0
LINE
  5
1B6
330
1F
100
AcDbEntity
  8
Layer0
  6
AUSGEZOGEN
 62
     9
370
    18
100
AcDbLine
 10
472.52680431034
 20
107.445191988884
 30
0.0
 11
498.02680431034
 21
107.445191988884
 31
0.0
  0
LINE
  5
1B7
330
1F
100
AcDbEntity
  8
Layer0
  6
AUSGEZOGEN
 62
     9
370
    18
100
AcDbLine
 10
473.72680431034
 20
131.745191988884
 30
0.0
 11
496.82680431034
 21
131.745191988884
 31
0.0
  0
LINE
  5
1B8
330
1F
100
AcDbEntity
  8
Layer0
  6
AUSGEZOGEN
 62
     9
370
    18
100
AcDbLine
 10
473.72680431034
 20
108.645191988884
 30
0.0
 11
496.82680431034
 21
108.645191988884
 31
0.0
  0
LINE
  5
1B9
330
1F
100
AcDbEntity
  8
Layer0
  6
AUSGEZOGEN
 62
     9
370
    18
100
AcDbLine
 10
496.82680431034
 20
131.745191988884
 30
0.0
 11
496.82680431034
 21
108.645191988884
 31
0.0
  0
LINE
  5
1BA
330
1F
100
AcDbEntity
  8
Layer0
  6
AUSGEZOGEN
 62
     9
370
    18
100
AcDbLine
 10
473.72680431034
 20
131.745191988884
 30
0.0
 11
473.72680431034
 21
108.645191988884
 31
0.0
  0
LINE
  5
1BB
330
1F
100
AcDbEntity
  8
Layer0
  6
AUSGEZOGEN
 62
     9
370
    18
100
AcDbLine
 10
472.9612540087
 20
161.585661116666
 30
0.0
 11
497.592354611979
 21
161.585661116666
 31
0.0
  0
LINE
  5
1BC
330
1F
100
AcDbEntity
  8
Layer0
  6
AUSGEZOGEN
 62
     9
370
    18
100
AcDbLine
 10
482.026811939734
 20
158.385661116666
 30
0.0
 11
488.526811939734
 21
158.385661116666
 31
0.0
  0
LINE
  5
1BD
330
1F
100
AcDbEntity
  8
Layer0
  6
AUSGEZOGEN
 62
     9
370
    18
100
AcDbLine
 10
473.964448336536
 20
160.385661116666
 30
0.0
 11
480.969210225471
 21
160.385661116666
 31
0.0
  0
ARC
  5
1BE
330
1F
100
AcDbEntity
  8
Layer0
  6
AUSGEZOGEN
 62
     9
370
    18
100
AcDbCircle
 10
472.9612540087
 20
161.285661116666
 30
0.0
 40
0.3
100
AcDbArc
 50
90.0
 51
178.999999999997
  0
ARC
  5
1BF
330
1F
100
AcDbEntity
  8
Layer0
  6
AUSGEZOGEN
 62
     9
370
    18
100
AcDbCircle
 10
497.592354611979
 20
161.285661116666
 30
0.0
 40
0.3
100
AcDbArc
 50
1.000000000003
 51
90.0
  0
LINE
  5
1C0
330
1F
100
AcDbEntity
  8
Layer0
  6
AUSGEZOGEN
 62
     9
370
    18
100
AcDbLine
 10
496.589160284143
 20
160.385661116666
 30
0.0
 11
489.584413653997
 21
160.385661116666
 31
0.0
  0
INSERT
  5
311
330
1F
100
AcDbEntity
  8
0
100
AcDbBlockReference
  2
ingrid1_nNn03
 10
0.0
 20
0.0
 30
0.0
  0
LINE
  5
312
330
1F
100
AcDbEntity
  8
Layer0
  6
DASHDOT
 62
    56
370
    18
100
AcDbLine
 10
470.461530932217
 20
120.195191988884
 30
0.0
 11
499.557563874188
 21
120.195191988884
 31
0.0
  0
DIMENSION
  5
323
330
1F
100
AcDbEntity
  8
Layer70
  6
AUSGEZOGEN
 62
   136
370
    18
100
AcDbDimension
  2
*D5
 10
487.026811939734
 20
149.691491935484
 30
0.0
 11
490.383473409908
 21
150.816491935484
 31
0.0
 70
   160
 71
     5
 42
-1.0
  3
ISO-25
100
AcDbAlignedDimension
 13
483.526811939734
 23
153.585661116666
 33
0.0
 14
487.026811939734
 24
153.585661116666
 34
0.0
100
AcDbRotatedDimension
1001
ACAD
1000
DSTYLE
1002
{
1070
     3
1000
%%c<>
1070
    44
1040
0.892857142857
1070
   280
1070
     0
1070
    77
1070
     1
1070
    78
1070
     8
1070
   179
1070
     2
1070
   271
1070
     2
1070
   344
1005
324
1070
   343
1005
324
1070
   173
1070
     1
1070
    41
1040
1.25
1070
   147
1040
0.178571428571
1070
   140
1040
1.25
1070
   178
1070
   136
1070
   177
1070
   136
1070
   176
1070
   136
1002
}
  0
DIMENSION
  5
33B
330
1F
100
AcDbEntity
  8
Layer70
  6
AUSGEZOGEN
 62
   136
370
    18
100
AcDbDimension
  2
*D7
 10
502.282401881712
 20
158.385661116666
 30
0.0
 11
501.157401881712
 21
164.293277718954
 31
0.0
 70
   160
 71
     5
 42
-1.0
 53
90.0
  3
ISO-25
100
AcDbAlignedDimension
 13
488.276811939734
 23
161.585661116666
 33
0.0
 14
488.276811939734
 24
158.385661116666
 34
0.0
 50
-90.0
100
AcDbRotatedDimension
1001
ACAD
1000
DSTYLE
1002
{
1070
     3
1000
<>
1070
    44
1040
0.892857142857
1070
   280
1070
     0
1070
    77
1070
     1
1070
    78
1070
     8
1070
   179
1070
     2
1070
   271
1070
     2
1070
   344
1005
324
1070
   343
1005
324
1070
   173
1070
     1
1070
    41
1040
1.25
1070
   147
1040
0.178571428571
1070
   140
1040
1.25
1070
   178
1070
   136
1070
   177
1070
   136
1070
   176
1070
   136
1002
}
  0
DIMENSION
  5
349
330
1F
100
AcDbEntity
  8
Layer70
  6
AUSGEZOGEN
 62
   136
370
    18
100
AcDbDimension
  2
*D8
 10
496.82680431034
 20
94.691491935484
 30
0.0
 11
485.836330550211
 21
95.816491935484
 31
0.0
 70
   160
 71
     5
 42
-1.0
  3
ISO-25
100
AcDbAlignedDimension
 13
473.72680431034
 23
108.645191988884
 33
0.0
 14
496.82680431034
 24
108.645191988884
 34
0.0
100
AcDbRotatedDimension
1001
ACAD
1000
DSTYLE
1002
{
1070
     3
1000
<>
1070
    44
1040
0.892857142857
1070
   280
1070
     0
1070
    77
1070
     1
1070
    78
1070
     8
1070
   179
1070
     2
1070
   271
1070
     2
1070
   344
1005
324
1070
   343
1005
324
1070
   173
1070
     1
1070
    41
1040
1.25
1070
   147
1040
0.178571428571
1070
   140
1040
1.25
1070
   178
1070
   136
1070
   177
1070
   136
1070
   176
1070
   136
1002
}
  0
DIMENSION
  5
357
330
1F
100
AcDbEntity
  8
Layer70
  6
AUSGEZOGEN
 62
   136
370
    18
100
AcDbDimension
  2
*D9
 10
498.02680431034
 20
91.691491935484
 30
0.0
 11
485.836330550211
 21
92.816491935484
 31
0.0
 70
   160
 71
     5
 42
-1.0
  3
ISO-25
100
AcDbAlignedDimension
 13
472.52680431034
 23
102.495191988884
 33
0.0
 14
498.02680431034
 24
102.495191988884
 34
0.0
100
AcDbRotatedDimension
1001
ACAD
1000
DSTYLE
1002
{
1070
     3
1000
<>
1070
    44
1040
0.892857142857
1070
   280
1070
     0
1070
    77
1070
     1
1070
    78
1070
     8
1070
   179
1070
     2
1070
   271
1070
     2
1070
   344
1005
324
1070
   343
1005
324
1070
   173
1070
     1
1070
    41
1040
1.25
1070
   147
1040
0.178571428571
1070
   140
1040
1.25
1070
   178
1070
   136
1070
   177
1070
   136
1070
   176
1070
   136
1002
}
  0
DIMENSION
  5
365
330
1F
100
AcDbEntity
  8
Layer70
  6
AUSGEZOGEN
 62
   136
370
    18
100
AcDbDimension
  2
*D10
 10
502.282401881712
 20
131.745191988884
 30
0.0
 11
501.157401881712
 21
120.245420603983
 31
0.0
 70
   160
 71
     5
 42
-1.0
 53
90.0
  3
ISO-25
100
AcDbAlignedDimension
 13
496.82680431034
 23
108.645191988884
 33
0.0
 14
496.82680431034
 24
131.745191988884
 34
0.0
 50
90.0
100
AcDbRotatedDimension
1001
ACAD
1000
DSTYLE
1002
{
1070
     3
1000
<>
1070
    44
1040
0.892857142857
1070
   280
1070
     0
1070
    77
1070
     1
1070
    78
1070
     8
1070
   179
1070
     2
1070
   271
1070
     2
1070
   344
1005
324
1070
   343
1005
324
1070
   173
1070
     1
1070
    41
1040
1.25
1070
   147
1040
0.178571428571
1070
   140
1040
1.25
1070
   178
1070
   136
1070
   177
1070
   136
1070
   176
1070
   136
1002
}
  0
DIMENSION
  5
373
330
1F
100
AcDbEntity
  8
Layer70
  6
AUSGEZOGEN
 62
   136
370
    18
100
AcDbDimension
  2
*D11
 10
504.782401881712
 20
136.20140536779
 30
0.0
 11
503.657401881712
 21
120.288634847335
 31
0.0
 70
   160
 71
     5
 42
-1.0
 53
90.0
  3
ISO-25
100
AcDbAlignedDimension
 13
490.56156156118
 23
104.201778445183
 33
0.0
 14
490.648099876542
 24
136.20140536779
 34
0.0
 50
90.0
100
AcDbRotatedDimension
1001
ACAD
1000
DSTYLE
1002
{
1070
     3
1000
<>
1070
    44
1040
0.892857142857
1070
   280
1070
     0
1070
    77
1070
     1
1070
    78
1070
     8
1070
   179
1070
     2
1070
   271
1070
     2
1070
   344
1005
324
1070
   343
1005
324
1070
   173
1070
     1
1070
    41
1040
1.25
1070
   147
1040
0.178571428571
1070
   140
1040
1.25
1070
   178
1070
   136
1070
   177
1070
   136
1070
   176
1070
   136
1002
}
  0
DIMENSION
  5
381
330
1F
100
AcDbEntity
  8
Layer70
  6
AUSGEZOGEN
 62
   136
370
    18
100
AcDbDimension
  2
*D12
 10
507.282401881712
 20
140.195191988884
 30
0.0
 11
506.157401881712
 21
120.288634847335
 31
0.0
 70
   160
 71
     5
 42
-1.0
 53
90.0
  3
ISO-25
100
AcDbAlignedDimension
 13
495.72680431034
 23
100.195191988884
 33
0.0
 14
495.72680431034
 24
140.195191988884
 34
0.0
 50
90.0
100
AcDbRotatedDimension
1001
ACAD
1000
DSTYLE
1002
{
1070
     3
1000
<>
1070
    44
1040
0.892857142857
1070
   280
1070
     0
1070
    77
1070
     1
1070
    78
1070
     8
1070
   179
1070
     2
1070
   271
1070
     2
1070
   344
1005
324
1070
   343
1005
324
1070
   173
1070
     1
1070
    41
1040
1.25
1070
   147
1040
0.178571428571
1070
   140
1040
1.25
1070
   178
1070
   136
1070
   177
1070
   136
1070
   176
1070
   136
1002
}
  0
LINE
  5
382
330
1F
100
AcDbEntity
  8
Layer0
  6
AUSGEZOGEN
 62
   136
370
    18
100
AcDbLine
 10
476.633753898905
 20
126.187192185203
 30
0.0
 11
474.328972312143
 21
126.187192185203
 31
0.0
  0
LINE
  5
383
330
1F
100
AcDbEntity
  8
Layer0
  6
AUSGEZOGEN
 62
   136
370
    18
100
AcDbLine
 10
476.633753898905
 20
122.187192185203
 30
0.0
 11
474.328972312143
 21
122.187192185203
 31
0.0
  0
DIMENSION
  5
391
330
1F
100
AcDbEntity
  8
Layer70
  6
AUSGEZOGEN
 62
   136
370
    18
100
AcDbDimension
  2
*D13
 10
469.282401881712
 20
126.187192185203
 30
0.0
 11
468.157401881712
 21
124.686491962306
 31
0.0
 70
   160
 71
     5
 42
-1.0
 53
90.0
  3
ISO-25
100
AcDbAlignedDimension
 13
474.328972312143
 23
122.187192185203
 33
0.0
 14
474.328972312143
 24
126.187192185203
 34
0.0
 50
90.0
100
AcDbRotatedDimension
1001
ACAD
1000
DSTYLE
1002
{
1070
     3
1000
<>
1070
    44
1040
0.892857142857
1070
   280
1070
     0
1070
    77
1070
     1
1070
    78
1070
     8
1070
   179
1070
     2
1070
   271
1070
     2
1070
   344
1005
324
1070
   343
1005
324
1070
   173
1070
     1
1070
    41
1040
1.25
1070
   147
1040
0.178571428571
1070
   140
1040
1.25
1070
   178
1070
   136
1070
   177
1070
   136
1070
   176
1070
   136
1002
}
  0
CIRCLE
  5
392
330
1F
100
AcDbEntity
  8
Layer0
  6
AUSGEZOGEN
 62
     9
370
    18
100
AcDbCircle
 10
485.27680431034
 20
104.201778445183
 30
0.0
 40
3.25
  0
CIRCLE
  5
393
330
1F
100
AcDbEntity
  8
Layer0
  6
AUSGEZOGEN
 62
     9
370
    18
100
AcDbCircle
 10
485.27680431034
 20
136.20140536779
 30
0.0
 40
3.25
  0
LINE
  5
394
330
1F
100
AcDbEntity
  8
Layer0
  6
AUSGEZOGEN
 62
     9
370
    18
100
AcDbLine
 10
488.287904666983
 20
157.085661116666
 30
0.0
 11
489.526811939734
 21
157.085661116666
 31
0.0
  0
LINE
  5
395
330
1F
100
AcDbEntity
  8
Layer0
  6
AUSGEZOGEN
 62
     9
370
    18
100
AcDbLine
 10
481.026811939734
 20
157.085661116666
 30
0.0
 11
482.265719212485
 21
157.085661116666
 31
0.0
  0
LINE
  5
396
330
1F
100
AcDbEntity
  8
Layer0
  6
AUSGEZOGEN
 62
     9
370
    18
100
AcDbLine
 10
488.526811939734
 20
158.385661116666
 30
0.0
 11
488.526811939734
 21
161.585661116666
 31
0.0
  0
LINE
  5
397
330
1F
100
AcDbEntity
  8
Layer0
  6
AUSGEZOGEN
 62
     9
370
    18
100
AcDbLine
 10
482.026811939734
 20
158.385661116666
 30
0.0
 11
482.026811939734
 21
161.585661116666
 31
0.0
  0
LINE
  5
398
330
1F
100
AcDbEntity
  8
Layer0
  6
AUSGEZOGEN
 62
     9
370
    18
100
AcDbLine
 10
488.226811939734
 20
153.585661116666
 30
0.0
 11
488.287904666983
 21
157.085661116666
 31
0.0
  0
LINE
  5
399
330
1F
100
AcDbEntity
  8
Layer0
  6
AUSGEZOGEN
 62
     9
370
    18
100
AcDbLine
 10
489.526811939734
 20
157.085661116666
 30
0.0
 11
489.584413653997
 21
160.385661116666
 31
0.0
  0
LINE
  5
39A
330
1F
100
AcDbEntity
  8
Layer0
  6
AUSGEZOGEN
 62
     9
370
    18
100
AcDbLine
 10
482.326811939734
 20
153.585661116666
 30
0.0
 11
482.265719212485
 21
157.085661116666
 31
0.0
  0
LINE
  5
39B
330
1F
100
AcDbEntity
  8
Layer0
  6
AUSGEZOGEN
 62
     9
370
    18
100
AcDbLine
 10
481.026811939734
 20
157.085661116666
 30
0.0
 11
480.969210225471
 21
160.385661116666
 31
0.0
  0
HATCH
  5
39C
330
1F
100
AcDbEntity
  8
Layer60
  6
AUSGEZOGEN
 62
    56
370
    18
100
AcDbHatch
 10
0.0
 20
0.0
 30
0.0
210
0.0
220
0.0
230
1.0
  2
MegaCAD_TYP1
 70
     0
 71
     0
 91
        2
 92
        2
 72
     1
 73
     1
 93
       13
 10
473.9644483365363
 20
160.385661116666
 42
0.0
 10
480.9692102254711
 20
160.385661116666
 42
0.0
 10
481.0268119397342
 20
157.085661116666
 42
0.0
 10
482.2657192124855
 20
157.085661116666
 42
0.0
 10
482.3268119397342
 20
153.5856611166659
 42
0.0
 10
483.5268119397342
 20
153.585661116666
 42
0.0
 10
483.5268119397342
 20
158.385661116666
 42
0.0
 10
482.0268119397342
 20
158.385661116666
 42
0.0
 10
482.0268119397342
 20
161.585661116666
 42
0.0
 10
472.9612540087002
 20
161.585661116666
 42
0.4091108014275558
 10
472.6612997001532
 20
161.2908968385971
 42
0.0
 10
472.5268043103396
 20
153.5856611166659
 42
0.0
 10
473.7269871039924
 20
153.5856611166659
 42
0.0
 97
        0
 92
        2
 72
     1
 73
     1
 93
       13
 10
488.2879046669829
 20
157.085661116666
 42
0.0
 10
489.5268119397342
 20
157.085661116666
 42
0.0
 10
489.5844136539972
 20
160.3856611166659
 42
0.0
 10
496.5891602841431
 20
160.3856611166659
 42
0.0
 10
496.8266215166869
 20
153.585661116666
 42
0.0
 10
498.0268043103397
 20
153.585661116666
 42
0.0
 10
497.8923089205261
 20
161.2908968385971
 42
0.4091108014274776
 10
497.5923546119791
 20
161.585661116666
 42
0.0
 10
488.5268119397342
 20
161.585661116666
 42
0.0
 10
488.5268119397342
 20
158.385661116666
 42
0.0
 10
487.0268119397342
 20
158.385661116666
 42
0.0
 10
487.0268119397342
 20
153.5856611166659
 42
0.0
 10
488.2268119397342
 20
153.5856611166659
 42
0.0
 97
        0
 75
     0
 76
     1
 52
90.0
 41
0.25
 77
     0
 78
     1
 53
135.0
 43
0.0
 44
0.0
 45
-0.5303300858899107
 46
-0.5303300858899106
 79
     0
 98
        0
  0
INSERT
  5
3A2
330
1F
100
AcDbEntity
  8
0
100
AcDbBlockReference
  2
teat_nNn012
 10
0.0
 20
0.0
 30
0.0
  0
TEXT
  5
3A3
330
1F
100
AcDbEntity
  8
Layer50
  6
AUSGEZOGEN
 62
     9
370
    18
100
AcDbText
 10
498.6422326019
 20
49.620385368664
 30
0.0
 40
2.5
  1
00094500k
 41
1.218898737496
  7
Arial
 72
     5
 11
519.686519304772
 21
49.620385368664
 31
0.0
100
AcDbText
  0
DIMENSION
  5
3B1
330
1F
100
AcDbEntity
  8
Layer70
  6
AUSGEZOGEN
 62
   136
370
    18
100
AcDbDimension
  2
*D15
 10
488.526811939734
 20
165.349742860805
 30
0.0
 11
485.172218645996
 21
166.474742860805
 31
0.0
 70
   160
 71
     5
 42
-1.0
  3
ISO-25
100
AcDbAlignedDimension
 13
482.026811939734
 23
161.585661116666
 33
0.0
 14
488.526811939734
 24
161.585661116666
 34
0.0
100
AcDbRotatedDimension
1001
ACAD
1000
DSTYLE
1002
{
1070
     3
1000
%%c<>
1070
    44
1040
0.892857142857
1070
   280
1070
     0
1070
    77
1070
     1
1070
    78
1070
     8
1070
   179
1070
     2
1070
   271
1070
     2
1070
   344
1005
324
1070
   343
1005
324
1070
   173
1070
     1
1070
    41
1040
1.25
1070
   147
1040
0.178571428571
1070
   140
1040
1.25
1070
   178
1070
   136
1070
   177
1070
   136
1070
   176
1070
   136
1002
}
  0
INSERT
  5
3B6
330
1F
100
AcDbEntity
  8
0
100
AcDbBlockReference
  2
Reflexwerte_nNn014
 10
0.0
 20
0.0
 30
0.0
  0
INSERT
  5
3BD
330
1F
100
AcDbEntity
  8
0
100
AcDbBlockReference
  2
QS_nNn015
 10
0.0
 20
0.0
 30
0.0
  0
LINE
  5
3BE
330
1F
100
AcDbEntity
  8
Stammform
  6
AUSGEZOGEN
 62
     9
370
    18
100
AcDbLine
 10
472.776811939734
 20
161.522264420099
 30
0.0
 11
472.776811939734
 21
161.985661116666
 31
0.0
  0
LINE
  5
3BF
330
1F
100
AcDbEntity
  8
Stammform
  6
AUSGEZOGEN
 62
     9
370
    18
100
AcDbLine
 10
497.776811939734
 20
161.522252524451
 30
0.0
 11
497.776811939734
 21
161.985661116666
 31
0.0
  0
LINE
  5
3C0
330
1F
100
AcDbEntity
  8
Stammform
  6
AUSGEZOGEN
 62
     9
370
    18
100
AcDbLine
 10
472.776811939734
 20
161.985661116666
 30
0.0
 11
497.776811939734
 21
161.985661116666
 31
0.0
  0
DIMENSION
  5
3D1
330
1F
100
AcDbEntity
  8
Layer70
  6
AUSGEZOGEN
 62
   136
370
    18
100
AcDbDimension
  2
*D18
 10
505.5
 20
161.985661116666
 30
0.0
 11
504.375
 21
158.194750139922
 31
0.0
 70
   160
 71
     5
 42
-1.0
 53
90.0
  3
ISO-25
100
AcDbAlignedDimension
 13
498.02680431034
 23
153.585661116666
 33
0.0
 14
497.776811939734
 24
161.985661116666
 34
0.0
 50
90.0
100
AcDbRotatedDimension
1001
ACAD
1000
DSTYLE
1002
{
1070
     3
1000
<>\S%%p0.3
1070
    44
1040
0.892857142857
1070
   280
1070
     0
1070
    77
1070
     1
1070
    78
1070
     8
1070
   179
1070
     2
1070
   271
1070
     2
1070
   344
1005
324
1070
   343
1005
324
1070
   173
1070
     1
1070
    41
1040
1.25
1070
   147
1040
0.178571428571
1070
   140
1040
1.25
1070
   178
1070
   136
1070
   177
1070
   136
1070
   176
1070
   136
1002
}
  0
ENDSEC
  0
SECTION
  2
OBJECTS
  0
DICTIONARY
  5
C
330
0
100
AcDbDictionary
281
     1
  3
ACAD_GROUP
350
D
  3
ACAD_LAYOUT
350
1A
  3
ACAD_MATERIAL
350
3B
  3
ACAD_MLEADERSTYLE
350
3F9
  3
ACAD_MLINESTYLE
350
17
  3
ACAD_PLOTSETTINGS
350
19
  3
ACAD_PLOTSTYLENAME
350
E
  3
ACAD_TABLESTYLE
350
3F8
  3
ACAD_VISUALSTYLE
350
2A
  3
ACAD_WIPEOUT_VARS
350
3F
  0
DICTIONARY
  5
D
102
{ACAD_REACTORS
330
C
102
}
330
C
100
AcDbDictionary
281
     1
  0
DICTIONARY
  5
1A
102
{ACAD_REACTORS
330
C
102
}
330
C
100
AcDbDictionary
281
     1
  3
Layout1
350
1E
  3
Layout2
350
26
  3
Model
350
22
  0
DICTIONARY
  5
3B
102
{ACAD_REACTORS
330
C
102
}
330
C
100
AcDbDictionary
281
     1
  3
ByBlock
350
3D
  3
ByLayer
350
3C
  3
Global
350
3E
  0
DICTIONARY
  5
3F9
102
{ACAD_REACTORS
330
C
102
}
330
C
100
AcDbDictionary
281
     1
  0
DICTIONARY
  5
17
102
{ACAD_REACTORS
330
C
102
}
330
C
100
AcDbDictionary
281
     1
  3
Standard
350
18
  0
DICTIONARY
  5
19
102
{ACAD_REACTORS
330
C
102
}
330
C
100
AcDbDictionary
281
     1
  0
ACDBDICTIONARYWDFLT
  5
E
102
{ACAD_REACTORS
330
C
102
}
330
C
100
AcDbDictionary
281
     1
  3
Normal
350
F
100
AcDbDictionaryWithDefault
340
F
  0
DICTIONARY
  5
3F8
102
{ACAD_REACTORS
330
C
102
}
330
C
100
AcDbDictionary
281
     1
  0
DICTIONARY
  5
2A
102
{ACAD_REACTORS
330
C
102
}
330
C
100
AcDbDictionary
281
     1
  3
2dWireframe
350
2F
  3
3D Hidden
350
31
  3
3dWireframe
350
30
  3
Basic
350
32
  3
Brighten
350
36
  3
ColorChange
350
3A
  3
Conceptual
350
34
  3
Dim
350
35
  3
Facepattern
350
39
  3
Flat
350
2B
  3
FlatWithEdges
350
2C
  3
Gouraud
350
2D
  3
GouraudWithEdges
350
2E
  3
Linepattern
350
38
  3
Realistic
350
33
  3
Thicken
350
37
  0
WIPEOUTVARIABLES
  5
3F
102
{ACAD_REACTORS
330
C
102
}
330
C
100
AcDbWipeoutVariables
 70
     0
  0
LAYOUT
  5
1E
102
{ACAD_REACTORS
330
1A
102
}
330
1A
100
AcDbPlotSettings
  1

  2
none_device
  4

  6

 40
0.0
 41
0.0
 42
0.0
 43
0.0
 44
0.0
 45
0.0
 46
0.0
 47
0.0
 48
0.0
 49
0.0
140
0.0
141
0.0
142
1.0
143
1.0
 70
   688
 72
     0
 73
     0
 74
     5
  7

 75
    16
 76
     0
 77
     2
 78
   300
147
1.0
148
0.0
149
0.0
100
AcDbLayout
  1
Layout1
 70
     1
 71
     1
 10
0.0
 20
0.0
 11
420.0
 21
297.0
 12
0.0
 22
0.0
 32
0.0
 14
1.000000000000E+20
 24
1.000000000000E+20
 34
1.000000000000E+20
 15
-1.000000000000E+20
 25
-1.000000000000E+20
 35
-1.000000000000E+20
146
0.0
 13
0.0
 23
0.0
 33
0.0
 16
1.0
 26
0.0
 36
0.0
 17
0.0
 27
1.0
 37
0.0
 76
     0
330
1B
  0
LAYOUT
  5
26
102
{ACAD_REACTORS
330
1A
102
}
330
1A
100
AcDbPlotSettings
  1

  2
none_device
  4

  6

 40
0.0
 41
0.0
 42
0.0
 43
0.0
 44
0.0
 45
0.0
 46
0.0
 47
0.0
 48
0.0
 49
0.0
140
0.0
141
0.0
142
1.0
143
1.0
 70
   688
 72
     0
 73
     0
 74
     5
  7

 75
    16
 76
     0
 77
     2
 78
   300
147
1.0
148
0.0
149
0.0
100
AcDbLayout
  1
Layout2
 70
     1
 71
     2
 10
0.0
 20
0.0
 11
0.0
 21
0.0
 12
0.0
 22
0.0
 32
0.0
 14
0.0
 24
0.0
 34
0.0
 15
0.0
 25
0.0
 35
0.0
146
0.0
 13
0.0
 23
0.0
 33
0.0
 16
1.0
 26
0.0
 36
0.0
 17
0.0
 27
1.0
 37
0.0
 76
     0
330
23
  0
LAYOUT
  5
22
102
{ACAD_REACTORS
330
1A
102
}
330
1A
100
AcDbPlotSettings
  1

  2
none_device
  4

  6

 40
0.0
 41
0.0
 42
0.0
 43
0.0
 44
0.0
 45
0.0
 46
0.0
 47
0.0
 48
0.0
 49
0.0
140
0.0
141
0.0
142
1.0
143
1.0
 70
  1712
 72
     0
 73
     0
 74
     0
  7

 75
     0
 76
     0
 77
     2
 78
   300
147
1.0
148
0.0
149
0.0
100
AcDbLayout
  1
Model
 70
     1
 71
     0
 10
0.0
 20
0.0
 11
420.0
 21
297.0
 12
0.0
 22
0.0
 32
0.0
 14
295.30085809732
 24
36.602306903712
 34
0.0
 15
674.011094495557
 25
190.151306903712
 35
0.0
146
0.0
 13
0.0
 23
0.0
 33
0.0
 16
1.0
 26
0.0
 36
0.0
 17
0.0
 27
1.0
 37
0.0
 76
     0
330
1F
331
29
  0
MATERIAL
  5
3D
102
{ACAD_REACTORS
330
3B
102
}
102
{ACAD_XDICTIONARY
360
3F4
102
}
330
3B
100
AcDbMaterial
  1
ByBlock
  0
MATERIAL
  5
3C
102
{ACAD_REACTORS
330
3B
102
}
102
{ACAD_XDICTIONARY
360
3F2
102
}
330
3B
100
AcDbMaterial
  1
ByLayer
  0
MATERIAL
  5
3E
102
{ACAD_REACTORS
330
3B
102
}
102
{ACAD_XDICTIONARY
360
3F6
102
}
330
3B
100
AcDbMaterial
  1
Global
  0
MLINESTYLE
  5
18
102
{ACAD_REACTORS
330
17
102
}
330
17
100
AcDbMlineStyle
  2
Standard
 70
     0
  3

 62
   256
 51
90.0
 52
90.0
 71
     2
 49
0.5
 62
   256
  6
BYLAYER
 49
-0.5
 62
   256
  6
BYLAYER
  0
ACDBPLACEHOLDER
  5
F
102
{ACAD_REACTORS
330
E
102
}
330
E
  0
VISUALSTYLE
  5
2F
102
{ACAD_REACTORS
330
2A
102
}
102
{ACAD_XDICTIONARY
360
3DA
102
}
330
2A
100
AcDbVisualStyle
  2
2dWireframe
 70
     4
 71
     0
 72
     2
 73
     0
 90
        0
 40
-0.6
 41
-30.0
 62
     5
 63
     7
421
 16777215
 74
     1
 91
        4
 64
     7
 65
   257
 75
     1
175
     1
 42
1.0
 92
        0
 66
   257
 43
1.0
 76
     1
 77
     6
 78
     2
 67
     7
 79
     5
170
     0
171
     0
290
     0
174
     0
 93
        1
 44
0.0
173
     0
291
     0
 45
0.0
1001
ACAD
1000
AcDbSavedByObjectVersion
1070
     0
  0
VISUALSTYLE
  5
31
102
{ACAD_REACTORS
330
2A
102
}
102
{ACAD_XDICTIONARY
360
3DE
102
}
330
2A
100
AcDbVisualStyle
  2
3D Hidden
 70
     6
 71
     1
 72
     2
 73
     2
 90
        0
 40
-0.6
 41
-30.0
 62
     5
 63
     7
421
 16777215
 74
     2
 91
        2
 64
     7
 65
   257
 75
     2
175
     1
 42
40.0
 92
        0
 66
   257
 43
1.0
 76
     1
 77
     6
 78
     2
 67
     7
 79
     3
170
     0
171
     0
290
     0
174
     0
 93
        1
 44
0.0
173
     0
291
     0
 45
0.0
1001
ACAD
1000
AcDbSavedByObjectVersion
1070
     0
  0
VISUALSTYLE
  5
30
102
{ACAD_REACTORS
330
2A
102
}
102
{ACAD_XDICTIONARY
360
3DC
102
}
330
2A
100
AcDbVisualStyle
  2
3dWireframe
 70
     5
 71
     0
 72
     2
 73
     0
 90
        0
 40
-0.6
 41
-30.0
 62
     5
 63
     7
421
 16777215
 74
     1
 91
        4
 64
     7
 65
   257
 75
     1
175
     1
 42
1.0
 92
        0
 66
   257
 43
1.0
 76
     1
 77
     6
 78
     2
 67
     7
 79
     5
170
     0
171
     0
290
     0
174
     0
 93
        1
 44
0.0
173
     0
291
     0
 45
0.0
1001
ACAD
1000
AcDbSavedByObjectVersion
1070
     0
  0
VISUALSTYLE
  5
32
102
{ACAD_REACTORS
330
2A
102
}
102
{ACAD_XDICTIONARY
360
3E0
102
}
330
2A
100
AcDbVisualStyle
  2
Basic
 70
     7
 71
     1
 72
     0
 73
     1
 90
        0
 40
-0.6
 41
-30.0
 62
     5
 63
     7
421
 16777215
 74
     0
 91
        4
 64
     7
 65
   257
 75
     1
175
     1
 42
1.0
 92
        8
 66
     7
 43
1.0
 76
     1
 77
     6
 78
     2
 67
     7
 79
     5
170
     0
171
     0
290
     0
174
     0
 93
        1
 44
0.0
173
     0
291
     1
 45
0.0
1001
ACAD
1000
AcDbSavedByObjectVersion
1070
     0
  0
VISUALSTYLE
  5
36
102
{ACAD_REACTORS
330
2A
102
}
102
{ACAD_XDICTIONARY
360
3E8
102
}
330
2A
100
AcDbVisualStyle
  2
Brighten
 70
    12
 71
     2
 72
     2
 73
     0
 90
        0
 40
-0.6
 41
-30.0
 62
     5
 63
     7
421
 16777215
 74
     1
 91
        4
 64
     7
 65
   257
 75
     1
175
     1
 42
1.0
 92
        8
 66
     7
 43
1.0
 76
     1
 77
     6
 78
     2
 67
     7
 79
     5
170
     0
171
     0
290
     0
174
     0
 93
        1
 44
50.0
173
     0
291
     1
 45
0.0
1001
ACAD
1000
AcDbSavedByObjectVersion
1070
     0
  0
VISUALSTYLE
  5
3A
102
{ACAD_REACTORS
330
2A
102
}
102
{ACAD_XDICTIONARY
360
3F0
102
}
330
2A
100
AcDbVisualStyle
  2
ColorChange
 70
    16
 71
     2
 72
     2
 73
     3
 90
        0
 40
-0.6
 41
-30.0
 62
     5
 63
     8
421
  8421504
 74
     1
 91
        4
 64
     7
 65
   257
 75
     1
175
     1
 42
1.0
 92
        8
 66
     8
424
  8421504
 43
1.0
 76
     1
 77
     6
 78
     2
 67
     7
 79
     5
170
     0
171
     0
290
     0
174
     0
 93
        1
 44
0.0
173
     0
291
     1
 45
0.0
1001
ACAD
1000
AcDbSavedByObjectVersion
1070
     0
  0
VISUALSTYLE
  5
34
102
{ACAD_REACTORS
330
2A
102
}
102
{ACAD_XDICTIONARY
360
3E4
102
}
330
2A
100
AcDbVisualStyle
  2
Conceptual
 70
     9
 71
     3
 72
     2
 73
     0
 90
        0
 40
-0.6
 41
-30.0
 62
     5
 63
     7
421
 16777215
 74
     2
 91
        2
 64
     7
 65
   257
 75
     1
175
     1
 42
40.0
 92
        8
 66
     7
 43
1.0
 76
     1
 77
     6
 78
     2
 67
     7
 79
     3
170
     0
171
     0
290
     0
174
     0
 93
        1
 44
0.0
173
     0
291
     0
 45
0.0
1001
ACAD
1000
AcDbSavedByObjectVersion
1070
     0
  0
VISUALSTYLE
  5
35
102
{ACAD_REACTORS
330
2A
102
}
102
{ACAD_XDICTIONARY
360
3E6
102
}
330
2A
100
AcDbVisualStyle
  2
Dim
 70
    11
 71
     2
 72
     2
 73
     0
 90
        0
 40
-0.6
 41
-30.0
 62
     5
 63
     7
421
 16777215
 74
     1
 91
        4
 64
     7
 65
   257
 75
     1
175
     1
 42
1.0
 92
        8
 66
     7
 43
1.0
 76
     1
 77
     6
 78
     2
 67
     7
 79
     5
170
     0
171
     0
290
     0
174
     0
 93
        1
 44
-50.0
173
     0
291
     1
 45
0.0
1001
ACAD
1000
AcDbSavedByObjectVersion
1070
     0
  0
VISUALSTYLE
  5
39
102
{ACAD_REACTORS
330
2A
102
}
102
{ACAD_XDICTIONARY
360
3EE
102
}
330
2A
100
AcDbVisualStyle
  2
Facepattern
 70
    15
 71
     2
 72
     2
 73
     0
 90
        0
 40
-0.6
 41
-30.0
 62
     5
 63
     7
421
 16777215
 74
     1
 91
        4
 64
     7
 65
   257
 75
     1
175
     1
 42
1.0
 92
        8
 66
     7
 43
1.0
 76
     1
 77
     6
 78
     2
 67
     7
 79
     5
170
     0
171
     0
290
     0
174
     0
 93
        1
 44
0.0
173
     0
291
     1
 45
0.0
1001
ACAD
1000
AcDbSavedByObjectVersion
1070
     0
  0
VISUALSTYLE
  5
2B
102
{ACAD_REACTORS
330
2A
102
}
102
{ACAD_XDICTIONARY
360
3D2
102
}
330
2A
100
AcDbVisualStyle
  2
Flat
 70
     0
 71
     2
 72
     1
 73
     1
 90
        2
 40
-0.6
 41
30.0
 62
     5
 63
     7
421
 16777215
 74
     0
 91
        4
 64
     7
 65
   257
 75
     1
175
     1
 42
1.0
 92
        8
 66
     7
 43
1.0
 76
     1
 77
     6
 78
     2
 67
     7
 79
     5
170
     0
171
     0
290
     0
174
     0
 93
       13
 44
0.0
173
     0
291
     1
 45
0.0
1001
ACAD
1000
AcDbSavedByObjectVersion
1070
     0
  0
VISUALSTYLE
  5
2C
102
{ACAD_REACTORS
330
2A
102
}
102
{ACAD_XDICTIONARY
360
3D4
102
}
330
2A
100
AcDbVisualStyle
  2
FlatWithEdges
 70
     1
 71
     2
 72
     1
 73
     1
 90
        2
 40
-0.6
 41
30.0
 62
     5
 63
     7
421
 16777215
 74
     1
 91
        4
 64
     7
 65
   257
 75
     1
175
     1
 42
1.0
 92
        0
 66
   257
 43
1.0
 76
     1
 77
     6
 78
     2
 67
     7
 79
     5
170
     0
171
     0
290
     0
174
     0
 93
       13
 44
0.0
173
     0
291
     1
 45
0.0
1001
ACAD
1000
AcDbSavedByObjectVersion
1070
     0
  0
VISUALSTYLE
  5
2D
102
{ACAD_REACTORS
330
2A
102
}
102
{ACAD_XDICTIONARY
360
3D6
102
}
330
2A
100
AcDbVisualStyle
  2
Gouraud
 70
     2
 71
     2
 72
     2
 73
     1
 90
        2
 40
-0.6
 41
30.0
 62
     5
 63
     7
421
 16777215
 74
     0
 91
        4
 64
     7
 65
   257
 75
     1
175
     1
 42
1.0
 92
        0
 66
     7
 43
1.0
 76
     1
 77
     6
 78
     2
 67
     7
 79
     5
170
     0
171
     0
290
     0
174
     0
 93
       13
 44
0.0
173
     0
291
     1
 45
0.0
1001
ACAD
1000
AcDbSavedByObjectVersion
1070
     0
  0
VISUALSTYLE
  5
2E
102
{ACAD_REACTORS
330
2A
102
}
102
{ACAD_XDICTIONARY
360
3D8
102
}
330
2A
100
AcDbVisualStyle
  2
GouraudWithEdges
 70
     3
 71
     2
 72
     2
 73
     1
 90
        2
 40
-0.6
 41
30.0
 62
     5
 63
     7
421
 16777215
 74
     1
 91
        4
 64
     7
 65
   257
 75
     1
175
     1
 42
1.0
 92
        0
 66
   257
 43
1.0
 76
     1
 77
     6
 78
     2
 67
     7
 79
     5
170
     0
171
     0
290
     0
174
     0
 93
       13
 44
0.0
173
     0
291
     1
 45
0.0
1001
ACAD
1000
AcDbSavedByObjectVersion
1070
     0
  0
VISUALSTYLE
  5
38
102
{ACAD_REACTORS
330
2A
102
}
102
{ACAD_XDICTIONARY
360
3EC
102
}
330
2A
100
AcDbVisualStyle
  2
Linepattern
 70
    14
 71
     2
 72
     2
 73
     0
 90
        0
 40
-0.6
 41
-30.0
 62
     5
 63
     7
421
 16777215
 74
     1
 91
        4
 64
     7
 65
   257
 75
     7
175
     7
 42
1.0
 92
        8
 66
     7
 43
1.0
 76
     1
 77
     6
 78
     2
 67
     7
 79
     5
170
     0
171
     0
290
     0
174
     0
 93
        1
 44
0.0
173
     0
291
     1
 45
0.0
1001
ACAD
1000
AcDbSavedByObjectVersion
1070
     0
  0
VISUALSTYLE
  5
33
102
{ACAD_REACTORS
330
2A
102
}
102
{ACAD_XDICTIONARY
360
3E2
102
}
330
2A
100
AcDbVisualStyle
  2
Realistic
 70
     8
 71
     2
 72
     2
 73
     0
 90
        0
 40
-0.6
 41
-30.0
 62
     5
 63
     7
421
 16777215
 74
     1
 91
        0
 64
     7
 65
   257
 75
     1
175
     1
 42
1.0
 92
        8
 66
     8
424
  7895160
 43
1.0
 76
     1
 77
     6
 78
     2
 67
     7
 79
     5
170
     0
171
     0
290
     0
174
     0
 93
       13
 44
0.0
173
     0
291
     0
 45
0.0
1001
ACAD
1000
AcDbSavedByObjectVersion
1070
     0
  0
VISUALSTYLE
  5
37
102
{ACAD_REACTORS
330
2A
102
}
102
{ACAD_XDICTIONARY
360
3EA
102
}
330
2A
100
AcDbVisualStyle
  2
Thicken
 70
    13
 71
     2
 72
     2
 73
     0
 90
        0
 40
-0.6
 41
-30.0
 62
     5
 63
     7
421
 16777215
 74
     1
 91
        4
 64
     7
 65
   257
 75
     1
175
     1
 42
1.0
 92
       12
 66
     7
 43
1.0
 76
     1
 77
     6
 78
     2
 67
     7
 79
     5
170
     0
171
     0
290
     0
174
     0
 93
        1
 44
0.0
173
     0
291
     1
 45
0.0
1001
ACAD
1000
AcDbSavedByObjectVersion
1070
     0
  0
DICTIONARY
  5
3F4
330
3D
100
AcDbDictionary
280
     1
281
     1
  3
ACAD_XREC_ROUNDTRIP
360
3F5
  0
DICTIONARY
  5
3F2
330
3C
100
AcDbDictionary
280
     1
281
     1
  3
ACAD_XREC_ROUNDTRIP
360
3F3
  0
DICTIONARY
  5
3F6
330
3E
100
AcDbDictionary
280
     1
281
     1
  3
ACAD_XREC_ROUNDTRIP
360
3F7
  0
DICTIONARY
  5
3DA
330
2F
100
AcDbDictionary
280
     1
281
     1
  3
ACAD_XREC_ROUNDTRIP
360
3DB
  0
DICTIONARY
  5
3DE
330
31
100
AcDbDictionary
280
     1
281
     1
  3
ACAD_XREC_ROUNDTRIP
360
3DF
  0
DICTIONARY
  5
3DC
330
30
100
AcDbDictionary
280
     1
281
     1
  3
ACAD_XREC_ROUNDTRIP
360
3DD
  0
DICTIONARY
  5
3E0
330
32
100
AcDbDictionary
280
     1
281
     1
  3
ACAD_XREC_ROUNDTRIP
360
3E1
  0
DICTIONARY
  5
3E8
330
36
100
AcDbDictionary
280
     1
281
     1
  3
ACAD_XREC_ROUNDTRIP
360
3E9
  0
DICTIONARY
  5
3F0
330
3A
100
AcDbDictionary
280
     1
281
     1
  3
ACAD_XREC_ROUNDTRIP
360
3F1
  0
DICTIONARY
  5
3E4
330
34
100
AcDbDictionary
280
     1
281
     1
  3
ACAD_XREC_ROUNDTRIP
360
3E5
  0
DICTIONARY
  5
3E6
330
35
100
AcDbDictionary
280
     1
281
     1
  3
ACAD_XREC_ROUNDTRIP
360
3E7
  0
DICTIONARY
  5
3EE
330
39
100
AcDbDictionary
280
     1
281
     1
  3
ACAD_XREC_ROUNDTRIP
360
3EF
  0
DICTIONARY
  5
3D2
330
2B
100
AcDbDictionary
280
     1
281
     1
  3
ACAD_XREC_ROUNDTRIP
360
3D3
  0
DICTIONARY
  5
3D4
330
2C
100
AcDbDictionary
280
     1
281
     1
  3
ACAD_XREC_ROUNDTRIP
360
3D5
  0
DICTIONARY
  5
3D6
330
2D
100
AcDbDictionary
280
     1
281
     1
  3
ACAD_XREC_ROUNDTRIP
360
3D7
  0
DICTIONARY
  5
3D8
330
2E
100
AcDbDictionary
280
     1
281
     1
  3
ACAD_XREC_ROUNDTRIP
360
3D9
  0
DICTIONARY
  5
3EC
330
38
100
AcDbDictionary
280
     1
281
     1
  3
ACAD_XREC_ROUNDTRIP
360
3ED
  0
DICTIONARY
  5
3E2
330
33
100
AcDbDictionary
280
     1
281
     1
  3
ACAD_XREC_ROUNDTRIP
360
3E3
  0
DICTIONARY
  5
3EA
330
37
100
AcDbDictionary
280
     1
281
     1
  3
ACAD_XREC_ROUNDTRIP
360
3EB
  0
XRECORD
  5
3F5
102
{ACAD_REACTORS
330
3F4
102
}
330
3F4
100
AcDbXrecord
280
     1
102
MATERIAL
148
0.0
149
0.0
149
0.0
 93
        0
 94
      127
282
     0
 72
     1
 77
     1
171
     1
175
     1
179
     1
273
     0
  0
XRECORD
  5
3F3
102
{ACAD_REACTORS
330
3F2
102
}
330
3F2
100
AcDbXrecord
280
     1
102
MATERIAL
148
0.0
149
0.0
149
0.0
 93
        0
 94
      127
282
     0
 72
     1
 77
     1
171
     1
175
     1
179
     1
273
     0
  0
XRECORD
  5
3F7
102
{ACAD_REACTORS
330
3F6
102
}
330
3F6
100
AcDbXrecord
280
     1
102
MATERIAL
148
0.0
149
0.0
149
0.0
 93
        0
 94
      127
282
     0
 72
     1
 77
     1
171
     1
175
     1
179
     1
273
     0
  0
XRECORD
  5
3DB
102
{ACAD_REACTORS
330
3DA
102
}
330
3DA
100
AcDbXrecord
280
     1
102
RTVSPropertyOp0
 70
     1
102
RTVSPropertyOp1
 70
     1
102
RTVSPropertyOp2
 70
     1
102
RTVSPropertyOp3
 70
     1
102
RTVSPropertyOp4
 70
     1
102
RTVSPropertyOp5
 70
     1
102
RTVSPropertyOp6
 70
     1
102
RTVSPropertyOp7
 70
     1
102
RTVSPropertyOp8
 70
     1
102
RTVSPropertyOp9
 70
     1
102
RTVSPropertyOp10
 70
     1
102
RTVSPropertyOp11
 70
     1
102
RTVSPropertyOp12
 70
     1
102
RTVSPropertyOp13
 70
     1
102
RTVSPropertyOp14
 70
     1
102
RTVSPropertyOp15
 70
     1
102
RTVSPropertyOp16
 70
     1
102
RTVSPropertyOp17
 70
     1
102
RTVSPropertyOp18
 70
     1
102
RTVSPropertyOp19
 70
     1
102
RTVSPropertyOp20
 70
     1
102
RTVSPropertyOp21
 70
     1
102
RTVSPropertyOp22
 70
     1
102
RTVSPropertyOp23
 70
     1
102
RTVSPropertyOp24
 70
     1
102
RTVSPropertyOp25
 70
     1
102
RTVSPropertyOp26
 70
     1
102
RTVSPropertyOp27
 70
     1
102
RTVSPropertyOp28
 70
     1
102
RTVSPropertyOp29
 70
     1
102
RTVSPropertyOp30
 70
     1
102
RTVSPropertyOp31
 70
     1
102
RTVSPropertyOp32
 70
     1
  0
XRECORD
  5
3DF
102
{ACAD_REACTORS
330
3DE
102
}
330
3DE
100
AcDbXrecord
280
     1
102
RTVSPropertyOp0
 70
     1
102
RTVSPropertyOp1
 70
     1
102
RTVSPropertyOp2
 70
     1
102
RTVSPropertyOp3
 70
     1
102
RTVSPropertyOp4
 70
     1
102
RTVSPropertyOp5
 70
     1
102
RTVSPropertyOp6
 70
     1
102
RTVSPropertyOp7
 70
     1
102
RTVSPropertyOp8
 70
     1
102
RTVSPropertyOp9
 70
     1
102
RTVSPropertyOp10
 70
     1
102
RTVSPropertyOp11
 70
     1
102
RTVSPropertyOp12
 70
     1
102
RTVSPropertyOp13
 70
     1
102
RTVSPropertyOp14
 70
     1
102
RTVSPropertyOp15
 70
     1
102
RTVSPropertyOp16
 70
     1
102
RTVSPropertyOp17
 70
     1
102
RTVSPropertyOp18
 70
     1
102
RTVSPropertyOp19
 70
     1
102
RTVSPropertyOp20
 70
     1
102
RTVSPropertyOp21
 70
     1
102
RTVSPropertyOp22
 70
     1
102
RTVSPropertyOp23
 70
     1
102
RTVSPropertyOp24
 70
     1
102
RTVSPropertyOp25
 70
     1
102
RTVSPropertyOp26
 70
     1
102
RTVSPropertyOp27
 70
     1
102
RTVSPropertyOp28
 70
     1
102
RTVSPropertyOp29
 70
     1
102
RTVSPropertyOp30
 70
     1
102
RTVSPropertyOp31
 70
     1
102
RTVSPropertyOp32
 70
     1
  0
XRECORD
  5
3DD
102
{ACAD_REACTORS
330
3DC
102
}
330
3DC
100
AcDbXrecord
280
     1
102
RTVSPropertyOp0
 70
     1
102
RTVSPropertyOp1
 70
     1
102
RTVSPropertyOp2
 70
     1
102
RTVSPropertyOp3
 70
     1
102
RTVSPropertyOp4
 70
     1
102
RTVSPropertyOp5
 70
     1
102
RTVSPropertyOp6
 70
     1
102
RTVSPropertyOp7
 70
     1
102
RTVSPropertyOp8
 70
     1
102
RTVSPropertyOp9
 70
     1
102
RTVSPropertyOp10
 70
     1
102
RTVSPropertyOp11
 70
     1
102
RTVSPropertyOp12
 70
     1
102
RTVSPropertyOp13
 70
     1
102
RTVSPropertyOp14
 70
     1
102
RTVSPropertyOp15
 70
     1
102
RTVSPropertyOp16
 70
     1
102
RTVSPropertyOp17
 70
     1
102
RTVSPropertyOp18
 70
     1
102
RTVSPropertyOp19
 70
     1
102
RTVSPropertyOp20
 70
     1
102
RTVSPropertyOp21
 70
     1
102
RTVSPropertyOp22
 70
     1
102
RTVSPropertyOp23
 70
     1
102
RTVSPropertyOp24
 70
     1
102
RTVSPropertyOp25
 70
     1
102
RTVSPropertyOp26
 70
     1
102
RTVSPropertyOp27
 70
     1
102
RTVSPropertyOp28
 70
     1
102
RTVSPropertyOp29
 70
     1
102
RTVSPropertyOp30
 70
     1
102
RTVSPropertyOp31
 70
     1
102
RTVSPropertyOp32
 70
     1
  0
XRECORD
  5
3E1
102
{ACAD_REACTORS
330
3E0
102
}
330
3E0
100
AcDbXrecord
280
     1
102
RTVSPropertyOp0
 70
     1
102
RTVSPropertyOp1
 70
     1
102
RTVSPropertyOp2
 70
     1
102
RTVSPropertyOp3
 70
     1
102
RTVSPropertyOp4
 70
     1
102
RTVSPropertyOp5
 70
     1
102
RTVSPropertyOp6
 70
     1
102
RTVSPropertyOp7
 70
     1
102
RTVSPropertyOp8
 70
     1
102
RTVSPropertyOp9
 70
     1
102
RTVSPropertyOp10
 70
     1
102
RTVSPropertyOp11
 70
     1
102
RTVSPropertyOp12
 70
     1
102
RTVSPropertyOp13
 70
     1
102
RTVSPropertyOp14
 70
     1
102
RTVSPropertyOp15
 70
     1
102
RTVSPropertyOp16
 70
     1
102
RTVSPropertyOp17
 70
     1
102
RTVSPropertyOp18
 70
     1
102
RTVSPropertyOp19
 70
     1
102
RTVSPropertyOp20
 70
     1
102
RTVSPropertyOp21
 70
     1
102
RTVSPropertyOp22
 70
     1
102
RTVSPropertyOp23
 70
     1
102
RTVSPropertyOp24
 70
     1
102
RTVSPropertyOp25
 70
     1
102
RTVSPropertyOp26
 70
     1
102
RTVSPropertyOp27
 70
     1
102
RTVSPropertyOp28
 70
     1
102
RTVSPropertyOp29
 70
     1
102
RTVSPropertyOp30
 70
     1
102
RTVSPropertyOp31
 70
     1
102
RTVSPropertyOp32
 70
     1
  0
XRECORD
  5
3E9
102
{ACAD_REACTORS
330
3E8
102
}
330
3E8
100
AcDbXrecord
280
     1
102
RTVSPropertyOp0
 70
     1
102
RTVSPropertyOp1
 70
     1
102
RTVSPropertyOp2
 70
     1
102
RTVSPropertyOp3
 70
     1
102
RTVSPropertyOp4
 70
     1
102
RTVSPropertyOp5
 70
     1
102
RTVSPropertyOp6
 70
     1
102
RTVSPropertyOp7
 70
     1
102
RTVSPropertyOp8
 70
     1
102
RTVSPropertyOp9
 70
     1
102
RTVSPropertyOp10
 70
     1
102
RTVSPropertyOp11
 70
     1
102
RTVSPropertyOp12
 70
     1
102
RTVSPropertyOp13
 70
     1
102
RTVSPropertyOp14
 70
     1
102
RTVSPropertyOp15
 70
     1
102
RTVSPropertyOp16
 70
     1
102
RTVSPropertyOp17
 70
     1
102
RTVSPropertyOp18
 70
     1
102
RTVSPropertyOp19
 70
     1
102
RTVSPropertyOp20
 70
     1
102
RTVSPropertyOp21
 70
     1
102
RTVSPropertyOp22
 70
     1
102
RTVSPropertyOp23
 70
     1
102
RTVSPropertyOp24
 70
     1
102
RTVSPropertyOp25
 70
     1
102
RTVSPropertyOp26
 70
     1
102
RTVSPropertyOp27
 70
     1
102
RTVSPropertyOp28
 70
     1
102
RTVSPropertyOp29
 70
     1
102
RTVSPropertyOp30
 70
     1
102
RTVSPropertyOp31
 70
     1
102
RTVSPropertyOp32
 70
     1
  0
XRECORD
  5
3F1
102
{ACAD_REACTORS
330
3F0
102
}
330
3F0
100
AcDbXrecord
280
     1
102
RTVSPropertyOp0
 70
     1
102
RTVSPropertyOp1
 70
     1
102
RTVSPropertyOp2
 70
     1
102
RTVSPropertyOp3
 70
     1
102
RTVSPropertyOp4
 70
     1
102
RTVSPropertyOp5
 70
     1
102
RTVSPropertyOp6
 70
     1
102
RTVSPropertyOp7
 70
     1
102
RTVSPropertyOp8
 70
     1
102
RTVSPropertyOp9
 70
     1
102
RTVSPropertyOp10
 70
     1
102
RTVSPropertyOp11
 70
     1
102
RTVSPropertyOp12
 70
     1
102
RTVSPropertyOp13
 70
     1
102
RTVSPropertyOp14
 70
     1
102
RTVSPropertyOp15
 70
     1
102
RTVSPropertyOp16
 70
     1
102
RTVSPropertyOp17
 70
     1
102
RTVSPropertyOp18
 70
     1
102
RTVSPropertyOp19
 70
     1
102
RTVSPropertyOp20
 70
     1
102
RTVSPropertyOp21
 70
     1
102
RTVSPropertyOp22
 70
     1
102
RTVSPropertyOp23
 70
     1
102
RTVSPropertyOp24
 70
     1
102
RTVSPropertyOp25
 70
     1
102
RTVSPropertyOp26
 70
     1
102
RTVSPropertyOp27
 70
     1
102
RTVSPropertyOp28
 70
     1
102
RTVSPropertyOp29
 70
     1
102
RTVSPropertyOp30
 70
     1
102
RTVSPropertyOp31
 70
     1
102
RTVSPropertyOp32
 70
     1
  0
XRECORD
  5
3E5
102
{ACAD_REACTORS
330
3E4
102
}
330
3E4
100
AcDbXrecord
280
     1
102
RTVSPropertyOp0
 70
     1
102
RTVSPropertyOp1
 70
     1
102
RTVSPropertyOp2
 70
     1
102
RTVSPropertyOp3
 70
     1
102
RTVSPropertyOp4
 70
     1
102
RTVSPropertyOp5
 70
     1
102
RTVSPropertyOp6
 70
     1
102
RTVSPropertyOp7
 70
     1
102
RTVSPropertyOp8
 70
     1
102
RTVSPropertyOp9
 70
     1
102
RTVSPropertyOp10
 70
     1
102
RTVSPropertyOp11
 70
     1
102
RTVSPropertyOp12
 70
     1
102
RTVSPropertyOp13
 70
     1
102
RTVSPropertyOp14
 70
     1
102
RTVSPropertyOp15
 70
     1
102
RTVSPropertyOp16
 70
     1
102
RTVSPropertyOp17
 70
     1
102
RTVSPropertyOp18
 70
     1
102
RTVSPropertyOp19
 70
     1
102
RTVSPropertyOp20
 70
     1
102
RTVSPropertyOp21
 70
     1
102
RTVSPropertyOp22
 70
     1
102
RTVSPropertyOp23
 70
     1
102
RTVSPropertyOp24
 70
     1
102
RTVSPropertyOp25
 70
     1
102
RTVSPropertyOp26
 70
     1
102
RTVSPropertyOp27
 70
     1
102
RTVSPropertyOp28
 70
     1
102
RTVSPropertyOp29
 70
     1
102
RTVSPropertyOp30
 70
     1
102
RTVSPropertyOp31
 70
     1
102
RTVSPropertyOp32
 70
     1
  0
XRECORD
  5
3E7
102
{ACAD_REACTORS
330
3E6
102
}
330
3E6
100
AcDbXrecord
280
     1
102
RTVSPropertyOp0
 70
     1
102
RTVSPropertyOp1
 70
     1
102
RTVSPropertyOp2
 70
     1
102
RTVSPropertyOp3
 70
     1
102
RTVSPropertyOp4
 70
     1
102
RTVSPropertyOp5
 70
     1
102
RTVSPropertyOp6
 70
     1
102
RTVSPropertyOp7
 70
     1
102
RTVSPropertyOp8
 70
     1
102
RTVSPropertyOp9
 70
     1
102
RTVSPropertyOp10
 70
     1
102
RTVSPropertyOp11
 70
     1
102
RTVSPropertyOp12
 70
     1
102
RTVSPropertyOp13
 70
     1
102
RTVSPropertyOp14
 70
     1
102
RTVSPropertyOp15
 70
     1
102
RTVSPropertyOp16
 70
     1
102
RTVSPropertyOp17
 70
     1
102
RTVSPropertyOp18
 70
     1
102
RTVSPropertyOp19
 70
     1
102
RTVSPropertyOp20
 70
     1
102
RTVSPropertyOp21
 70
     1
102
RTVSPropertyOp22
 70
     1
102
RTVSPropertyOp23
 70
     1
102
RTVSPropertyOp24
 70
     1
102
RTVSPropertyOp25
 70
     1
102
RTVSPropertyOp26
 70
     1
102
RTVSPropertyOp27
 70
     1
102
RTVSPropertyOp28
 70
     1
102
RTVSPropertyOp29
 70
     1
102
RTVSPropertyOp30
 70
     1
102
RTVSPropertyOp31
 70
     1
102
RTVSPropertyOp32
 70
     1
  0
XRECORD
  5
3EF
102
{ACAD_REACTORS
330
3EE
102
}
330
3EE
100
AcDbXrecord
280
     1
102
RTVSPropertyOp0
 70
     1
102
RTVSPropertyOp1
 70
     1
102
RTVSPropertyOp2
 70
     1
102
RTVSPropertyOp3
 70
     1
102
RTVSPropertyOp4
 70
     1
102
RTVSPropertyOp5
 70
     1
102
RTVSPropertyOp6
 70
     1
102
RTVSPropertyOp7
 70
     1
102
RTVSPropertyOp8
 70
     1
102
RTVSPropertyOp9
 70
     1
102
RTVSPropertyOp10
 70
     1
102
RTVSPropertyOp11
 70
     1
102
RTVSPropertyOp12
 70
     1
102
RTVSPropertyOp13
 70
     1
102
RTVSPropertyOp14
 70
     1
102
RTVSPropertyOp15
 70
     1
102
RTVSPropertyOp16
 70
     1
102
RTVSPropertyOp17
 70
     1
102
RTVSPropertyOp18
 70
     1
102
RTVSPropertyOp19
 70
     1
102
RTVSPropertyOp20
 70
     1
102
RTVSPropertyOp21
 70
     1
102
RTVSPropertyOp22
 70
     1
102
RTVSPropertyOp23
 70
     1
102
RTVSPropertyOp24
 70
     1
102
RTVSPropertyOp25
 70
     1
102
RTVSPropertyOp26
 70
     1
102
RTVSPropertyOp27
 70
     1
102
RTVSPropertyOp28
 70
     1
102
RTVSPropertyOp29
 70
     1
102
RTVSPropertyOp30
 70
     1
102
RTVSPropertyOp31
 70
     1
102
RTVSPropertyOp32
 70
     1
  0
XRECORD
  5
3D3
102
{ACAD_REACTORS
330
3D2
102
}
330
3D2
100
AcDbXrecord
280
     1
102
RTVSPropertyOp0
 70
     1
102
RTVSPropertyOp1
 70
     1
102
RTVSPropertyOp2
 70
     1
102
RTVSPropertyOp3
 70
     1
102
RTVSPropertyOp4
 70
     1
102
RTVSPropertyOp5
 70
     1
102
RTVSPropertyOp6
 70
     1
102
RTVSPropertyOp7
 70
     1
102
RTVSPropertyOp8
 70
     1
102
RTVSPropertyOp9
 70
     1
102
RTVSPropertyOp10
 70
     1
102
RTVSPropertyOp11
 70
     1
102
RTVSPropertyOp12
 70
     1
102
RTVSPropertyOp13
 70
     1
102
RTVSPropertyOp14
 70
     1
102
RTVSPropertyOp15
 70
     1
102
RTVSPropertyOp16
 70
     1
102
RTVSPropertyOp17
 70
     1
102
RTVSPropertyOp18
 70
     1
102
RTVSPropertyOp19
 70
     1
102
RTVSPropertyOp20
 70
     1
102
RTVSPropertyOp21
 70
     1
102
RTVSPropertyOp22
 70
     1
102
RTVSPropertyOp23
 70
     1
102
RTVSPropertyOp24
 70
     1
102
RTVSPropertyOp25
 70
     1
102
RTVSPropertyOp26
 70
     1
102
RTVSPropertyOp27
 70
     1
102
RTVSPropertyOp28
 70
     1
102
RTVSPropertyOp29
 70
     1
102
RTVSPropertyOp30
 70
     1
102
RTVSPropertyOp31
 70
     1
102
RTVSPropertyOp32
 70
     1
  0
XRECORD
  5
3D5
102
{ACAD_REACTORS
330
3D4
102
}
330
3D4
100
AcDbXrecord
280
     1
102
RTVSPropertyOp0
 70
     1
102
RTVSPropertyOp1
 70
     1
102
RTVSPropertyOp2
 70
     1
102
RTVSPropertyOp3
 70
     1
102
RTVSPropertyOp4
 70
     1
102
RTVSPropertyOp5
 70
     1
102
RTVSPropertyOp6
 70
     1
102
RTVSPropertyOp7
 70
     1
102
RTVSPropertyOp8
 70
     1
102
RTVSPropertyOp9
 70
     1
102
RTVSPropertyOp10
 70
     1
102
RTVSPropertyOp11
 70
     1
102
RTVSPropertyOp12
 70
     1
102
RTVSPropertyOp13
 70
     1
102
RTVSPropertyOp14
 70
     1
102
RTVSPropertyOp15
 70
     1
102
RTVSPropertyOp16
 70
     1
102
RTVSPropertyOp17
 70
     1
102
RTVSPropertyOp18
 70
     1
102
RTVSPropertyOp19
 70
     1
102
RTVSPropertyOp20
 70
     1
102
RTVSPropertyOp21
 70
     1
102
RTVSPropertyOp22
 70
     1
102
RTVSPropertyOp23
 70
     1
102
RTVSPropertyOp24
 70
     1
102
RTVSPropertyOp25
 70
     1
102
RTVSPropertyOp26
 70
     1
102
RTVSPropertyOp27
 70
     1
102
RTVSPropertyOp28
 70
     1
102
RTVSPropertyOp29
 70
     1
102
RTVSPropertyOp30
 70
     1
102
RTVSPropertyOp31
 70
     1
102
RTVSPropertyOp32
 70
     1
  0
XRECORD
  5
3D7
102
{ACAD_REACTORS
330
3D6
102
}
330
3D6
100
AcDbXrecord
280
     1
102
RTVSPropertyOp0
 70
     1
102
RTVSPropertyOp1
 70
     1
102
RTVSPropertyOp2
 70
     1
102
RTVSPropertyOp3
 70
     1
102
RTVSPropertyOp4
 70
     1
102
RTVSPropertyOp5
 70
     1
102
RTVSPropertyOp6
 70
     1
102
RTVSPropertyOp7
 70
     1
102
RTVSPropertyOp8
 70
     1
102
RTVSPropertyOp9
 70
     1
102
RTVSPropertyOp10
 70
     1
102
RTVSPropertyOp11
 70
     1
102
RTVSPropertyOp12
 70
     1
102
RTVSPropertyOp13
 70
     1
102
RTVSPropertyOp14
 70
     1
102
RTVSPropertyOp15
 70
     1
102
RTVSPropertyOp16
 70
     1
102
RTVSPropertyOp17
 70
     1
102
RTVSPropertyOp18
 70
     1
102
RTVSPropertyOp19
 70
     1
102
RTVSPropertyOp20
 70
     1
102
RTVSPropertyOp21
 70
     1
102
RTVSPropertyOp22
 70
     1
102
RTVSPropertyOp23
 70
     1
102
RTVSPropertyOp24
 70
     1
102
RTVSPropertyOp25
 70
     1
102
RTVSPropertyOp26
 70
     1
102
RTVSPropertyOp27
 70
     1
102
RTVSPropertyOp28
 70
     1
102
RTVSPropertyOp29
 70
     1
102
RTVSPropertyOp30
 70
     1
102
RTVSPropertyOp31
 70
     1
102
RTVSPropertyOp32
 70
     1
  0
XRECORD
  5
3D9
102
{ACAD_REACTORS
330
3D8
102
}
330
3D8
100
AcDbXrecord
280
     1
102
RTVSPropertyOp0
 70
     1
102
RTVSPropertyOp1
 70
     1
102
RTVSPropertyOp2
 70
     1
102
RTVSPropertyOp3
 70
     1
102
RTVSPropertyOp4
 70
     1
102
RTVSPropertyOp5
 70
     1
102
RTVSPropertyOp6
 70
     1
102
RTVSPropertyOp7
 70
     1
102
RTVSPropertyOp8
 70
     1
102
RTVSPropertyOp9
 70
     1
102
RTVSPropertyOp10
 70
     1
102
RTVSPropertyOp11
 70
     1
102
RTVSPropertyOp12
 70
     1
102
RTVSPropertyOp13
 70
     1
102
RTVSPropertyOp14
 70
     1
102
RTVSPropertyOp15
 70
     1
102
RTVSPropertyOp16
 70
     1
102
RTVSPropertyOp17
 70
     1
102
RTVSPropertyOp18
 70
     1
102
RTVSPropertyOp19
 70
     1
102
RTVSPropertyOp20
 70
     1
102
RTVSPropertyOp21
 70
     1
102
RTVSPropertyOp22
 70
     1
102
RTVSPropertyOp23
 70
     1
102
RTVSPropertyOp24
 70
     1
102
RTVSPropertyOp25
 70
     1
102
RTVSPropertyOp26
 70
     1
102
RTVSPropertyOp27
 70
     1
102
RTVSPropertyOp28
 70
     1
102
RTVSPropertyOp29
 70
     1
102
RTVSPropertyOp30
 70
     1
102
RTVSPropertyOp31
 70
     1
102
RTVSPropertyOp32
 70
     1
  0
XRECORD
  5
3ED
102
{ACAD_REACTORS
330
3EC
102
}
330
3EC
100
AcDbXrecord
280
     1
102
RTVSPropertyOp0
 70
     1
102
RTVSPropertyOp1
 70
     1
102
RTVSPropertyOp2
 70
     1
102
RTVSPropertyOp3
 70
     1
102
RTVSPropertyOp4
 70
     1
102
RTVSPropertyOp5
 70
     1
102
RTVSPropertyOp6
 70
     1
102
RTVSPropertyOp7
 70
     1
102
RTVSPropertyOp8
 70
     1
102
RTVSPropertyOp9
 70
     1
102
RTVSPropertyOp10
 70
     1
102
RTVSPropertyOp11
 70
     1
102
RTVSPropertyOp12
 70
     1
102
RTVSPropertyOp13
 70
     1
102
RTVSPropertyOp14
 70
     1
102
RTVSPropertyOp15
 70
     1
102
RTVSPropertyOp16
 70
     1
102
RTVSPropertyOp17
 70
     1
102
RTVSPropertyOp18
 70
     1
102
RTVSPropertyOp19
 70
     1
102
RTVSPropertyOp20
 70
     1
102
RTVSPropertyOp21
 70
     1
102
RTVSPropertyOp22
 70
     1
102
RTVSPropertyOp23
 70
     1
102
RTVSPropertyOp24
 70
     1
102
RTVSPropertyOp25
 70
     1
102
RTVSPropertyOp26
 70
     1
102
RTVSPropertyOp27
 70
     1
102
RTVSPropertyOp28
 70
     1
102
RTVSPropertyOp29
 70
     1
102
RTVSPropertyOp30
 70
     1
102
RTVSPropertyOp31
 70
     1
102
RTVSPropertyOp32
 70
     1
  0
XRECORD
  5
3E3
102
{ACAD_REACTORS
330
3E2
102
}
330
3E2
100
AcDbXrecord
280
     1
102
RTVSPropertyOp0
 70
     1
102
RTVSPropertyOp1
 70
     1
102
RTVSPropertyOp2
 70
     1
102
RTVSPropertyOp3
 70
     1
102
RTVSPropertyOp4
 70
     1
102
RTVSPropertyOp5
 70
     1
102
RTVSPropertyOp6
 70
     1
102
RTVSPropertyOp7
 70
     1
102
RTVSPropertyOp8
 70
     1
102
RTVSPropertyOp9
 70
     1
102
RTVSPropertyOp10
 70
     1
102
RTVSPropertyOp11
 70
     1
102
RTVSPropertyOp12
 70
     1
102
RTVSPropertyOp13
 70
     1
102
RTVSPropertyOp14
 70
     1
102
RTVSPropertyOp15
 70
     1
102
RTVSPropertyOp16
 70
     1
102
RTVSPropertyOp17
 70
     1
102
RTVSPropertyOp18
 70
     1
102
RTVSPropertyOp19
 70
     1
102
RTVSPropertyOp20
 70
     1
102
RTVSPropertyOp21
 70
     1
102
RTVSPropertyOp22
 70
     1
102
RTVSPropertyOp23
 70
     1
102
RTVSPropertyOp24
 70
     1
102
RTVSPropertyOp25
 70
     1
102
RTVSPropertyOp26
 70
     1
102
RTVSPropertyOp27
 70
     1
102
RTVSPropertyOp28
 70
     1
102
RTVSPropertyOp29
 70
     1
102
RTVSPropertyOp30
 70
     1
102
RTVSPropertyOp31
 70
     1
102
RTVSPropertyOp32
 70
     1
  0
XRECORD
  5
3EB
102
{ACAD_REACTORS
330
3EA
102
}
330
3EA
100
AcDbXrecord
280
     1
102
RTVSPropertyOp0
 70
     1
102
RTVSPropertyOp1
 70
     1
102
RTVSPropertyOp2
 70
     1
102
RTVSPropertyOp3
 70
     1
102
RTVSPropertyOp4
 70
     1
102
RTVSPropertyOp5
 70
     1
102
RTVSPropertyOp6
 70
     1
102
RTVSPropertyOp7
 70
     1
102
RTVSPropertyOp8
 70
     1
102
RTVSPropertyOp9
 70
     1
102
RTVSPropertyOp10
 70
     1
102
RTVSPropertyOp11
 70
     1
102
RTVSPropertyOp12
 70
     1
102
RTVSPropertyOp13
 70
     1
102
RTVSPropertyOp14
 70
     1
102
RTVSPropertyOp15
 70
     1
102
RTVSPropertyOp16
 70
     1
102
RTVSPropertyOp17
 70
     1
102
RTVSPropertyOp18
 70
     1
102
RTVSPropertyOp19
 70
     1
102
RTVSPropertyOp20
 70
     1
102
RTVSPropertyOp21
 70
     1
102
RTVSPropertyOp22
 70
     1
102
RTVSPropertyOp23
 70
     1
102
RTVSPropertyOp24
 70
     1
102
RTVSPropertyOp25
 70
     1
102
RTVSPropertyOp26
 70
     1
102
RTVSPropertyOp27
 70
     1
102
RTVSPropertyOp28
 70
     1
102
RTVSPropertyOp29
 70
     1
102
RTVSPropertyOp30
 70
     1
102
RTVSPropertyOp31
 70
     1
102
RTVSPropertyOp32
 70
     1
  0
ENDSEC
  0
EOF
