  0
SECTION
  2
HEADER
  9
$ACADVER
  1
AC1018
  9
$ACADMAINTVER
 70
     0
  9
$DWGCODEPAGE
  3
ANSI_1252
  9
$INSBASE
 10
0.0
 20
0.0
 30
0.0
  9
$EXTMIN
 10
145.644450685231
 20
-8.619852822581
 30
0.0
  9
$EXTMAX
 10
524.354687083468
 20
144.929147177419
 30
0.0
  9
$LIMMIN
 10
0.0
 20
0.0
  9
$LIMMAX
 10
420.0
 20
297.0
  9
$ORTHOMODE
 70
     0
  9
$REGENMODE
 70
     1
  9
$FILLMODE
 70
     1
  9
$QTEXTMODE
 70
     0
  9
$MIRRTEXT
 70
     1
  9
$LTSCALE
 40
5.0
  9
$ATTMODE
 70
     1
  9
$TEXTSIZE
 40
2.5
  9
$TRACEWID
 40
1.0
  9
$TEXTSTYLE
  7
Standard
  9
$CLAYER
  8
0
  9
$CELTYPE
  6
ByLayer
  9
$CECOLOR
 62
   256
  9
$CELTSCALE
 40
1.0
  9
$DISPSILH
 70
     0
  9
$DIMSCALE
 40
1.0
  9
$DIMASZ
 40
2.5
  9
$DIMEXO
 40
0.625
  9
$DIMDLI
 40
3.75
  9
$DIMRND
 40
0.0
  9
$DIMDLE
 40
0.0
  9
$DIMEXE
 40
1.25
  9
$DIMTP
 40
0.0
  9
$DIMTM
 40
0.0
  9
$DIMTXT
 40
2.5
  9
$DIMCEN
 40
2.5
  9
$DIMTSZ
 40
0.0
  9
$DIMTOL
 70
     0
  9
$DIMLIM
 70
     0
  9
$DIMTIH
 70
     0
  9
$DIMTOH
 70
     0
  9
$DIMSE1
 70
     0
  9
$DIMSE2
 70
     0
  9
$DIMTAD
 70
     1
  9
$DIMZIN
 70
     8
  9
$DIMBLK
  1

  9
$DIMASO
 70
     1
  9
$DIMSHO
 70
     1
  9
$DIMPOST
  1

  9
$DIMAPOST
  1

  9
$DIMALT
 70
     0
  9
$DIMALTD
 70
     3
  9
$DIMALTF
 40
0.03937007874
  9
$DIMLFAC
 40
1.0
  9
$DIMTOFL
 70
     1
  9
$DIMTVP
 40
0.0
  9
$DIMTIX
 70
     0
  9
$DIMSOXD
 70
     0
  9
$DIMSAH
 70
     0
  9
$DIMBLK1
  1

  9
$DIMBLK2
  1

  9
$DIMSTYLE
  2
ISO-25
  9
$DIMCLRD
 70
     0
  9
$DIMCLRE
 70
     0
  9
$DIMCLRT
 70
     0
  9
$DIMTFAC
 40
1.0
  9
$DIMGAP
 40
0.625
  9
$DIMJUST
 70
     0
  9
$DIMSD1
 70
     0
  9
$DIMSD2
 70
     0
  9
$DIMTOLJ
 70
     0
  9
$DIMTZIN
 70
     8
  9
$DIMALTZ
 70
     0
  9
$DIMALTTZ
 70
     0
  9
$DIMUPT
 70
     0
  9
$DIMDEC
 70
     2
  9
$DIMTDEC
 70
     2
  9
$DIMALTU
 70
     2
  9
$DIMALTTD
 70
     3
  9
$DIMTXSTY
  7
Standard
  9
$DIMAUNIT
 70
     0
  9
$DIMADEC
 70
     0
  9
$DIMALTRND
 40
0.0
  9
$DIMAZIN
 70
     0
  9
$DIMDSEP
 70
    44
  9
$DIMATFIT
 70
     3
  9
$DIMFRAC
 70
     0
  9
$DIMLDRBLK
  1

  9
$DIMLUNIT
 70
     2
  9
$DIMLWD
 70
    -2
  9
$DIMLWE
 70
    -2
  9
$DIMTMOVE
 70
     0
  9
$LUNITS
 70
     2
  9
$LUPREC
 70
     4
  9
$SKETCHINC
 40
1.0
  9
$FILLETRAD
 40
10.0
  9
$AUNITS
 70
     0
  9
$AUPREC
 70
     0
  9
$MENU
  1
.
  9
$ELEVATION
 40
0.0
  9
$PELEVATION
 40
0.0
  9
$THICKNESS
 40
0.0
  9
$LIMCHECK
 70
     0
  9
$CHAMFERA
 40
10.0
  9
$CHAMFERB
 40
10.0
  9
$CHAMFERC
 40
20.0
  9
$CHAMFERD
 40
0.0
  9
$SKPOLY
 70
     0
  9
$TDCREATE
 40
2459038.384645625
  9
$TDUCREATE
 40
2459038.301312292
  9
$TDUPDATE
 40
2459038.384651875
  9
$TDUUPDATE
 40
2459038.301318542
  9
$TDINDWG
 40
0.0000000116
  9
$TDUSRTIMER
 40
0.0000000116
  9
$USRTIMER
 70
     1
  9
$ANGBASE
 50
0.0
  9
$ANGDIR
 70
     0
  9
$PDMODE
 70
     2
  9
$PDSIZE
 40
1.0
  9
$PLINEWID
 40
0.0
  9
$SPLFRAME
 70
     0
  9
$SPLINETYPE
 70
     6
  9
$SPLINESEGS
 70
     8
  9
$HANDSEED
  5
449
  9
$SURFTAB1
 70
     6
  9
$SURFTAB2
 70
     6
  9
$SURFTYPE
 70
     6
  9
$SURFU
 70
     6
  9
$SURFV
 70
     6
  9
$UCSBASE
  2

  9
$UCSNAME
  2

  9
$UCSORG
 10
0.0
 20
0.0
 30
0.0
  9
$UCSXDIR
 10
1.0
 20
0.0
 30
0.0
  9
$UCSYDIR
 10
0.0
 20
1.0
 30
0.0
  9
$UCSORTHOREF
  2

  9
$UCSORTHOVIEW
 70
     0
  9
$UCSORGTOP
 10
0.0
 20
0.0
 30
0.0
  9
$UCSORGBOTTOM
 10
0.0
 20
0.0
 30
0.0
  9
$UCSORGLEFT
 10
0.0
 20
0.0
 30
0.0
  9
$UCSORGRIGHT
 10
0.0
 20
0.0
 30
0.0
  9
$UCSORGFRONT
 10
0.0
 20
0.0
 30
0.0
  9
$UCSORGBACK
 10
0.0
 20
0.0
 30
0.0
  9
$PUCSBASE
  2

  9
$PUCSNAME
  2

  9
$PUCSORG
 10
0.0
 20
0.0
 30
0.0
  9
$PUCSXDIR
 10
1.0
 20
0.0
 30
0.0
  9
$PUCSYDIR
 10
0.0
 20
1.0
 30
0.0
  9
$PUCSORTHOREF
  2

  9
$PUCSORTHOVIEW
 70
     0
  9
$PUCSORGTOP
 10
0.0
 20
0.0
 30
0.0
  9
$PUCSORGBOTTOM
 10
0.0
 20
0.0
 30
0.0
  9
$PUCSORGLEFT
 10
0.0
 20
0.0
 30
0.0
  9
$PUCSORGRIGHT
 10
0.0
 20
0.0
 30
0.0
  9
$PUCSORGFRONT
 10
0.0
 20
0.0
 30
0.0
  9
$PUCSORGBACK
 10
0.0
 20
0.0
 30
0.0
  9
$USERI1
 70
     0
  9
$USERI2
 70
     0
  9
$USERI3
 70
     0
  9
$USERI4
 70
     0
  9
$USERI5
 70
     0
  9
$USERR1
 40
0.0
  9
$USERR2
 40
0.0
  9
$USERR3
 40
0.0
  9
$USERR4
 40
0.0
  9
$USERR5
 40
0.0
  9
$WORLDVIEW
 70
     1
  9
$SHADEDGE
 70
     3
  9
$SHADEDIF
 70
    70
  9
$TILEMODE
 70
     1
  9
$MAXACTVP
 70
    64
  9
$PINSBASE
 10
0.0
 20
0.0
 30
0.0
  9
$PLIMCHECK
 70
     0
  9
$PEXTMIN
 10
1.000000000000E+20
 20
1.000000000000E+20
 30
1.000000000000E+20
  9
$PEXTMAX
 10
-1.000000000000E+20
 20
-1.000000000000E+20
 30
-1.000000000000E+20
  9
$PLIMMIN
 10
0.0
 20
0.0
  9
$PLIMMAX
 10
420.0
 20
297.0
  9
$UNITMODE
 70
     0
  9
$VISRETAIN
 70
     1
  9
$PLINEGEN
 70
     0
  9
$PSLTSCALE
 70
     1
  9
$TREEDEPTH
 70
  3020
  9
$CMLSTYLE
  2
Standard
  9
$CMLJUST
 70
     0
  9
$CMLSCALE
 40
20.0
  9
$PROXYGRAPHICS
 70
     1
  9
$MEASUREMENT
 70
     1
  9
$CELWEIGHT
370
    -1
  9
$ENDCAPS
280
     0
  9
$JOINSTYLE
280
     0
  9
$LWDISPLAY
290
     0
  9
$INSUNITS
 70
     4
  9
$HYPERLINKBASE
  1

  9
$STYLESHEET
  1

  9
$XEDIT
290
     1
  9
$CEPSNTYPE
380
     0
  9
$PSTYLEMODE
290
     1
  9
$FINGERPRINTGUID
  2
{1BB1F34A-1271-4ACD-A39A-7F736E488DF1}
  9
$VERSIONGUID
  2
{FAEB1C32-E019-11D5-929B-00C0DF256EC4}
  9
$EXTNAMES
290
     1
  9
$PSVPSCALE
 40
0.0
  9
$OLESTARTUP
290
     0
  9
$SORTENTS
280
   127
  9
$INDEXCTL
280
     0
  9
$HIDETEXT
280
     1
  9
$XCLIPFRAME
290
     0
  9
$HALOGAP
280
     0
  9
$OBSCOLOR
 70
   257
  9
$OBSLTYPE
280
     0
  9
$INTERSECTIONDISPLAY
280
     0
  9
$INTERSECTIONCOLOR
 70
   257
  9
$DIMASSOC
280
     2
  9
$PROJECTNAME
  1

  0
ENDSEC
  0
SECTION
  2
CLASSES
  0
CLASS
  1
ACDBDICTIONARYWDFLT
  2
AcDbDictionaryWithDefault
  3
ObjectDBX Classes
 90
        0
 91
        4
280
     0
281
     0
  0
CLASS
  1
VISUALSTYLE
  2
AcDbVisualStyle
  3
ObjectDBX Classes
 90
     4095
 91
        4
280
     0
281
     0
  0
CLASS
  1
MATERIAL
  2
AcDbMaterial
  3
ObjectDBX Classes
 90
     1153
 91
        4
280
     0
281
     0
  0
CLASS
  1
WIPEOUTVARIABLES
  2
AcDbWipeoutVariables
  3
WipeOut|AutoCAD Express Tool|expresstools@autodesk.com
 90
        0
 91
        4
280
     0
281
     0
  0
CLASS
  1
WIPEOUT
  2
AcDbWipeout
  3
WipeOut|AutoCAD Express Tool|expresstools@autodesk.com
 90
      127
 91
        4
280
     0
281
     1
  0
ENDSEC
  0
SECTION
  2
TABLES
  0
TABLE
  2
VPORT
  5
8
330
0
100
AcDbSymbolTable
 70
     1
  0
VPORT
  5
29
330
8
100
AcDbSymbolTableRecord
100
AcDbViewportTableRecord
  2
*Active
 70
     0
 10
0.0
 20
0.0
 11
1.0
 21
1.0
 12
334.99956888435
 22
68.154647177419
 13
0.0
 23
0.0
 14
10.0
 24
10.0
 15
10.0
 25
10.0
 16
0.0
 26
0.0
 36
1.0
 17
0.0
 27
0.0
 37
0.0
 40
153.549
 41
2.466380350235
 42
50.0
 43
0.0
 44
0.0
 50
0.0
 51
0.0
 71
     0
 72
   100
 73
     1
 74
     3
 75
     0
 76
     0
 77
     0
 78
     0
281
     0
 65
     1
110
0.0
120
0.0
130
0.0
111
1.0
121
0.0
131
0.0
112
0.0
122
1.0
132
0.0
 79
     0
146
0.0
  0
ENDTAB
  0
TABLE
  2
LTYPE
  5
5
330
0
100
AcDbSymbolTable
 70
     4
  0
LTYPE
  5
14
330
5
100
AcDbSymbolTableRecord
100
AcDbLinetypeTableRecord
  2
ByBlock
 70
     0
  3

 72
    65
 73
     0
 40
0.0
  0
LTYPE
  5
15
330
5
100
AcDbSymbolTableRecord
100
AcDbLinetypeTableRecord
  2
ByLayer
 70
     0
  3

 72
    65
 73
     0
 40
0.0
  0
LTYPE
  5
16
330
5
100
AcDbSymbolTableRecord
100
AcDbLinetypeTableRecord
  2
Continuous
 70
     0
  3
Solid line
 72
    65
 73
     0
 40
0.0
  0
LTYPE
  5
40
330
5
100
AcDbSymbolTableRecord
100
AcDbLinetypeTableRecord
  2
AUSGEZOGEN
 70
     0
  3

 72
    65
 73
     0
 40
0.0
  0
LTYPE
  5
43
330
5
100
AcDbSymbolTableRecord
100
AcDbLinetypeTableRecord
  2
DASHDOT
 70
     0
  3

 72
    65
 73
     4
 40
1.0
 49
0.5
 74
     0
 49
-0.25
 74
     0
 49
0.0
 74
     0
 49
-0.25
 74
     0
  0
LTYPE
  5
44
330
5
100
AcDbSymbolTableRecord
100
AcDbLinetypeTableRecord
  2
DASHED
 70
     0
  3

 72
    65
 73
     2
 40
0.75
 49
0.5
 74
     0
 49
-0.25
 74
     0
  0
ENDTAB
  0
TABLE
  2
LAYER
  5
2
330
0
100
AcDbSymbolTable
 70
   257
  0
LAYER
  5
10
330
2
100
AcDbSymbolTableRecord
100
AcDbLayerTableRecord
  2
0
 70
     0
 62
     7
  6
Continuous
370
    -3
390
F
  0
LAYER
  5
46
330
2
100
AcDbSymbolTableRecord
100
AcDbLayerTableRecord
  2
Layer0
 70
     0
 62
     7
  6
Continuous
370
    -3
390
F
  0
LAYER
  5
47
330
2
100
AcDbSymbolTableRecord
100
AcDbLayerTableRecord
  2
Stammform
 70
     0
 62
     7
  6
Continuous
370
    -3
390
F
  0
LAYER
  5
48
330
2
100
AcDbSymbolTableRecord
100
AcDbLayerTableRecord
  2
Formteil
 70
     0
 62
     7
  6
Continuous
370
    -3
390
F
  0
LAYER
  5
49
330
2
100
AcDbSymbolTableRecord
100
AcDbLayerTableRecord
  2
Kühlsystem
 70
     0
 62
     7
  6
Continuous
370
    -3
390
F
  0
LAYER
  5
4A
330
2
100
AcDbSymbolTableRecord
100
AcDbLayerTableRecord
  2
Auswerfsystem
 70
     0
 62
     7
  6
Continuous
370
    -3
390
F
  0
LAYER
  5
4B
330
2
100
AcDbSymbolTableRecord
100
AcDbLayerTableRecord
  2
Text
 70
     0
 62
     7
  6
Continuous
370
    -3
390
F
  0
LAYER
  5
4C
330
2
100
AcDbSymbolTableRecord
100
AcDbLayerTableRecord
  2
Schraffur
 70
     0
 62
     7
  6
Continuous
370
    -3
390
F
  0
LAYER
  5
4D
330
2
100
AcDbSymbolTableRecord
100
AcDbLayerTableRecord
  2
Bemaßung
 70
     0
 62
     7
  6
Continuous
370
    -3
390
F
  0
LAYER
  5
4E
330
2
100
AcDbSymbolTableRecord
100
AcDbLayerTableRecord
  2
Heißkanal
 70
     0
 62
     7
  6
Continuous
370
    -3
390
F
  0
LAYER
  5
4F
330
2
100
AcDbSymbolTableRecord
100
AcDbLayerTableRecord
  2
Layer9
 70
     0
 62
     7
  6
Continuous
370
    -3
390
F
  0
LAYER
  5
50
330
2
100
AcDbSymbolTableRecord
100
AcDbLayerTableRecord
  2
Hilsgeometrie
 70
     0
 62
     7
  6
Continuous
370
    -3
390
F
  0
LAYER
  5
51
330
2
100
AcDbSymbolTableRecord
100
AcDbLayerTableRecord
  2
Layer11
 70
     0
 62
     7
  6
Continuous
370
    -3
390
F
  0
LAYER
  5
52
330
2
100
AcDbSymbolTableRecord
100
AcDbLayerTableRecord
  2
Layer12
 70
     0
 62
     7
  6
Continuous
370
    -3
390
F
  0
LAYER
  5
53
330
2
100
AcDbSymbolTableRecord
100
AcDbLayerTableRecord
  2
Layer13
 70
     0
 62
     7
  6
Continuous
370
    -3
390
F
  0
LAYER
  5
54
330
2
100
AcDbSymbolTableRecord
100
AcDbLayerTableRecord
  2
Layer14
 70
     0
 62
     7
  6
Continuous
370
    -3
390
F
  0
LAYER
  5
55
330
2
100
AcDbSymbolTableRecord
100
AcDbLayerTableRecord
  2
Layer15
 70
     0
 62
     7
  6
Continuous
370
    -3
390
F
  0
LAYER
  5
56
330
2
100
AcDbSymbolTableRecord
100
AcDbLayerTableRecord
  2
Layer16
 70
     0
 62
     7
  6
Continuous
370
    -3
390
F
  0
LAYER
  5
57
330
2
100
AcDbSymbolTableRecord
100
AcDbLayerTableRecord
  2
Layer17
 70
     0
 62
     7
  6
Continuous
370
    -3
390
F
  0
LAYER
  5
58
330
2
100
AcDbSymbolTableRecord
100
AcDbLayerTableRecord
  2
Layer18
 70
     0
 62
     7
  6
Continuous
370
    -3
390
F
  0
LAYER
  5
59
330
2
100
AcDbSymbolTableRecord
100
AcDbLayerTableRecord
  2
Layer19
 70
     0
 62
     7
  6
Continuous
370
    -3
390
F
  0
LAYER
  5
5A
330
2
100
AcDbSymbolTableRecord
100
AcDbLayerTableRecord
  2
Layer20
 70
     0
 62
     7
  6
Continuous
370
    -3
390
F
  0
LAYER
  5
5B
330
2
100
AcDbSymbolTableRecord
100
AcDbLayerTableRecord
  2
Layer21
 70
     0
 62
     7
  6
Continuous
370
    -3
390
F
  0
LAYER
  5
5C
330
2
100
AcDbSymbolTableRecord
100
AcDbLayerTableRecord
  2
Layer22
 70
     0
 62
     7
  6
Continuous
370
    -3
390
F
  0
LAYER
  5
5D
330
2
100
AcDbSymbolTableRecord
100
AcDbLayerTableRecord
  2
Layer23
 70
     0
 62
     7
  6
Continuous
370
    -3
390
F
  0
LAYER
  5
5E
330
2
100
AcDbSymbolTableRecord
100
AcDbLayerTableRecord
  2
Layer24
 70
     0
 62
     7
  6
Continuous
370
    -3
390
F
  0
LAYER
  5
5F
330
2
100
AcDbSymbolTableRecord
100
AcDbLayerTableRecord
  2
Layer25
 70
     0
 62
     7
  6
Continuous
370
    -3
390
F
  0
LAYER
  5
60
330
2
100
AcDbSymbolTableRecord
100
AcDbLayerTableRecord
  2
Layer26
 70
     0
 62
     7
  6
Continuous
370
    -3
390
F
  0
LAYER
  5
61
330
2
100
AcDbSymbolTableRecord
100
AcDbLayerTableRecord
  2
Layer27
 70
     0
 62
     7
  6
Continuous
370
    -3
390
F
  0
LAYER
  5
62
330
2
100
AcDbSymbolTableRecord
100
AcDbLayerTableRecord
  2
Layer28
 70
     0
 62
     7
  6
Continuous
370
    -3
390
F
  0
LAYER
  5
63
330
2
100
AcDbSymbolTableRecord
100
AcDbLayerTableRecord
  2
Layer29
 70
     0
 62
     7
  6
Continuous
370
    -3
390
F
  0
LAYER
  5
64
330
2
100
AcDbSymbolTableRecord
100
AcDbLayerTableRecord
  2
Layer30
 70
     0
 62
     7
  6
Continuous
370
    -3
390
F
  0
LAYER
  5
65
330
2
100
AcDbSymbolTableRecord
100
AcDbLayerTableRecord
  2
Layer31
 70
     0
 62
     7
  6
Continuous
370
    -3
390
F
  0
LAYER
  5
66
330
2
100
AcDbSymbolTableRecord
100
AcDbLayerTableRecord
  2
Layer32
 70
     0
 62
     7
  6
Continuous
370
    -3
390
F
  0
LAYER
  5
67
330
2
100
AcDbSymbolTableRecord
100
AcDbLayerTableRecord
  2
Layer33
 70
     0
 62
     7
  6
Continuous
370
    -3
390
F
  0
LAYER
  5
68
330
2
100
AcDbSymbolTableRecord
100
AcDbLayerTableRecord
  2
Layer34
 70
     0
 62
     7
  6
Continuous
370
    -3
390
F
  0
LAYER
  5
69
330
2
100
AcDbSymbolTableRecord
100
AcDbLayerTableRecord
  2
Layer35
 70
     0
 62
     7
  6
Continuous
370
    -3
390
F
  0
LAYER
  5
6A
330
2
100
AcDbSymbolTableRecord
100
AcDbLayerTableRecord
  2
Layer36
 70
     0
 62
     7
  6
Continuous
370
    -3
390
F
  0
LAYER
  5
6B
330
2
100
AcDbSymbolTableRecord
100
AcDbLayerTableRecord
  2
Layer37
 70
     0
 62
     7
  6
Continuous
370
    -3
390
F
  0
LAYER
  5
6C
330
2
100
AcDbSymbolTableRecord
100
AcDbLayerTableRecord
  2
Layer38
 70
     0
 62
     7
  6
Continuous
370
    -3
390
F
  0
LAYER
  5
6D
330
2
100
AcDbSymbolTableRecord
100
AcDbLayerTableRecord
  2
Layer39
 70
     0
 62
     7
  6
Continuous
370
    -3
390
F
  0
LAYER
  5
6E
330
2
100
AcDbSymbolTableRecord
100
AcDbLayerTableRecord
  2
Layer40
 70
     0
 62
     7
  6
Continuous
370
    -3
390
F
  0
LAYER
  5
6F
330
2
100
AcDbSymbolTableRecord
100
AcDbLayerTableRecord
  2
Layer41
 70
     0
 62
     7
  6
Continuous
370
    -3
390
F
  0
LAYER
  5
70
330
2
100
AcDbSymbolTableRecord
100
AcDbLayerTableRecord
  2
Layer42
 70
     0
 62
     7
  6
Continuous
370
    -3
390
F
  0
LAYER
  5
71
330
2
100
AcDbSymbolTableRecord
100
AcDbLayerTableRecord
  2
Layer43
 70
     0
 62
     7
  6
Continuous
370
    -3
390
F
  0
LAYER
  5
72
330
2
100
AcDbSymbolTableRecord
100
AcDbLayerTableRecord
  2
Layer44
 70
     0
 62
     7
  6
Continuous
370
    -3
390
F
  0
LAYER
  5
73
330
2
100
AcDbSymbolTableRecord
100
AcDbLayerTableRecord
  2
Layer45
 70
     0
 62
     7
  6
Continuous
370
    -3
390
F
  0
LAYER
  5
74
330
2
100
AcDbSymbolTableRecord
100
AcDbLayerTableRecord
  2
Layer46
 70
     0
 62
     7
  6
Continuous
370
    -3
390
F
  0
LAYER
  5
75
330
2
100
AcDbSymbolTableRecord
100
AcDbLayerTableRecord
  2
Layer47
 70
     0
 62
     7
  6
Continuous
370
    -3
390
F
  0
LAYER
  5
76
330
2
100
AcDbSymbolTableRecord
100
AcDbLayerTableRecord
  2
Layer48
 70
     0
 62
     7
  6
Continuous
370
    -3
390
F
  0
LAYER
  5
77
330
2
100
AcDbSymbolTableRecord
100
AcDbLayerTableRecord
  2
Layer49
 70
     0
 62
     7
  6
Continuous
370
    -3
390
F
  0
LAYER
  5
78
330
2
100
AcDbSymbolTableRecord
100
AcDbLayerTableRecord
  2
Layer50
 70
     0
 62
     7
  6
Continuous
370
    -3
390
F
  0
LAYER
  5
79
330
2
100
AcDbSymbolTableRecord
100
AcDbLayerTableRecord
  2
Layer51
 70
     0
 62
     7
  6
Continuous
370
    -3
390
F
  0
LAYER
  5
7A
330
2
100
AcDbSymbolTableRecord
100
AcDbLayerTableRecord
  2
Layer52
 70
     0
 62
     7
  6
Continuous
370
    -3
390
F
  0
LAYER
  5
7B
330
2
100
AcDbSymbolTableRecord
100
AcDbLayerTableRecord
  2
Layer53
 70
     0
 62
     7
  6
Continuous
370
    -3
390
F
  0
LAYER
  5
7C
330
2
100
AcDbSymbolTableRecord
100
AcDbLayerTableRecord
  2
Layer54
 70
     0
 62
     7
  6
Continuous
370
    -3
390
F
  0
LAYER
  5
7D
330
2
100
AcDbSymbolTableRecord
100
AcDbLayerTableRecord
  2
Layer55
 70
     0
 62
     7
  6
Continuous
370
    -3
390
F
  0
LAYER
  5
7E
330
2
100
AcDbSymbolTableRecord
100
AcDbLayerTableRecord
  2
Layer56
 70
     0
 62
     7
  6
Continuous
370
    -3
390
F
  0
LAYER
  5
7F
330
2
100
AcDbSymbolTableRecord
100
AcDbLayerTableRecord
  2
Layer57
 70
     0
 62
     7
  6
Continuous
370
    -3
390
F
  0
LAYER
  5
80
330
2
100
AcDbSymbolTableRecord
100
AcDbLayerTableRecord
  2
Layer58
 70
     0
 62
     7
  6
Continuous
370
    -3
390
F
  0
LAYER
  5
81
330
2
100
AcDbSymbolTableRecord
100
AcDbLayerTableRecord
  2
Layer59
 70
     0
 62
     7
  6
Continuous
370
    -3
390
F
  0
LAYER
  5
82
330
2
100
AcDbSymbolTableRecord
100
AcDbLayerTableRecord
  2
Layer60
 70
     0
 62
     7
  6
Continuous
370
    -3
390
F
  0
LAYER
  5
83
330
2
100
AcDbSymbolTableRecord
100
AcDbLayerTableRecord
  2
Layer61
 70
     0
 62
     7
  6
Continuous
370
    -3
390
F
  0
LAYER
  5
84
330
2
100
AcDbSymbolTableRecord
100
AcDbLayerTableRecord
  2
Layer62
 70
     0
 62
     7
  6
Continuous
370
    -3
390
F
  0
LAYER
  5
85
330
2
100
AcDbSymbolTableRecord
100
AcDbLayerTableRecord
  2
Layer63
 70
     0
 62
     7
  6
Continuous
370
    -3
390
F
  0
LAYER
  5
86
330
2
100
AcDbSymbolTableRecord
100
AcDbLayerTableRecord
  2
Layer64
 70
     0
 62
     7
  6
Continuous
370
    -3
390
F
  0
LAYER
  5
87
330
2
100
AcDbSymbolTableRecord
100
AcDbLayerTableRecord
  2
Layer65
 70
     0
 62
     7
  6
Continuous
370
    -3
390
F
  0
LAYER
  5
88
330
2
100
AcDbSymbolTableRecord
100
AcDbLayerTableRecord
  2
Layer66
 70
     0
 62
     7
  6
Continuous
370
    -3
390
F
  0
LAYER
  5
89
330
2
100
AcDbSymbolTableRecord
100
AcDbLayerTableRecord
  2
Layer67
 70
     0
 62
     7
  6
Continuous
370
    -3
390
F
  0
LAYER
  5
8A
330
2
100
AcDbSymbolTableRecord
100
AcDbLayerTableRecord
  2
Layer68
 70
     0
 62
     7
  6
Continuous
370
    -3
390
F
  0
LAYER
  5
8B
330
2
100
AcDbSymbolTableRecord
100
AcDbLayerTableRecord
  2
Layer69
 70
     0
 62
     7
  6
Continuous
370
    -3
390
F
  0
LAYER
  5
8C
330
2
100
AcDbSymbolTableRecord
100
AcDbLayerTableRecord
  2
Layer70
 70
     0
 62
     7
  6
Continuous
370
    -3
390
F
  0
LAYER
  5
8D
330
2
100
AcDbSymbolTableRecord
100
AcDbLayerTableRecord
  2
Layer71
 70
     0
 62
     7
  6
Continuous
370
    -3
390
F
  0
LAYER
  5
8E
330
2
100
AcDbSymbolTableRecord
100
AcDbLayerTableRecord
  2
Layer72
 70
     0
 62
     7
  6
Continuous
370
    -3
390
F
  0
LAYER
  5
8F
330
2
100
AcDbSymbolTableRecord
100
AcDbLayerTableRecord
  2
Layer73
 70
     0
 62
     7
  6
Continuous
370
    -3
390
F
  0
LAYER
  5
90
330
2
100
AcDbSymbolTableRecord
100
AcDbLayerTableRecord
  2
Layer74
 70
     0
 62
     7
  6
Continuous
370
    -3
390
F
  0
LAYER
  5
91
330
2
100
AcDbSymbolTableRecord
100
AcDbLayerTableRecord
  2
Layer75
 70
     0
 62
     7
  6
Continuous
370
    -3
390
F
  0
LAYER
  5
92
330
2
100
AcDbSymbolTableRecord
100
AcDbLayerTableRecord
  2
Layer76
 70
     0
 62
     7
  6
Continuous
370
    -3
390
F
  0
LAYER
  5
93
330
2
100
AcDbSymbolTableRecord
100
AcDbLayerTableRecord
  2
Layer77
 70
     0
 62
     7
  6
Continuous
370
    -3
390
F
  0
LAYER
  5
94
330
2
100
AcDbSymbolTableRecord
100
AcDbLayerTableRecord
  2
Layer78
 70
     0
 62
     7
  6
Continuous
370
    -3
390
F
  0
LAYER
  5
95
330
2
100
AcDbSymbolTableRecord
100
AcDbLayerTableRecord
  2
Layer79
 70
     0
 62
     7
  6
Continuous
370
    -3
390
F
  0
LAYER
  5
96
330
2
100
AcDbSymbolTableRecord
100
AcDbLayerTableRecord
  2
Layer80
 70
     0
 62
     7
  6
Continuous
370
    -3
390
F
  0
LAYER
  5
97
330
2
100
AcDbSymbolTableRecord
100
AcDbLayerTableRecord
  2
Layer81
 70
     0
 62
     7
  6
Continuous
370
    -3
390
F
  0
LAYER
  5
98
330
2
100
AcDbSymbolTableRecord
100
AcDbLayerTableRecord
  2
Layer82
 70
     0
 62
     7
  6
Continuous
370
    -3
390
F
  0
LAYER
  5
99
330
2
100
AcDbSymbolTableRecord
100
AcDbLayerTableRecord
  2
Layer83
 70
     0
 62
     7
  6
Continuous
370
    -3
390
F
  0
LAYER
  5
9A
330
2
100
AcDbSymbolTableRecord
100
AcDbLayerTableRecord
  2
Layer84
 70
     0
 62
     7
  6
Continuous
370
    -3
390
F
  0
LAYER
  5
9B
330
2
100
AcDbSymbolTableRecord
100
AcDbLayerTableRecord
  2
Layer85
 70
     0
 62
     7
  6
Continuous
370
    -3
390
F
  0
LAYER
  5
9C
330
2
100
AcDbSymbolTableRecord
100
AcDbLayerTableRecord
  2
Layer86
 70
     0
 62
     7
  6
Continuous
370
    -3
390
F
  0
LAYER
  5
9D
330
2
100
AcDbSymbolTableRecord
100
AcDbLayerTableRecord
  2
Layer87
 70
     0
 62
     7
  6
Continuous
370
    -3
390
F
  0
LAYER
  5
9E
330
2
100
AcDbSymbolTableRecord
100
AcDbLayerTableRecord
  2
Layer88
 70
     0
 62
     7
  6
Continuous
370
    -3
390
F
  0
LAYER
  5
9F
330
2
100
AcDbSymbolTableRecord
100
AcDbLayerTableRecord
  2
Layer89
 70
     0
 62
     7
  6
Continuous
370
    -3
390
F
  0
LAYER
  5
A0
330
2
100
AcDbSymbolTableRecord
100
AcDbLayerTableRecord
  2
Layer90
 70
     0
 62
     7
  6
Continuous
370
    -3
390
F
  0
LAYER
  5
A1
330
2
100
AcDbSymbolTableRecord
100
AcDbLayerTableRecord
  2
Layer91
 70
     0
 62
     7
  6
Continuous
370
    -3
390
F
  0
LAYER
  5
A2
330
2
100
AcDbSymbolTableRecord
100
AcDbLayerTableRecord
  2
Layer92
 70
     0
 62
     7
  6
Continuous
370
    -3
390
F
  0
LAYER
  5
A3
330
2
100
AcDbSymbolTableRecord
100
AcDbLayerTableRecord
  2
Layer93
 70
     0
 62
     7
  6
Continuous
370
    -3
390
F
  0
LAYER
  5
A4
330
2
100
AcDbSymbolTableRecord
100
AcDbLayerTableRecord
  2
Layer94
 70
     0
 62
     7
  6
Continuous
370
    -3
390
F
  0
LAYER
  5
A5
330
2
100
AcDbSymbolTableRecord
100
AcDbLayerTableRecord
  2
Layer95
 70
     0
 62
     7
  6
Continuous
370
    -3
390
F
  0
LAYER
  5
A6
330
2
100
AcDbSymbolTableRecord
100
AcDbLayerTableRecord
  2
Layer96
 70
     0
 62
     7
  6
Continuous
370
    -3
390
F
  0
LAYER
  5
A7
330
2
100
AcDbSymbolTableRecord
100
AcDbLayerTableRecord
  2
Layer97
 70
     0
 62
     7
  6
Continuous
370
    -3
390
F
  0
LAYER
  5
A8
330
2
100
AcDbSymbolTableRecord
100
AcDbLayerTableRecord
  2
Layer98
 70
     0
 62
     7
  6
Continuous
370
    -3
390
F
  0
LAYER
  5
A9
330
2
100
AcDbSymbolTableRecord
100
AcDbLayerTableRecord
  2
Layer99
 70
     0
 62
     7
  6
Continuous
370
    -3
390
F
  0
LAYER
  5
AA
330
2
100
AcDbSymbolTableRecord
100
AcDbLayerTableRecord
  2
Layer100
 70
     0
 62
     7
  6
Continuous
370
    -3
390
F
  0
LAYER
  5
AB
330
2
100
AcDbSymbolTableRecord
100
AcDbLayerTableRecord
  2
Layer101
 70
     0
 62
     7
  6
Continuous
370
    -3
390
F
  0
LAYER
  5
AC
330
2
100
AcDbSymbolTableRecord
100
AcDbLayerTableRecord
  2
Layer102
 70
     0
 62
     7
  6
Continuous
370
    -3
390
F
  0
LAYER
  5
AD
330
2
100
AcDbSymbolTableRecord
100
AcDbLayerTableRecord
  2
Layer103
 70
     0
 62
     7
  6
Continuous
370
    -3
390
F
  0
LAYER
  5
AE
330
2
100
AcDbSymbolTableRecord
100
AcDbLayerTableRecord
  2
Layer104
 70
     0
 62
     7
  6
Continuous
370
    -3
390
F
  0
LAYER
  5
AF
330
2
100
AcDbSymbolTableRecord
100
AcDbLayerTableRecord
  2
Layer105
 70
     0
 62
     7
  6
Continuous
370
    -3
390
F
  0
LAYER
  5
B0
330
2
100
AcDbSymbolTableRecord
100
AcDbLayerTableRecord
  2
Layer106
 70
     0
 62
     7
  6
Continuous
370
    -3
390
F
  0
LAYER
  5
B1
330
2
100
AcDbSymbolTableRecord
100
AcDbLayerTableRecord
  2
Layer107
 70
     0
 62
     7
  6
Continuous
370
    -3
390
F
  0
LAYER
  5
B2
330
2
100
AcDbSymbolTableRecord
100
AcDbLayerTableRecord
  2
Layer108
 70
     0
 62
     7
  6
Continuous
370
    -3
390
F
  0
LAYER
  5
B3
330
2
100
AcDbSymbolTableRecord
100
AcDbLayerTableRecord
  2
Layer109
 70
     0
 62
     7
  6
Continuous
370
    -3
390
F
  0
LAYER
  5
B4
330
2
100
AcDbSymbolTableRecord
100
AcDbLayerTableRecord
  2
Layer110
 70
     0
 62
     7
  6
Continuous
370
    -3
390
F
  0
LAYER
  5
B5
330
2
100
AcDbSymbolTableRecord
100
AcDbLayerTableRecord
  2
Layer111
 70
     0
 62
     7
  6
Continuous
370
    -3
390
F
  0
LAYER
  5
B6
330
2
100
AcDbSymbolTableRecord
100
AcDbLayerTableRecord
  2
Layer112
 70
     0
 62
     7
  6
Continuous
370
    -3
390
F
  0
LAYER
  5
B7
330
2
100
AcDbSymbolTableRecord
100
AcDbLayerTableRecord
  2
Layer113
 70
     0
 62
     7
  6
Continuous
370
    -3
390
F
  0
LAYER
  5
B8
330
2
100
AcDbSymbolTableRecord
100
AcDbLayerTableRecord
  2
Layer114
 70
     0
 62
     7
  6
Continuous
370
    -3
390
F
  0
LAYER
  5
B9
330
2
100
AcDbSymbolTableRecord
100
AcDbLayerTableRecord
  2
Layer115
 70
     0
 62
     7
  6
Continuous
370
    -3
390
F
  0
LAYER
  5
BA
330
2
100
AcDbSymbolTableRecord
100
AcDbLayerTableRecord
  2
Layer116
 70
     0
 62
     7
  6
Continuous
370
    -3
390
F
  0
LAYER
  5
BB
330
2
100
AcDbSymbolTableRecord
100
AcDbLayerTableRecord
  2
Layer117
 70
     0
 62
     7
  6
Continuous
370
    -3
390
F
  0
LAYER
  5
BC
330
2
100
AcDbSymbolTableRecord
100
AcDbLayerTableRecord
  2
Layer118
 70
     0
 62
     7
  6
Continuous
370
    -3
390
F
  0
LAYER
  5
BD
330
2
100
AcDbSymbolTableRecord
100
AcDbLayerTableRecord
  2
Layer119
 70
     0
 62
     7
  6
Continuous
370
    -3
390
F
  0
LAYER
  5
BE
330
2
100
AcDbSymbolTableRecord
100
AcDbLayerTableRecord
  2
Layer120
 70
     0
 62
     7
  6
Continuous
370
    -3
390
F
  0
LAYER
  5
BF
330
2
100
AcDbSymbolTableRecord
100
AcDbLayerTableRecord
  2
Layer121
 70
     0
 62
     7
  6
Continuous
370
    -3
390
F
  0
LAYER
  5
C0
330
2
100
AcDbSymbolTableRecord
100
AcDbLayerTableRecord
  2
Layer122
 70
     0
 62
     7
  6
Continuous
370
    -3
390
F
  0
LAYER
  5
C1
330
2
100
AcDbSymbolTableRecord
100
AcDbLayerTableRecord
  2
Layer123
 70
     0
 62
     7
  6
Continuous
370
    -3
390
F
  0
LAYER
  5
C2
330
2
100
AcDbSymbolTableRecord
100
AcDbLayerTableRecord
  2
Layer124
 70
     0
 62
     7
  6
Continuous
370
    -3
390
F
  0
LAYER
  5
C3
330
2
100
AcDbSymbolTableRecord
100
AcDbLayerTableRecord
  2
Layer125
 70
     0
 62
     7
  6
Continuous
370
    -3
390
F
  0
LAYER
  5
C4
330
2
100
AcDbSymbolTableRecord
100
AcDbLayerTableRecord
  2
Layer126
 70
     0
 62
     7
  6
Continuous
370
    -3
390
F
  0
LAYER
  5
C5
330
2
100
AcDbSymbolTableRecord
100
AcDbLayerTableRecord
  2
Layer127
 70
     0
 62
     7
  6
Continuous
370
    -3
390
F
  0
LAYER
  5
C6
330
2
100
AcDbSymbolTableRecord
100
AcDbLayerTableRecord
  2
Layer128
 70
     0
 62
     7
  6
Continuous
370
    -3
390
F
  0
LAYER
  5
C7
330
2
100
AcDbSymbolTableRecord
100
AcDbLayerTableRecord
  2
Layer129
 70
     0
 62
     7
  6
Continuous
370
    -3
390
F
  0
LAYER
  5
C8
330
2
100
AcDbSymbolTableRecord
100
AcDbLayerTableRecord
  2
Layer130
 70
     0
 62
     7
  6
Continuous
370
    -3
390
F
  0
LAYER
  5
C9
330
2
100
AcDbSymbolTableRecord
100
AcDbLayerTableRecord
  2
Layer131
 70
     0
 62
     7
  6
Continuous
370
    -3
390
F
  0
LAYER
  5
CA
330
2
100
AcDbSymbolTableRecord
100
AcDbLayerTableRecord
  2
Layer132
 70
     0
 62
     7
  6
Continuous
370
    -3
390
F
  0
LAYER
  5
CB
330
2
100
AcDbSymbolTableRecord
100
AcDbLayerTableRecord
  2
Layer133
 70
     0
 62
     7
  6
Continuous
370
    -3
390
F
  0
LAYER
  5
CC
330
2
100
AcDbSymbolTableRecord
100
AcDbLayerTableRecord
  2
Layer134
 70
     0
 62
     7
  6
Continuous
370
    -3
390
F
  0
LAYER
  5
CD
330
2
100
AcDbSymbolTableRecord
100
AcDbLayerTableRecord
  2
Layer135
 70
     0
 62
     7
  6
Continuous
370
    -3
390
F
  0
LAYER
  5
CE
330
2
100
AcDbSymbolTableRecord
100
AcDbLayerTableRecord
  2
Layer136
 70
     0
 62
     7
  6
Continuous
370
    -3
390
F
  0
LAYER
  5
CF
330
2
100
AcDbSymbolTableRecord
100
AcDbLayerTableRecord
  2
Layer137
 70
     0
 62
     7
  6
Continuous
370
    -3
390
F
  0
LAYER
  5
D0
330
2
100
AcDbSymbolTableRecord
100
AcDbLayerTableRecord
  2
Layer138
 70
     0
 62
     7
  6
Continuous
370
    -3
390
F
  0
LAYER
  5
D1
330
2
100
AcDbSymbolTableRecord
100
AcDbLayerTableRecord
  2
Layer139
 70
     0
 62
     7
  6
Continuous
370
    -3
390
F
  0
LAYER
  5
D2
330
2
100
AcDbSymbolTableRecord
100
AcDbLayerTableRecord
  2
Layer140
 70
     0
 62
     7
  6
Continuous
370
    -3
390
F
  0
LAYER
  5
D3
330
2
100
AcDbSymbolTableRecord
100
AcDbLayerTableRecord
  2
Layer141
 70
     0
 62
     7
  6
Continuous
370
    -3
390
F
  0
LAYER
  5
D4
330
2
100
AcDbSymbolTableRecord
100
AcDbLayerTableRecord
  2
Layer142
 70
     0
 62
     7
  6
Continuous
370
    -3
390
F
  0
LAYER
  5
D5
330
2
100
AcDbSymbolTableRecord
100
AcDbLayerTableRecord
  2
Layer143
 70
     0
 62
     7
  6
Continuous
370
    -3
390
F
  0
LAYER
  5
D6
330
2
100
AcDbSymbolTableRecord
100
AcDbLayerTableRecord
  2
Layer144
 70
     0
 62
     7
  6
Continuous
370
    -3
390
F
  0
LAYER
  5
D7
330
2
100
AcDbSymbolTableRecord
100
AcDbLayerTableRecord
  2
Layer145
 70
     0
 62
     7
  6
Continuous
370
    -3
390
F
  0
LAYER
  5
D8
330
2
100
AcDbSymbolTableRecord
100
AcDbLayerTableRecord
  2
Layer146
 70
     0
 62
     7
  6
Continuous
370
    -3
390
F
  0
LAYER
  5
D9
330
2
100
AcDbSymbolTableRecord
100
AcDbLayerTableRecord
  2
Layer147
 70
     0
 62
     7
  6
Continuous
370
    -3
390
F
  0
LAYER
  5
DA
330
2
100
AcDbSymbolTableRecord
100
AcDbLayerTableRecord
  2
Layer148
 70
     0
 62
     7
  6
Continuous
370
    -3
390
F
  0
LAYER
  5
DB
330
2
100
AcDbSymbolTableRecord
100
AcDbLayerTableRecord
  2
Layer149
 70
     0
 62
     7
  6
Continuous
370
    -3
390
F
  0
LAYER
  5
DC
330
2
100
AcDbSymbolTableRecord
100
AcDbLayerTableRecord
  2
Layer150
 70
     0
 62
     7
  6
Continuous
370
    -3
390
F
  0
LAYER
  5
DD
330
2
100
AcDbSymbolTableRecord
100
AcDbLayerTableRecord
  2
Layer151
 70
     0
 62
     7
  6
Continuous
370
    -3
390
F
  0
LAYER
  5
DE
330
2
100
AcDbSymbolTableRecord
100
AcDbLayerTableRecord
  2
Layer152
 70
     0
 62
     7
  6
Continuous
370
    -3
390
F
  0
LAYER
  5
DF
330
2
100
AcDbSymbolTableRecord
100
AcDbLayerTableRecord
  2
Layer153
 70
     0
 62
     7
  6
Continuous
370
    -3
390
F
  0
LAYER
  5
E0
330
2
100
AcDbSymbolTableRecord
100
AcDbLayerTableRecord
  2
Layer154
 70
     0
 62
     7
  6
Continuous
370
    -3
390
F
  0
LAYER
  5
E1
330
2
100
AcDbSymbolTableRecord
100
AcDbLayerTableRecord
  2
Layer155
 70
     0
 62
     7
  6
Continuous
370
    -3
390
F
  0
LAYER
  5
E2
330
2
100
AcDbSymbolTableRecord
100
AcDbLayerTableRecord
  2
Layer156
 70
     0
 62
     7
  6
Continuous
370
    -3
390
F
  0
LAYER
  5
E3
330
2
100
AcDbSymbolTableRecord
100
AcDbLayerTableRecord
  2
Layer157
 70
     0
 62
     7
  6
Continuous
370
    -3
390
F
  0
LAYER
  5
E4
330
2
100
AcDbSymbolTableRecord
100
AcDbLayerTableRecord
  2
Layer158
 70
     0
 62
     7
  6
Continuous
370
    -3
390
F
  0
LAYER
  5
E5
330
2
100
AcDbSymbolTableRecord
100
AcDbLayerTableRecord
  2
Layer159
 70
     0
 62
     7
  6
Continuous
370
    -3
390
F
  0
LAYER
  5
E6
330
2
100
AcDbSymbolTableRecord
100
AcDbLayerTableRecord
  2
Layer160
 70
     0
 62
     7
  6
Continuous
370
    -3
390
F
  0
LAYER
  5
E7
330
2
100
AcDbSymbolTableRecord
100
AcDbLayerTableRecord
  2
Layer161
 70
     0
 62
     7
  6
Continuous
370
    -3
390
F
  0
LAYER
  5
E8
330
2
100
AcDbSymbolTableRecord
100
AcDbLayerTableRecord
  2
Layer162
 70
     0
 62
     7
  6
Continuous
370
    -3
390
F
  0
LAYER
  5
E9
330
2
100
AcDbSymbolTableRecord
100
AcDbLayerTableRecord
  2
Layer163
 70
     0
 62
     7
  6
Continuous
370
    -3
390
F
  0
LAYER
  5
EA
330
2
100
AcDbSymbolTableRecord
100
AcDbLayerTableRecord
  2
Layer164
 70
     0
 62
     7
  6
Continuous
370
    -3
390
F
  0
LAYER
  5
EB
330
2
100
AcDbSymbolTableRecord
100
AcDbLayerTableRecord
  2
Layer165
 70
     0
 62
     7
  6
Continuous
370
    -3
390
F
  0
LAYER
  5
EC
330
2
100
AcDbSymbolTableRecord
100
AcDbLayerTableRecord
  2
Layer166
 70
     0
 62
     7
  6
Continuous
370
    -3
390
F
  0
LAYER
  5
ED
330
2
100
AcDbSymbolTableRecord
100
AcDbLayerTableRecord
  2
Layer167
 70
     0
 62
     7
  6
Continuous
370
    -3
390
F
  0
LAYER
  5
EE
330
2
100
AcDbSymbolTableRecord
100
AcDbLayerTableRecord
  2
Layer168
 70
     0
 62
     7
  6
Continuous
370
    -3
390
F
  0
LAYER
  5
EF
330
2
100
AcDbSymbolTableRecord
100
AcDbLayerTableRecord
  2
Layer169
 70
     0
 62
     7
  6
Continuous
370
    -3
390
F
  0
LAYER
  5
F0
330
2
100
AcDbSymbolTableRecord
100
AcDbLayerTableRecord
  2
Layer170
 70
     0
 62
     7
  6
Continuous
370
    -3
390
F
  0
LAYER
  5
F1
330
2
100
AcDbSymbolTableRecord
100
AcDbLayerTableRecord
  2
Layer171
 70
     0
 62
     7
  6
Continuous
370
    -3
390
F
  0
LAYER
  5
F2
330
2
100
AcDbSymbolTableRecord
100
AcDbLayerTableRecord
  2
Layer172
 70
     0
 62
     7
  6
Continuous
370
    -3
390
F
  0
LAYER
  5
F3
330
2
100
AcDbSymbolTableRecord
100
AcDbLayerTableRecord
  2
Layer173
 70
     0
 62
     7
  6
Continuous
370
    -3
390
F
  0
LAYER
  5
F4
330
2
100
AcDbSymbolTableRecord
100
AcDbLayerTableRecord
  2
Layer174
 70
     0
 62
     7
  6
Continuous
370
    -3
390
F
  0
LAYER
  5
F5
330
2
100
AcDbSymbolTableRecord
100
AcDbLayerTableRecord
  2
Layer175
 70
     0
 62
     7
  6
Continuous
370
    -3
390
F
  0
LAYER
  5
F6
330
2
100
AcDbSymbolTableRecord
100
AcDbLayerTableRecord
  2
Layer176
 70
     0
 62
     7
  6
Continuous
370
    -3
390
F
  0
LAYER
  5
F7
330
2
100
AcDbSymbolTableRecord
100
AcDbLayerTableRecord
  2
Layer177
 70
     0
 62
     7
  6
Continuous
370
    -3
390
F
  0
LAYER
  5
F8
330
2
100
AcDbSymbolTableRecord
100
AcDbLayerTableRecord
  2
Layer178
 70
     0
 62
     7
  6
Continuous
370
    -3
390
F
  0
LAYER
  5
F9
330
2
100
AcDbSymbolTableRecord
100
AcDbLayerTableRecord
  2
Layer179
 70
     0
 62
     7
  6
Continuous
370
    -3
390
F
  0
LAYER
  5
FA
330
2
100
AcDbSymbolTableRecord
100
AcDbLayerTableRecord
  2
Layer180
 70
     0
 62
     7
  6
Continuous
370
    -3
390
F
  0
LAYER
  5
FB
330
2
100
AcDbSymbolTableRecord
100
AcDbLayerTableRecord
  2
Layer181
 70
     0
 62
     7
  6
Continuous
370
    -3
390
F
  0
LAYER
  5
FC
330
2
100
AcDbSymbolTableRecord
100
AcDbLayerTableRecord
  2
Layer182
 70
     0
 62
     7
  6
Continuous
370
    -3
390
F
  0
LAYER
  5
FD
330
2
100
AcDbSymbolTableRecord
100
AcDbLayerTableRecord
  2
Layer183
 70
     0
 62
     7
  6
Continuous
370
    -3
390
F
  0
LAYER
  5
FE
330
2
100
AcDbSymbolTableRecord
100
AcDbLayerTableRecord
  2
Layer184
 70
     0
 62
     7
  6
Continuous
370
    -3
390
F
  0
LAYER
  5
FF
330
2
100
AcDbSymbolTableRecord
100
AcDbLayerTableRecord
  2
Layer185
 70
     0
 62
     7
  6
Continuous
370
    -3
390
F
  0
LAYER
  5
100
330
2
100
AcDbSymbolTableRecord
100
AcDbLayerTableRecord
  2
Layer186
 70
     0
 62
     7
  6
Continuous
370
    -3
390
F
  0
LAYER
  5
101
330
2
100
AcDbSymbolTableRecord
100
AcDbLayerTableRecord
  2
Layer187
 70
     0
 62
     7
  6
Continuous
370
    -3
390
F
  0
LAYER
  5
102
330
2
100
AcDbSymbolTableRecord
100
AcDbLayerTableRecord
  2
Layer188
 70
     0
 62
     7
  6
Continuous
370
    -3
390
F
  0
LAYER
  5
103
330
2
100
AcDbSymbolTableRecord
100
AcDbLayerTableRecord
  2
Layer189
 70
     0
 62
     7
  6
Continuous
370
    -3
390
F
  0
LAYER
  5
104
330
2
100
AcDbSymbolTableRecord
100
AcDbLayerTableRecord
  2
Layer190
 70
     0
 62
     7
  6
Continuous
370
    -3
390
F
  0
LAYER
  5
105
330
2
100
AcDbSymbolTableRecord
100
AcDbLayerTableRecord
  2
Layer191
 70
     0
 62
     7
  6
Continuous
370
    -3
390
F
  0
LAYER
  5
106
330
2
100
AcDbSymbolTableRecord
100
AcDbLayerTableRecord
  2
Layer192
 70
     0
 62
     7
  6
Continuous
370
    -3
390
F
  0
LAYER
  5
107
330
2
100
AcDbSymbolTableRecord
100
AcDbLayerTableRecord
  2
Layer193
 70
     0
 62
     7
  6
Continuous
370
    -3
390
F
  0
LAYER
  5
108
330
2
100
AcDbSymbolTableRecord
100
AcDbLayerTableRecord
  2
Layer194
 70
     0
 62
     7
  6
Continuous
370
    -3
390
F
  0
LAYER
  5
109
330
2
100
AcDbSymbolTableRecord
100
AcDbLayerTableRecord
  2
Layer195
 70
     0
 62
     7
  6
Continuous
370
    -3
390
F
  0
LAYER
  5
10A
330
2
100
AcDbSymbolTableRecord
100
AcDbLayerTableRecord
  2
Layer196
 70
     0
 62
     7
  6
Continuous
370
    -3
390
F
  0
LAYER
  5
10B
330
2
100
AcDbSymbolTableRecord
100
AcDbLayerTableRecord
  2
Layer197
 70
     0
 62
     7
  6
Continuous
370
    -3
390
F
  0
LAYER
  5
10C
330
2
100
AcDbSymbolTableRecord
100
AcDbLayerTableRecord
  2
Layer198
 70
     0
 62
     7
  6
Continuous
370
    -3
390
F
  0
LAYER
  5
10D
330
2
100
AcDbSymbolTableRecord
100
AcDbLayerTableRecord
  2
Layer199
 70
     0
 62
     7
  6
Continuous
370
    -3
390
F
  0
LAYER
  5
10E
330
2
100
AcDbSymbolTableRecord
100
AcDbLayerTableRecord
  2
Layer200
 70
     0
 62
     7
  6
Continuous
370
    -3
390
F
  0
LAYER
  5
10F
330
2
100
AcDbSymbolTableRecord
100
AcDbLayerTableRecord
  2
Layer201
 70
     0
 62
     7
  6
Continuous
370
    -3
390
F
  0
LAYER
  5
110
330
2
100
AcDbSymbolTableRecord
100
AcDbLayerTableRecord
  2
Layer202
 70
     0
 62
     7
  6
Continuous
370
    -3
390
F
  0
LAYER
  5
111
330
2
100
AcDbSymbolTableRecord
100
AcDbLayerTableRecord
  2
Layer203
 70
     0
 62
     7
  6
Continuous
370
    -3
390
F
  0
LAYER
  5
112
330
2
100
AcDbSymbolTableRecord
100
AcDbLayerTableRecord
  2
Layer204
 70
     0
 62
     7
  6
Continuous
370
    -3
390
F
  0
LAYER
  5
113
330
2
100
AcDbSymbolTableRecord
100
AcDbLayerTableRecord
  2
Layer205
 70
     0
 62
     7
  6
Continuous
370
    -3
390
F
  0
LAYER
  5
114
330
2
100
AcDbSymbolTableRecord
100
AcDbLayerTableRecord
  2
Layer206
 70
     0
 62
     7
  6
Continuous
370
    -3
390
F
  0
LAYER
  5
115
330
2
100
AcDbSymbolTableRecord
100
AcDbLayerTableRecord
  2
Layer207
 70
     0
 62
     7
  6
Continuous
370
    -3
390
F
  0
LAYER
  5
116
330
2
100
AcDbSymbolTableRecord
100
AcDbLayerTableRecord
  2
Layer208
 70
     0
 62
     7
  6
Continuous
370
    -3
390
F
  0
LAYER
  5
117
330
2
100
AcDbSymbolTableRecord
100
AcDbLayerTableRecord
  2
Layer209
 70
     0
 62
     7
  6
Continuous
370
    -3
390
F
  0
LAYER
  5
118
330
2
100
AcDbSymbolTableRecord
100
AcDbLayerTableRecord
  2
Layer210
 70
     0
 62
     7
  6
Continuous
370
    -3
390
F
  0
LAYER
  5
119
330
2
100
AcDbSymbolTableRecord
100
AcDbLayerTableRecord
  2
Layer211
 70
     0
 62
     7
  6
Continuous
370
    -3
390
F
  0
LAYER
  5
11A
330
2
100
AcDbSymbolTableRecord
100
AcDbLayerTableRecord
  2
Layer212
 70
     0
 62
     7
  6
Continuous
370
    -3
390
F
  0
LAYER
  5
11B
330
2
100
AcDbSymbolTableRecord
100
AcDbLayerTableRecord
  2
Layer213
 70
     0
 62
     7
  6
Continuous
370
    -3
390
F
  0
LAYER
  5
11C
330
2
100
AcDbSymbolTableRecord
100
AcDbLayerTableRecord
  2
Layer214
 70
     0
 62
     7
  6
Continuous
370
    -3
390
F
  0
LAYER
  5
11D
330
2
100
AcDbSymbolTableRecord
100
AcDbLayerTableRecord
  2
Layer215
 70
     0
 62
     7
  6
Continuous
370
    -3
390
F
  0
LAYER
  5
11E
330
2
100
AcDbSymbolTableRecord
100
AcDbLayerTableRecord
  2
Layer216
 70
     0
 62
     7
  6
Continuous
370
    -3
390
F
  0
LAYER
  5
11F
330
2
100
AcDbSymbolTableRecord
100
AcDbLayerTableRecord
  2
Layer217
 70
     0
 62
     7
  6
Continuous
370
    -3
390
F
  0
LAYER
  5
120
330
2
100
AcDbSymbolTableRecord
100
AcDbLayerTableRecord
  2
Layer218
 70
     0
 62
     7
  6
Continuous
370
    -3
390
F
  0
LAYER
  5
121
330
2
100
AcDbSymbolTableRecord
100
AcDbLayerTableRecord
  2
Layer219
 70
     0
 62
     7
  6
Continuous
370
    -3
390
F
  0
LAYER
  5
122
330
2
100
AcDbSymbolTableRecord
100
AcDbLayerTableRecord
  2
Layer220
 70
     0
 62
     7
  6
Continuous
370
    -3
390
F
  0
LAYER
  5
123
330
2
100
AcDbSymbolTableRecord
100
AcDbLayerTableRecord
  2
Layer221
 70
     0
 62
     7
  6
Continuous
370
    -3
390
F
  0
LAYER
  5
124
330
2
100
AcDbSymbolTableRecord
100
AcDbLayerTableRecord
  2
Layer222
 70
     0
 62
     7
  6
Continuous
370
    -3
390
F
  0
LAYER
  5
125
330
2
100
AcDbSymbolTableRecord
100
AcDbLayerTableRecord
  2
Layer223
 70
     0
 62
     7
  6
Continuous
370
    -3
390
F
  0
LAYER
  5
126
330
2
100
AcDbSymbolTableRecord
100
AcDbLayerTableRecord
  2
Layer224
 70
     0
 62
     7
  6
Continuous
370
    -3
390
F
  0
LAYER
  5
127
330
2
100
AcDbSymbolTableRecord
100
AcDbLayerTableRecord
  2
Layer225
 70
     0
 62
     7
  6
Continuous
370
    -3
390
F
  0
LAYER
  5
128
330
2
100
AcDbSymbolTableRecord
100
AcDbLayerTableRecord
  2
Layer226
 70
     0
 62
     7
  6
Continuous
370
    -3
390
F
  0
LAYER
  5
129
330
2
100
AcDbSymbolTableRecord
100
AcDbLayerTableRecord
  2
Layer227
 70
     0
 62
     7
  6
Continuous
370
    -3
390
F
  0
LAYER
  5
12A
330
2
100
AcDbSymbolTableRecord
100
AcDbLayerTableRecord
  2
Layer228
 70
     0
 62
     7
  6
Continuous
370
    -3
390
F
  0
LAYER
  5
12B
330
2
100
AcDbSymbolTableRecord
100
AcDbLayerTableRecord
  2
Layer229
 70
     0
 62
     7
  6
Continuous
370
    -3
390
F
  0
LAYER
  5
12C
330
2
100
AcDbSymbolTableRecord
100
AcDbLayerTableRecord
  2
Layer230
 70
     0
 62
     7
  6
Continuous
370
    -3
390
F
  0
LAYER
  5
12D
330
2
100
AcDbSymbolTableRecord
100
AcDbLayerTableRecord
  2
Layer231
 70
     0
 62
     7
  6
Continuous
370
    -3
390
F
  0
LAYER
  5
12E
330
2
100
AcDbSymbolTableRecord
100
AcDbLayerTableRecord
  2
Layer232
 70
     0
 62
     7
  6
Continuous
370
    -3
390
F
  0
LAYER
  5
12F
330
2
100
AcDbSymbolTableRecord
100
AcDbLayerTableRecord
  2
Layer233
 70
     0
 62
     7
  6
Continuous
370
    -3
390
F
  0
LAYER
  5
130
330
2
100
AcDbSymbolTableRecord
100
AcDbLayerTableRecord
  2
Layer234
 70
     0
 62
     7
  6
Continuous
370
    -3
390
F
  0
LAYER
  5
131
330
2
100
AcDbSymbolTableRecord
100
AcDbLayerTableRecord
  2
Layer235
 70
     0
 62
     7
  6
Continuous
370
    -3
390
F
  0
LAYER
  5
132
330
2
100
AcDbSymbolTableRecord
100
AcDbLayerTableRecord
  2
Layer236
 70
     0
 62
     7
  6
Continuous
370
    -3
390
F
  0
LAYER
  5
133
330
2
100
AcDbSymbolTableRecord
100
AcDbLayerTableRecord
  2
Layer237
 70
     0
 62
     7
  6
Continuous
370
    -3
390
F
  0
LAYER
  5
134
330
2
100
AcDbSymbolTableRecord
100
AcDbLayerTableRecord
  2
Layer238
 70
     0
 62
     7
  6
Continuous
370
    -3
390
F
  0
LAYER
  5
135
330
2
100
AcDbSymbolTableRecord
100
AcDbLayerTableRecord
  2
Layer239
 70
     0
 62
     7
  6
Continuous
370
    -3
390
F
  0
LAYER
  5
136
330
2
100
AcDbSymbolTableRecord
100
AcDbLayerTableRecord
  2
Layer240
 70
     0
 62
     7
  6
Continuous
370
    -3
390
F
  0
LAYER
  5
137
330
2
100
AcDbSymbolTableRecord
100
AcDbLayerTableRecord
  2
Layer241
 70
     0
 62
     7
  6
Continuous
370
    -3
390
F
  0
LAYER
  5
138
330
2
100
AcDbSymbolTableRecord
100
AcDbLayerTableRecord
  2
Layer242
 70
     0
 62
     7
  6
Continuous
370
    -3
390
F
  0
LAYER
  5
139
330
2
100
AcDbSymbolTableRecord
100
AcDbLayerTableRecord
  2
Layer243
 70
     0
 62
     7
  6
Continuous
370
    -3
390
F
  0
LAYER
  5
13A
330
2
100
AcDbSymbolTableRecord
100
AcDbLayerTableRecord
  2
Layer244
 70
     0
 62
     7
  6
Continuous
370
    -3
390
F
  0
LAYER
  5
13B
330
2
100
AcDbSymbolTableRecord
100
AcDbLayerTableRecord
  2
Layer245
 70
     0
 62
     7
  6
Continuous
370
    -3
390
F
  0
LAYER
  5
13C
330
2
100
AcDbSymbolTableRecord
100
AcDbLayerTableRecord
  2
Layer246
 70
     0
 62
     7
  6
Continuous
370
    -3
390
F
  0
LAYER
  5
13D
330
2
100
AcDbSymbolTableRecord
100
AcDbLayerTableRecord
  2
Layer247
 70
     0
 62
     7
  6
Continuous
370
    -3
390
F
  0
LAYER
  5
13E
330
2
100
AcDbSymbolTableRecord
100
AcDbLayerTableRecord
  2
Layer248
 70
     0
 62
     7
  6
Continuous
370
    -3
390
F
  0
LAYER
  5
13F
330
2
100
AcDbSymbolTableRecord
100
AcDbLayerTableRecord
  2
Layer249
 70
     0
 62
     7
  6
Continuous
370
    -3
390
F
  0
LAYER
  5
140
330
2
100
AcDbSymbolTableRecord
100
AcDbLayerTableRecord
  2
Layer250
 70
     0
 62
     7
  6
Continuous
370
    -3
390
F
  0
LAYER
  5
141
330
2
100
AcDbSymbolTableRecord
100
AcDbLayerTableRecord
  2
Layer251
 70
     0
 62
     7
  6
Continuous
370
    -3
390
F
  0
LAYER
  5
142
330
2
100
AcDbSymbolTableRecord
100
AcDbLayerTableRecord
  2
Layer252
 70
     0
 62
     7
  6
Continuous
370
    -3
390
F
  0
LAYER
  5
143
330
2
100
AcDbSymbolTableRecord
100
AcDbLayerTableRecord
  2
Layer253
 70
     0
 62
     7
  6
Continuous
370
    -3
390
F
  0
LAYER
  5
144
330
2
100
AcDbSymbolTableRecord
100
AcDbLayerTableRecord
  2
Layer254
 70
     0
 62
     7
  6
Continuous
370
    -3
390
F
  0
LAYER
  5
145
330
2
100
AcDbSymbolTableRecord
100
AcDbLayerTableRecord
  2
Layer255
 70
     0
 62
     7
  6
Continuous
370
    -3
390
F
  0
ENDTAB
  0
TABLE
  2
STYLE
  5
3
330
0
100
AcDbSymbolTable
 70
     4
  0
STYLE
  5
11
330
3
100
AcDbSymbolTableRecord
100
AcDbTextStyleTableRecord
  2
Standard
 70
     0
 40
0.0
 41
1.0
 50
0.0
 71
     0
 42
2.5
  3
txt
  4

  0
STYLE
  5
41
330
3
100
AcDbSymbolTableRecord
100
AcDbTextStyleTableRecord
  2
Arial
 70
     0
 40
0.0
 41
1.0
 50
0.0
 71
     0
 42
0.2
  3
arial.ttf
  4

1001
ACAD
1000
Arial
1071
       34
  0
STYLE
  5
42
330
3
100
AcDbSymbolTableRecord
100
AcDbTextStyleTableRecord
  2
Arial Black
 70
     0
 40
0.0
 41
1.0
 50
0.0
 71
     0
 42
0.2
  3
ariblk.ttf
  4

1001
ACAD
1000
Arial Black
1071
       34
  0
STYLE
  5
45
330
3
100
AcDbSymbolTableRecord
100
AcDbTextStyleTableRecord
  2
Toleranzfont
 70
     0
 40
0.0
 41
1.0
 50
0.0
 71
     0
 42
0.2
  3
IGES1003.SHX
  4

  0
ENDTAB
  0
TABLE
  2
VIEW
  5
6
330
0
100
AcDbSymbolTable
 70
     0
  0
ENDTAB
  0
TABLE
  2
UCS
  5
7
330
0
100
AcDbSymbolTable
 70
     0
  0
ENDTAB
  0
TABLE
  2
APPID
  5
9
330
0
100
AcDbSymbolTable
 70
     1
  0
APPID
  5
12
330
9
100
AcDbSymbolTableRecord
100
AcDbRegAppTableRecord
  2
ACAD
 70
     0
  0
ENDTAB
  0
TABLE
  2
DIMSTYLE
  5
A
330
0
100
AcDbSymbolTable
 70
     1
100
AcDbDimStyleTable
  0
DIMSTYLE
105
27
102
{ACAD_REACTORS
330
390
330
3A9
330
3B7
330
400
330
410
330
420
102
}
330
A
100
AcDbSymbolTableRecord
100
AcDbDimStyleTableRecord
  2
ISO-25
 70
     0
 41
2.5
 42
0.625
 43
3.75
 44
1.25
 73
     0
 74
     0
 77
     1
 78
     8
140
2.5
141
2.5
143
0.03937007874
147
0.625
171
     3
172
     1
178
     0
271
     2
272
     2
274
     3
278
    44
283
     0
284
     8
340
11
  0
ENDTAB
  0
TABLE
  2
BLOCK_RECORD
  5
1
330
0
100
AcDbSymbolTable
 70
    17
  0
BLOCK_RECORD
  5
1F
330
1
100
AcDbSymbolTableRecord
100
AcDbBlockTableRecord
  2
*Model_Space
340
22
  0
BLOCK_RECORD
  5
1B
330
1
100
AcDbSymbolTableRecord
100
AcDbBlockTableRecord
  2
*Paper_Space
340
1E
  0
BLOCK_RECORD
  5
23
330
1
100
AcDbSymbolTableRecord
100
AcDbBlockTableRecord
  2
*Paper_Space0
340
26
  0
BLOCK_RECORD
  5
146
330
1
100
AcDbSymbolTableRecord
100
AcDbBlockTableRecord
  2
L1_nNn00
340
0
102
{BLKREFS
331
1A2
102
}
  0
BLOCK_RECORD
  5
14C
330
1
100
AcDbSymbolTableRecord
100
AcDbBlockTableRecord
  2
Schriftfeld_nNn01
340
0
102
{BLKREFS
331
19A
102
}
  0
BLOCK_RECORD
  5
17B
330
1
100
AcDbSymbolTableRecord
100
AcDbBlockTableRecord
  2
ULTRAREFLEX_nNn02
340
0
102
{BLKREFS
331
193
102
}
  0
BLOCK_RECORD
  5
1A8
330
1
100
AcDbSymbolTableRecord
100
AcDbBlockTableRecord
  2
L1_nNn03
340
0
102
{BLKREFS
331
37A
102
}
  0
BLOCK_RECORD
  5
1AB
330
1
100
AcDbSymbolTableRecord
100
AcDbBlockTableRecord
  2
SECHSK1_nNn04
340
0
102
{BLKREFS
331
379
102
}
  0
BLOCK_RECORD
  5
37B
330
1
100
AcDbSymbolTableRecord
100
AcDbBlockTableRecord
  2
*D6
340
0
  0
BLOCK_RECORD
  5
391
330
1
100
AcDbSymbolTableRecord
100
AcDbBlockTableRecord
  2
_CLOSED
340
0
  0
BLOCK_RECORD
  5
398
330
1
100
AcDbSymbolTableRecord
100
AcDbBlockTableRecord
  2
*D8
340
0
  0
BLOCK_RECORD
  5
3AA
330
1
100
AcDbSymbolTableRecord
100
AcDbBlockTableRecord
  2
*D9
340
0
  0
BLOCK_RECORD
  5
3B8
330
1
100
AcDbSymbolTableRecord
100
AcDbBlockTableRecord
  2
Reflexwerte_nNn08
340
0
102
{BLKREFS
331
3BC
102
}
  0
BLOCK_RECORD
  5
3BD
330
1
100
AcDbSymbolTableRecord
100
AcDbBlockTableRecord
  2
QS_nNn09
340
0
102
{BLKREFS
331
3C3
102
}
  0
BLOCK_RECORD
  5
3C5
330
1
100
AcDbSymbolTableRecord
100
AcDbBlockTableRecord
  2
L1_nNn010
340
0
102
{BLKREFS
331
3D4
102
}
  0
BLOCK_RECORD
  5
3C8
330
1
100
AcDbSymbolTableRecord
100
AcDbBlockTableRecord
  2
ingrid9_nNn011
340
0
102
{BLKREFS
331
3D3
102
}
  0
BLOCK_RECORD
  5
3F0
330
1
100
AcDbSymbolTableRecord
100
AcDbBlockTableRecord
  2
*D14
340
0
  0
BLOCK_RECORD
  5
402
330
1
100
AcDbSymbolTableRecord
100
AcDbBlockTableRecord
  2
*D15
340
0
  0
BLOCK_RECORD
  5
412
330
1
100
AcDbSymbolTableRecord
100
AcDbBlockTableRecord
  2
*D16
340
0
  0
ENDTAB
  0
ENDSEC
  0
SECTION
  2
BLOCKS
  0
BLOCK
  5
20
330
1F
100
AcDbEntity
  8
0
100
AcDbBlockBegin
  2
*Model_Space
 70
     0
 10
0.0
 20
0.0
 30
0.0
  3
*Model_Space
  1

  0
ENDBLK
  5
21
330
1F
100
AcDbEntity
  8
0
100
AcDbBlockEnd
  0
BLOCK
  5
1C
330
1B
100
AcDbEntity
 67
     1
  8
0
100
AcDbBlockBegin
  2
*Paper_Space
 70
     0
 10
0.0
 20
0.0
 30
0.0
  3
*Paper_Space
  1

  0
ENDBLK
  5
1D
330
1B
100
AcDbEntity
 67
     1
  8
0
100
AcDbBlockEnd
  0
BLOCK
  5
24
330
23
100
AcDbEntity
  8
0
100
AcDbBlockBegin
  2
*Paper_Space0
 70
     0
 10
0.0
 20
0.0
 30
0.0
  3
*Paper_Space0
  1

  0
ENDBLK
  5
25
330
23
100
AcDbEntity
  8
0
100
AcDbBlockEnd
  0
BLOCK
  5
147
330
146
100
AcDbEntity
  8
0
100
AcDbBlockBegin
  2
L1_nNn00
 70
     0
 10
0.0
 20
0.0
 30
0.0
  3
L1_nNn00
  1

  0
TEXT
  5
149
330
146
100
AcDbEntity
  8
Layer99
  6
AUSGEZOGEN
 62
    56
370
    18
100
AcDbText
 10
379.357597448803
 20
3.436170347891
 30
0.0
 40
1.175
  1
Bl.
 41
1.229150265254
  7
Arial
 72
     5
 11
381.710283242769
 21
3.436170347891
 31
0.0
100
AcDbText
  0
LINE
  5
14A
330
146
100
AcDbEntity
  8
Layer99
  6
AUSGEZOGEN
 62
     9
370
    18
100
AcDbLine
 10
287.99956888435
 20
0.709647177419
 30
0.0
 11
381.99956888435
 21
0.709647177419
 31
0.0
  0
LINE
  5
14B
330
146
100
AcDbEntity
  8
Layer0
  6
AUSGEZOGEN
 62
    56
370
    18
100
AcDbLine
 10
285.64956888435
 20
-1.640352822581
 30
0.0
 11
384.34956888435
 21
-1.640352822581
 31
0.0
  0
INSERT
  5
19A
330
146
100
AcDbEntity
  8
0
100
AcDbBlockReference
  2
Schriftfeld_nNn01
 10
0.0
 20
0.0
 30
0.0
  0
TEXT
  5
19B
330
146
100
AcDbEntity
  8
Layer50
  6
AUSGEZOGEN
 62
     9
370
    18
100
AcDbText
 10
350.17900375653
 20
4.879999368861
 30
0.0
 40
2.35
  1
00114500k
 41
1.218898721598
  7
Arial
 72
     5
 11
369.960632999218
 21
4.879999368861
 31
0.0
100
AcDbText
  0
LINE
  5
19C
330
146
100
AcDbEntity
  8
Layer99
  6
AUSGEZOGEN
 62
     9
370
    18
100
AcDbLine
 10
381.99956888435
 20
0.709647177419
 30
0.0
 11
381.99956888435
 21
135.599647177419
 31
0.0
  0
LINE
  5
19D
330
146
100
AcDbEntity
  8
Layer0
  6
AUSGEZOGEN
 62
    56
370
    18
100
AcDbLine
 10
384.34956888435
 20
-1.640352822581
 30
0.0
 11
384.34956888435
 21
137.949647177419
 31
0.0
  0
LINE
  5
19E
330
146
100
AcDbEntity
  8
Layer0
  6
AUSGEZOGEN
 62
     9
370
    18
100
AcDbLine
 10
287.99956888435
 20
0.709647177419
 30
0.0
 11
287.99956888435
 21
135.599647177419
 31
0.0
  0
LINE
  5
19F
330
146
100
AcDbEntity
  8
Layer0
  6
AUSGEZOGEN
 62
    56
370
    18
100
AcDbLine
 10
285.64956888435
 20
-1.640352822581
 30
0.0
 11
285.64956888435
 21
137.949647177419
 31
0.0
  0
LINE
  5
1A0
330
146
100
AcDbEntity
  8
Layer0
  6
AUSGEZOGEN
 62
     9
370
    18
100
AcDbLine
 10
287.99956888435
 20
135.599647177419
 30
0.0
 11
381.99956888435
 21
135.599647177419
 31
0.0
  0
LINE
  5
1A1
330
146
100
AcDbEntity
  8
Layer0
  6
AUSGEZOGEN
 62
    56
370
    18
100
AcDbLine
 10
285.64956888435
 20
137.949647177419
 30
0.0
 11
384.34956888435
 21
137.949647177419
 31
0.0
  0
ENDBLK
  5
148
330
146
100
AcDbEntity
  8
0
100
AcDbBlockEnd
  0
BLOCK
  5
14D
330
14C
100
AcDbEntity
  8
0
100
AcDbBlockBegin
  2
Schriftfeld_nNn01
 70
     0
 10
0.0
 20
0.0
 30
0.0
  3
Schriftfeld_nNn01
  1

  0
LINE
  5
14F
330
14C
100
AcDbEntity
  8
Layer99
  6
AUSGEZOGEN
 62
    56
370
    18
100
AcDbLine
 10
325.59956888435
 20
18.687147177419
 30
0.0
 11
325.59956888435
 21
10.697147177419
 31
0.0
  0
LINE
  5
150
330
14C
100
AcDbEntity
  8
Layer99
  6
AUSGEZOGEN
 62
    56
370
    18
100
AcDbLine
 10
298.715591833568
 20
18.687147177419
 30
0.0
 11
298.715591833568
 21
0.709647177419
 31
0.0
  0
LINE
  5
151
330
14C
100
AcDbEntity
  8
Layer99
  6
AUSGEZOGEN
 62
     9
370
    18
100
AcDbLine
 10
375.88956888435
 20
8.699647177419
 30
0.0
 11
375.88956888435
 21
2.989148253164
 31
0.0
  0
LINE
  5
152
330
14C
100
AcDbEntity
  8
Layer99
  6
AUSGEZOGEN
 62
    56
370
    18
100
AcDbLine
 10
320.71155740974
 20
2.707147177419
 30
0.0
 11
295.04956888435
 21
2.707147177419
 31
0.0
  0
LINE
  5
153
330
14C
100
AcDbEntity
  8
Layer99
  6
AUSGEZOGEN
 62
    56
370
    18
100
AcDbLine
 10
320.71155740974
 20
4.704647177419
 30
0.0
 11
295.04956888435
 21
4.704647177419
 31
0.0
  0
LINE
  5
154
330
14C
100
AcDbEntity
  8
Layer99
  6
AUSGEZOGEN
 62
    56
370
    18
100
AcDbLine
 10
320.71155740974
 20
6.702147177419
 30
0.0
 11
295.04956888435
 21
6.702147177419
 31
0.0
  0
LINE
  5
155
330
14C
100
AcDbEntity
  8
Layer99
  6
AUSGEZOGEN
 62
    56
370
    18
100
AcDbLine
 10
320.71155740974
 20
8.699647177419
 30
0.0
 11
295.04956888435
 21
8.699647177419
 31
0.0
  0
LINE
  5
156
330
14C
100
AcDbEntity
  8
Layer99
  6
AUSGEZOGEN
 62
     9
370
    18
100
AcDbLine
 10
381.99956888435
 20
8.699647177419
 30
0.0
 11
320.71155740974
 21
8.699647177419
 31
0.0
  0
LINE
  5
157
330
14C
100
AcDbEntity
  8
Layer99
  6
AUSGEZOGEN
 62
    56
370
    18
100
AcDbLine
 10
341.485591833568
 20
10.697147177419
 30
0.0
 11
295.04956888435
 21
10.697147177419
 31
0.0
  0
LINE
  5
158
330
14C
100
AcDbEntity
  8
Layer99
  6
AUSGEZOGEN
 62
    56
370
    18
100
AcDbLine
 10
341.485591833568
 20
12.694647177419
 30
0.0
 11
295.04956888435
 21
12.694647177419
 31
0.0
  0
LINE
  5
159
330
14C
100
AcDbEntity
  8
Layer99
  6
AUSGEZOGEN
 62
    56
370
    18
100
AcDbLine
 10
341.485591833568
 20
14.692147177419
 30
0.0
 11
295.04956888435
 21
14.692147177419
 31
0.0
  0
LINE
  5
15A
330
14C
100
AcDbEntity
  8
Layer99
  6
AUSGEZOGEN
 62
    56
370
    18
100
AcDbLine
 10
341.485591833568
 20
16.689647177419
 30
0.0
 11
295.04956888435
 21
16.689647177419
 31
0.0
  0
LINE
  5
15B
330
14C
100
AcDbEntity
  8
Layer99
  6
AUSGEZOGEN
 62
     9
370
    18
100
AcDbLine
 10
341.485591833568
 20
18.687147177419
 30
0.0
 11
295.04956888435
 21
18.687147177419
 31
0.0
  0
LINE
  5
15C
330
14C
100
AcDbEntity
  8
Layer99
  6
AUSGEZOGEN
 62
     9
370
    18
100
AcDbLine
 10
381.99956888435
 20
16.689647177419
 30
0.0
 11
341.485591833568
 21
16.689647177419
 31
0.0
  0
LINE
  5
15D
330
14C
100
AcDbEntity
  8
Layer99
  6
AUSGEZOGEN
 62
    56
370
    18
100
AcDbLine
 10
320.71155740974
 20
23.680897177419
 30
0.0
 11
295.04956888435
 21
23.680897177419
 31
0.0
  0
LINE
  5
15E
330
14C
100
AcDbEntity
  8
Layer99
  6
AUSGEZOGEN
 62
    56
370
    18
100
AcDbLine
 10
381.99956888435
 20
23.680897177419
 30
0.0
 11
341.485591833568
 21
23.680897177419
 31
0.0
  0
LINE
  5
15F
330
14C
100
AcDbEntity
  8
Layer99
  6
AUSGEZOGEN
 62
    56
370
    18
100
AcDbLine
 10
364.89155740974
 20
26.677147177419
 30
0.0
 11
364.89155740974
 21
23.680897177419
 31
0.0
  0
LINE
  5
160
330
14C
100
AcDbEntity
  8
Layer99
  6
AUSGEZOGEN
 62
     9
370
    18
100
AcDbLine
 10
341.485591833568
 20
26.677147177419
 30
0.0
 11
341.485591833568
 21
2.989148253164
 31
0.0
  0
LINE
  5
161
330
14C
100
AcDbEntity
  8
Layer99
  6
AUSGEZOGEN
 62
    56
370
    18
100
AcDbLine
 10
332.93155740974
 20
18.687147177419
 30
0.0
 11
332.93155740974
 21
8.699647177419
 31
0.0
  0
LINE
  5
162
330
14C
100
AcDbEntity
  8
Layer99
  6
AUSGEZOGEN
 62
     9
370
    18
100
AcDbLine
 10
320.71155740974
 20
26.677147177419
 30
0.0
 11
320.71155740974
 21
0.709647177419
 31
0.0
  0
LINE
  5
163
330
14C
100
AcDbEntity
  8
Layer99
  6
AUSGEZOGEN
 62
     9
370
    18
100
AcDbLine
 10
295.04956888435
 20
26.677147177419
 30
0.0
 11
295.04956888435
 21
0.709647177419
 31
0.0
  0
LINE
  5
164
330
14C
100
AcDbEntity
  8
Layer99
  6
AUSGEZOGEN
 62
     9
370
    18
100
AcDbLine
 10
381.99956888435
 20
26.677147177419
 30
0.0
 11
295.04956888435
 21
26.677147177419
 31
0.0
  0
TEXT
  5
165
330
14C
100
AcDbEntity
  8
Layer99
  6
AUSGEZOGEN
 62
    56
370
    18
100
AcDbText
 10
321.03927225349
 20
15.138802443227
 30
0.0
 40
0.94
  1
Bearb. 19.12.04   Ms
 41
1.271590688783
  7
Arial
 72
     5
 11
336.526712774778
 21
15.138802443227
 31
0.0
100
AcDbText
  0
TEXT
  5
166
330
14C
100
AcDbEntity
  8
Layer99
  6
AUSGEZOGEN
 62
    56
370
    18
100
AcDbText
 10
321.147994177318
 20
13.180660353384
 30
0.0
 40
0.94
  1
Gepr.
 41
1.215533862924
  7
Arial
 72
     5
 11
325.136817169858
 21
13.180660353384
 31
0.0
100
AcDbText
  0
TEXT
  5
167
330
14C
100
AcDbEntity
  8
Layer99
  6
AUSGEZOGEN
 62
    56
370
    18
100
AcDbText
 10
321.147994177318
 20
11.113738966665
 30
0.0
 40
0.94
  1
Norm
 41
1.171328125812
  7
Arial
 72
     5
 11
324.904771448673
 21
11.113738966665
 31
0.0
100
AcDbText
  0
TEXT
  5
168
330
14C
100
AcDbEntity
  8
Layer99
  6
AUSGEZOGEN
 62
    56
370
    18
100
AcDbText
 10
376.801341345287
 20
7.172437628469
 30
0.0
 40
1.175
  1
Blatt
 41
1.26499927539
  7
Arial
 72
     5
 11
380.952784342281
 21
7.172437628469
 31
0.0
100
AcDbText
  0
TEXT
  5
169
330
14C
100
AcDbEntity
  8
Layer0
  6
AUSGEZOGEN
 62
   136
370
    18
100
AcDbText
 10
322.140088903881
 20
24.560590933523
 30
0.0
 40
1.175
  1
Allgemeintoleranzen
 41
1.263559891189
  7
Arial
 72
     5
 11
340.913903822175
 21
24.560590933523
 31
0.0
100
AcDbText
  0
TEXT
  5
16A
330
14C
100
AcDbEntity
  8
Layer0
  6
AUSGEZOGEN
 62
   136
370
    18
100
AcDbText
 10
321.813349401928
 20
22.381720389089
 30
0.0
 40
1.175
  1
Nach: TG5
 41
1.223038375192
  7
Arial
 72
     5
 11
331.51213544508
 21
22.381720389089
 31
0.0
100
AcDbText
  0
TEXT
  5
16B
330
14C
100
AcDbEntity
  8
Layer0
  6
AUSGEZOGEN
 62
   136
370
    18
100
AcDbText
 10
321.892409460522
 20
20.202842673025
 30
0.0
 40
1.175
  1
DIN: 16742
 41
1.239741037486
  7
Arial
 72
     5
 11
332.176681236989
 21
20.202842673025
 31
0.0
100
AcDbText
  0
TEXT
  5
16C
330
14C
100
AcDbEntity
  8
Layer0
  6
AUSGEZOGEN
 62
    56
370
    18
100
AcDbText
 10
365.649455358959
 20
24.669535177908
 30
0.0
 40
1.175
  1
Gewicht:
 41
1.240831402125
  7
Arial
 72
     5
 11
373.566269912369
 21
24.669535177908
 31
0.0
100
AcDbText
  0
TEXT
  5
16D
330
14C
100
AcDbEntity
  8
Layer0
  6
AUSGEZOGEN
 62
    56
370
    18
100
AcDbText
 10
342.102868444897
 20
21.411398733816
 30
0.0
 40
1.175
  1
Werkstoff/Farbe: PMMA glasklar
 41
1.266813667067
  7
Arial
 72
     5
 11
372.006955166272
 21
21.411398733816
 31
0.0
100
AcDbText
  0
TEXT
  5
16E
330
14C
100
AcDbEntity
  8
Layer0
  6
AUSGEZOGEN
 62
    56
370
    18
100
AcDbText
 10
342.102868444897
 20
19.531398705802
 30
0.0
 40
1.175
  1
                         PMMA weiss
 41
1.348450536209
  7
Arial
 72
     5
 11
370.251840810782
 21
19.531398705802
 31
0.0
100
AcDbText
  0
TEXT
  5
16F
330
14C
100
AcDbEntity
  8
Layer0
  6
AUSGEZOGEN
 62
    56
370
    18
100
AcDbText
 10
342.102868444897
 20
17.651398677787
 30
0.0
 40
1.175
  1
                         Schraube V2A
 41
1.350191030432
  7
Arial
 72
     5
 11
371.769940861068
 21
17.651398677787
 31
0.0
100
AcDbText
  0
TEXT
  5
170
330
14C
100
AcDbEntity
  8
Layer0
  6
AUSGEZOGEN
 62
    56
370
    18
100
AcDbText
 10
342.102868444897
 20
24.679496573171
 30
0.0
 40
1.175
  1
Maßstab:2:1
 41
1.241041547507
  7
Arial
 72
     5
 11
353.41576882743
 21
24.679496573171
 31
0.0
100
AcDbText
  0
TEXT
  5
171
330
14C
100
AcDbEntity
  8
Layer0
  6
AUSGEZOGEN
 62
    56
370
    18
100
AcDbText
 10
295.613603308178
 20
24.679647177419
 30
0.0
 40
1.175
  1
Schwindung:
 41
1.234746274162
  7
Arial
 72
     5
 11
307.207160843454
 21
24.679647177419
 31
0.0
100
AcDbText
  0
TEXT
  5
172
330
14C
100
AcDbEntity
  8
Layer0
  6
AUSGEZOGEN
 62
    56
370
    18
100
AcDbText
 10
295.67028787849
 20
21.739335898122
 30
0.0
 40
1.175
  1
Diese Zeichnung darf nur
 41
1.271210741346
  7
Arial
 72
     5
 11
319.077631523452
 21
21.739335898122
 31
0.0
100
AcDbText
  0
TEXT
  5
173
330
14C
100
AcDbEntity
  8
Layer0
  6
AUSGEZOGEN
 62
    56
370
    18
100
AcDbText
 10
295.67028787849
 20
19.859335870108
 30
0.0
 40
1.175
  1
mit CAD geändert werden
 41
1.255342283876
  7
Arial
 72
     5
 11
319.356274392001
 21
19.859335870108
 31
0.0
100
AcDbText
  0
LINE
  5
174
330
14C
100
AcDbEntity
  8
Layer99
  6
AUSGEZOGEN
 62
    56
370
    18
100
AcDbLine
 10
381.99956888435
 20
2.989148253164
 30
0.0
 11
341.485591833568
 21
2.989148253164
 31
0.0
  0
LINE
  5
175
330
14C
100
AcDbEntity
  8
Layer99
  6
AUSGEZOGEN
 62
    56
370
    18
100
AcDbLine
 10
381.99956888435
 20
4.986648253164
 30
0.0
 11
375.88956888435
 21
4.986648253164
 31
0.0
  0
LINE
  5
176
330
14C
100
AcDbEntity
  8
Layer99
  6
AUSGEZOGEN
 62
    56
370
    18
100
AcDbLine
 10
341.485591833568
 20
2.989148253164
 30
0.0
 11
320.71155740974
 21
2.989148253164
 31
0.0
  0
LINE
  5
177
330
14C
100
AcDbEntity
  8
Layer99
  6
AUSGEZOGEN
 62
    56
370
    18
100
AcDbLine
 10
312.862465612865
 20
18.687147177419
 30
0.0
 11
312.862465612865
 21
0.709647177419
 31
0.0
  0
TEXT
  5
178
330
14C
100
AcDbEntity
  8
Layer50
  6
AUSGEZOGEN
 62
   136
370
    18
100
AcDbText
 10
297.086857092357
 20
3.138463221273
 30
0.0
 40
0.94
  1
-
 41
1.0138249205
  7
Arial
 72
     5
 11
297.529999965108
 21
3.138463221273
 31
0.0
100
AcDbText
  0
TEXT
  5
179
330
14C
100
AcDbEntity
  8
Layer50
  6
AUSGEZOGEN
 62
   136
370
    18
100
AcDbText
 10
312.972679235912
 20
3.253615408621
 30
0.0
 40
0.94
  1
--
 41
0.967741935484
  7
Arial
 72
     5
 11
313.818679235912
 21
3.253615408621
 31
0.0
100
AcDbText
  0
TEXT
  5
17A
330
14C
100
AcDbEntity
  8
Layer0
  6
AUSGEZOGEN
 62
    56
370
    18
100
AcDbText
 10
321.296590368725
 20
1.224354451856
 30
0.0
 40
1.175
  1
Schutzvermerk nach DIN 34 beachten .        Copyright reserved
 41
1.286227457357
  7
Arial
 72
     5
 11
380.623349504031
 21
1.224354451856
 31
0.0
100
AcDbText
  0
INSERT
  5
193
330
14C
100
AcDbEntity
  8
0
100
AcDbBlockReference
  2
ULTRAREFLEX_nNn02
 10
0.0
 20
0.0
 30
0.0
  0
TEXT
  5
194
330
14C
100
AcDbEntity
  8
Layer50
  6
AUSGEZOGEN
 62
   136
370
    18
100
AcDbText
 10
342.497283032905
 20
9.30794061972
 30
0.0
 40
0.94
  1
---
 41
1.259600656861
  7
Arial
 72
     5
 11
344.148997374247
 21
9.30794061972
 31
0.0
100
AcDbText
  0
TEXT
  5
195
330
14C
100
AcDbEntity
  8
Layer99
  6
AUSGEZOGEN
 62
    56
370
    18
100
AcDbText
 10
313.114506655094
 20
1.176497745852
 30
0.0
 40
0.94
  1
Dat./Nam.
 41
1.239717192527
  7
Arial
 72
     5
 11
320.436301188502
 21
1.176497745852
 31
0.0
100
AcDbText
  0
TEXT
  5
196
330
14C
100
AcDbEntity
  8
Layer99
  6
AUSGEZOGEN
 62
    56
370
    18
100
AcDbText
 10
295.142086664356
 20
1.174366648451
 30
0.0
 40
0.94
  1
Zust.
 41
1.239906123597
  7
Arial
 72
     5
 11
298.758669643785
 21
1.174366648451
 31
0.0
100
AcDbText
  0
TEXT
  5
197
330
14C
100
AcDbEntity
  8
Layer0
  6
AUSGEZOGEN
 62
    56
370
    18
100
AcDbText
 10
326.375873623989
 20
17.092843435964
 30
0.0
 40
1.175
  1
Datum
 41
1.188171149402
  7
Arial
 72
     5
 11
332.11524524834
 21
17.092843435964
 31
0.0
100
AcDbText
  0
TEXT
  5
198
330
14C
100
AcDbEntity
  8
Layer0
  6
AUSGEZOGEN
 62
    56
370
    18
100
AcDbText
 10
334.678512822546
 20
17.096771091984
 30
0.0
 40
1.175
  1
Name
 41
1.15958716227
  7
Arial
 72
     5
 11
339.751155853577
 21
17.096771091984
 31
0.0
100
AcDbText
  0
TEXT
  5
199
330
14C
100
AcDbEntity
  8
Layer99
  6
AUSGEZOGEN
 62
    56
370
    18
100
AcDbText
 10
299.385848772585
 20
1.174478479328
 30
0.0
 40
0.94
  1
Änderung
 41
1.218204176926
  7
Arial
 72
     5
 11
306.316066150618
 21
1.174478479328
 31
0.0
100
AcDbText
  0
ENDBLK
  5
14E
330
14C
100
AcDbEntity
  8
0
100
AcDbBlockEnd
  0
BLOCK
  5
17C
330
17B
100
AcDbEntity
  8
0
100
AcDbBlockBegin
  2
ULTRAREFLEX_nNn02
 70
     0
 10
0.0
 20
0.0
 30
0.0
  3
ULTRAREFLEX_nNn02
  1

  0
LINE
  5
17E
330
17B
100
AcDbEntity
  8
Layer0
  6
AUSGEZOGEN
 62
    30
370
    18
100
AcDbLine
 10
339.986560267439
 20
7.216103222128
 30
0.0
 11
338.556521385684
 21
7.216103222128
 31
0.0
  0
LINE
  5
17F
330
17B
100
AcDbEntity
  8
Layer0
  6
AUSGEZOGEN
 62
    30
370
    18
100
AcDbLine
 10
338.418130526159
 20
7.136203222128
 30
0.0
 11
337.703111085281
 21
5.897753222128
 31
0.0
  0
LINE
  5
180
330
17B
100
AcDbEntity
  8
Layer0
  6
AUSGEZOGEN
 62
    30
370
    18
100
AcDbLine
 10
337.703111085281
 20
5.737953222128
 30
0.0
 11
338.418130526159
 21
4.499503222128
 31
0.0
  0
LINE
  5
181
330
17B
100
AcDbEntity
  8
Layer0
  6
AUSGEZOGEN
 62
    30
370
    18
100
AcDbLine
 10
338.556521385684
 20
4.419603222128
 30
0.0
 11
339.986560267439
 21
4.419603222128
 31
0.0
  0
LINE
  5
182
330
17B
100
AcDbEntity
  8
Layer0
  6
AUSGEZOGEN
 62
    30
370
    18
100
AcDbLine
 10
340.124951126964
 20
4.499503222128
 30
0.0
 11
340.839970567842
 21
5.737953222128
 31
0.0
  0
LINE
  5
183
330
17B
100
AcDbEntity
  8
Layer0
  6
AUSGEZOGEN
 62
    30
370
    18
100
AcDbLine
 10
340.839970567842
 20
5.897753222128
 30
0.0
 11
340.124951126964
 21
7.136203222128
 31
0.0
  0
LINE
  5
184
330
17B
100
AcDbEntity
  8
Layer0
  6
AUSGEZOGEN
 62
    30
370
    18
100
AcDbLine
 10
339.409931686086
 20
5.897753222128
 30
0.0
 11
340.839970567842
 21
5.897753222128
 31
0.0
  0
LINE
  5
185
330
17B
100
AcDbEntity
  8
Layer0
  6
AUSGEZOGEN
 62
    30
370
    18
100
AcDbLine
 10
337.703111085281
 20
5.897753222128
 30
0.0
 11
339.133149967037
 21
5.897753222128
 31
0.0
  0
LINE
  5
186
330
17B
100
AcDbEntity
  8
Layer0
  6
AUSGEZOGEN
 62
    30
370
    18
100
AcDbLine
 10
339.409931686086
 20
5.737953222128
 30
0.0
 11
340.839970567842
 21
5.737953222128
 31
0.0
  0
LINE
  5
187
330
17B
100
AcDbEntity
  8
Layer0
  6
AUSGEZOGEN
 62
    30
370
    18
100
AcDbLine
 10
337.703111085281
 20
5.737953222128
 30
0.0
 11
339.133149967037
 21
5.737953222128
 31
0.0
  0
LINE
  5
188
330
17B
100
AcDbEntity
  8
Layer0
  6
AUSGEZOGEN
 62
    30
370
    18
100
AcDbLine
 10
339.409931686086
 20
5.737953222128
 30
0.0
 11
340.124951126964
 21
4.499503222128
 31
0.0
  0
LINE
  5
189
330
17B
100
AcDbEntity
  8
Layer0
  6
AUSGEZOGEN
 62
    30
370
    18
100
AcDbLine
 10
338.556521385684
 20
7.216103222128
 30
0.0
 11
339.271540826561
 21
5.977653222128
 31
0.0
  0
LINE
  5
18A
330
17B
100
AcDbEntity
  8
Layer0
  6
AUSGEZOGEN
 62
    30
370
    18
100
AcDbLine
 10
339.271540826561
 20
5.658053222128
 30
0.0
 11
339.986560267439
 21
4.419603222128
 31
0.0
  0
LINE
  5
18B
330
17B
100
AcDbEntity
  8
Layer0
  6
AUSGEZOGEN
 62
    30
370
    18
100
AcDbLine
 10
338.418130526159
 20
7.136203222128
 30
0.0
 11
339.133149967037
 21
5.897753222128
 31
0.0
  0
LINE
  5
18C
330
17B
100
AcDbEntity
  8
Layer0
  6
AUSGEZOGEN
 62
    30
370
    18
100
AcDbLine
 10
339.271540826561
 20
5.658053222128
 30
0.0
 11
338.556521385684
 21
4.419603222128
 31
0.0
  0
LINE
  5
18D
330
17B
100
AcDbEntity
  8
Layer0
  6
AUSGEZOGEN
 62
    30
370
    18
100
AcDbLine
 10
340.124951126964
 20
7.136203222128
 30
0.0
 11
339.409931686086
 21
5.897753222128
 31
0.0
  0
LINE
  5
18E
330
17B
100
AcDbEntity
  8
Layer0
  6
AUSGEZOGEN
 62
    30
370
    18
100
AcDbLine
 10
339.133149967037
 20
5.737953222128
 30
0.0
 11
338.418130526159
 21
4.499503222128
 31
0.0
  0
LINE
  5
18F
330
17B
100
AcDbEntity
  8
Layer0
  6
AUSGEZOGEN
 62
    30
370
    18
100
AcDbLine
 10
339.986560267439
 20
7.216103222128
 30
0.0
 11
339.271540826561
 21
5.977653222128
 31
0.0
  0
HATCH
  5
190
330
17B
100
AcDbEntity
  8
Layer0
  6
AUSGEZOGEN
 62
    30
370
    18
100
AcDbHatch
 10
0.0
 20
0.0
 30
0.0
210
0.0
220
0.0
230
1.0
  2
SOLID
 70
     1
 71
     0
 91
        6
 92
        2
 72
     0
 73
     1
 93
        3
 10
339.1331499670367
 20
5.737953222127885
 10
337.7031110852809
 20
5.737953222127885
 10
338.4181305261588
 20
4.499503222127885
 97
        0
 92
        2
 72
     0
 73
     1
 93
        3
 10
339.1331499670367
 20
5.897753222127889
 10
338.4181305261588
 20
7.136203222127889
 10
337.7031110852809
 20
5.897753222127889
 97
        0
 92
        2
 72
     0
 73
     1
 93
        3
 10
339.2715408265615
 20
5.977653222127884
 10
339.9865602674393
 20
7.216103222127884
 10
338.5565213856836
 20
7.216103222127884
 97
        0
 92
        2
 72
     0
 73
     1
 93
        3
 10
339.4099316860862
 20
5.897753222127889
 10
340.839970567842
 20
5.897753222127889
 10
340.1249511269641
 20
7.136203222127875
 97
        0
 92
        2
 72
     0
 73
     1
 93
        3
 10
340.1249511269641
 20
4.499503222127885
 10
340.839970567842
 20
5.737953222127885
 10
339.4099316860862
 20
5.737953222127885
 97
        0
 92
        2
 72
     0
 73
     1
 93
        3
 10
339.2715408265615
 20
5.658053222127876
 10
338.5565213856836
 20
4.41960322212789
 10
339.9865602674393
 20
4.41960322212789
 97
        0
 75
     0
 76
     1
 98
        0
  0
TEXT
  5
191
330
17B
100
AcDbEntity
  8
Layer0
  6
AUSGEZOGEN
 62
     7
370
    18
100
AcDbText
 10
329.162696187091
 20
4.917736106871
 30
0.0
 40
1.8377
  1
REFLEX
 41
0.705366510959
  7
Arial Black
 72
     5
 11
337.012871187091
 21
4.917736106871
 31
0.0
100
AcDbText
  0
TEXT
  5
192
330
17B
100
AcDbEntity
  8
Layer0
  6
AUSGEZOGEN
 62
     7
370
    18
100
AcDbText
 10
321.413190168041
 20
5.0044287253
 30
0.0
 40
1.39825
  1
ULTRA
 41
1.159777722278
  7
Arial
 72
     5
 11
328.833902668041
 21
5.0044287253
 31
0.0
100
AcDbText
  0
ENDBLK
  5
17D
330
17B
100
AcDbEntity
  8
0
100
AcDbBlockEnd
  0
BLOCK
  5
1A9
330
1A8
100
AcDbEntity
  8
0
100
AcDbBlockBegin
  2
L1_nNn03
 70
     0
 10
0.0
 20
0.0
 30
0.0
  3
L1_nNn03
  1

  0
INSERT
  5
379
330
1A8
100
AcDbEntity
  8
0
100
AcDbBlockReference
  2
SECHSK1_nNn04
 10
0.0
 20
0.0
 30
0.0
  0
ENDBLK
  5
1AA
330
1A8
100
AcDbEntity
  8
0
100
AcDbBlockEnd
  0
BLOCK
  5
1AC
330
1AB
100
AcDbEntity
  8
0
100
AcDbBlockBegin
  2
SECHSK1_nNn04
 70
     0
 10
0.0
 20
0.0
 30
0.0
  3
SECHSK1_nNn04
  1

  0
LINE
  5
1AE
330
1AB
100
AcDbEntity
  8
Layer0
  6
AUSGEZOGEN
 62
     9
370
    18
100
AcDbLine
 10
329.51803738367
 20
61.310703913929
 30
0.0
 11
329.750479851204
 21
61.713305835377
 31
0.0
  0
LINE
  5
1AF
330
1AB
100
AcDbEntity
  8
Layer0
  6
AUSGEZOGEN
 62
     9
370
    18
100
AcDbLine
 10
329.750479851204
 20
61.713305835377
 30
0.0
 11
329.08652664228
 21
62.863305835377
 31
0.0
  0
LINE
  5
1B0
330
1AB
100
AcDbEntity
  8
Layer0
  6
AUSGEZOGEN
 62
     9
370
    18
100
AcDbLine
 10
329.08652664228
 20
62.863305835377
 30
0.0
 11
328.621642217121
 21
62.863305835377
 31
0.0
  0
LINE
  5
1B1
330
1AB
100
AcDbEntity
  8
Stammform
  6
AUSGEZOGEN
 62
    56
370
    18
100
AcDbLine
 10
329.242280642132
 20
61.713305835377
 30
0.0
 11
329.750479851204
 21
61.713305835377
 31
0.0
  0
LINE
  5
1B2
330
1AB
100
AcDbEntity
  8
Stammform
  6
AUSGEZOGEN
 62
    56
370
    18
100
AcDbLine
 10
328.422573433357
 20
64.013305835377
 30
0.0
 11
328.280365302462
 21
63.766994275569
 31
0.0
  0
LINE
  5
1B3
330
1AB
100
AcDbEntity
  8
Stammform
  6
AUSGEZOGEN
 62
    56
370
    18
100
AcDbLine
 10
328.422573433357
 20
64.013305835377
 30
0.0
 11
329.750479851204
 21
64.013305835377
 31
0.0
  0
LINE
  5
1B4
330
1AB
100
AcDbEntity
  8
Stammform
  6
AUSGEZOGEN
 62
    56
370
    18
100
AcDbLine
 10
328.053997978813
 20
64.651696865089
 30
0.0
 11
328.422573433357
 21
64.013305835377
 31
0.0
  0
LINE
  5
1B5
330
1AB
100
AcDbEntity
  8
Layer0
  6
AUSGEZOGEN
 62
     9
370
    18
100
AcDbLine
 10
329.08652664228
 20
62.863305835377
 30
0.0
 11
329.750479851204
 21
64.013305835377
 31
0.0
  0
LINE
  5
1B6
330
1AB
100
AcDbEntity
  8
Layer0
  6
AUSGEZOGEN
 62
     9
370
    18
100
AcDbLine
 10
329.750479851204
 20
64.013305835377
 30
0.0
 11
329.08652664228
 21
65.163305835377
 31
0.0
  0
LINE
  5
1B7
330
1AB
100
AcDbEntity
  8
Layer0
  6
AUSGEZOGEN
 62
     9
370
    18
100
AcDbLine
 10
329.08652664228
 20
65.163305835377
 30
0.0
 11
327.968160962674
 21
65.163305835377
 31
0.0
  0
LINE
  5
1B8
330
1AB
100
AcDbEntity
  8
Layer0
  6
AUSGEZOGEN
 62
     9
370
    18
100
AcDbLine
 10
327.968160962674
 20
67.463305835377
 30
0.0
 11
329.08652664228
 21
67.463305835377
 31
0.0
  0
LINE
  5
1B9
330
1AB
100
AcDbEntity
  8
Layer0
  6
AUSGEZOGEN
 62
     9
370
    18
100
AcDbLine
 10
329.08652664228
 20
67.463305835377
 30
0.0
 11
329.750479851204
 21
68.613305835377
 31
0.0
  0
LINE
  5
1BA
330
1AB
100
AcDbEntity
  8
Layer0
  6
AUSGEZOGEN
 62
     9
370
    18
100
AcDbLine
 10
329.750479851204
 20
68.613305835377
 30
0.0
 11
329.08652664228
 21
69.763305835377
 31
0.0
  0
LINE
  5
1BB
330
1AB
100
AcDbEntity
  8
Layer0
  6
AUSGEZOGEN
 62
     9
370
    18
100
AcDbLine
 10
329.08652664228
 20
69.763305835377
 30
0.0
 11
328.621642217121
 21
69.763305835377
 31
0.0
  0
LINE
  5
1BC
330
1AB
100
AcDbEntity
  8
Stammform
  6
AUSGEZOGEN
 62
    56
370
    18
100
AcDbLine
 10
328.280365302462
 20
68.859617395184
 30
0.0
 11
328.422573433357
 21
68.613305835377
 31
0.0
  0
LINE
  5
1BD
330
1AB
100
AcDbEntity
  8
Stammform
  6
AUSGEZOGEN
 62
    56
370
    18
100
AcDbLine
 10
328.422573433357
 20
68.613305835377
 30
0.0
 11
329.750479851204
 21
68.613305835377
 31
0.0
  0
LINE
  5
1BE
330
1AB
100
AcDbEntity
  8
Stammform
  6
AUSGEZOGEN
 62
    56
370
    18
100
AcDbLine
 10
328.422573433357
 20
68.613305835377
 30
0.0
 11
328.053997978813
 21
67.974914805664
 31
0.0
  0
LINE
  5
1BF
330
1AB
100
AcDbEntity
  8
Stammform
  6
AUSGEZOGEN
 62
    56
370
    18
100
AcDbLine
 10
328.422573433357
 20
66.313305835377
 30
0.0
 11
327.93249743454
 21
65.464469816414
 31
0.0
  0
LINE
  5
1C0
330
1AB
100
AcDbEntity
  8
Stammform
  6
AUSGEZOGEN
 62
    56
370
    18
100
AcDbLine
 10
328.422573433357
 20
66.313305835377
 30
0.0
 11
329.750479851204
 21
66.313305835377
 31
0.0
  0
LINE
  5
1C1
330
1AB
100
AcDbEntity
  8
Stammform
  6
AUSGEZOGEN
 62
    56
370
    18
100
AcDbLine
 10
327.93249743454
 20
67.162141854339
 30
0.0
 11
328.422573433357
 21
66.313305835377
 31
0.0
  0
LINE
  5
1C2
330
1AB
100
AcDbEntity
  8
Layer0
  6
AUSGEZOGEN
 62
     9
370
    18
100
AcDbLine
 10
329.08652664228
 20
65.163305835377
 30
0.0
 11
329.750479851204
 21
66.313305835377
 31
0.0
  0
LINE
  5
1C3
330
1AB
100
AcDbEntity
  8
Layer0
  6
AUSGEZOGEN
 62
     9
370
    18
100
AcDbLine
 10
329.750479851204
 20
66.313305835377
 30
0.0
 11
329.08652664228
 21
67.463305835377
 31
0.0
  0
LINE
  5
1C4
330
1AB
100
AcDbEntity
  8
Stammform
  6
AUSGEZOGEN
 62
    56
370
    18
100
AcDbLine
 10
329.242280642132
 20
70.913305835377
 30
0.0
 11
329.750479851204
 21
70.913305835377
 31
0.0
  0
LINE
  5
1C5
330
1AB
100
AcDbEntity
  8
Layer0
  6
AUSGEZOGEN
 62
     9
370
    18
100
AcDbLine
 10
329.08652664228
 20
69.763305835377
 30
0.0
 11
329.750479851204
 21
70.913305835377
 31
0.0
  0
LINE
  5
1C6
330
1AB
100
AcDbEntity
  8
Layer0
  6
AUSGEZOGEN
 62
     9
370
    18
100
AcDbLine
 10
329.750479851204
 20
70.913305835377
 30
0.0
 11
329.51803738367
 21
71.315907756825
 31
0.0
  0
LINE
  5
1C7
330
1AB
100
AcDbEntity
  8
Layer0
  6
AUSGEZOGEN
 62
     9
370
    18
100
AcDbLine
 10
331.742339477974
 20
62.863305835377
 30
0.0
 11
331.07838626905
 21
61.713305835377
 31
0.0
  0
LINE
  5
1C8
330
1AB
100
AcDbEntity
  8
Layer0
  6
AUSGEZOGEN
 62
     9
370
    18
100
AcDbLine
 10
331.07838626905
 20
61.713305835377
 30
0.0
 11
331.742339477974
 21
60.563305835377
 31
0.0
  0
LINE
  5
1C9
330
1AB
100
AcDbEntity
  8
Layer0
  6
AUSGEZOGEN
 62
     9
370
    18
100
AcDbLine
 10
331.742339477974
 20
60.563305835377
 30
0.0
 11
333.070245895821
 21
60.563305835377
 31
0.0
  0
LINE
  5
1CA
330
1AB
100
AcDbEntity
  8
Layer0
  6
AUSGEZOGEN
 62
     9
370
    18
100
AcDbLine
 10
333.070245895821
 20
60.563305835377
 30
0.0
 11
333.734194717842
 21
61.713305835377
 31
0.0
  0
LINE
  5
1CB
330
1AB
100
AcDbEntity
  8
Layer0
  6
AUSGEZOGEN
 62
     9
370
    18
100
AcDbLine
 10
333.734194717842
 20
61.713305835377
 30
0.0
 11
333.070245895821
 21
62.863305835377
 31
0.0
  0
LINE
  5
1CC
330
1AB
100
AcDbEntity
  8
Layer0
  6
AUSGEZOGEN
 62
     9
370
    18
100
AcDbLine
 10
333.070245895821
 20
62.863305835377
 30
0.0
 11
331.742339477974
 21
62.863305835377
 31
0.0
  0
LINE
  5
1CD
330
1AB
100
AcDbEntity
  8
Stammform
  6
AUSGEZOGEN
 62
    56
370
    18
100
AcDbLine
 10
331.742339477974
 20
62.863305835377
 30
0.0
 11
332.406292686897
 21
61.713305835377
 31
0.0
  0
LINE
  5
1CE
330
1AB
100
AcDbEntity
  8
Stammform
  6
AUSGEZOGEN
 62
    56
370
    18
100
AcDbLine
 10
332.406292686897
 20
61.713305835377
 30
0.0
 11
333.734194717842
 21
61.713305835377
 31
0.0
  0
LINE
  5
1CF
330
1AB
100
AcDbEntity
  8
Stammform
  6
AUSGEZOGEN
 62
    56
370
    18
100
AcDbLine
 10
332.406292686897
 20
61.713305835377
 30
0.0
 11
331.742339477974
 21
60.563305835377
 31
0.0
  0
LINE
  5
1D0
330
1AB
100
AcDbEntity
  8
Stammform
  6
AUSGEZOGEN
 62
    56
370
    18
100
AcDbLine
 10
332.406292686897
 20
64.013305835377
 30
0.0
 11
331.742339477974
 21
62.863305835377
 31
0.0
  0
LINE
  5
1D1
330
1AB
100
AcDbEntity
  8
Stammform
  6
AUSGEZOGEN
 62
    56
370
    18
100
AcDbLine
 10
332.406292686897
 20
64.013305835377
 30
0.0
 11
333.734194717842
 21
64.013305835377
 31
0.0
  0
LINE
  5
1D2
330
1AB
100
AcDbEntity
  8
Stammform
  6
AUSGEZOGEN
 62
    56
370
    18
100
AcDbLine
 10
331.742339477974
 20
65.163305835377
 30
0.0
 11
332.406292686897
 21
64.013305835377
 31
0.0
  0
LINE
  5
1D3
330
1AB
100
AcDbEntity
  8
Layer0
  6
AUSGEZOGEN
 62
     9
370
    18
100
AcDbLine
 10
331.742339477974
 20
65.163305835377
 30
0.0
 11
331.07838626905
 21
64.013305835377
 31
0.0
  0
LINE
  5
1D4
330
1AB
100
AcDbEntity
  8
Layer0
  6
AUSGEZOGEN
 62
     9
370
    18
100
AcDbLine
 10
331.07838626905
 20
64.013305835377
 30
0.0
 11
331.742339477974
 21
62.863305835377
 31
0.0
  0
LINE
  5
1D5
330
1AB
100
AcDbEntity
  8
Layer0
  6
AUSGEZOGEN
 62
     9
370
    18
100
AcDbLine
 10
331.742339477974
 20
62.863305835377
 30
0.0
 11
333.070245895821
 21
62.863305835377
 31
0.0
  0
LINE
  5
1D6
330
1AB
100
AcDbEntity
  8
Layer0
  6
AUSGEZOGEN
 62
     9
370
    18
100
AcDbLine
 10
333.070245895821
 20
62.863305835377
 30
0.0
 11
333.734194717842
 21
64.013305835377
 31
0.0
  0
LINE
  5
1D7
330
1AB
100
AcDbEntity
  8
Layer0
  6
AUSGEZOGEN
 62
     9
370
    18
100
AcDbLine
 10
333.734194717842
 20
64.013305835377
 30
0.0
 11
333.070245895821
 21
65.163305835377
 31
0.0
  0
LINE
  5
1D8
330
1AB
100
AcDbEntity
  8
Layer0
  6
AUSGEZOGEN
 62
     9
370
    18
100
AcDbLine
 10
333.070245895821
 20
65.163305835377
 30
0.0
 11
331.742339477974
 21
65.163305835377
 31
0.0
  0
LINE
  5
1D9
330
1AB
100
AcDbEntity
  8
Layer0
  6
AUSGEZOGEN
 62
     9
370
    18
100
AcDbLine
 10
331.742339477974
 20
69.763305835377
 30
0.0
 11
331.07838626905
 21
68.613305835377
 31
0.0
  0
LINE
  5
1DA
330
1AB
100
AcDbEntity
  8
Layer0
  6
AUSGEZOGEN
 62
     9
370
    18
100
AcDbLine
 10
331.07838626905
 20
68.613305835377
 30
0.0
 11
331.742339477974
 21
67.463305835377
 31
0.0
  0
LINE
  5
1DB
330
1AB
100
AcDbEntity
  8
Layer0
  6
AUSGEZOGEN
 62
     9
370
    18
100
AcDbLine
 10
331.742339477974
 20
67.463305835377
 30
0.0
 11
333.070245895821
 21
67.463305835377
 31
0.0
  0
LINE
  5
1DC
330
1AB
100
AcDbEntity
  8
Layer0
  6
AUSGEZOGEN
 62
     9
370
    18
100
AcDbLine
 10
333.070245895821
 20
67.463305835377
 30
0.0
 11
333.734194717842
 21
68.613305835377
 31
0.0
  0
LINE
  5
1DD
330
1AB
100
AcDbEntity
  8
Layer0
  6
AUSGEZOGEN
 62
     9
370
    18
100
AcDbLine
 10
333.734194717842
 20
68.613305835377
 30
0.0
 11
333.070245895821
 21
69.763305835377
 31
0.0
  0
LINE
  5
1DE
330
1AB
100
AcDbEntity
  8
Layer0
  6
AUSGEZOGEN
 62
     9
370
    18
100
AcDbLine
 10
333.070245895821
 20
69.763305835377
 30
0.0
 11
331.742339477974
 21
69.763305835377
 31
0.0
  0
LINE
  5
1DF
330
1AB
100
AcDbEntity
  8
Stammform
  6
AUSGEZOGEN
 62
    56
370
    18
100
AcDbLine
 10
331.742339477974
 20
69.763305835377
 30
0.0
 11
332.406292686897
 21
68.613305835377
 31
0.0
  0
LINE
  5
1E0
330
1AB
100
AcDbEntity
  8
Stammform
  6
AUSGEZOGEN
 62
    56
370
    18
100
AcDbLine
 10
332.406292686897
 20
68.613305835377
 30
0.0
 11
333.734194717842
 21
68.613305835377
 31
0.0
  0
LINE
  5
1E1
330
1AB
100
AcDbEntity
  8
Stammform
  6
AUSGEZOGEN
 62
    56
370
    18
100
AcDbLine
 10
332.406292686897
 20
68.613305835377
 30
0.0
 11
331.742339477974
 21
67.463305835377
 31
0.0
  0
LINE
  5
1E2
330
1AB
100
AcDbEntity
  8
Stammform
  6
AUSGEZOGEN
 62
    56
370
    18
100
AcDbLine
 10
332.406292686897
 20
66.313305835377
 30
0.0
 11
331.742339477974
 21
65.163305835377
 31
0.0
  0
LINE
  5
1E3
330
1AB
100
AcDbEntity
  8
Stammform
  6
AUSGEZOGEN
 62
    56
370
    18
100
AcDbLine
 10
332.406292686897
 20
66.313305835377
 30
0.0
 11
333.734194717842
 21
66.313305835377
 31
0.0
  0
LINE
  5
1E4
330
1AB
100
AcDbEntity
  8
Stammform
  6
AUSGEZOGEN
 62
    56
370
    18
100
AcDbLine
 10
331.742339477974
 20
67.463305835377
 30
0.0
 11
332.406292686897
 21
66.313305835377
 31
0.0
  0
LINE
  5
1E5
330
1AB
100
AcDbEntity
  8
Layer0
  6
AUSGEZOGEN
 62
     9
370
    18
100
AcDbLine
 10
331.742339477974
 20
67.463305835377
 30
0.0
 11
331.07838626905
 21
66.313305835377
 31
0.0
  0
LINE
  5
1E6
330
1AB
100
AcDbEntity
  8
Layer0
  6
AUSGEZOGEN
 62
     9
370
    18
100
AcDbLine
 10
331.07838626905
 20
66.313305835377
 30
0.0
 11
331.742339477974
 21
65.163305835377
 31
0.0
  0
LINE
  5
1E7
330
1AB
100
AcDbEntity
  8
Layer0
  6
AUSGEZOGEN
 62
     9
370
    18
100
AcDbLine
 10
331.742339477974
 20
65.163305835377
 30
0.0
 11
333.070245895821
 21
65.163305835377
 31
0.0
  0
LINE
  5
1E8
330
1AB
100
AcDbEntity
  8
Layer0
  6
AUSGEZOGEN
 62
     9
370
    18
100
AcDbLine
 10
333.070245895821
 20
65.163305835377
 30
0.0
 11
333.734194717842
 21
66.313305835377
 31
0.0
  0
LINE
  5
1E9
330
1AB
100
AcDbEntity
  8
Layer0
  6
AUSGEZOGEN
 62
     9
370
    18
100
AcDbLine
 10
333.734194717842
 20
66.313305835377
 30
0.0
 11
333.070245895821
 21
67.463305835377
 31
0.0
  0
LINE
  5
1EA
330
1AB
100
AcDbEntity
  8
Layer0
  6
AUSGEZOGEN
 62
     9
370
    18
100
AcDbLine
 10
333.070245895821
 20
67.463305835377
 30
0.0
 11
331.742339477974
 21
67.463305835377
 31
0.0
  0
LINE
  5
1EB
330
1AB
100
AcDbEntity
  8
Layer0
  6
AUSGEZOGEN
 62
     9
370
    18
100
AcDbLine
 10
331.18315591085
 20
73.031839601837
 30
0.0
 11
331.742339477974
 21
72.063305835377
 31
0.0
  0
LINE
  5
1EC
330
1AB
100
AcDbEntity
  8
Layer0
  6
AUSGEZOGEN
 62
     9
370
    18
100
AcDbLine
 10
331.742339477974
 20
72.063305835377
 30
0.0
 11
333.070245895821
 21
72.063305835377
 31
0.0
  0
LINE
  5
1ED
330
1AB
100
AcDbEntity
  8
Layer0
  6
AUSGEZOGEN
 62
     9
370
    18
100
AcDbLine
 10
333.070245895821
 20
72.063305835377
 30
0.0
 11
333.734194717842
 21
73.213305835377
 31
0.0
  0
LINE
  5
1EE
330
1AB
100
AcDbEntity
  8
Layer0
  6
AUSGEZOGEN
 62
     9
370
    18
100
AcDbLine
 10
333.734194717842
 20
73.213305835377
 30
0.0
 11
333.175014897253
 21
74.181839511993
 31
0.0
  0
LINE
  5
1EF
330
1AB
100
AcDbEntity
  8
Stammform
  6
AUSGEZOGEN
 62
    56
370
    18
100
AcDbLine
 10
332.14000892649
 20
73.67452256022
 30
0.0
 11
332.406292686897
 21
73.213305835377
 31
0.0
  0
LINE
  5
1F0
330
1AB
100
AcDbEntity
  8
Stammform
  6
AUSGEZOGEN
 62
    56
370
    18
100
AcDbLine
 10
332.406292686897
 20
73.213305835377
 30
0.0
 11
333.734194717842
 21
73.213305835377
 31
0.0
  0
LINE
  5
1F1
330
1AB
100
AcDbEntity
  8
Stammform
  6
AUSGEZOGEN
 62
    56
370
    18
100
AcDbLine
 10
332.406292686897
 20
73.213305835377
 30
0.0
 11
331.742339477974
 21
72.063305835377
 31
0.0
  0
LINE
  5
1F2
330
1AB
100
AcDbEntity
  8
Stammform
  6
AUSGEZOGEN
 62
    56
370
    18
100
AcDbLine
 10
332.406292686897
 20
70.913305835377
 30
0.0
 11
331.742339477974
 21
69.763305835377
 31
0.0
  0
LINE
  5
1F3
330
1AB
100
AcDbEntity
  8
Stammform
  6
AUSGEZOGEN
 62
    56
370
    18
100
AcDbLine
 10
332.406292686897
 20
70.913305835377
 30
0.0
 11
333.734194717842
 21
70.913305835377
 31
0.0
  0
LINE
  5
1F4
330
1AB
100
AcDbEntity
  8
Stammform
  6
AUSGEZOGEN
 62
    56
370
    18
100
AcDbLine
 10
331.742339477974
 20
72.063305835377
 30
0.0
 11
332.406292686897
 21
70.913305835377
 31
0.0
  0
LINE
  5
1F5
330
1AB
100
AcDbEntity
  8
Layer0
  6
AUSGEZOGEN
 62
     9
370
    18
100
AcDbLine
 10
331.742339477974
 20
72.063305835377
 30
0.0
 11
331.07838626905
 21
70.913305835377
 31
0.0
  0
LINE
  5
1F6
330
1AB
100
AcDbEntity
  8
Layer0
  6
AUSGEZOGEN
 62
     9
370
    18
100
AcDbLine
 10
331.07838626905
 20
70.913305835377
 30
0.0
 11
331.742339477974
 21
69.763305835377
 31
0.0
  0
LINE
  5
1F7
330
1AB
100
AcDbEntity
  8
Layer0
  6
AUSGEZOGEN
 62
     9
370
    18
100
AcDbLine
 10
331.742339477974
 20
69.763305835377
 30
0.0
 11
333.070245895821
 21
69.763305835377
 31
0.0
  0
LINE
  5
1F8
330
1AB
100
AcDbEntity
  8
Layer0
  6
AUSGEZOGEN
 62
     9
370
    18
100
AcDbLine
 10
333.070245895821
 20
69.763305835377
 30
0.0
 11
333.734194717842
 21
70.913305835377
 31
0.0
  0
LINE
  5
1F9
330
1AB
100
AcDbEntity
  8
Layer0
  6
AUSGEZOGEN
 62
     9
370
    18
100
AcDbLine
 10
333.734194717842
 20
70.913305835377
 30
0.0
 11
333.070245895821
 21
72.063305835377
 31
0.0
  0
LINE
  5
1FA
330
1AB
100
AcDbEntity
  8
Layer0
  6
AUSGEZOGEN
 62
     9
370
    18
100
AcDbLine
 10
333.070245895821
 20
72.063305835377
 30
0.0
 11
331.742339477974
 21
72.063305835377
 31
0.0
  0
LINE
  5
1FB
330
1AB
100
AcDbEntity
  8
Stammform
  6
AUSGEZOGEN
 62
    56
370
    18
100
AcDbLine
 10
332.406292686897
 20
59.413305835377
 30
0.0
 11
332.14000892649
 21
58.952089110534
 31
0.0
  0
LINE
  5
1FC
330
1AB
100
AcDbEntity
  8
Stammform
  6
AUSGEZOGEN
 62
    56
370
    18
100
AcDbLine
 10
332.406292686897
 20
59.413305835377
 30
0.0
 11
333.734194717842
 21
59.413305835377
 31
0.0
  0
LINE
  5
1FD
330
1AB
100
AcDbEntity
  8
Stammform
  6
AUSGEZOGEN
 62
    56
370
    18
100
AcDbLine
 10
331.742339477974
 20
60.563305835377
 30
0.0
 11
332.406292686897
 21
59.413305835377
 31
0.0
  0
LINE
  5
1FE
330
1AB
100
AcDbEntity
  8
Layer0
  6
AUSGEZOGEN
 62
     9
370
    18
100
AcDbLine
 10
331.742339477974
 20
60.563305835377
 30
0.0
 11
331.18315591085
 21
59.594772068916
 31
0.0
  0
LINE
  5
1FF
330
1AB
100
AcDbEntity
  8
Layer0
  6
AUSGEZOGEN
 62
     9
370
    18
100
AcDbLine
 10
333.175014897253
 20
58.44477215876
 30
0.0
 11
333.734194717842
 21
59.413305835377
 31
0.0
  0
LINE
  5
200
330
1AB
100
AcDbEntity
  8
Layer0
  6
AUSGEZOGEN
 62
     9
370
    18
100
AcDbLine
 10
333.734194717842
 20
59.413305835377
 30
0.0
 11
333.070245895821
 21
60.563305835377
 31
0.0
  0
LINE
  5
201
330
1AB
100
AcDbEntity
  8
Layer0
  6
AUSGEZOGEN
 62
     9
370
    18
100
AcDbLine
 10
333.070245895821
 20
60.563305835377
 30
0.0
 11
331.742339477974
 21
60.563305835377
 31
0.0
  0
LINE
  5
202
330
1AB
100
AcDbEntity
  8
Layer0
  6
AUSGEZOGEN
 62
     9
370
    18
100
AcDbLine
 10
329.750479851204
 20
70.913305835377
 30
0.0
 11
329.08652664228
 21
69.763305835377
 31
0.0
  0
LINE
  5
203
330
1AB
100
AcDbEntity
  8
Layer0
  6
AUSGEZOGEN
 62
     9
370
    18
100
AcDbLine
 10
329.08652664228
 20
69.763305835377
 30
0.0
 11
329.750479851204
 21
68.613305835377
 31
0.0
  0
LINE
  5
204
330
1AB
100
AcDbEntity
  8
Layer0
  6
AUSGEZOGEN
 62
     9
370
    18
100
AcDbLine
 10
329.750479851204
 20
68.613305835377
 30
0.0
 11
331.07838626905
 21
68.613305835377
 31
0.0
  0
LINE
  5
205
330
1AB
100
AcDbEntity
  8
Layer0
  6
AUSGEZOGEN
 62
     9
370
    18
100
AcDbLine
 10
331.07838626905
 20
68.613305835377
 30
0.0
 11
331.742339477974
 21
69.763305835377
 31
0.0
  0
LINE
  5
206
330
1AB
100
AcDbEntity
  8
Layer0
  6
AUSGEZOGEN
 62
     9
370
    18
100
AcDbLine
 10
331.742339477974
 20
69.763305835377
 30
0.0
 11
331.07838626905
 21
70.913305835377
 31
0.0
  0
LINE
  5
207
330
1AB
100
AcDbEntity
  8
Layer0
  6
AUSGEZOGEN
 62
     9
370
    18
100
AcDbLine
 10
331.07838626905
 20
70.913305835377
 30
0.0
 11
329.750479851204
 21
70.913305835377
 31
0.0
  0
LINE
  5
208
330
1AB
100
AcDbEntity
  8
Stammform
  6
AUSGEZOGEN
 62
    56
370
    18
100
AcDbLine
 10
329.750479851204
 20
70.913305835377
 30
0.0
 11
330.414433060127
 21
69.763305835377
 31
0.0
  0
LINE
  5
209
330
1AB
100
AcDbEntity
  8
Stammform
  6
AUSGEZOGEN
 62
    56
370
    18
100
AcDbLine
 10
330.414433060127
 20
69.763305835377
 30
0.0
 11
331.742339477974
 21
69.763305835377
 31
0.0
  0
LINE
  5
20A
330
1AB
100
AcDbEntity
  8
Stammform
  6
AUSGEZOGEN
 62
    56
370
    18
100
AcDbLine
 10
330.414433060127
 20
69.763305835377
 30
0.0
 11
329.750479851204
 21
68.613305835377
 31
0.0
  0
LINE
  5
20B
330
1AB
100
AcDbEntity
  8
Stammform
  6
AUSGEZOGEN
 62
    56
370
    18
100
AcDbLine
 10
330.414433060127
 20
72.063305835377
 30
0.0
 11
329.750479851204
 21
70.913305835377
 31
0.0
  0
LINE
  5
20C
330
1AB
100
AcDbEntity
  8
Stammform
  6
AUSGEZOGEN
 62
    56
370
    18
100
AcDbLine
 10
330.414433060127
 20
72.063305835377
 30
0.0
 11
331.742339477974
 21
72.063305835377
 31
0.0
  0
LINE
  5
20D
330
1AB
100
AcDbEntity
  8
Stammform
  6
AUSGEZOGEN
 62
    56
370
    18
100
AcDbLine
 10
330.30669507307
 20
72.249913390624
 30
0.0
 11
330.414433060127
 21
72.063305835377
 31
0.0
  0
LINE
  5
20E
330
1AB
100
AcDbEntity
  8
Layer0
  6
AUSGEZOGEN
 62
     9
370
    18
100
AcDbLine
 10
329.750479851204
 20
70.913305835377
 30
0.0
 11
331.07838626905
 21
70.913305835377
 31
0.0
  0
LINE
  5
20F
330
1AB
100
AcDbEntity
  8
Layer0
  6
AUSGEZOGEN
 62
     9
370
    18
100
AcDbLine
 10
331.07838626905
 20
70.913305835377
 30
0.0
 11
331.742339477974
 21
72.063305835377
 31
0.0
  0
LINE
  5
210
330
1AB
100
AcDbEntity
  8
Layer0
  6
AUSGEZOGEN
 62
     9
370
    18
100
AcDbLine
 10
329.750479851204
 20
66.313305835377
 30
0.0
 11
329.08652664228
 21
65.163305835377
 31
0.0
  0
LINE
  5
211
330
1AB
100
AcDbEntity
  8
Layer0
  6
AUSGEZOGEN
 62
     9
370
    18
100
AcDbLine
 10
329.08652664228
 20
65.163305835377
 30
0.0
 11
329.750479851204
 21
64.013305835377
 31
0.0
  0
LINE
  5
212
330
1AB
100
AcDbEntity
  8
Layer0
  6
AUSGEZOGEN
 62
     9
370
    18
100
AcDbLine
 10
329.750479851204
 20
64.013305835377
 30
0.0
 11
331.07838626905
 21
64.013305835377
 31
0.0
  0
LINE
  5
213
330
1AB
100
AcDbEntity
  8
Layer0
  6
AUSGEZOGEN
 62
     9
370
    18
100
AcDbLine
 10
331.07838626905
 20
64.013305835377
 30
0.0
 11
331.742339477974
 21
65.163305835377
 31
0.0
  0
LINE
  5
214
330
1AB
100
AcDbEntity
  8
Layer0
  6
AUSGEZOGEN
 62
     9
370
    18
100
AcDbLine
 10
331.742339477974
 20
65.163305835377
 30
0.0
 11
331.07838626905
 21
66.313305835377
 31
0.0
  0
LINE
  5
215
330
1AB
100
AcDbEntity
  8
Layer0
  6
AUSGEZOGEN
 62
     9
370
    18
100
AcDbLine
 10
331.07838626905
 20
66.313305835377
 30
0.0
 11
329.750479851204
 21
66.313305835377
 31
0.0
  0
LINE
  5
216
330
1AB
100
AcDbEntity
  8
Stammform
  6
AUSGEZOGEN
 62
    56
370
    18
100
AcDbLine
 10
329.750479851204
 20
66.313305835377
 30
0.0
 11
330.414433060127
 21
65.163305835377
 31
0.0
  0
LINE
  5
217
330
1AB
100
AcDbEntity
  8
Stammform
  6
AUSGEZOGEN
 62
    56
370
    18
100
AcDbLine
 10
330.414433060127
 20
65.163305835377
 30
0.0
 11
331.742339477974
 21
65.163305835377
 31
0.0
  0
LINE
  5
218
330
1AB
100
AcDbEntity
  8
Stammform
  6
AUSGEZOGEN
 62
    56
370
    18
100
AcDbLine
 10
330.414433060127
 20
65.163305835377
 30
0.0
 11
329.750479851204
 21
64.013305835377
 31
0.0
  0
LINE
  5
219
330
1AB
100
AcDbEntity
  8
Stammform
  6
AUSGEZOGEN
 62
    56
370
    18
100
AcDbLine
 10
330.414433060127
 20
67.463305835377
 30
0.0
 11
329.750479851204
 21
66.313305835377
 31
0.0
  0
LINE
  5
21A
330
1AB
100
AcDbEntity
  8
Stammform
  6
AUSGEZOGEN
 62
    56
370
    18
100
AcDbLine
 10
330.414433060127
 20
67.463305835377
 30
0.0
 11
331.742339477974
 21
67.463305835377
 31
0.0
  0
LINE
  5
21B
330
1AB
100
AcDbEntity
  8
Stammform
  6
AUSGEZOGEN
 62
    56
370
    18
100
AcDbLine
 10
329.750479851204
 20
68.613305835377
 30
0.0
 11
330.414433060127
 21
67.463305835377
 31
0.0
  0
LINE
  5
21C
330
1AB
100
AcDbEntity
  8
Layer0
  6
AUSGEZOGEN
 62
     9
370
    18
100
AcDbLine
 10
329.750479851204
 20
68.613305835377
 30
0.0
 11
329.08652664228
 21
67.463305835377
 31
0.0
  0
LINE
  5
21D
330
1AB
100
AcDbEntity
  8
Layer0
  6
AUSGEZOGEN
 62
     9
370
    18
100
AcDbLine
 10
329.08652664228
 20
67.463305835377
 30
0.0
 11
329.750479851204
 21
66.313305835377
 31
0.0
  0
LINE
  5
21E
330
1AB
100
AcDbEntity
  8
Layer0
  6
AUSGEZOGEN
 62
     9
370
    18
100
AcDbLine
 10
329.750479851204
 20
66.313305835377
 30
0.0
 11
331.07838626905
 21
66.313305835377
 31
0.0
  0
LINE
  5
21F
330
1AB
100
AcDbEntity
  8
Layer0
  6
AUSGEZOGEN
 62
     9
370
    18
100
AcDbLine
 10
331.07838626905
 20
66.313305835377
 30
0.0
 11
331.742339477974
 21
67.463305835377
 31
0.0
  0
LINE
  5
220
330
1AB
100
AcDbEntity
  8
Layer0
  6
AUSGEZOGEN
 62
     9
370
    18
100
AcDbLine
 10
331.742339477974
 20
67.463305835377
 30
0.0
 11
331.07838626905
 21
68.613305835377
 31
0.0
  0
LINE
  5
221
330
1AB
100
AcDbEntity
  8
Layer0
  6
AUSGEZOGEN
 62
     9
370
    18
100
AcDbLine
 10
331.07838626905
 20
68.613305835377
 30
0.0
 11
329.750479851204
 21
68.613305835377
 31
0.0
  0
LINE
  5
222
330
1AB
100
AcDbEntity
  8
Layer0
  6
AUSGEZOGEN
 62
     9
370
    18
100
AcDbLine
 10
329.750479851204
 20
64.013305835377
 30
0.0
 11
329.08652664228
 21
62.863305835377
 31
0.0
  0
LINE
  5
223
330
1AB
100
AcDbEntity
  8
Layer0
  6
AUSGEZOGEN
 62
     9
370
    18
100
AcDbLine
 10
329.08652664228
 20
62.863305835377
 30
0.0
 11
329.750479851204
 21
61.713305835377
 31
0.0
  0
LINE
  5
224
330
1AB
100
AcDbEntity
  8
Layer0
  6
AUSGEZOGEN
 62
     9
370
    18
100
AcDbLine
 10
329.750479851204
 20
61.713305835377
 30
0.0
 11
331.07838626905
 21
61.713305835377
 31
0.0
  0
LINE
  5
225
330
1AB
100
AcDbEntity
  8
Layer0
  6
AUSGEZOGEN
 62
     9
370
    18
100
AcDbLine
 10
331.07838626905
 20
61.713305835377
 30
0.0
 11
331.742339477974
 21
62.863305835377
 31
0.0
  0
LINE
  5
226
330
1AB
100
AcDbEntity
  8
Layer0
  6
AUSGEZOGEN
 62
     9
370
    18
100
AcDbLine
 10
331.742339477974
 20
62.863305835377
 30
0.0
 11
331.07838626905
 21
64.013305835377
 31
0.0
  0
LINE
  5
227
330
1AB
100
AcDbEntity
  8
Layer0
  6
AUSGEZOGEN
 62
     9
370
    18
100
AcDbLine
 10
331.07838626905
 20
64.013305835377
 30
0.0
 11
329.750479851204
 21
64.013305835377
 31
0.0
  0
LINE
  5
228
330
1AB
100
AcDbEntity
  8
Stammform
  6
AUSGEZOGEN
 62
    56
370
    18
100
AcDbLine
 10
329.750479851204
 20
64.013305835377
 30
0.0
 11
330.414433060127
 21
62.863305835377
 31
0.0
  0
LINE
  5
229
330
1AB
100
AcDbEntity
  8
Stammform
  6
AUSGEZOGEN
 62
    56
370
    18
100
AcDbLine
 10
330.414433060127
 20
62.863305835377
 30
0.0
 11
331.742339477974
 21
62.863305835377
 31
0.0
  0
LINE
  5
22A
330
1AB
100
AcDbEntity
  8
Stammform
  6
AUSGEZOGEN
 62
    56
370
    18
100
AcDbLine
 10
330.414433060127
 20
62.863305835377
 30
0.0
 11
329.750479851204
 21
61.713305835377
 31
0.0
  0
LINE
  5
22B
330
1AB
100
AcDbEntity
  8
Stammform
  6
AUSGEZOGEN
 62
    56
370
    18
100
AcDbLine
 10
330.414433060127
 20
60.563305835377
 30
0.0
 11
330.30669507307
 21
60.37669828013
 31
0.0
  0
LINE
  5
22C
330
1AB
100
AcDbEntity
  8
Stammform
  6
AUSGEZOGEN
 62
    56
370
    18
100
AcDbLine
 10
330.414433060127
 20
60.563305835377
 30
0.0
 11
331.742339477974
 21
60.563305835377
 31
0.0
  0
LINE
  5
22D
330
1AB
100
AcDbEntity
  8
Stammform
  6
AUSGEZOGEN
 62
    56
370
    18
100
AcDbLine
 10
329.750479851204
 20
61.713305835377
 30
0.0
 11
330.414433060127
 21
60.563305835377
 31
0.0
  0
LINE
  5
22E
330
1AB
100
AcDbEntity
  8
Layer0
  6
AUSGEZOGEN
 62
     9
370
    18
100
AcDbLine
 10
331.742339477974
 20
60.563305835377
 30
0.0
 11
331.07838626905
 21
61.713305835377
 31
0.0
  0
LINE
  5
22F
330
1AB
100
AcDbEntity
  8
Layer0
  6
AUSGEZOGEN
 62
     9
370
    18
100
AcDbLine
 10
331.07838626905
 20
61.713305835377
 30
0.0
 11
329.750479851204
 21
61.713305835377
 31
0.0
  0
LINE
  5
230
330
1AB
100
AcDbEntity
  8
Layer0
  6
AUSGEZOGEN
 62
     9
370
    18
100
AcDbLine
 10
335.726054344612
 20
62.863305835377
 30
0.0
 11
335.062101135689
 21
61.713305835377
 31
0.0
  0
LINE
  5
231
330
1AB
100
AcDbEntity
  8
Layer0
  6
AUSGEZOGEN
 62
     9
370
    18
100
AcDbLine
 10
335.062101135689
 20
61.713305835377
 30
0.0
 11
335.726054344612
 21
60.563305835377
 31
0.0
  0
LINE
  5
232
330
1AB
100
AcDbEntity
  8
Layer0
  6
AUSGEZOGEN
 62
     9
370
    18
100
AcDbLine
 10
335.726054344612
 20
60.563305835377
 30
0.0
 11
337.053960762459
 21
60.563305835377
 31
0.0
  0
LINE
  5
233
330
1AB
100
AcDbEntity
  8
Layer0
  6
AUSGEZOGEN
 62
     9
370
    18
100
AcDbLine
 10
337.053960762459
 20
60.563305835377
 30
0.0
 11
337.717913971382
 21
61.713305835377
 31
0.0
  0
LINE
  5
234
330
1AB
100
AcDbEntity
  8
Layer0
  6
AUSGEZOGEN
 62
     9
370
    18
100
AcDbLine
 10
337.717913971382
 20
61.713305835377
 30
0.0
 11
337.053960762459
 21
62.863305835377
 31
0.0
  0
LINE
  5
235
330
1AB
100
AcDbEntity
  8
Layer0
  6
AUSGEZOGEN
 62
     9
370
    18
100
AcDbLine
 10
337.053960762459
 20
62.863305835377
 30
0.0
 11
335.726054344612
 21
62.863305835377
 31
0.0
  0
LINE
  5
236
330
1AB
100
AcDbEntity
  8
Stammform
  6
AUSGEZOGEN
 62
    56
370
    18
100
AcDbLine
 10
335.726054344612
 20
62.863305835377
 30
0.0
 11
336.390007553535
 21
61.713305835377
 31
0.0
  0
LINE
  5
237
330
1AB
100
AcDbEntity
  8
Stammform
  6
AUSGEZOGEN
 62
    56
370
    18
100
AcDbLine
 10
336.390007553535
 20
61.713305835377
 30
0.0
 11
337.717913971382
 21
61.713305835377
 31
0.0
  0
LINE
  5
238
330
1AB
100
AcDbEntity
  8
Stammform
  6
AUSGEZOGEN
 62
    56
370
    18
100
AcDbLine
 10
336.390007553535
 20
61.713305835377
 30
0.0
 11
335.726054344612
 21
60.563305835377
 31
0.0
  0
LINE
  5
239
330
1AB
100
AcDbEntity
  8
Stammform
  6
AUSGEZOGEN
 62
    56
370
    18
100
AcDbLine
 10
336.390007553535
 20
64.013305835377
 30
0.0
 11
335.726054344612
 21
62.863305835377
 31
0.0
  0
LINE
  5
23A
330
1AB
100
AcDbEntity
  8
Stammform
  6
AUSGEZOGEN
 62
    56
370
    18
100
AcDbLine
 10
336.390007553535
 20
64.013305835377
 30
0.0
 11
337.717913971382
 21
64.013305835377
 31
0.0
  0
LINE
  5
23B
330
1AB
100
AcDbEntity
  8
Stammform
  6
AUSGEZOGEN
 62
    56
370
    18
100
AcDbLine
 10
335.726054344612
 20
65.163305835377
 30
0.0
 11
336.390007553535
 21
64.013305835377
 31
0.0
  0
LINE
  5
23C
330
1AB
100
AcDbEntity
  8
Layer0
  6
AUSGEZOGEN
 62
     9
370
    18
100
AcDbLine
 10
335.726054344612
 20
65.163305835377
 30
0.0
 11
335.062101135689
 21
64.013305835377
 31
0.0
  0
LINE
  5
23D
330
1AB
100
AcDbEntity
  8
Layer0
  6
AUSGEZOGEN
 62
     9
370
    18
100
AcDbLine
 10
335.062101135689
 20
64.013305835377
 30
0.0
 11
335.726054344612
 21
62.863305835377
 31
0.0
  0
LINE
  5
23E
330
1AB
100
AcDbEntity
  8
Layer0
  6
AUSGEZOGEN
 62
     9
370
    18
100
AcDbLine
 10
335.726054344612
 20
62.863305835377
 30
0.0
 11
337.053960762459
 21
62.863305835377
 31
0.0
  0
LINE
  5
23F
330
1AB
100
AcDbEntity
  8
Layer0
  6
AUSGEZOGEN
 62
     9
370
    18
100
AcDbLine
 10
337.053960762459
 20
62.863305835377
 30
0.0
 11
337.717913971382
 21
64.013305835377
 31
0.0
  0
LINE
  5
240
330
1AB
100
AcDbEntity
  8
Layer0
  6
AUSGEZOGEN
 62
     9
370
    18
100
AcDbLine
 10
337.717913971382
 20
64.013305835377
 30
0.0
 11
337.053960762459
 21
65.163305835377
 31
0.0
  0
LINE
  5
241
330
1AB
100
AcDbEntity
  8
Layer0
  6
AUSGEZOGEN
 62
     9
370
    18
100
AcDbLine
 10
337.053960762459
 20
65.163305835377
 30
0.0
 11
335.726054344612
 21
65.163305835377
 31
0.0
  0
LINE
  5
242
330
1AB
100
AcDbEntity
  8
Layer0
  6
AUSGEZOGEN
 62
     9
370
    18
100
AcDbLine
 10
335.726054344612
 20
69.763305835377
 30
0.0
 11
335.062101135689
 21
68.613305835377
 31
0.0
  0
LINE
  5
243
330
1AB
100
AcDbEntity
  8
Layer0
  6
AUSGEZOGEN
 62
     9
370
    18
100
AcDbLine
 10
335.062101135689
 20
68.613305835377
 30
0.0
 11
335.726054344612
 21
67.463305835377
 31
0.0
  0
LINE
  5
244
330
1AB
100
AcDbEntity
  8
Layer0
  6
AUSGEZOGEN
 62
     9
370
    18
100
AcDbLine
 10
335.726054344612
 20
67.463305835377
 30
0.0
 11
337.053960762459
 21
67.463305835377
 31
0.0
  0
LINE
  5
245
330
1AB
100
AcDbEntity
  8
Layer0
  6
AUSGEZOGEN
 62
     9
370
    18
100
AcDbLine
 10
337.053960762459
 20
67.463305835377
 30
0.0
 11
337.717913971382
 21
68.613305835377
 31
0.0
  0
LINE
  5
246
330
1AB
100
AcDbEntity
  8
Layer0
  6
AUSGEZOGEN
 62
     9
370
    18
100
AcDbLine
 10
337.717913971382
 20
68.613305835377
 30
0.0
 11
337.053960762459
 21
69.763305835377
 31
0.0
  0
LINE
  5
247
330
1AB
100
AcDbEntity
  8
Layer0
  6
AUSGEZOGEN
 62
     9
370
    18
100
AcDbLine
 10
337.053960762459
 20
69.763305835377
 30
0.0
 11
335.726054344612
 21
69.763305835377
 31
0.0
  0
LINE
  5
248
330
1AB
100
AcDbEntity
  8
Stammform
  6
AUSGEZOGEN
 62
    56
370
    18
100
AcDbLine
 10
335.726054344612
 20
69.763305835377
 30
0.0
 11
336.390007553535
 21
68.613305835377
 31
0.0
  0
LINE
  5
249
330
1AB
100
AcDbEntity
  8
Stammform
  6
AUSGEZOGEN
 62
    56
370
    18
100
AcDbLine
 10
336.390007553535
 20
68.613305835377
 30
0.0
 11
337.717913971382
 21
68.613305835377
 31
0.0
  0
LINE
  5
24A
330
1AB
100
AcDbEntity
  8
Stammform
  6
AUSGEZOGEN
 62
    56
370
    18
100
AcDbLine
 10
336.390007553535
 20
68.613305835377
 30
0.0
 11
335.726054344612
 21
67.463305835377
 31
0.0
  0
LINE
  5
24B
330
1AB
100
AcDbEntity
  8
Stammform
  6
AUSGEZOGEN
 62
    56
370
    18
100
AcDbLine
 10
336.390007553535
 20
66.313305835377
 30
0.0
 11
335.726054344612
 21
65.163305835377
 31
0.0
  0
LINE
  5
24C
330
1AB
100
AcDbEntity
  8
Stammform
  6
AUSGEZOGEN
 62
    56
370
    18
100
AcDbLine
 10
336.390007553535
 20
66.313305835377
 30
0.0
 11
337.717913971382
 21
66.313305835377
 31
0.0
  0
LINE
  5
24D
330
1AB
100
AcDbEntity
  8
Stammform
  6
AUSGEZOGEN
 62
    56
370
    18
100
AcDbLine
 10
335.726054344612
 20
67.463305835377
 30
0.0
 11
336.390007553535
 21
66.313305835377
 31
0.0
  0
LINE
  5
24E
330
1AB
100
AcDbEntity
  8
Layer0
  6
AUSGEZOGEN
 62
     9
370
    18
100
AcDbLine
 10
335.726054344612
 20
67.463305835377
 30
0.0
 11
335.062101135689
 21
66.313305835377
 31
0.0
  0
LINE
  5
24F
330
1AB
100
AcDbEntity
  8
Layer0
  6
AUSGEZOGEN
 62
     9
370
    18
100
AcDbLine
 10
335.062101135689
 20
66.313305835377
 30
0.0
 11
335.726054344612
 21
65.163305835377
 31
0.0
  0
LINE
  5
250
330
1AB
100
AcDbEntity
  8
Layer0
  6
AUSGEZOGEN
 62
     9
370
    18
100
AcDbLine
 10
335.726054344612
 20
65.163305835377
 30
0.0
 11
337.053960762459
 21
65.163305835377
 31
0.0
  0
LINE
  5
251
330
1AB
100
AcDbEntity
  8
Layer0
  6
AUSGEZOGEN
 62
     9
370
    18
100
AcDbLine
 10
337.053960762459
 20
65.163305835377
 30
0.0
 11
337.717913971382
 21
66.313305835377
 31
0.0
  0
LINE
  5
252
330
1AB
100
AcDbEntity
  8
Layer0
  6
AUSGEZOGEN
 62
     9
370
    18
100
AcDbLine
 10
337.717913971382
 20
66.313305835377
 30
0.0
 11
337.053960762459
 21
67.463305835377
 31
0.0
  0
LINE
  5
253
330
1AB
100
AcDbEntity
  8
Layer0
  6
AUSGEZOGEN
 62
     9
370
    18
100
AcDbLine
 10
337.053960762459
 20
67.463305835377
 30
0.0
 11
335.726054344612
 21
67.463305835377
 31
0.0
  0
LINE
  5
254
330
1AB
100
AcDbEntity
  8
Layer0
  6
AUSGEZOGEN
 62
     9
370
    18
100
AcDbLine
 10
335.726054344612
 20
74.363305835377
 30
0.0
 11
335.062101135689
 21
73.213305835377
 31
0.0
  0
LINE
  5
255
330
1AB
100
AcDbEntity
  8
Layer0
  6
AUSGEZOGEN
 62
     9
370
    18
100
AcDbLine
 10
335.062101135689
 20
73.213305835377
 30
0.0
 11
335.726054344612
 21
72.063305835377
 31
0.0
  0
LINE
  5
256
330
1AB
100
AcDbEntity
  8
Layer0
  6
AUSGEZOGEN
 62
     9
370
    18
100
AcDbLine
 10
335.726054344612
 20
72.063305835377
 30
0.0
 11
337.053960762459
 21
72.063305835377
 31
0.0
  0
LINE
  5
257
330
1AB
100
AcDbEntity
  8
Layer0
  6
AUSGEZOGEN
 62
     9
370
    18
100
AcDbLine
 10
337.053960762459
 20
72.063305835377
 30
0.0
 11
337.717913971382
 21
73.213305835377
 31
0.0
  0
LINE
  5
258
330
1AB
100
AcDbEntity
  8
Layer0
  6
AUSGEZOGEN
 62
     9
370
    18
100
AcDbLine
 10
337.717913971382
 20
73.213305835377
 30
0.0
 11
337.053960762459
 21
74.363305835377
 31
0.0
  0
LINE
  5
259
330
1AB
100
AcDbEntity
  8
Layer0
  6
AUSGEZOGEN
 62
     9
370
    18
100
AcDbLine
 10
337.053960762459
 20
74.363305835377
 30
0.0
 11
335.726054344612
 21
74.363305835377
 31
0.0
  0
LINE
  5
25A
330
1AB
100
AcDbEntity
  8
Stammform
  6
AUSGEZOGEN
 62
    56
370
    18
100
AcDbLine
 10
335.726054344612
 20
74.363305835377
 30
0.0
 11
336.390007553535
 21
73.213305835377
 31
0.0
  0
LINE
  5
25B
330
1AB
100
AcDbEntity
  8
Stammform
  6
AUSGEZOGEN
 62
    56
370
    18
100
AcDbLine
 10
336.390007553535
 20
73.213305835377
 30
0.0
 11
337.717913971382
 21
73.213305835377
 31
0.0
  0
LINE
  5
25C
330
1AB
100
AcDbEntity
  8
Stammform
  6
AUSGEZOGEN
 62
    56
370
    18
100
AcDbLine
 10
336.390007553535
 20
73.213305835377
 30
0.0
 11
335.726054344612
 21
72.063305835377
 31
0.0
  0
LINE
  5
25D
330
1AB
100
AcDbEntity
  8
Stammform
  6
AUSGEZOGEN
 62
    56
370
    18
100
AcDbLine
 10
336.390007553535
 20
70.913305835377
 30
0.0
 11
335.726054344612
 21
69.763305835377
 31
0.0
  0
LINE
  5
25E
330
1AB
100
AcDbEntity
  8
Stammform
  6
AUSGEZOGEN
 62
    56
370
    18
100
AcDbLine
 10
336.390007553535
 20
70.913305835377
 30
0.0
 11
337.717913971382
 21
70.913305835377
 31
0.0
  0
LINE
  5
25F
330
1AB
100
AcDbEntity
  8
Stammform
  6
AUSGEZOGEN
 62
    56
370
    18
100
AcDbLine
 10
335.726054344612
 20
72.063305835377
 30
0.0
 11
336.390007553535
 21
70.913305835377
 31
0.0
  0
LINE
  5
260
330
1AB
100
AcDbEntity
  8
Layer0
  6
AUSGEZOGEN
 62
     9
370
    18
100
AcDbLine
 10
335.726054344612
 20
72.063305835377
 30
0.0
 11
335.062101135689
 21
70.913305835377
 31
0.0
  0
LINE
  5
261
330
1AB
100
AcDbEntity
  8
Layer0
  6
AUSGEZOGEN
 62
     9
370
    18
100
AcDbLine
 10
335.062101135689
 20
70.913305835377
 30
0.0
 11
335.726054344612
 21
69.763305835377
 31
0.0
  0
LINE
  5
262
330
1AB
100
AcDbEntity
  8
Layer0
  6
AUSGEZOGEN
 62
     9
370
    18
100
AcDbLine
 10
335.726054344612
 20
69.763305835377
 30
0.0
 11
337.053960762459
 21
69.763305835377
 31
0.0
  0
LINE
  5
263
330
1AB
100
AcDbEntity
  8
Layer0
  6
AUSGEZOGEN
 62
     9
370
    18
100
AcDbLine
 10
337.053960762459
 20
69.763305835377
 30
0.0
 11
337.717913971382
 21
70.913305835377
 31
0.0
  0
LINE
  5
264
330
1AB
100
AcDbEntity
  8
Layer0
  6
AUSGEZOGEN
 62
     9
370
    18
100
AcDbLine
 10
337.717913971382
 20
70.913305835377
 30
0.0
 11
337.053960762459
 21
72.063305835377
 31
0.0
  0
LINE
  5
265
330
1AB
100
AcDbEntity
  8
Layer0
  6
AUSGEZOGEN
 62
     9
370
    18
100
AcDbLine
 10
337.053960762459
 20
72.063305835377
 30
0.0
 11
335.726054344612
 21
72.063305835377
 31
0.0
  0
LINE
  5
266
330
1AB
100
AcDbEntity
  8
Stammform
  6
AUSGEZOGEN
 62
    56
370
    18
100
AcDbLine
 10
335.980153898242
 20
74.803418907724
 30
0.0
 11
335.726054344612
 21
74.363305835377
 31
0.0
  0
LINE
  5
267
330
1AB
100
AcDbEntity
  8
Layer0
  6
AUSGEZOGEN
 62
     9
370
    18
100
AcDbLine
 10
335.493612020327
 20
74.76590750871
 30
0.0
 11
335.726054344612
 21
74.363305835377
 31
0.0
  0
LINE
  5
268
330
1AB
100
AcDbEntity
  8
Layer0
  6
AUSGEZOGEN
 62
     9
370
    18
100
AcDbLine
 10
335.726054344612
 20
74.363305835377
 30
0.0
 11
337.053960762459
 21
74.363305835377
 31
0.0
  0
LINE
  5
269
330
1AB
100
AcDbEntity
  8
Layer0
  6
AUSGEZOGEN
 62
     9
370
    18
100
AcDbLine
 10
337.053960762459
 20
74.363305835377
 30
0.0
 11
337.286403086744
 21
74.76590750871
 31
0.0
  0
LINE
  5
26A
330
1AB
100
AcDbEntity
  8
Layer0
  6
AUSGEZOGEN
 62
     9
370
    18
100
AcDbLine
 10
337.286403086744
 20
57.860704162043
 30
0.0
 11
337.053960762459
 21
58.263305835377
 31
0.0
  0
LINE
  5
26B
330
1AB
100
AcDbEntity
  8
Layer0
  6
AUSGEZOGEN
 62
     9
370
    18
100
AcDbLine
 10
337.053960762459
 20
58.263305835377
 30
0.0
 11
335.726054344612
 21
58.263305835377
 31
0.0
  0
LINE
  5
26C
330
1AB
100
AcDbEntity
  8
Stammform
  6
AUSGEZOGEN
 62
    56
370
    18
100
AcDbLine
 10
335.726054344612
 20
58.263305835377
 30
0.0
 11
335.980153898242
 21
57.823192763029
 31
0.0
  0
LINE
  5
26D
330
1AB
100
AcDbEntity
  8
Stammform
  6
AUSGEZOGEN
 62
    56
370
    18
100
AcDbLine
 10
336.390007553535
 20
59.413305835377
 30
0.0
 11
335.726054344612
 21
58.263305835377
 31
0.0
  0
LINE
  5
26E
330
1AB
100
AcDbEntity
  8
Stammform
  6
AUSGEZOGEN
 62
    56
370
    18
100
AcDbLine
 10
336.390007553535
 20
59.413305835377
 30
0.0
 11
337.717913971382
 21
59.413305835377
 31
0.0
  0
LINE
  5
26F
330
1AB
100
AcDbEntity
  8
Stammform
  6
AUSGEZOGEN
 62
    56
370
    18
100
AcDbLine
 10
335.726054344612
 20
60.563305835377
 30
0.0
 11
336.390007553535
 21
59.413305835377
 31
0.0
  0
LINE
  5
270
330
1AB
100
AcDbEntity
  8
Layer0
  6
AUSGEZOGEN
 62
     9
370
    18
100
AcDbLine
 10
335.726054344612
 20
60.563305835377
 30
0.0
 11
335.062101135689
 21
59.413305835377
 31
0.0
  0
LINE
  5
271
330
1AB
100
AcDbEntity
  8
Layer0
  6
AUSGEZOGEN
 62
     9
370
    18
100
AcDbLine
 10
335.062101135689
 20
59.413305835377
 30
0.0
 11
335.726054344612
 21
58.263305835377
 31
0.0
  0
LINE
  5
272
330
1AB
100
AcDbEntity
  8
Layer0
  6
AUSGEZOGEN
 62
     9
370
    18
100
AcDbLine
 10
335.726054344612
 20
58.263305835377
 30
0.0
 11
337.053960762459
 21
58.263305835377
 31
0.0
  0
LINE
  5
273
330
1AB
100
AcDbEntity
  8
Layer0
  6
AUSGEZOGEN
 62
     9
370
    18
100
AcDbLine
 10
337.053960762459
 20
58.263305835377
 30
0.0
 11
337.717913971382
 21
59.413305835377
 31
0.0
  0
LINE
  5
274
330
1AB
100
AcDbEntity
  8
Layer0
  6
AUSGEZOGEN
 62
     9
370
    18
100
AcDbLine
 10
337.717913971382
 20
59.413305835377
 30
0.0
 11
337.053960762459
 21
60.563305835377
 31
0.0
  0
LINE
  5
275
330
1AB
100
AcDbEntity
  8
Layer0
  6
AUSGEZOGEN
 62
     9
370
    18
100
AcDbLine
 10
337.053960762459
 20
60.563305835377
 30
0.0
 11
335.726054344612
 21
60.563305835377
 31
0.0
  0
LINE
  5
276
330
1AB
100
AcDbEntity
  8
Layer0
  6
AUSGEZOGEN
 62
     9
370
    18
100
AcDbLine
 10
335.493612020327
 20
57.860704162043
 30
0.0
 11
335.726054344612
 21
58.263305835377
 31
0.0
  0
LINE
  5
277
330
1AB
100
AcDbEntity
  8
Layer0
  6
AUSGEZOGEN
 62
     9
370
    18
100
AcDbLine
 10
335.726054344612
 20
58.263305835377
 30
0.0
 11
335.062101135689
 21
59.413305835377
 31
0.0
  0
LINE
  5
278
330
1AB
100
AcDbEntity
  8
Layer0
  6
AUSGEZOGEN
 62
     9
370
    18
100
AcDbLine
 10
335.062101135689
 20
59.413305835377
 30
0.0
 11
333.734194717842
 21
59.413305835377
 31
0.0
  0
LINE
  5
279
330
1AB
100
AcDbEntity
  8
Stammform
  6
AUSGEZOGEN
 62
    56
370
    18
100
AcDbLine
 10
333.734194717842
 20
59.413305835377
 30
0.0
 11
334.398147926765
 21
58.263305835377
 31
0.0
  0
LINE
  5
27A
330
1AB
100
AcDbEntity
  8
Stammform
  6
AUSGEZOGEN
 62
    56
370
    18
100
AcDbLine
 10
334.398147926765
 20
58.263305835377
 30
0.0
 11
335.726054344612
 21
58.263305835377
 31
0.0
  0
LINE
  5
27B
330
1AB
100
AcDbEntity
  8
Stammform
  6
AUSGEZOGEN
 62
    56
370
    18
100
AcDbLine
 10
334.398147926765
 20
58.263305835377
 30
0.0
 11
334.290410372291
 21
58.076699029385
 31
0.0
  0
LINE
  5
27C
330
1AB
100
AcDbEntity
  8
Layer0
  6
AUSGEZOGEN
 62
     9
370
    18
100
AcDbLine
 10
333.734194717842
 20
73.213305835377
 30
0.0
 11
335.062101135689
 21
73.213305835377
 31
0.0
  0
LINE
  5
27D
330
1AB
100
AcDbEntity
  8
Layer0
  6
AUSGEZOGEN
 62
     9
370
    18
100
AcDbLine
 10
335.062101135689
 20
73.213305835377
 30
0.0
 11
335.726054344612
 21
74.363305835377
 31
0.0
  0
LINE
  5
27E
330
1AB
100
AcDbEntity
  8
Stammform
  6
AUSGEZOGEN
 62
    56
370
    18
100
AcDbLine
 10
334.290410372291
 20
74.549912641369
 30
0.0
 11
334.398147926765
 21
74.363305835377
 31
0.0
  0
LINE
  5
27F
330
1AB
100
AcDbEntity
  8
Stammform
  6
AUSGEZOGEN
 62
    56
370
    18
100
AcDbLine
 10
334.398147926765
 20
74.363305835377
 30
0.0
 11
335.726054344612
 21
74.363305835377
 31
0.0
  0
LINE
  5
280
330
1AB
100
AcDbEntity
  8
Stammform
  6
AUSGEZOGEN
 62
    56
370
    18
100
AcDbLine
 10
334.398147926765
 20
74.363305835377
 30
0.0
 11
333.734194717842
 21
73.213305835377
 31
0.0
  0
LINE
  5
281
330
1AB
100
AcDbEntity
  8
Layer0
  6
AUSGEZOGEN
 62
     9
370
    18
100
AcDbLine
 10
333.734194717842
 20
70.913305835377
 30
0.0
 11
333.070245895821
 21
69.763305835377
 31
0.0
  0
LINE
  5
282
330
1AB
100
AcDbEntity
  8
Layer0
  6
AUSGEZOGEN
 62
     9
370
    18
100
AcDbLine
 10
333.070245895821
 20
69.763305835377
 30
0.0
 11
333.734194717842
 21
68.613305835377
 31
0.0
  0
LINE
  5
283
330
1AB
100
AcDbEntity
  8
Layer0
  6
AUSGEZOGEN
 62
     9
370
    18
100
AcDbLine
 10
333.734194717842
 20
68.613305835377
 30
0.0
 11
335.062101135689
 21
68.613305835377
 31
0.0
  0
LINE
  5
284
330
1AB
100
AcDbEntity
  8
Layer0
  6
AUSGEZOGEN
 62
     9
370
    18
100
AcDbLine
 10
335.062101135689
 20
68.613305835377
 30
0.0
 11
335.726054344612
 21
69.763305835377
 31
0.0
  0
LINE
  5
285
330
1AB
100
AcDbEntity
  8
Layer0
  6
AUSGEZOGEN
 62
     9
370
    18
100
AcDbLine
 10
335.726054344612
 20
69.763305835377
 30
0.0
 11
335.062101135689
 21
70.913305835377
 31
0.0
  0
LINE
  5
286
330
1AB
100
AcDbEntity
  8
Layer0
  6
AUSGEZOGEN
 62
     9
370
    18
100
AcDbLine
 10
335.062101135689
 20
70.913305835377
 30
0.0
 11
333.734194717842
 21
70.913305835377
 31
0.0
  0
LINE
  5
287
330
1AB
100
AcDbEntity
  8
Stammform
  6
AUSGEZOGEN
 62
    56
370
    18
100
AcDbLine
 10
333.734194717842
 20
70.913305835377
 30
0.0
 11
334.398147926765
 21
69.763305835377
 31
0.0
  0
LINE
  5
288
330
1AB
100
AcDbEntity
  8
Stammform
  6
AUSGEZOGEN
 62
    56
370
    18
100
AcDbLine
 10
334.398147926765
 20
69.763305835377
 30
0.0
 11
335.726054344612
 21
69.763305835377
 31
0.0
  0
LINE
  5
289
330
1AB
100
AcDbEntity
  8
Stammform
  6
AUSGEZOGEN
 62
    56
370
    18
100
AcDbLine
 10
334.398147926765
 20
69.763305835377
 30
0.0
 11
333.734194717842
 21
68.613305835377
 31
0.0
  0
LINE
  5
28A
330
1AB
100
AcDbEntity
  8
Stammform
  6
AUSGEZOGEN
 62
    56
370
    18
100
AcDbLine
 10
334.398147926765
 20
72.063305835377
 30
0.0
 11
333.734194717842
 21
70.913305835377
 31
0.0
  0
LINE
  5
28B
330
1AB
100
AcDbEntity
  8
Stammform
  6
AUSGEZOGEN
 62
    56
370
    18
100
AcDbLine
 10
334.398147926765
 20
72.063305835377
 30
0.0
 11
335.726054344612
 21
72.063305835377
 31
0.0
  0
LINE
  5
28C
330
1AB
100
AcDbEntity
  8
Stammform
  6
AUSGEZOGEN
 62
    56
370
    18
100
AcDbLine
 10
333.734194717842
 20
73.213305835377
 30
0.0
 11
334.398147926765
 21
72.063305835377
 31
0.0
  0
LINE
  5
28D
330
1AB
100
AcDbEntity
  8
Layer0
  6
AUSGEZOGEN
 62
     9
370
    18
100
AcDbLine
 10
333.734194717842
 20
73.213305835377
 30
0.0
 11
333.070245895821
 21
72.063305835377
 31
0.0
  0
LINE
  5
28E
330
1AB
100
AcDbEntity
  8
Layer0
  6
AUSGEZOGEN
 62
     9
370
    18
100
AcDbLine
 10
333.070245895821
 20
72.063305835377
 30
0.0
 11
333.734194717842
 21
70.913305835377
 31
0.0
  0
LINE
  5
28F
330
1AB
100
AcDbEntity
  8
Layer0
  6
AUSGEZOGEN
 62
     9
370
    18
100
AcDbLine
 10
333.734194717842
 20
70.913305835377
 30
0.0
 11
335.062101135689
 21
70.913305835377
 31
0.0
  0
LINE
  5
290
330
1AB
100
AcDbEntity
  8
Layer0
  6
AUSGEZOGEN
 62
     9
370
    18
100
AcDbLine
 10
335.062101135689
 20
70.913305835377
 30
0.0
 11
335.726054344612
 21
72.063305835377
 31
0.0
  0
LINE
  5
291
330
1AB
100
AcDbEntity
  8
Layer0
  6
AUSGEZOGEN
 62
     9
370
    18
100
AcDbLine
 10
335.726054344612
 20
72.063305835377
 30
0.0
 11
335.062101135689
 21
73.213305835377
 31
0.0
  0
LINE
  5
292
330
1AB
100
AcDbEntity
  8
Layer0
  6
AUSGEZOGEN
 62
     9
370
    18
100
AcDbLine
 10
335.062101135689
 20
73.213305835377
 30
0.0
 11
333.734194717842
 21
73.213305835377
 31
0.0
  0
LINE
  5
293
330
1AB
100
AcDbEntity
  8
Layer0
  6
AUSGEZOGEN
 62
     9
370
    18
100
AcDbLine
 10
333.734194717842
 20
66.313305835377
 30
0.0
 11
333.070245895821
 21
65.163305835377
 31
0.0
  0
LINE
  5
294
330
1AB
100
AcDbEntity
  8
Layer0
  6
AUSGEZOGEN
 62
     9
370
    18
100
AcDbLine
 10
333.070245895821
 20
65.163305835377
 30
0.0
 11
333.734194717842
 21
64.013305835377
 31
0.0
  0
LINE
  5
295
330
1AB
100
AcDbEntity
  8
Layer0
  6
AUSGEZOGEN
 62
     9
370
    18
100
AcDbLine
 10
333.734194717842
 20
64.013305835377
 30
0.0
 11
335.062101135689
 21
64.013305835377
 31
0.0
  0
LINE
  5
296
330
1AB
100
AcDbEntity
  8
Layer0
  6
AUSGEZOGEN
 62
     9
370
    18
100
AcDbLine
 10
335.062101135689
 20
64.013305835377
 30
0.0
 11
335.726054344612
 21
65.163305835377
 31
0.0
  0
LINE
  5
297
330
1AB
100
AcDbEntity
  8
Layer0
  6
AUSGEZOGEN
 62
     9
370
    18
100
AcDbLine
 10
335.726054344612
 20
65.163305835377
 30
0.0
 11
335.062101135689
 21
66.313305835377
 31
0.0
  0
LINE
  5
298
330
1AB
100
AcDbEntity
  8
Layer0
  6
AUSGEZOGEN
 62
     9
370
    18
100
AcDbLine
 10
335.062101135689
 20
66.313305835377
 30
0.0
 11
333.734194717842
 21
66.313305835377
 31
0.0
  0
LINE
  5
299
330
1AB
100
AcDbEntity
  8
Stammform
  6
AUSGEZOGEN
 62
    56
370
    18
100
AcDbLine
 10
333.734194717842
 20
66.313305835377
 30
0.0
 11
334.398147926765
 21
65.163305835377
 31
0.0
  0
LINE
  5
29A
330
1AB
100
AcDbEntity
  8
Stammform
  6
AUSGEZOGEN
 62
    56
370
    18
100
AcDbLine
 10
334.398147926765
 20
65.163305835377
 30
0.0
 11
335.726054344612
 21
65.163305835377
 31
0.0
  0
LINE
  5
29B
330
1AB
100
AcDbEntity
  8
Stammform
  6
AUSGEZOGEN
 62
    56
370
    18
100
AcDbLine
 10
334.398147926765
 20
65.163305835377
 30
0.0
 11
333.734194717842
 21
64.013305835377
 31
0.0
  0
LINE
  5
29C
330
1AB
100
AcDbEntity
  8
Stammform
  6
AUSGEZOGEN
 62
    56
370
    18
100
AcDbLine
 10
334.398147926765
 20
67.463305835377
 30
0.0
 11
333.734194717842
 21
66.313305835377
 31
0.0
  0
LINE
  5
29D
330
1AB
100
AcDbEntity
  8
Stammform
  6
AUSGEZOGEN
 62
    56
370
    18
100
AcDbLine
 10
334.398147926765
 20
67.463305835377
 30
0.0
 11
335.726054344612
 21
67.463305835377
 31
0.0
  0
LINE
  5
29E
330
1AB
100
AcDbEntity
  8
Stammform
  6
AUSGEZOGEN
 62
    56
370
    18
100
AcDbLine
 10
333.734194717842
 20
68.613305835377
 30
0.0
 11
334.398147926765
 21
67.463305835377
 31
0.0
  0
LINE
  5
29F
330
1AB
100
AcDbEntity
  8
Layer0
  6
AUSGEZOGEN
 62
     9
370
    18
100
AcDbLine
 10
333.734194717842
 20
68.613305835377
 30
0.0
 11
333.070245895821
 21
67.463305835377
 31
0.0
  0
LINE
  5
2A0
330
1AB
100
AcDbEntity
  8
Layer0
  6
AUSGEZOGEN
 62
     9
370
    18
100
AcDbLine
 10
333.070245895821
 20
67.463305835377
 30
0.0
 11
333.734194717842
 21
66.313305835377
 31
0.0
  0
LINE
  5
2A1
330
1AB
100
AcDbEntity
  8
Layer0
  6
AUSGEZOGEN
 62
     9
370
    18
100
AcDbLine
 10
333.734194717842
 20
66.313305835377
 30
0.0
 11
335.062101135689
 21
66.313305835377
 31
0.0
  0
LINE
  5
2A2
330
1AB
100
AcDbEntity
  8
Layer0
  6
AUSGEZOGEN
 62
     9
370
    18
100
AcDbLine
 10
335.062101135689
 20
66.313305835377
 30
0.0
 11
335.726054344612
 21
67.463305835377
 31
0.0
  0
LINE
  5
2A3
330
1AB
100
AcDbEntity
  8
Layer0
  6
AUSGEZOGEN
 62
     9
370
    18
100
AcDbLine
 10
335.726054344612
 20
67.463305835377
 30
0.0
 11
335.062101135689
 21
68.613305835377
 31
0.0
  0
LINE
  5
2A4
330
1AB
100
AcDbEntity
  8
Layer0
  6
AUSGEZOGEN
 62
     9
370
    18
100
AcDbLine
 10
335.062101135689
 20
68.613305835377
 30
0.0
 11
333.734194717842
 21
68.613305835377
 31
0.0
  0
LINE
  5
2A5
330
1AB
100
AcDbEntity
  8
Layer0
  6
AUSGEZOGEN
 62
     9
370
    18
100
AcDbLine
 10
333.734194717842
 20
64.013305835377
 30
0.0
 11
333.070245895821
 21
62.863305835377
 31
0.0
  0
LINE
  5
2A6
330
1AB
100
AcDbEntity
  8
Layer0
  6
AUSGEZOGEN
 62
     9
370
    18
100
AcDbLine
 10
333.070245895821
 20
62.863305835377
 30
0.0
 11
333.734194717842
 21
61.713305835377
 31
0.0
  0
LINE
  5
2A7
330
1AB
100
AcDbEntity
  8
Layer0
  6
AUSGEZOGEN
 62
     9
370
    18
100
AcDbLine
 10
333.734194717842
 20
61.713305835377
 30
0.0
 11
335.062101135689
 21
61.713305835377
 31
0.0
  0
LINE
  5
2A8
330
1AB
100
AcDbEntity
  8
Layer0
  6
AUSGEZOGEN
 62
     9
370
    18
100
AcDbLine
 10
335.062101135689
 20
61.713305835377
 30
0.0
 11
335.726054344612
 21
62.863305835377
 31
0.0
  0
LINE
  5
2A9
330
1AB
100
AcDbEntity
  8
Layer0
  6
AUSGEZOGEN
 62
     9
370
    18
100
AcDbLine
 10
335.726054344612
 20
62.863305835377
 30
0.0
 11
335.062101135689
 21
64.013305835377
 31
0.0
  0
LINE
  5
2AA
330
1AB
100
AcDbEntity
  8
Layer0
  6
AUSGEZOGEN
 62
     9
370
    18
100
AcDbLine
 10
335.062101135689
 20
64.013305835377
 30
0.0
 11
333.734194717842
 21
64.013305835377
 31
0.0
  0
LINE
  5
2AB
330
1AB
100
AcDbEntity
  8
Stammform
  6
AUSGEZOGEN
 62
    56
370
    18
100
AcDbLine
 10
333.734194717842
 20
64.013305835377
 30
0.0
 11
334.398147926765
 21
62.863305835377
 31
0.0
  0
LINE
  5
2AC
330
1AB
100
AcDbEntity
  8
Stammform
  6
AUSGEZOGEN
 62
    56
370
    18
100
AcDbLine
 10
334.398147926765
 20
62.863305835377
 30
0.0
 11
335.726054344612
 21
62.863305835377
 31
0.0
  0
LINE
  5
2AD
330
1AB
100
AcDbEntity
  8
Stammform
  6
AUSGEZOGEN
 62
    56
370
    18
100
AcDbLine
 10
334.398147926765
 20
62.863305835377
 30
0.0
 11
333.734194717842
 21
61.713305835377
 31
0.0
  0
LINE
  5
2AE
330
1AB
100
AcDbEntity
  8
Stammform
  6
AUSGEZOGEN
 62
    56
370
    18
100
AcDbLine
 10
334.398147926765
 20
60.563305835377
 30
0.0
 11
333.734194717842
 21
59.413305835377
 31
0.0
  0
LINE
  5
2AF
330
1AB
100
AcDbEntity
  8
Stammform
  6
AUSGEZOGEN
 62
    56
370
    18
100
AcDbLine
 10
334.398147926765
 20
60.563305835377
 30
0.0
 11
335.726054344612
 21
60.563305835377
 31
0.0
  0
LINE
  5
2B0
330
1AB
100
AcDbEntity
  8
Stammform
  6
AUSGEZOGEN
 62
    56
370
    18
100
AcDbLine
 10
333.734194717842
 20
61.713305835377
 30
0.0
 11
334.398147926765
 21
60.563305835377
 31
0.0
  0
LINE
  5
2B1
330
1AB
100
AcDbEntity
  8
Layer0
  6
AUSGEZOGEN
 62
     9
370
    18
100
AcDbLine
 10
333.734194717842
 20
61.713305835377
 30
0.0
 11
333.070245895821
 21
60.563305835377
 31
0.0
  0
LINE
  5
2B2
330
1AB
100
AcDbEntity
  8
Layer0
  6
AUSGEZOGEN
 62
     9
370
    18
100
AcDbLine
 10
333.070245895821
 20
60.563305835377
 30
0.0
 11
333.734194717842
 21
59.413305835377
 31
0.0
  0
LINE
  5
2B3
330
1AB
100
AcDbEntity
  8
Layer0
  6
AUSGEZOGEN
 62
     9
370
    18
100
AcDbLine
 10
333.734194717842
 20
59.413305835377
 30
0.0
 11
335.062101135689
 21
59.413305835377
 31
0.0
  0
LINE
  5
2B4
330
1AB
100
AcDbEntity
  8
Layer0
  6
AUSGEZOGEN
 62
     9
370
    18
100
AcDbLine
 10
335.062101135689
 20
59.413305835377
 30
0.0
 11
335.726054344612
 21
60.563305835377
 31
0.0
  0
LINE
  5
2B5
330
1AB
100
AcDbEntity
  8
Layer0
  6
AUSGEZOGEN
 62
     9
370
    18
100
AcDbLine
 10
335.726054344612
 20
60.563305835377
 30
0.0
 11
335.062101135689
 21
61.713305835377
 31
0.0
  0
LINE
  5
2B6
330
1AB
100
AcDbEntity
  8
Layer0
  6
AUSGEZOGEN
 62
     9
370
    18
100
AcDbLine
 10
335.062101135689
 20
61.713305835377
 30
0.0
 11
333.734194717842
 21
61.713305835377
 31
0.0
  0
LINE
  5
2B7
330
1AB
100
AcDbEntity
  8
Layer0
  6
AUSGEZOGEN
 62
     9
370
    18
100
AcDbLine
 10
339.709773598152
 20
62.863305835377
 30
0.0
 11
339.045820389229
 21
61.713305835377
 31
0.0
  0
LINE
  5
2B8
330
1AB
100
AcDbEntity
  8
Layer0
  6
AUSGEZOGEN
 62
     9
370
    18
100
AcDbLine
 10
339.045820389229
 20
61.713305835377
 30
0.0
 11
339.709773598152
 21
60.563305835377
 31
0.0
  0
LINE
  5
2B9
330
1AB
100
AcDbEntity
  8
Layer0
  6
AUSGEZOGEN
 62
     9
370
    18
100
AcDbLine
 10
339.709773598152
 20
60.563305835377
 30
0.0
 11
341.037680015999
 21
60.563305835377
 31
0.0
  0
LINE
  5
2BA
330
1AB
100
AcDbEntity
  8
Layer0
  6
AUSGEZOGEN
 62
     9
370
    18
100
AcDbLine
 10
341.037680015999
 20
60.563305835377
 30
0.0
 11
341.70162883802
 21
61.713305835377
 31
0.0
  0
LINE
  5
2BB
330
1AB
100
AcDbEntity
  8
Layer0
  6
AUSGEZOGEN
 62
     9
370
    18
100
AcDbLine
 10
341.70162883802
 20
61.713305835377
 30
0.0
 11
341.037680015999
 21
62.863305835377
 31
0.0
  0
LINE
  5
2BC
330
1AB
100
AcDbEntity
  8
Layer0
  6
AUSGEZOGEN
 62
     9
370
    18
100
AcDbLine
 10
341.037680015999
 20
62.863305835377
 30
0.0
 11
339.709773598152
 21
62.863305835377
 31
0.0
  0
LINE
  5
2BD
330
1AB
100
AcDbEntity
  8
Stammform
  6
AUSGEZOGEN
 62
    56
370
    18
100
AcDbLine
 10
339.709773598152
 20
62.863305835377
 30
0.0
 11
340.373722420174
 21
61.713305835377
 31
0.0
  0
LINE
  5
2BE
330
1AB
100
AcDbEntity
  8
Stammform
  6
AUSGEZOGEN
 62
    56
370
    18
100
AcDbLine
 10
340.373722420174
 20
61.713305835377
 30
0.0
 11
341.70162883802
 21
61.713305835377
 31
0.0
  0
LINE
  5
2BF
330
1AB
100
AcDbEntity
  8
Stammform
  6
AUSGEZOGEN
 62
    56
370
    18
100
AcDbLine
 10
340.373722420174
 20
61.713305835377
 30
0.0
 11
339.709773598152
 21
60.563305835377
 31
0.0
  0
LINE
  5
2C0
330
1AB
100
AcDbEntity
  8
Stammform
  6
AUSGEZOGEN
 62
    56
370
    18
100
AcDbLine
 10
340.373722420174
 20
64.013305835377
 30
0.0
 11
339.709773598152
 21
62.863305835377
 31
0.0
  0
LINE
  5
2C1
330
1AB
100
AcDbEntity
  8
Stammform
  6
AUSGEZOGEN
 62
    56
370
    18
100
AcDbLine
 10
340.373722420174
 20
64.013305835377
 30
0.0
 11
341.70162883802
 21
64.013305835377
 31
0.0
  0
LINE
  5
2C2
330
1AB
100
AcDbEntity
  8
Stammform
  6
AUSGEZOGEN
 62
    56
370
    18
100
AcDbLine
 10
339.709773598152
 20
65.163305835377
 30
0.0
 11
340.373722420174
 21
64.013305835377
 31
0.0
  0
LINE
  5
2C3
330
1AB
100
AcDbEntity
  8
Layer0
  6
AUSGEZOGEN
 62
     9
370
    18
100
AcDbLine
 10
339.709773598152
 20
65.163305835377
 30
0.0
 11
339.045820389229
 21
64.013305835377
 31
0.0
  0
LINE
  5
2C4
330
1AB
100
AcDbEntity
  8
Layer0
  6
AUSGEZOGEN
 62
     9
370
    18
100
AcDbLine
 10
339.045820389229
 20
64.013305835377
 30
0.0
 11
339.709773598152
 21
62.863305835377
 31
0.0
  0
LINE
  5
2C5
330
1AB
100
AcDbEntity
  8
Layer0
  6
AUSGEZOGEN
 62
     9
370
    18
100
AcDbLine
 10
339.709773598152
 20
62.863305835377
 30
0.0
 11
341.037680015999
 21
62.863305835377
 31
0.0
  0
LINE
  5
2C6
330
1AB
100
AcDbEntity
  8
Layer0
  6
AUSGEZOGEN
 62
     9
370
    18
100
AcDbLine
 10
341.037680015999
 20
62.863305835377
 30
0.0
 11
341.70162883802
 21
64.013305835377
 31
0.0
  0
LINE
  5
2C7
330
1AB
100
AcDbEntity
  8
Layer0
  6
AUSGEZOGEN
 62
     9
370
    18
100
AcDbLine
 10
341.70162883802
 20
64.013305835377
 30
0.0
 11
341.037680015999
 21
65.163305835377
 31
0.0
  0
LINE
  5
2C8
330
1AB
100
AcDbEntity
  8
Layer0
  6
AUSGEZOGEN
 62
     9
370
    18
100
AcDbLine
 10
341.037680015999
 20
65.163305835377
 30
0.0
 11
339.709773598152
 21
65.163305835377
 31
0.0
  0
LINE
  5
2C9
330
1AB
100
AcDbEntity
  8
Layer0
  6
AUSGEZOGEN
 62
     9
370
    18
100
AcDbLine
 10
339.709773598152
 20
69.763305835377
 30
0.0
 11
339.045820389229
 21
68.613305835377
 31
0.0
  0
LINE
  5
2CA
330
1AB
100
AcDbEntity
  8
Layer0
  6
AUSGEZOGEN
 62
     9
370
    18
100
AcDbLine
 10
339.045820389229
 20
68.613305835377
 30
0.0
 11
339.709773598152
 21
67.463305835377
 31
0.0
  0
LINE
  5
2CB
330
1AB
100
AcDbEntity
  8
Layer0
  6
AUSGEZOGEN
 62
     9
370
    18
100
AcDbLine
 10
339.709773598152
 20
67.463305835377
 30
0.0
 11
341.037680015999
 21
67.463305835377
 31
0.0
  0
LINE
  5
2CC
330
1AB
100
AcDbEntity
  8
Layer0
  6
AUSGEZOGEN
 62
     9
370
    18
100
AcDbLine
 10
341.037680015999
 20
67.463305835377
 30
0.0
 11
341.70162883802
 21
68.613305835377
 31
0.0
  0
LINE
  5
2CD
330
1AB
100
AcDbEntity
  8
Layer0
  6
AUSGEZOGEN
 62
     9
370
    18
100
AcDbLine
 10
341.70162883802
 20
68.613305835377
 30
0.0
 11
341.037680015999
 21
69.763305835377
 31
0.0
  0
LINE
  5
2CE
330
1AB
100
AcDbEntity
  8
Layer0
  6
AUSGEZOGEN
 62
     9
370
    18
100
AcDbLine
 10
341.037680015999
 20
69.763305835377
 30
0.0
 11
339.709773598152
 21
69.763305835377
 31
0.0
  0
LINE
  5
2CF
330
1AB
100
AcDbEntity
  8
Stammform
  6
AUSGEZOGEN
 62
    56
370
    18
100
AcDbLine
 10
339.709773598152
 20
69.763305835377
 30
0.0
 11
340.373722420174
 21
68.613305835377
 31
0.0
  0
LINE
  5
2D0
330
1AB
100
AcDbEntity
  8
Stammform
  6
AUSGEZOGEN
 62
    56
370
    18
100
AcDbLine
 10
340.373722420174
 20
68.613305835377
 30
0.0
 11
341.70162883802
 21
68.613305835377
 31
0.0
  0
LINE
  5
2D1
330
1AB
100
AcDbEntity
  8
Stammform
  6
AUSGEZOGEN
 62
    56
370
    18
100
AcDbLine
 10
340.373722420174
 20
68.613305835377
 30
0.0
 11
339.709773598152
 21
67.463305835377
 31
0.0
  0
LINE
  5
2D2
330
1AB
100
AcDbEntity
  8
Stammform
  6
AUSGEZOGEN
 62
    56
370
    18
100
AcDbLine
 10
340.373722420174
 20
66.313305835377
 30
0.0
 11
339.709773598152
 21
65.163305835377
 31
0.0
  0
LINE
  5
2D3
330
1AB
100
AcDbEntity
  8
Stammform
  6
AUSGEZOGEN
 62
    56
370
    18
100
AcDbLine
 10
340.373722420174
 20
66.313305835377
 30
0.0
 11
341.70162883802
 21
66.313305835377
 31
0.0
  0
LINE
  5
2D4
330
1AB
100
AcDbEntity
  8
Stammform
  6
AUSGEZOGEN
 62
    56
370
    18
100
AcDbLine
 10
339.709773598152
 20
67.463305835377
 30
0.0
 11
340.373722420174
 21
66.313305835377
 31
0.0
  0
LINE
  5
2D5
330
1AB
100
AcDbEntity
  8
Layer0
  6
AUSGEZOGEN
 62
     9
370
    18
100
AcDbLine
 10
339.709773598152
 20
67.463305835377
 30
0.0
 11
339.045820389229
 21
66.313305835377
 31
0.0
  0
LINE
  5
2D6
330
1AB
100
AcDbEntity
  8
Layer0
  6
AUSGEZOGEN
 62
     9
370
    18
100
AcDbLine
 10
339.045820389229
 20
66.313305835377
 30
0.0
 11
339.709773598152
 21
65.163305835377
 31
0.0
  0
LINE
  5
2D7
330
1AB
100
AcDbEntity
  8
Layer0
  6
AUSGEZOGEN
 62
     9
370
    18
100
AcDbLine
 10
339.709773598152
 20
65.163305835377
 30
0.0
 11
341.037680015999
 21
65.163305835377
 31
0.0
  0
LINE
  5
2D8
330
1AB
100
AcDbEntity
  8
Layer0
  6
AUSGEZOGEN
 62
     9
370
    18
100
AcDbLine
 10
341.037680015999
 20
65.163305835377
 30
0.0
 11
341.70162883802
 21
66.313305835377
 31
0.0
  0
LINE
  5
2D9
330
1AB
100
AcDbEntity
  8
Layer0
  6
AUSGEZOGEN
 62
     9
370
    18
100
AcDbLine
 10
341.70162883802
 20
66.313305835377
 30
0.0
 11
341.037680015999
 21
67.463305835377
 31
0.0
  0
LINE
  5
2DA
330
1AB
100
AcDbEntity
  8
Layer0
  6
AUSGEZOGEN
 62
     9
370
    18
100
AcDbLine
 10
341.037680015999
 20
67.463305835377
 30
0.0
 11
339.709773598152
 21
67.463305835377
 31
0.0
  0
LINE
  5
2DB
330
1AB
100
AcDbEntity
  8
Layer0
  6
AUSGEZOGEN
 62
     9
370
    18
100
AcDbLine
 10
339.605003199272
 20
74.181838290536
 30
0.0
 11
339.045820389229
 21
73.213305835377
 31
0.0
  0
LINE
  5
2DC
330
1AB
100
AcDbEntity
  8
Layer0
  6
AUSGEZOGEN
 62
     9
370
    18
100
AcDbLine
 10
339.045820389229
 20
73.213305835377
 30
0.0
 11
339.709773598152
 21
72.063305835377
 31
0.0
  0
LINE
  5
2DD
330
1AB
100
AcDbEntity
  8
Layer0
  6
AUSGEZOGEN
 62
     9
370
    18
100
AcDbLine
 10
339.709773598152
 20
72.063305835377
 30
0.0
 11
341.037680015999
 21
72.063305835377
 31
0.0
  0
LINE
  5
2DE
330
1AB
100
AcDbEntity
  8
Layer0
  6
AUSGEZOGEN
 62
     9
370
    18
100
AcDbLine
 10
341.037680015999
 20
72.063305835377
 30
0.0
 11
341.59685967447
 21
73.031839231195
 31
0.0
  0
LINE
  5
2DF
330
1AB
100
AcDbEntity
  8
Stammform
  6
AUSGEZOGEN
 62
    56
370
    18
100
AcDbLine
 10
339.883649398158
 20
74.062142306841
 30
0.0
 11
340.373722420174
 21
73.213305835377
 31
0.0
  0
LINE
  5
2E0
330
1AB
100
AcDbEntity
  8
Stammform
  6
AUSGEZOGEN
 62
    56
370
    18
100
AcDbLine
 10
340.373722420174
 20
73.213305835377
 30
0.0
 11
341.353877011932
 21
73.213305835377
 31
0.0
  0
LINE
  5
2E1
330
1AB
100
AcDbEntity
  8
Stammform
  6
AUSGEZOGEN
 62
    56
370
    18
100
AcDbLine
 10
340.373722420174
 20
73.213305835377
 30
0.0
 11
339.709773598152
 21
72.063305835377
 31
0.0
  0
LINE
  5
2E2
330
1AB
100
AcDbEntity
  8
Stammform
  6
AUSGEZOGEN
 62
    56
370
    18
100
AcDbLine
 10
340.373722420174
 20
70.913305835377
 30
0.0
 11
339.709773598152
 21
69.763305835377
 31
0.0
  0
LINE
  5
2E3
330
1AB
100
AcDbEntity
  8
Stammform
  6
AUSGEZOGEN
 62
    56
370
    18
100
AcDbLine
 10
340.373722420174
 20
70.913305835377
 30
0.0
 11
341.70162883802
 21
70.913305835377
 31
0.0
  0
LINE
  5
2E4
330
1AB
100
AcDbEntity
  8
Stammform
  6
AUSGEZOGEN
 62
    56
370
    18
100
AcDbLine
 10
339.709773598152
 20
72.063305835377
 30
0.0
 11
340.373722420174
 21
70.913305835377
 31
0.0
  0
LINE
  5
2E5
330
1AB
100
AcDbEntity
  8
Layer0
  6
AUSGEZOGEN
 62
     9
370
    18
100
AcDbLine
 10
339.709773598152
 20
72.063305835377
 30
0.0
 11
339.045820389229
 21
70.913305835377
 31
0.0
  0
LINE
  5
2E6
330
1AB
100
AcDbEntity
  8
Layer0
  6
AUSGEZOGEN
 62
     9
370
    18
100
AcDbLine
 10
339.045820389229
 20
70.913305835377
 30
0.0
 11
339.709773598152
 21
69.763305835377
 31
0.0
  0
LINE
  5
2E7
330
1AB
100
AcDbEntity
  8
Layer0
  6
AUSGEZOGEN
 62
     9
370
    18
100
AcDbLine
 10
339.709773598152
 20
69.763305835377
 30
0.0
 11
341.037680015999
 21
69.763305835377
 31
0.0
  0
LINE
  5
2E8
330
1AB
100
AcDbEntity
  8
Layer0
  6
AUSGEZOGEN
 62
     9
370
    18
100
AcDbLine
 10
341.037680015999
 20
69.763305835377
 30
0.0
 11
341.70162883802
 21
70.913305835377
 31
0.0
  0
LINE
  5
2E9
330
1AB
100
AcDbEntity
  8
Layer0
  6
AUSGEZOGEN
 62
     9
370
    18
100
AcDbLine
 10
341.70162883802
 20
70.913305835377
 30
0.0
 11
341.037680015999
 21
72.063305835377
 31
0.0
  0
LINE
  5
2EA
330
1AB
100
AcDbEntity
  8
Layer0
  6
AUSGEZOGEN
 62
     9
370
    18
100
AcDbLine
 10
341.037680015999
 20
72.063305835377
 30
0.0
 11
339.709773598152
 21
72.063305835377
 31
0.0
  0
LINE
  5
2EB
330
1AB
100
AcDbEntity
  8
Stammform
  6
AUSGEZOGEN
 62
    56
370
    18
100
AcDbLine
 10
340.373722420174
 20
59.413305835377
 30
0.0
 11
339.883649398158
 21
58.564469363912
 31
0.0
  0
LINE
  5
2EC
330
1AB
100
AcDbEntity
  8
Stammform
  6
AUSGEZOGEN
 62
    56
370
    18
100
AcDbLine
 10
340.373722420174
 20
59.413305835377
 30
0.0
 11
341.353877011932
 21
59.413305835377
 31
0.0
  0
LINE
  5
2ED
330
1AB
100
AcDbEntity
  8
Stammform
  6
AUSGEZOGEN
 62
    56
370
    18
100
AcDbLine
 10
339.709773598152
 20
60.563305835377
 30
0.0
 11
340.373722420174
 21
59.413305835377
 31
0.0
  0
LINE
  5
2EE
330
1AB
100
AcDbEntity
  8
Layer0
  6
AUSGEZOGEN
 62
     9
370
    18
100
AcDbLine
 10
339.709773598152
 20
60.563305835377
 30
0.0
 11
339.045820389229
 21
59.413305835377
 31
0.0
  0
LINE
  5
2EF
330
1AB
100
AcDbEntity
  8
Layer0
  6
AUSGEZOGEN
 62
     9
370
    18
100
AcDbLine
 10
339.045820389229
 20
59.413305835377
 30
0.0
 11
339.605003199272
 21
58.444773380217
 31
0.0
  0
LINE
  5
2F0
330
1AB
100
AcDbEntity
  8
Layer0
  6
AUSGEZOGEN
 62
     9
370
    18
100
AcDbLine
 10
341.59685967447
 20
59.594772439559
 30
0.0
 11
341.037680015999
 21
60.563305835377
 31
0.0
  0
LINE
  5
2F1
330
1AB
100
AcDbEntity
  8
Layer0
  6
AUSGEZOGEN
 62
     9
370
    18
100
AcDbLine
 10
341.037680015999
 20
60.563305835377
 30
0.0
 11
339.709773598152
 21
60.563305835377
 31
0.0
  0
LINE
  5
2F2
330
1AB
100
AcDbEntity
  8
Layer0
  6
AUSGEZOGEN
 62
     9
370
    18
100
AcDbLine
 10
337.717913971382
 20
59.413305835377
 30
0.0
 11
337.053960762459
 21
58.263305835377
 31
0.0
  0
LINE
  5
2F3
330
1AB
100
AcDbEntity
  8
Layer0
  6
AUSGEZOGEN
 62
     9
370
    18
100
AcDbLine
 10
339.045820389229
 20
59.413305835377
 30
0.0
 11
337.717913971382
 21
59.413305835377
 31
0.0
  0
LINE
  5
2F4
330
1AB
100
AcDbEntity
  8
Stammform
  6
AUSGEZOGEN
 62
    56
370
    18
100
AcDbLine
 10
337.717913971382
 20
59.413305835377
 30
0.0
 11
338.381867180305
 21
58.263305835377
 31
0.0
  0
LINE
  5
2F5
330
1AB
100
AcDbEntity
  8
Stammform
  6
AUSGEZOGEN
 62
    56
370
    18
100
AcDbLine
 10
338.381867180305
 20
58.263305835377
 30
0.0
 11
339.119018363334
 21
58.263305835377
 31
0.0
  0
LINE
  5
2F6
330
1AB
100
AcDbEntity
  8
Stammform
  6
AUSGEZOGEN
 62
    56
370
    18
100
AcDbLine
 10
338.381867180305
 20
58.263305835377
 30
0.0
 11
338.2396588958
 21
58.016994009507
 31
0.0
  0
LINE
  5
2F7
330
1AB
100
AcDbEntity
  8
Layer0
  6
AUSGEZOGEN
 62
     9
370
    18
100
AcDbLine
 10
337.053960762459
 20
74.363305835377
 30
0.0
 11
337.717913971382
 21
73.213305835377
 31
0.0
  0
LINE
  5
2F8
330
1AB
100
AcDbEntity
  8
Layer0
  6
AUSGEZOGEN
 62
     9
370
    18
100
AcDbLine
 10
337.717913971382
 20
73.213305835377
 30
0.0
 11
339.045820389229
 21
73.213305835377
 31
0.0
  0
LINE
  5
2F9
330
1AB
100
AcDbEntity
  8
Stammform
  6
AUSGEZOGEN
 62
    56
370
    18
100
AcDbLine
 10
338.2396588958
 20
74.609617661246
 30
0.0
 11
338.381867180305
 21
74.363305835377
 31
0.0
  0
LINE
  5
2FA
330
1AB
100
AcDbEntity
  8
Stammform
  6
AUSGEZOGEN
 62
    56
370
    18
100
AcDbLine
 10
338.381867180305
 20
74.363305835377
 30
0.0
 11
339.119018363334
 21
74.363305835377
 31
0.0
  0
LINE
  5
2FB
330
1AB
100
AcDbEntity
  8
Stammform
  6
AUSGEZOGEN
 62
    56
370
    18
100
AcDbLine
 10
338.381867180305
 20
74.363305835377
 30
0.0
 11
337.717913971382
 21
73.213305835377
 31
0.0
  0
LINE
  5
2FC
330
1AB
100
AcDbEntity
  8
Layer0
  6
AUSGEZOGEN
 62
     9
370
    18
100
AcDbLine
 10
337.717913971382
 20
70.913305835377
 30
0.0
 11
337.053960762459
 21
69.763305835377
 31
0.0
  0
LINE
  5
2FD
330
1AB
100
AcDbEntity
  8
Layer0
  6
AUSGEZOGEN
 62
     9
370
    18
100
AcDbLine
 10
337.053960762459
 20
69.763305835377
 30
0.0
 11
337.717913971382
 21
68.613305835377
 31
0.0
  0
LINE
  5
2FE
330
1AB
100
AcDbEntity
  8
Layer0
  6
AUSGEZOGEN
 62
     9
370
    18
100
AcDbLine
 10
337.717913971382
 20
68.613305835377
 30
0.0
 11
339.045820389229
 21
68.613305835377
 31
0.0
  0
LINE
  5
2FF
330
1AB
100
AcDbEntity
  8
Layer0
  6
AUSGEZOGEN
 62
     9
370
    18
100
AcDbLine
 10
339.045820389229
 20
68.613305835377
 30
0.0
 11
339.709773598152
 21
69.763305835377
 31
0.0
  0
LINE
  5
300
330
1AB
100
AcDbEntity
  8
Layer0
  6
AUSGEZOGEN
 62
     9
370
    18
100
AcDbLine
 10
339.709773598152
 20
69.763305835377
 30
0.0
 11
339.045820389229
 21
70.913305835377
 31
0.0
  0
LINE
  5
301
330
1AB
100
AcDbEntity
  8
Layer0
  6
AUSGEZOGEN
 62
     9
370
    18
100
AcDbLine
 10
339.045820389229
 20
70.913305835377
 30
0.0
 11
337.717913971382
 21
70.913305835377
 31
0.0
  0
LINE
  5
302
330
1AB
100
AcDbEntity
  8
Stammform
  6
AUSGEZOGEN
 62
    56
370
    18
100
AcDbLine
 10
337.717913971382
 20
70.913305835377
 30
0.0
 11
338.381867180305
 21
69.763305835377
 31
0.0
  0
LINE
  5
303
330
1AB
100
AcDbEntity
  8
Stammform
  6
AUSGEZOGEN
 62
    56
370
    18
100
AcDbLine
 10
338.381867180305
 20
69.763305835377
 30
0.0
 11
339.709773598152
 21
69.763305835377
 31
0.0
  0
LINE
  5
304
330
1AB
100
AcDbEntity
  8
Stammform
  6
AUSGEZOGEN
 62
    56
370
    18
100
AcDbLine
 10
338.381867180305
 20
69.763305835377
 30
0.0
 11
337.717913971382
 21
68.613305835377
 31
0.0
  0
LINE
  5
305
330
1AB
100
AcDbEntity
  8
Stammform
  6
AUSGEZOGEN
 62
    56
370
    18
100
AcDbLine
 10
338.381867180305
 20
72.063305835377
 30
0.0
 11
337.717913971382
 21
70.913305835377
 31
0.0
  0
LINE
  5
306
330
1AB
100
AcDbEntity
  8
Stammform
  6
AUSGEZOGEN
 62
    56
370
    18
100
AcDbLine
 10
338.381867180305
 20
72.063305835377
 30
0.0
 11
339.709773598152
 21
72.063305835377
 31
0.0
  0
LINE
  5
307
330
1AB
100
AcDbEntity
  8
Stammform
  6
AUSGEZOGEN
 62
    56
370
    18
100
AcDbLine
 10
337.717913971382
 20
73.213305835377
 30
0.0
 11
338.381867180305
 21
72.063305835377
 31
0.0
  0
LINE
  5
308
330
1AB
100
AcDbEntity
  8
Layer0
  6
AUSGEZOGEN
 62
     9
370
    18
100
AcDbLine
 10
337.717913971382
 20
73.213305835377
 30
0.0
 11
337.053960762459
 21
72.063305835377
 31
0.0
  0
LINE
  5
309
330
1AB
100
AcDbEntity
  8
Layer0
  6
AUSGEZOGEN
 62
     9
370
    18
100
AcDbLine
 10
337.053960762459
 20
72.063305835377
 30
0.0
 11
337.717913971382
 21
70.913305835377
 31
0.0
  0
LINE
  5
30A
330
1AB
100
AcDbEntity
  8
Layer0
  6
AUSGEZOGEN
 62
     9
370
    18
100
AcDbLine
 10
337.717913971382
 20
70.913305835377
 30
0.0
 11
339.045820389229
 21
70.913305835377
 31
0.0
  0
LINE
  5
30B
330
1AB
100
AcDbEntity
  8
Layer0
  6
AUSGEZOGEN
 62
     9
370
    18
100
AcDbLine
 10
339.045820389229
 20
70.913305835377
 30
0.0
 11
339.709773598152
 21
72.063305835377
 31
0.0
  0
LINE
  5
30C
330
1AB
100
AcDbEntity
  8
Layer0
  6
AUSGEZOGEN
 62
     9
370
    18
100
AcDbLine
 10
339.709773598152
 20
72.063305835377
 30
0.0
 11
339.045820389229
 21
73.213305835377
 31
0.0
  0
LINE
  5
30D
330
1AB
100
AcDbEntity
  8
Layer0
  6
AUSGEZOGEN
 62
     9
370
    18
100
AcDbLine
 10
339.045820389229
 20
73.213305835377
 30
0.0
 11
337.717913971382
 21
73.213305835377
 31
0.0
  0
LINE
  5
30E
330
1AB
100
AcDbEntity
  8
Layer0
  6
AUSGEZOGEN
 62
     9
370
    18
100
AcDbLine
 10
337.717913971382
 20
66.313305835377
 30
0.0
 11
337.053960762459
 21
65.163305835377
 31
0.0
  0
LINE
  5
30F
330
1AB
100
AcDbEntity
  8
Layer0
  6
AUSGEZOGEN
 62
     9
370
    18
100
AcDbLine
 10
337.053960762459
 20
65.163305835377
 30
0.0
 11
337.717913971382
 21
64.013305835377
 31
0.0
  0
LINE
  5
310
330
1AB
100
AcDbEntity
  8
Layer0
  6
AUSGEZOGEN
 62
     9
370
    18
100
AcDbLine
 10
337.717913971382
 20
64.013305835377
 30
0.0
 11
339.045820389229
 21
64.013305835377
 31
0.0
  0
LINE
  5
311
330
1AB
100
AcDbEntity
  8
Layer0
  6
AUSGEZOGEN
 62
     9
370
    18
100
AcDbLine
 10
339.045820389229
 20
64.013305835377
 30
0.0
 11
339.709773598152
 21
65.163305835377
 31
0.0
  0
LINE
  5
312
330
1AB
100
AcDbEntity
  8
Layer0
  6
AUSGEZOGEN
 62
     9
370
    18
100
AcDbLine
 10
339.709773598152
 20
65.163305835377
 30
0.0
 11
339.045820389229
 21
66.313305835377
 31
0.0
  0
LINE
  5
313
330
1AB
100
AcDbEntity
  8
Layer0
  6
AUSGEZOGEN
 62
     9
370
    18
100
AcDbLine
 10
339.045820389229
 20
66.313305835377
 30
0.0
 11
337.717913971382
 21
66.313305835377
 31
0.0
  0
LINE
  5
314
330
1AB
100
AcDbEntity
  8
Stammform
  6
AUSGEZOGEN
 62
    56
370
    18
100
AcDbLine
 10
337.717913971382
 20
66.313305835377
 30
0.0
 11
338.381867180305
 21
65.163305835377
 31
0.0
  0
LINE
  5
315
330
1AB
100
AcDbEntity
  8
Stammform
  6
AUSGEZOGEN
 62
    56
370
    18
100
AcDbLine
 10
338.381867180305
 20
65.163305835377
 30
0.0
 11
339.709773598152
 21
65.163305835377
 31
0.0
  0
LINE
  5
316
330
1AB
100
AcDbEntity
  8
Stammform
  6
AUSGEZOGEN
 62
    56
370
    18
100
AcDbLine
 10
338.381867180305
 20
65.163305835377
 30
0.0
 11
337.717913971382
 21
64.013305835377
 31
0.0
  0
LINE
  5
317
330
1AB
100
AcDbEntity
  8
Stammform
  6
AUSGEZOGEN
 62
    56
370
    18
100
AcDbLine
 10
338.381867180305
 20
67.463305835377
 30
0.0
 11
337.717913971382
 21
66.313305835377
 31
0.0
  0
LINE
  5
318
330
1AB
100
AcDbEntity
  8
Stammform
  6
AUSGEZOGEN
 62
    56
370
    18
100
AcDbLine
 10
338.381867180305
 20
67.463305835377
 30
0.0
 11
339.709773598152
 21
67.463305835377
 31
0.0
  0
LINE
  5
319
330
1AB
100
AcDbEntity
  8
Stammform
  6
AUSGEZOGEN
 62
    56
370
    18
100
AcDbLine
 10
337.717913971382
 20
68.613305835377
 30
0.0
 11
338.381867180305
 21
67.463305835377
 31
0.0
  0
LINE
  5
31A
330
1AB
100
AcDbEntity
  8
Layer0
  6
AUSGEZOGEN
 62
     9
370
    18
100
AcDbLine
 10
337.717913971382
 20
68.613305835377
 30
0.0
 11
337.053960762459
 21
67.463305835377
 31
0.0
  0
LINE
  5
31B
330
1AB
100
AcDbEntity
  8
Layer0
  6
AUSGEZOGEN
 62
     9
370
    18
100
AcDbLine
 10
337.053960762459
 20
67.463305835377
 30
0.0
 11
337.717913971382
 21
66.313305835377
 31
0.0
  0
LINE
  5
31C
330
1AB
100
AcDbEntity
  8
Layer0
  6
AUSGEZOGEN
 62
     9
370
    18
100
AcDbLine
 10
337.717913971382
 20
66.313305835377
 30
0.0
 11
339.045820389229
 21
66.313305835377
 31
0.0
  0
LINE
  5
31D
330
1AB
100
AcDbEntity
  8
Layer0
  6
AUSGEZOGEN
 62
     9
370
    18
100
AcDbLine
 10
339.045820389229
 20
66.313305835377
 30
0.0
 11
339.709773598152
 21
67.463305835377
 31
0.0
  0
LINE
  5
31E
330
1AB
100
AcDbEntity
  8
Layer0
  6
AUSGEZOGEN
 62
     9
370
    18
100
AcDbLine
 10
339.709773598152
 20
67.463305835377
 30
0.0
 11
339.045820389229
 21
68.613305835377
 31
0.0
  0
LINE
  5
31F
330
1AB
100
AcDbEntity
  8
Layer0
  6
AUSGEZOGEN
 62
     9
370
    18
100
AcDbLine
 10
339.045820389229
 20
68.613305835377
 30
0.0
 11
337.717913971382
 21
68.613305835377
 31
0.0
  0
LINE
  5
320
330
1AB
100
AcDbEntity
  8
Layer0
  6
AUSGEZOGEN
 62
     9
370
    18
100
AcDbLine
 10
337.717913971382
 20
64.013305835377
 30
0.0
 11
337.053960762459
 21
62.863305835377
 31
0.0
  0
LINE
  5
321
330
1AB
100
AcDbEntity
  8
Layer0
  6
AUSGEZOGEN
 62
     9
370
    18
100
AcDbLine
 10
337.053960762459
 20
62.863305835377
 30
0.0
 11
337.717913971382
 21
61.713305835377
 31
0.0
  0
LINE
  5
322
330
1AB
100
AcDbEntity
  8
Layer0
  6
AUSGEZOGEN
 62
     9
370
    18
100
AcDbLine
 10
337.717913971382
 20
61.713305835377
 30
0.0
 11
339.045820389229
 21
61.713305835377
 31
0.0
  0
LINE
  5
323
330
1AB
100
AcDbEntity
  8
Layer0
  6
AUSGEZOGEN
 62
     9
370
    18
100
AcDbLine
 10
339.045820389229
 20
61.713305835377
 30
0.0
 11
339.709773598152
 21
62.863305835377
 31
0.0
  0
LINE
  5
324
330
1AB
100
AcDbEntity
  8
Layer0
  6
AUSGEZOGEN
 62
     9
370
    18
100
AcDbLine
 10
339.709773598152
 20
62.863305835377
 30
0.0
 11
339.045820389229
 21
64.013305835377
 31
0.0
  0
LINE
  5
325
330
1AB
100
AcDbEntity
  8
Layer0
  6
AUSGEZOGEN
 62
     9
370
    18
100
AcDbLine
 10
339.045820389229
 20
64.013305835377
 30
0.0
 11
337.717913971382
 21
64.013305835377
 31
0.0
  0
LINE
  5
326
330
1AB
100
AcDbEntity
  8
Stammform
  6
AUSGEZOGEN
 62
    56
370
    18
100
AcDbLine
 10
337.717913971382
 20
64.013305835377
 30
0.0
 11
338.381867180305
 21
62.863305835377
 31
0.0
  0
LINE
  5
327
330
1AB
100
AcDbEntity
  8
Stammform
  6
AUSGEZOGEN
 62
    56
370
    18
100
AcDbLine
 10
338.381867180305
 20
62.863305835377
 30
0.0
 11
339.709773598152
 21
62.863305835377
 31
0.0
  0
LINE
  5
328
330
1AB
100
AcDbEntity
  8
Stammform
  6
AUSGEZOGEN
 62
    56
370
    18
100
AcDbLine
 10
338.381867180305
 20
62.863305835377
 30
0.0
 11
337.717913971382
 21
61.713305835377
 31
0.0
  0
LINE
  5
329
330
1AB
100
AcDbEntity
  8
Stammform
  6
AUSGEZOGEN
 62
    56
370
    18
100
AcDbLine
 10
338.381867180305
 20
60.563305835377
 30
0.0
 11
337.717913971382
 21
59.413305835377
 31
0.0
  0
LINE
  5
32A
330
1AB
100
AcDbEntity
  8
Stammform
  6
AUSGEZOGEN
 62
    56
370
    18
100
AcDbLine
 10
338.381867180305
 20
60.563305835377
 30
0.0
 11
339.709773598152
 21
60.563305835377
 31
0.0
  0
LINE
  5
32B
330
1AB
100
AcDbEntity
  8
Stammform
  6
AUSGEZOGEN
 62
    56
370
    18
100
AcDbLine
 10
337.717913971382
 20
61.713305835377
 30
0.0
 11
338.381867180305
 21
60.563305835377
 31
0.0
  0
LINE
  5
32C
330
1AB
100
AcDbEntity
  8
Layer0
  6
AUSGEZOGEN
 62
     9
370
    18
100
AcDbLine
 10
337.717913971382
 20
61.713305835377
 30
0.0
 11
337.053960762459
 21
60.563305835377
 31
0.0
  0
LINE
  5
32D
330
1AB
100
AcDbEntity
  8
Layer0
  6
AUSGEZOGEN
 62
     9
370
    18
100
AcDbLine
 10
337.053960762459
 20
60.563305835377
 30
0.0
 11
337.717913971382
 21
59.413305835377
 31
0.0
  0
LINE
  5
32E
330
1AB
100
AcDbEntity
  8
Layer0
  6
AUSGEZOGEN
 62
     9
370
    18
100
AcDbLine
 10
337.717913971382
 20
59.413305835377
 30
0.0
 11
339.045820389229
 21
59.413305835377
 31
0.0
  0
LINE
  5
32F
330
1AB
100
AcDbEntity
  8
Layer0
  6
AUSGEZOGEN
 62
     9
370
    18
100
AcDbLine
 10
339.045820389229
 20
59.413305835377
 30
0.0
 11
339.709773598152
 21
60.563305835377
 31
0.0
  0
LINE
  5
330
330
1AB
100
AcDbEntity
  8
Layer0
  6
AUSGEZOGEN
 62
     9
370
    18
100
AcDbLine
 10
339.709773598152
 20
60.563305835377
 30
0.0
 11
339.045820389229
 21
61.713305835377
 31
0.0
  0
LINE
  5
331
330
1AB
100
AcDbEntity
  8
Layer0
  6
AUSGEZOGEN
 62
     9
370
    18
100
AcDbLine
 10
339.045820389229
 20
61.713305835377
 30
0.0
 11
337.717913971382
 21
61.713305835377
 31
0.0
  0
LINE
  5
332
330
1AB
100
AcDbEntity
  8
Layer0
  6
AUSGEZOGEN
 62
     9
370
    18
100
AcDbLine
 10
343.693492851692
 20
62.863305835377
 30
0.0
 11
343.029535255867
 21
61.713305835377
 31
0.0
  0
LINE
  5
333
330
1AB
100
AcDbEntity
  8
Layer0
  6
AUSGEZOGEN
 62
     9
370
    18
100
AcDbLine
 10
344.158372889949
 20
62.863305835377
 30
0.0
 11
343.693492851692
 21
62.863305835377
 31
0.0
  0
LINE
  5
334
330
1AB
100
AcDbEntity
  8
Stammform
  6
AUSGEZOGEN
 62
    56
370
    18
100
AcDbLine
 10
343.693492851692
 20
62.863305835377
 30
0.0
 11
343.947589217879
 21
62.42319537592
 31
0.0
  0
LINE
  5
335
330
1AB
100
AcDbEntity
  8
Stammform
  6
AUSGEZOGEN
 62
    56
370
    18
100
AcDbLine
 10
344.357441673714
 20
64.013305835377
 30
0.0
 11
343.693492851692
 21
62.863305835377
 31
0.0
  0
LINE
  5
336
330
1AB
100
AcDbEntity
  8
Stammform
  6
AUSGEZOGEN
 62
    56
370
    18
100
AcDbLine
 10
344.357441673714
 20
64.013305835377
 30
0.0
 11
344.572916571727
 21
64.013305835377
 31
0.0
  0
LINE
  5
337
330
1AB
100
AcDbEntity
  8
Stammform
  6
AUSGEZOGEN
 62
    56
370
    18
100
AcDbLine
 10
343.693492851692
 20
65.163305835377
 30
0.0
 11
344.357441673714
 21
64.013305835377
 31
0.0
  0
LINE
  5
338
330
1AB
100
AcDbEntity
  8
Layer0
  6
AUSGEZOGEN
 62
     9
370
    18
100
AcDbLine
 10
343.693492851692
 20
65.163305835377
 30
0.0
 11
343.029535255867
 21
64.013305835377
 31
0.0
  0
LINE
  5
339
330
1AB
100
AcDbEntity
  8
Layer0
  6
AUSGEZOGEN
 62
     9
370
    18
100
AcDbLine
 10
343.029535255867
 20
64.013305835377
 30
0.0
 11
343.693492851692
 21
62.863305835377
 31
0.0
  0
LINE
  5
33A
330
1AB
100
AcDbEntity
  8
Layer0
  6
AUSGEZOGEN
 62
     9
370
    18
100
AcDbLine
 10
344.811854144397
 20
65.163305835377
 30
0.0
 11
343.693492851692
 21
65.163305835377
 31
0.0
  0
LINE
  5
33B
330
1AB
100
AcDbEntity
  8
Layer0
  6
AUSGEZOGEN
 62
     9
370
    18
100
AcDbLine
 10
343.693492851692
 20
69.763305835377
 30
0.0
 11
343.029535255867
 21
68.613305835377
 31
0.0
  0
LINE
  5
33C
330
1AB
100
AcDbEntity
  8
Layer0
  6
AUSGEZOGEN
 62
     9
370
    18
100
AcDbLine
 10
343.029535255867
 20
68.613305835377
 30
0.0
 11
343.693492851692
 21
67.463305835377
 31
0.0
  0
LINE
  5
33D
330
1AB
100
AcDbEntity
  8
Layer0
  6
AUSGEZOGEN
 62
     9
370
    18
100
AcDbLine
 10
343.693492851692
 20
67.463305835377
 30
0.0
 11
344.811854144397
 21
67.463305835377
 31
0.0
  0
LINE
  5
33E
330
1AB
100
AcDbEntity
  8
Layer0
  6
AUSGEZOGEN
 62
     9
370
    18
100
AcDbLine
 10
344.158372889949
 20
69.763305835377
 30
0.0
 11
343.693492851692
 21
69.763305835377
 31
0.0
  0
LINE
  5
33F
330
1AB
100
AcDbEntity
  8
Stammform
  6
AUSGEZOGEN
 62
    56
370
    18
100
AcDbLine
 10
343.693492851692
 20
69.763305835377
 30
0.0
 11
344.357441673714
 21
68.613305835377
 31
0.0
  0
LINE
  5
340
330
1AB
100
AcDbEntity
  8
Stammform
  6
AUSGEZOGEN
 62
    56
370
    18
100
AcDbLine
 10
344.357441673714
 20
68.613305835377
 30
0.0
 11
344.572916571727
 21
68.613305835377
 31
0.0
  0
LINE
  5
341
330
1AB
100
AcDbEntity
  8
Stammform
  6
AUSGEZOGEN
 62
    56
370
    18
100
AcDbLine
 10
344.357441673714
 20
68.613305835377
 30
0.0
 11
343.693492851692
 21
67.463305835377
 31
0.0
  0
LINE
  5
342
330
1AB
100
AcDbEntity
  8
Stammform
  6
AUSGEZOGEN
 62
    56
370
    18
100
AcDbLine
 10
344.357441673714
 20
66.313305835377
 30
0.0
 11
343.693492851692
 21
65.163305835377
 31
0.0
  0
LINE
  5
343
330
1AB
100
AcDbEntity
  8
Stammform
  6
AUSGEZOGEN
 62
    56
370
    18
100
AcDbLine
 10
344.357441673714
 20
66.313305835377
 30
0.0
 11
345.68534809156
 21
66.313305835377
 31
0.0
  0
LINE
  5
344
330
1AB
100
AcDbEntity
  8
Stammform
  6
AUSGEZOGEN
 62
    56
370
    18
100
AcDbLine
 10
343.693492851692
 20
67.463305835377
 30
0.0
 11
344.357441673714
 21
66.313305835377
 31
0.0
  0
LINE
  5
345
330
1AB
100
AcDbEntity
  8
Layer0
  6
AUSGEZOGEN
 62
     9
370
    18
100
AcDbLine
 10
343.693492851692
 20
67.463305835377
 30
0.0
 11
343.029535255867
 21
66.313305835377
 31
0.0
  0
LINE
  5
346
330
1AB
100
AcDbEntity
  8
Layer0
  6
AUSGEZOGEN
 62
     9
370
    18
100
AcDbLine
 10
343.029535255867
 20
66.313305835377
 30
0.0
 11
343.693492851692
 21
65.163305835377
 31
0.0
  0
LINE
  5
347
330
1AB
100
AcDbEntity
  8
Stammform
  6
AUSGEZOGEN
 62
    56
370
    18
100
AcDbLine
 10
343.947589217879
 20
70.203416294833
 30
0.0
 11
343.693492851692
 21
69.763305835377
 31
0.0
  0
LINE
  5
348
330
1AB
100
AcDbEntity
  8
Layer0
  6
AUSGEZOGEN
 62
     9
370
    18
100
AcDbLine
 10
343.261978579909
 20
71.315906580258
 30
0.0
 11
343.029535255867
 21
70.913305835377
 31
0.0
  0
LINE
  5
349
330
1AB
100
AcDbEntity
  8
Layer0
  6
AUSGEZOGEN
 62
     9
370
    18
100
AcDbLine
 10
343.029535255867
 20
70.913305835377
 30
0.0
 11
343.693492851692
 21
69.763305835377
 31
0.0
  0
LINE
  5
34A
330
1AB
100
AcDbEntity
  8
Layer0
  6
AUSGEZOGEN
 62
     9
370
    18
100
AcDbLine
 10
341.70162883802
 20
70.913305835377
 30
0.0
 11
341.037680015999
 21
69.763305835377
 31
0.0
  0
LINE
  5
34B
330
1AB
100
AcDbEntity
  8
Layer0
  6
AUSGEZOGEN
 62
     9
370
    18
100
AcDbLine
 10
341.037680015999
 20
69.763305835377
 30
0.0
 11
341.70162883802
 21
68.613305835377
 31
0.0
  0
LINE
  5
34C
330
1AB
100
AcDbEntity
  8
Layer0
  6
AUSGEZOGEN
 62
     9
370
    18
100
AcDbLine
 10
341.70162883802
 20
68.613305835377
 30
0.0
 11
343.029535255867
 21
68.613305835377
 31
0.0
  0
LINE
  5
34D
330
1AB
100
AcDbEntity
  8
Layer0
  6
AUSGEZOGEN
 62
     9
370
    18
100
AcDbLine
 10
343.029535255867
 20
68.613305835377
 30
0.0
 11
343.693492851692
 21
69.763305835377
 31
0.0
  0
LINE
  5
34E
330
1AB
100
AcDbEntity
  8
Layer0
  6
AUSGEZOGEN
 62
     9
370
    18
100
AcDbLine
 10
343.693492851692
 20
69.763305835377
 30
0.0
 11
343.029535255867
 21
70.913305835377
 31
0.0
  0
LINE
  5
34F
330
1AB
100
AcDbEntity
  8
Layer0
  6
AUSGEZOGEN
 62
     9
370
    18
100
AcDbLine
 10
343.029535255867
 20
70.913305835377
 30
0.0
 11
341.70162883802
 21
70.913305835377
 31
0.0
  0
LINE
  5
350
330
1AB
100
AcDbEntity
  8
Stammform
  6
AUSGEZOGEN
 62
    56
370
    18
100
AcDbLine
 10
341.70162883802
 20
70.913305835377
 30
0.0
 11
342.365586433845
 21
69.763305835377
 31
0.0
  0
LINE
  5
351
330
1AB
100
AcDbEntity
  8
Stammform
  6
AUSGEZOGEN
 62
    56
370
    18
100
AcDbLine
 10
342.365586433845
 20
69.763305835377
 30
0.0
 11
343.693492851692
 21
69.763305835377
 31
0.0
  0
LINE
  5
352
330
1AB
100
AcDbEntity
  8
Stammform
  6
AUSGEZOGEN
 62
    56
370
    18
100
AcDbLine
 10
342.365586433845
 20
69.763305835377
 30
0.0
 11
341.70162883802
 21
68.613305835377
 31
0.0
  0
LINE
  5
353
330
1AB
100
AcDbEntity
  8
Stammform
  6
AUSGEZOGEN
 62
    56
370
    18
100
AcDbLine
 10
342.365586433845
 20
72.063305835377
 30
0.0
 11
341.70162883802
 21
70.913305835377
 31
0.0
  0
LINE
  5
354
330
1AB
100
AcDbEntity
  8
Stammform
  6
AUSGEZOGEN
 62
    56
370
    18
100
AcDbLine
 10
342.365586433845
 20
72.063305835377
 30
0.0
 11
342.64999956631
 21
72.063305835377
 31
0.0
  0
LINE
  5
355
330
1AB
100
AcDbEntity
  8
Stammform
  6
AUSGEZOGEN
 62
    56
370
    18
100
AcDbLine
 10
341.997008549159
 20
72.701696856211
 30
0.0
 11
342.365586433845
 21
72.063305835377
 31
0.0
  0
LINE
  5
356
330
1AB
100
AcDbEntity
  8
Layer0
  6
AUSGEZOGEN
 62
     9
370
    18
100
AcDbLine
 10
341.037680015999
 20
72.063305835377
 30
0.0
 11
341.70162883802
 21
70.913305835377
 31
0.0
  0
LINE
  5
357
330
1AB
100
AcDbEntity
  8
Layer0
  6
AUSGEZOGEN
 62
     9
370
    18
100
AcDbLine
 10
341.70162883802
 20
70.913305835377
 30
0.0
 11
343.029535255867
 21
70.913305835377
 31
0.0
  0
LINE
  5
358
330
1AB
100
AcDbEntity
  8
Layer0
  6
AUSGEZOGEN
 62
     9
370
    18
100
AcDbLine
 10
341.70162883802
 20
66.313305835377
 30
0.0
 11
341.037680015999
 21
65.163305835377
 31
0.0
  0
LINE
  5
359
330
1AB
100
AcDbEntity
  8
Layer0
  6
AUSGEZOGEN
 62
     9
370
    18
100
AcDbLine
 10
341.037680015999
 20
65.163305835377
 30
0.0
 11
341.70162883802
 21
64.013305835377
 31
0.0
  0
LINE
  5
35A
330
1AB
100
AcDbEntity
  8
Layer0
  6
AUSGEZOGEN
 62
     9
370
    18
100
AcDbLine
 10
341.70162883802
 20
64.013305835377
 30
0.0
 11
343.029535255867
 21
64.013305835377
 31
0.0
  0
LINE
  5
35B
330
1AB
100
AcDbEntity
  8
Layer0
  6
AUSGEZOGEN
 62
     9
370
    18
100
AcDbLine
 10
343.029535255867
 20
64.013305835377
 30
0.0
 11
343.693492851692
 21
65.163305835377
 31
0.0
  0
LINE
  5
35C
330
1AB
100
AcDbEntity
  8
Layer0
  6
AUSGEZOGEN
 62
     9
370
    18
100
AcDbLine
 10
343.693492851692
 20
65.163305835377
 30
0.0
 11
343.029535255867
 21
66.313305835377
 31
0.0
  0
LINE
  5
35D
330
1AB
100
AcDbEntity
  8
Layer0
  6
AUSGEZOGEN
 62
     9
370
    18
100
AcDbLine
 10
343.029535255867
 20
66.313305835377
 30
0.0
 11
341.70162883802
 21
66.313305835377
 31
0.0
  0
LINE
  5
35E
330
1AB
100
AcDbEntity
  8
Stammform
  6
AUSGEZOGEN
 62
    56
370
    18
100
AcDbLine
 10
341.70162883802
 20
66.313305835377
 30
0.0
 11
342.365586433845
 21
65.163305835377
 31
0.0
  0
LINE
  5
35F
330
1AB
100
AcDbEntity
  8
Stammform
  6
AUSGEZOGEN
 62
    56
370
    18
100
AcDbLine
 10
342.365586433845
 20
65.163305835377
 30
0.0
 11
343.693492851692
 21
65.163305835377
 31
0.0
  0
LINE
  5
360
330
1AB
100
AcDbEntity
  8
Stammform
  6
AUSGEZOGEN
 62
    56
370
    18
100
AcDbLine
 10
342.365586433845
 20
65.163305835377
 30
0.0
 11
341.70162883802
 21
64.013305835377
 31
0.0
  0
LINE
  5
361
330
1AB
100
AcDbEntity
  8
Stammform
  6
AUSGEZOGEN
 62
    56
370
    18
100
AcDbLine
 10
342.365586433845
 20
67.463305835377
 30
0.0
 11
341.70162883802
 21
66.313305835377
 31
0.0
  0
LINE
  5
362
330
1AB
100
AcDbEntity
  8
Stammform
  6
AUSGEZOGEN
 62
    56
370
    18
100
AcDbLine
 10
342.365586433845
 20
67.463305835377
 30
0.0
 11
343.693492851692
 21
67.463305835377
 31
0.0
  0
LINE
  5
363
330
1AB
100
AcDbEntity
  8
Stammform
  6
AUSGEZOGEN
 62
    56
370
    18
100
AcDbLine
 10
341.70162883802
 20
68.613305835377
 30
0.0
 11
342.365586433845
 21
67.463305835377
 31
0.0
  0
LINE
  5
364
330
1AB
100
AcDbEntity
  8
Layer0
  6
AUSGEZOGEN
 62
     9
370
    18
100
AcDbLine
 10
341.70162883802
 20
68.613305835377
 30
0.0
 11
341.037680015999
 21
67.463305835377
 31
0.0
  0
LINE
  5
365
330
1AB
100
AcDbEntity
  8
Layer0
  6
AUSGEZOGEN
 62
     9
370
    18
100
AcDbLine
 10
341.037680015999
 20
67.463305835377
 30
0.0
 11
341.70162883802
 21
66.313305835377
 31
0.0
  0
LINE
  5
366
330
1AB
100
AcDbEntity
  8
Layer0
  6
AUSGEZOGEN
 62
     9
370
    18
100
AcDbLine
 10
341.70162883802
 20
66.313305835377
 30
0.0
 11
343.029535255867
 21
66.313305835377
 31
0.0
  0
LINE
  5
367
330
1AB
100
AcDbEntity
  8
Layer0
  6
AUSGEZOGEN
 62
     9
370
    18
100
AcDbLine
 10
343.029535255867
 20
66.313305835377
 30
0.0
 11
343.693492851692
 21
67.463305835377
 31
0.0
  0
LINE
  5
368
330
1AB
100
AcDbEntity
  8
Layer0
  6
AUSGEZOGEN
 62
     9
370
    18
100
AcDbLine
 10
343.693492851692
 20
67.463305835377
 30
0.0
 11
343.029535255867
 21
68.613305835377
 31
0.0
  0
LINE
  5
369
330
1AB
100
AcDbEntity
  8
Layer0
  6
AUSGEZOGEN
 62
     9
370
    18
100
AcDbLine
 10
343.029535255867
 20
68.613305835377
 30
0.0
 11
341.70162883802
 21
68.613305835377
 31
0.0
  0
LINE
  5
36A
330
1AB
100
AcDbEntity
  8
Layer0
  6
AUSGEZOGEN
 62
     9
370
    18
100
AcDbLine
 10
341.70162883802
 20
64.013305835377
 30
0.0
 11
341.037680015999
 21
62.863305835377
 31
0.0
  0
LINE
  5
36B
330
1AB
100
AcDbEntity
  8
Layer0
  6
AUSGEZOGEN
 62
     9
370
    18
100
AcDbLine
 10
341.037680015999
 20
62.863305835377
 30
0.0
 11
341.70162883802
 21
61.713305835377
 31
0.0
  0
LINE
  5
36C
330
1AB
100
AcDbEntity
  8
Layer0
  6
AUSGEZOGEN
 62
     9
370
    18
100
AcDbLine
 10
341.70162883802
 20
61.713305835377
 30
0.0
 11
343.029535255867
 21
61.713305835377
 31
0.0
  0
LINE
  5
36D
330
1AB
100
AcDbEntity
  8
Layer0
  6
AUSGEZOGEN
 62
     9
370
    18
100
AcDbLine
 10
343.029535255867
 20
61.713305835377
 30
0.0
 11
343.693492851692
 21
62.863305835377
 31
0.0
  0
LINE
  5
36E
330
1AB
100
AcDbEntity
  8
Layer0
  6
AUSGEZOGEN
 62
     9
370
    18
100
AcDbLine
 10
343.693492851692
 20
62.863305835377
 30
0.0
 11
343.029535255867
 21
64.013305835377
 31
0.0
  0
LINE
  5
36F
330
1AB
100
AcDbEntity
  8
Layer0
  6
AUSGEZOGEN
 62
     9
370
    18
100
AcDbLine
 10
343.029535255867
 20
64.013305835377
 30
0.0
 11
341.70162883802
 21
64.013305835377
 31
0.0
  0
LINE
  5
370
330
1AB
100
AcDbEntity
  8
Stammform
  6
AUSGEZOGEN
 62
    56
370
    18
100
AcDbLine
 10
341.70162883802
 20
64.013305835377
 30
0.0
 11
342.365586433845
 21
62.863305835377
 31
0.0
  0
LINE
  5
371
330
1AB
100
AcDbEntity
  8
Stammform
  6
AUSGEZOGEN
 62
    56
370
    18
100
AcDbLine
 10
342.365586433845
 20
62.863305835377
 30
0.0
 11
343.693492851692
 21
62.863305835377
 31
0.0
  0
LINE
  5
372
330
1AB
100
AcDbEntity
  8
Stammform
  6
AUSGEZOGEN
 62
    56
370
    18
100
AcDbLine
 10
342.365586433845
 20
62.863305835377
 30
0.0
 11
341.70162883802
 21
61.713305835377
 31
0.0
  0
LINE
  5
373
330
1AB
100
AcDbEntity
  8
Stammform
  6
AUSGEZOGEN
 62
    56
370
    18
100
AcDbLine
 10
342.365586433845
 20
60.563305835377
 30
0.0
 11
341.997008549159
 21
59.924914814542
 31
0.0
  0
LINE
  5
374
330
1AB
100
AcDbEntity
  8
Stammform
  6
AUSGEZOGEN
 62
    56
370
    18
100
AcDbLine
 10
342.365586433845
 20
60.563305835377
 30
0.0
 11
342.64999956631
 21
60.563305835377
 31
0.0
  0
LINE
  5
375
330
1AB
100
AcDbEntity
  8
Stammform
  6
AUSGEZOGEN
 62
    56
370
    18
100
AcDbLine
 10
341.70162883802
 20
61.713305835377
 30
0.0
 11
342.365586433845
 21
60.563305835377
 31
0.0
  0
LINE
  5
376
330
1AB
100
AcDbEntity
  8
Layer0
  6
AUSGEZOGEN
 62
     9
370
    18
100
AcDbLine
 10
341.70162883802
 20
61.713305835377
 30
0.0
 11
341.037680015999
 21
60.563305835377
 31
0.0
  0
LINE
  5
377
330
1AB
100
AcDbEntity
  8
Layer0
  6
AUSGEZOGEN
 62
     9
370
    18
100
AcDbLine
 10
343.261978579909
 20
61.310705090496
 30
0.0
 11
343.029535255867
 21
61.713305835377
 31
0.0
  0
LINE
  5
378
330
1AB
100
AcDbEntity
  8
Layer0
  6
AUSGEZOGEN
 62
     9
370
    18
100
AcDbLine
 10
343.029535255867
 20
61.713305835377
 30
0.0
 11
341.70162883802
 21
61.713305835377
 31
0.0
  0
ENDBLK
  5
1AD
330
1AB
100
AcDbEntity
  8
0
100
AcDbBlockEnd
  0
BLOCK
  5
37C
330
37B
100
AcDbEntity
  8
0
100
AcDbBlockBegin
  2
*D6
 70
     1
 10
0.0
 20
0.0
 30
0.0
  3
*D6
  1

  0
LINE
  5
37E
330
37B
100
AcDbEntity
  8
Layer70
  6
AUSGEZOGEN
 62
   136
370
    18
100
AcDbLine
 10
341.405788490903
 20
77.50088209538
 30
0.0
 11
341.155788190727
 21
77.067869566795
 31
0.0
  0
LINE
  5
37F
330
37B
100
AcDbEntity
  8
Layer70
  6
AUSGEZOGEN
 62
   136
370
    18
100
AcDbLine
 10
341.405788490903
 20
77.50088209538
 30
0.0
 11
342.363319662279
 21
76.659375080648
 31
0.0
  0
LINE
  5
380
330
37B
100
AcDbEntity
  8
Layer70
  6
AUSGEZOGEN
 62
   136
370
    18
100
AcDbLine
 10
342.363319662279
 20
76.659375080648
 30
0.0
 11
341.155788190727
 21
77.067869566795
 31
0.0
  0
LINE
  5
381
330
37B
100
AcDbEntity
  8
Layer70
  6
AUSGEZOGEN
 62
   136
370
    18
100
AcDbLine
 10
345.312706073523
 20
74.667868065916
 30
0.0
 11
345.562706373699
 21
75.100880594502
 31
0.0
  0
LINE
  5
382
330
37B
100
AcDbEntity
  8
Layer70
  6
AUSGEZOGEN
 62
   136
370
    18
100
AcDbLine
 10
345.312706073523
 20
74.667868065916
 30
0.0
 11
344.355174902147
 21
75.509375080648
 31
0.0
  0
LINE
  5
383
330
37B
100
AcDbEntity
  8
Layer70
  6
AUSGEZOGEN
 62
   136
370
    18
100
AcDbLine
 10
344.355174902147
 20
75.509375080648
 30
0.0
 11
345.562706373699
 21
75.100880594502
 31
0.0
  0
LINE
  5
384
330
37B
100
AcDbEntity
  8
Layer70
  6
AUSGEZOGEN
 62
   136
370
    18
100
AcDbLine
 10
344.355174902147
 20
75.509375080648
 30
0.0
 11
342.363319662279
 21
76.659375080648
 31
0.0
  0
LINE
  5
385
330
37B
100
AcDbEntity
  8
Layer70
  6
AUSGEZOGEN
 62
   136
370
    18
100
AcDbLine
 10
342.363319662279
 20
76.659375080648
 30
0.0
 11
339.115725697887
 21
78.534377331965
 31
0.0
  0
LINE
  5
386
330
37B
100
AcDbEntity
  8
Layer70
  6
AUSGEZOGEN
 62
   136
370
    18
100
AcDbLine
 10
344.355174902147
 20
75.509375080648
 30
0.0
 11
347.602768866539
 21
73.634372829331
 31
0.0
  0
LINE
  5
387
330
37B
100
AcDbEntity
  8
Layer70
  6
AUSGEZOGEN
 62
   136
370
    18
100
AcDbLine
 10
344.355174902147
 20
75.509375080648
 30
0.0
 11
348.028384041283
 21
73.388643400225
 31
0.0
  0
LINE
  5
388
330
37B
100
AcDbEntity
  8
Layer70
  6
AUSGEZOGEN
 62
   136
370
    18
100
AcDbLine
 10
341.70162883802
 20
70.913305835377
 30
0.0
 11
342.11558241036
 21
71.630293306791
 31
0.0
  0
LINE
  5
389
330
37B
100
AcDbEntity
  8
Layer70
  6
AUSGEZOGEN
 62
   136
370
    18
100
AcDbLine
 10
342.982441248306
 20
73.13173445339
 30
0.0
 11
342.997819657246
 21
73.158370596371
 31
0.0
  0
LINE
  5
38A
330
37B
100
AcDbEntity
  8
Layer70
  6
AUSGEZOGEN
 62
   136
370
    18
100
AcDbLine
 10
343.497820257597
 20
74.024395653543
 30
0.0
 11
344.272319696436
 21
75.365865884434
 31
0.0
  0
LINE
  5
38B
330
37B
100
AcDbEntity
  8
Layer70
  6
AUSGEZOGEN
 62
   136
370
    18
100
AcDbLine
 10
342.723320818759
 20
72.682925422651
 30
0.0
 11
344.712318188112
 21
76.127964407199
 31
0.0
  0
LINE
  5
38C
330
37B
100
AcDbEntity
  8
Layer70
  6
AUSGEZOGEN
 62
   136
370
    18
100
AcDbLine
 10
339.709773598152
 20
72.063305835377
 30
0.0
 11
340.123724645235
 21
72.780288932926
 31
0.0
  0
LINE
  5
38D
330
37B
100
AcDbEntity
  8
Layer70
  6
AUSGEZOGEN
 62
   136
370
    18
100
AcDbLine
 10
341.140010768405
 20
74.540545315222
 30
0.0
 11
341.140010768405
 21
74.540545315222
 31
0.0
  0
LINE
  5
38E
330
37B
100
AcDbEntity
  8
Layer70
  6
AUSGEZOGEN
 62
   136
370
    18
100
AcDbLine
 10
341.640011368756
 20
75.406570372394
 30
0.0
 11
342.720462948244
 21
77.277964407199
 31
0.0
  0
TEXT
  5
38F
330
37B
100
AcDbEntity
  8
Layer70
  6
AUSGEZOGEN
 62
   136
370
    18
100
AcDbText
 10
345.671030209295
 20
75.32701494887
 30
0.0
 40
1.25
  1
2.3
 50
329.999960281073
 41
1.197349099769
  7
Arial
 72
     5
 11
348.185595941554
 21
73.875227422237
 31
0.0
100
AcDbText
  0
ENDBLK
  5
37D
330
37B
100
AcDbEntity
  8
0
100
AcDbBlockEnd
  0
BLOCK
  5
392
330
391
100
AcDbEntity
  8
0
100
AcDbBlockBegin
  2
_CLOSED
 70
     0
 10
0.0
 20
0.0
 30
0.0
  3
_CLOSED
  1

  0
LINE
  5
394
330
391
100
AcDbEntity
  8
0
  6
ByBlock
 62
     0
370
    -2
100
AcDbLine
 10
-1.0
 20
0.166667
 30
0.0
 11
0.0
 21
0.0
 31
0.0
  0
LINE
  5
395
330
391
100
AcDbEntity
  8
0
  6
ByBlock
 62
     0
370
    -2
100
AcDbLine
 10
0.0
 20
0.0
 30
0.0
 11
-1.0
 21
-0.166667
 31
0.0
  0
LINE
  5
396
330
391
100
AcDbEntity
  8
0
  6
ByBlock
 62
     0
370
    -2
100
AcDbLine
 10
-1.0
 20
0.166667
 30
0.0
 11
-1.0
 21
-0.166667
 31
0.0
  0
LINE
  5
397
330
391
100
AcDbEntity
  8
0
  6
ByBlock
 62
     0
370
    -2
100
AcDbLine
 10
0.0
 20
0.0
 30
0.0
 11
-1.0
 21
0.0
 31
0.0
  0
ENDBLK
  5
393
330
391
100
AcDbEntity
  8
0
100
AcDbBlockEnd
  0
BLOCK
  5
399
330
398
100
AcDbEntity
  8
0
100
AcDbBlockBegin
  2
*D8
 70
     1
 10
0.0
 20
0.0
 30
0.0
  3
*D8
  1

  0
LINE
  5
39B
330
398
100
AcDbEntity
  8
Layer70
  6
AUSGEZOGEN
 62
   136
370
    18
100
AcDbLine
 10
343.640007553535
 20
51.744728059499
 30
0.0
 11
343.640007553535
 21
51.244728059499
 31
0.0
  0
LINE
  5
39C
330
398
100
AcDbEntity
  8
Layer70
  6
AUSGEZOGEN
 62
   136
370
    18
100
AcDbLine
 10
343.640007553535
 20
51.744728059499
 30
0.0
 11
344.890007553535
 21
51.494728059499
 31
0.0
  0
LINE
  5
39D
330
398
100
AcDbEntity
  8
Layer70
  6
AUSGEZOGEN
 62
   136
370
    18
100
AcDbLine
 10
344.890007553535
 20
51.494728059499
 30
0.0
 11
343.640007553535
 21
51.244728059499
 31
0.0
  0
LINE
  5
39E
330
398
100
AcDbEntity
  8
Layer70
  6
AUSGEZOGEN
 62
   136
370
    18
100
AcDbLine
 10
329.140007553535
 20
51.244728059499
 30
0.0
 11
329.140007553535
 21
51.744728059499
 31
0.0
  0
LINE
  5
39F
330
398
100
AcDbEntity
  8
Layer70
  6
AUSGEZOGEN
 62
   136
370
    18
100
AcDbLine
 10
329.140007553535
 20
51.244728059499
 30
0.0
 11
327.890007553535
 21
51.494728059499
 31
0.0
  0
LINE
  5
3A0
330
398
100
AcDbEntity
  8
Layer70
  6
AUSGEZOGEN
 62
   136
370
    18
100
AcDbLine
 10
327.890007553535
 20
51.494728059499
 30
0.0
 11
329.140007553535
 21
51.744728059499
 31
0.0
  0
LINE
  5
3A1
330
398
100
AcDbEntity
  8
Layer70
  6
AUSGEZOGEN
 62
   136
370
    18
100
AcDbLine
 10
327.890007553535
 20
51.494728059499
 30
0.0
 11
344.890007553535
 21
51.494728059499
 31
0.0
  0
LINE
  5
3A2
330
398
100
AcDbEntity
  8
Layer70
  6
AUSGEZOGEN
 62
   136
370
    18
100
AcDbLine
 10
327.890007553535
 20
66.313305835377
 30
0.0
 11
327.890007553535
 21
63.855265943827
 31
0.0
  0
LINE
  5
3A3
330
398
100
AcDbEntity
  8
Layer70
  6
AUSGEZOGEN
 62
   136
370
    18
100
AcDbLine
 10
327.890007553535
 20
62.855265943827
 30
0.0
 11
327.890007553535
 21
61.54547895895
 31
0.0
  0
LINE
  5
3A4
330
398
100
AcDbEntity
  8
Layer70
  6
AUSGEZOGEN
 62
   136
370
    18
100
AcDbLine
 10
327.890007553535
 20
60.54547895895
 30
0.0
 11
327.890007553535
 21
50.780442345213
 31
0.0
  0
LINE
  5
3A5
330
398
100
AcDbEntity
  8
Layer70
  6
AUSGEZOGEN
 62
   136
370
    18
100
AcDbLine
 10
344.890007553535
 20
66.313305835377
 30
0.0
 11
344.890007553535
 21
63.855265943827
 31
0.0
  0
LINE
  5
3A6
330
398
100
AcDbEntity
  8
Layer70
  6
AUSGEZOGEN
 62
   136
370
    18
100
AcDbLine
 10
344.890007553535
 20
62.855265943827
 30
0.0
 11
344.890007553535
 21
61.54547895895
 31
0.0
  0
LINE
  5
3A7
330
398
100
AcDbEntity
  8
Layer70
  6
AUSGEZOGEN
 62
   136
370
    18
100
AcDbLine
 10
344.890007553535
 20
60.54547895895
 30
0.0
 11
344.890007553535
 21
50.780442345213
 31
0.0
  0
TEXT
  5
3A8
330
398
100
AcDbEntity
  8
Layer70
  6
AUSGEZOGEN
 62
   136
370
    18
100
AcDbText
 10
335.189397675215
 20
51.994728059499
 30
0.0
 40
1.25
  1
17
 41
1.131075166857
  7
Arial
 72
     5
 11
337.383683498918
 21
51.994728059499
 31
0.0
100
AcDbText
  0
ENDBLK
  5
39A
330
398
100
AcDbEntity
  8
0
100
AcDbBlockEnd
  0
BLOCK
  5
3AB
330
3AA
100
AcDbEntity
  8
0
100
AcDbBlockBegin
  2
*D9
 70
     1
 10
0.0
 20
0.0
 30
0.0
  3
*D9
  1

  0
LINE
  5
3AD
330
3AA
100
AcDbEntity
  8
Layer70
  6
AUSGEZOGEN
 62
   136
370
    18
100
AcDbLine
 10
345.140007553535
 20
48.293755941542
 30
0.0
 11
345.140007553535
 21
47.793755941542
 31
0.0
  0
LINE
  5
3AE
330
3AA
100
AcDbEntity
  8
Layer70
  6
AUSGEZOGEN
 62
   136
370
    18
100
AcDbLine
 10
345.140007553535
 20
48.293755941542
 30
0.0
 11
346.390007553535
 21
48.043755941542
 31
0.0
  0
LINE
  5
3AF
330
3AA
100
AcDbEntity
  8
Layer70
  6
AUSGEZOGEN
 62
   136
370
    18
100
AcDbLine
 10
346.390007553535
 20
48.043755941542
 30
0.0
 11
345.140007553535
 21
47.793755941542
 31
0.0
  0
LINE
  5
3B0
330
3AA
100
AcDbEntity
  8
Layer70
  6
AUSGEZOGEN
 62
   136
370
    18
100
AcDbLine
 10
327.640007553535
 20
47.793755941542
 30
0.0
 11
327.640007553535
 21
48.293755941542
 31
0.0
  0
LINE
  5
3B1
330
3AA
100
AcDbEntity
  8
Layer70
  6
AUSGEZOGEN
 62
   136
370
    18
100
AcDbLine
 10
327.640007553535
 20
47.793755941542
 30
0.0
 11
326.390007553535
 21
48.043755941542
 31
0.0
  0
LINE
  5
3B2
330
3AA
100
AcDbEntity
  8
Layer70
  6
AUSGEZOGEN
 62
   136
370
    18
100
AcDbLine
 10
326.390007553535
 20
48.043755941542
 30
0.0
 11
327.640007553535
 21
48.293755941542
 31
0.0
  0
LINE
  5
3B3
330
3AA
100
AcDbEntity
  8
Layer70
  6
AUSGEZOGEN
 62
   136
370
    18
100
AcDbLine
 10
326.390007553535
 20
48.043755941542
 30
0.0
 11
346.390007553535
 21
48.043755941542
 31
0.0
  0
LINE
  5
3B4
330
3AA
100
AcDbEntity
  8
Layer70
  6
AUSGEZOGEN
 62
   136
370
    18
100
AcDbLine
 10
326.390007553535
 20
66.313305835377
 30
0.0
 11
326.390007553535
 21
47.329470227256
 31
0.0
  0
LINE
  5
3B5
330
3AA
100
AcDbEntity
  8
Layer70
  6
AUSGEZOGEN
 62
   136
370
    18
100
AcDbLine
 10
346.390007553535
 20
66.313305835377
 30
0.0
 11
346.390007553535
 21
47.329470227256
 31
0.0
  0
TEXT
  5
3B6
330
3AA
100
AcDbEntity
  8
Layer70
  6
AUSGEZOGEN
 62
   136
370
    18
100
AcDbText
 10
335.279148835162
 20
48.543755941542
 30
0.0
 40
1.25
  1
20
 41
1.131075166857
  7
Arial
 72
     5
 11
337.473434658864
 21
48.543755941542
 31
0.0
100
AcDbText
  0
ENDBLK
  5
3AC
330
3AA
100
AcDbEntity
  8
0
100
AcDbBlockEnd
  0
BLOCK
  5
3B9
330
3B8
100
AcDbEntity
  8
0
100
AcDbBlockBegin
  2
Reflexwerte_nNn08
 70
     0
 10
0.0
 20
0.0
 30
0.0
  3
Reflexwerte_nNn08
  1

  0
TEXT
  5
3BB
330
3B8
100
AcDbEntity
  8
Layer0
  6
AUSGEZOGEN
 62
   136
370
    18
100
AcDbText
 10
295.084253033983
 20
28.631586411403
 30
0.0
 40
1.25
  1
Reflexionswerte werden gesondert vereinbart
 41
1.135633679475
  7
Arial
 72
     5
 11
334.949253809865
 21
28.631586411403
 31
0.0
100
AcDbText
  0
ENDBLK
  5
3BA
330
3B8
100
AcDbEntity
  8
0
100
AcDbBlockEnd
  0
BLOCK
  5
3BE
330
3BD
100
AcDbEntity
  8
0
100
AcDbBlockBegin
  2
QS_nNn09
 70
     0
 10
0.0
 20
0.0
 30
0.0
  3
QS_nNn09
  1

  0
TEXT
  5
3C0
330
3BD
100
AcDbEntity
  8
Layer0
  6
AUSGEZOGEN
 62
   136
370
    18
100
AcDbText
 10
295.145976560416
 20
35.500425326178
 30
0.0
 40
1.25
  1
Teil frei von Rissen, Grat, Blasen, Einfallstellen,
 41
1.13496141796
  7
Arial
 72
     5
 11
336.857227372232
 21
35.500425326178
 31
0.0
100
AcDbText
  0
TEXT
  5
3C1
330
3BD
100
AcDbEntity
  8
Layer0
  6
AUSGEZOGEN
 62
   136
370
    18
100
AcDbText
 10
295.145976560416
 20
33.500425296376
 30
0.0
 40
1.25
  1
Fliesslinien, Einschlüssen, Formbelag, Kratzer, Schlieren
 41
1.134732261281
  7
Arial
 72
     5
 11
345.099727532653
 21
33.500425296376
 31
0.0
100
AcDbText
  0
TEXT
  5
3C2
330
3BD
100
AcDbEntity
  8
Layer0
  6
AUSGEZOGEN
 62
   136
370
    18
100
AcDbText
 10
295.145976560416
 20
31.500425266574
 30
0.0
 40
1.25
  1
Grenzwertmuster werden gesondert vereinbart
 41
1.135456394682
  7
Arial
 72
     5
 11
336.104727357586
 21
31.500425266574
 31
0.0
100
AcDbText
  0
ENDBLK
  5
3BF
330
3BD
100
AcDbEntity
  8
0
100
AcDbBlockEnd
  0
BLOCK
  5
3C6
330
3C5
100
AcDbEntity
  8
0
100
AcDbBlockBegin
  2
L1_nNn010
 70
     0
 10
0.0
 20
0.0
 30
0.0
  3
L1_nNn010
  1

  0
INSERT
  5
3D3
330
3C5
100
AcDbEntity
  8
0
100
AcDbBlockReference
  2
ingrid9_nNn011
 10
0.0
 20
0.0
 30
0.0
  0
ENDBLK
  5
3C7
330
3C5
100
AcDbEntity
  8
0
100
AcDbBlockEnd
  0
BLOCK
  5
3C9
330
3C8
100
AcDbEntity
  8
0
100
AcDbBlockBegin
  2
ingrid9_nNn011
 70
     0
 10
0.0
 20
0.0
 30
0.0
  3
ingrid9_nNn011
  1

  0
LINE
  5
3CB
330
3C8
100
AcDbEntity
  8
Layer0
  6
AUSGEZOGEN
 62
     9
370
    18
100
AcDbLine
 10
338.27475323847
 20
97.435596826984
 30
0.0
 11
338.27475323847
 21
89.285597208454
 31
0.0
  0
LINE
  5
3CC
330
3C8
100
AcDbEntity
  8
Layer0
  6
AUSGEZOGEN
 62
     9
370
    18
100
AcDbLine
 10
338.27475323847
 20
89.285597208454
 30
0.0
 11
337.924753214628
 21
88.935596826984
 31
0.0
  0
LINE
  5
3CD
330
3C8
100
AcDbEntity
  8
Layer0
  6
AUSGEZOGEN
 62
     9
370
    18
100
AcDbLine
 10
337.924753214628
 20
88.935596826984
 30
0.0
 11
334.624753262312
 21
88.935596826984
 31
0.0
  0
LINE
  5
3CE
330
3C8
100
AcDbEntity
  8
Layer0
  6
AUSGEZOGEN
 62
     9
370
    18
100
AcDbLine
 10
334.624753262312
 20
88.935596826984
 30
0.0
 11
334.27475323847
 21
89.285597208454
 31
0.0
  0
LINE
  5
3CF
330
3C8
100
AcDbEntity
  8
Layer0
  6
AUSGEZOGEN
 62
     9
370
    18
100
AcDbLine
 10
334.27475323847
 20
89.285597208454
 30
0.0
 11
334.27475323847
 21
97.435596826984
 31
0.0
  0
LINE
  5
3D0
330
3C8
100
AcDbEntity
  8
Layer0
  6
AUSGEZOGEN
 62
     9
370
    18
100
AcDbLine
 10
338.27475323847
 20
89.285597208454
 30
0.0
 11
334.27475323847
 21
89.285597208454
 31
0.0
  0
LINE
  5
3D1
330
3C8
100
AcDbEntity
  8
Layer0
  6
AUSGEZOGEN
 62
    56
370
    18
100
AcDbLine
 10
337.924753214628
 20
97.435596826984
 30
0.0
 11
337.924753214628
 21
88.935596826984
 31
0.0
  0
LINE
  5
3D2
330
3C8
100
AcDbEntity
  8
Layer0
  6
AUSGEZOGEN
 62
    56
370
    18
100
AcDbLine
 10
334.624753262312
 20
97.435596826984
 30
0.0
 11
334.624753262312
 21
88.935596826984
 31
0.0
  0
ENDBLK
  5
3CA
330
3C8
100
AcDbEntity
  8
0
100
AcDbBlockEnd
  0
BLOCK
  5
3F1
330
3F0
100
AcDbEntity
  8
0
100
AcDbBlockBegin
  2
*D14
 70
     1
 10
0.0
 20
0.0
 30
0.0
  3
*D14
  1

  0
LINE
  5
3F3
330
3F0
100
AcDbEntity
  8
Layer70
  6
AUSGEZOGEN
 62
   136
370
    18
100
AcDbLine
 10
350.979352150525
 20
102.585596826984
 30
0.0
 11
351.479352150525
 21
102.585596826984
 31
0.0
  0
LINE
  5
3F4
330
3F0
100
AcDbEntity
  8
Layer70
  6
AUSGEZOGEN
 62
   136
370
    18
100
AcDbLine
 10
350.979352150525
 20
102.585596826984
 30
0.0
 11
351.229352150525
 21
103.835596826984
 31
0.0
  0
LINE
  5
3F5
330
3F0
100
AcDbEntity
  8
Layer70
  6
AUSGEZOGEN
 62
   136
370
    18
100
AcDbLine
 10
351.229352150525
 20
103.835596826984
 30
0.0
 11
351.479352150525
 21
102.585596826984
 31
0.0
  0
LINE
  5
3F6
330
3F0
100
AcDbEntity
  8
Layer70
  6
AUSGEZOGEN
 62
   136
370
    18
100
AcDbLine
 10
351.479352150525
 20
98.685596826984
 30
0.0
 11
350.979352150525
 21
98.685596826984
 31
0.0
  0
LINE
  5
3F7
330
3F0
100
AcDbEntity
  8
Layer70
  6
AUSGEZOGEN
 62
   136
370
    18
100
AcDbLine
 10
351.479352150525
 20
98.685596826984
 30
0.0
 11
351.229352150525
 21
97.435596826984
 31
0.0
  0
LINE
  5
3F8
330
3F0
100
AcDbEntity
  8
Layer70
  6
AUSGEZOGEN
 62
   136
370
    18
100
AcDbLine
 10
351.229352150525
 20
97.435596826984
 30
0.0
 11
350.979352150525
 21
98.685596826984
 31
0.0
  0
LINE
  5
3F9
330
3F0
100
AcDbEntity
  8
Layer70
  6
AUSGEZOGEN
 62
   136
370
    18
100
AcDbLine
 10
351.229352150525
 20
97.435596826984
 30
0.0
 11
351.229352150525
 21
103.835596826984
 31
0.0
  0
LINE
  5
3FA
330
3F0
100
AcDbEntity
  8
Layer70
  6
AUSGEZOGEN
 62
   136
370
    18
100
AcDbLine
 10
351.229352150525
 20
97.435596826984
 30
0.0
 11
351.229352150525
 21
97.391786464458
 31
0.0
  0
LINE
  5
3FB
330
3F0
100
AcDbEntity
  8
Layer70
  6
AUSGEZOGEN
 62
   136
370
    18
100
AcDbLine
 10
346.27475323847
 20
97.435596826984
 30
0.0
 11
350.730656041469
 21
97.435596826984
 31
0.0
  0
LINE
  5
3FC
330
3F0
100
AcDbEntity
  8
Layer70
  6
AUSGEZOGEN
 62
   136
370
    18
100
AcDbLine
 10
351.730656041469
 20
97.435596826984
 30
0.0
 11
351.943637864811
 21
97.435596826984
 31
0.0
  0
LINE
  5
3FD
330
3F0
100
AcDbEntity
  8
Layer70
  6
AUSGEZOGEN
 62
   136
370
    18
100
AcDbLine
 10
346.27475323847
 20
103.835596826984
 30
0.0
 11
351.943637864811
 21
103.835596826984
 31
0.0
  0
TEXT
  5
3FE
330
3F0
100
AcDbEntity
  8
Layer70
  6
AUSGEZOGEN
 62
   136
370
    18
100
AcDbText
 10
350.729352150525
 20
97.498929322666
 30
0.0
 40
1.25
  1
6.4
 50
90.0
 41
1.197349099769
  7
Arial
 72
     5
 11
350.729352150525
 21
100.402500889605
 31
0.0
100
AcDbText
  0
TEXT
  5
3FF
330
3F0
100
AcDbEntity
  8
Layer70
  6
AUSGEZOGEN
 62
   136
370
    18
100
AcDbText
 10
350.541852150525
 20
100.616786606019
 30
0.0
 40
0.875
  1
%%p0.3
 50
90.0
 41
1.291250039099
  7
Arial
 72
     5
 11
350.541852150525
 21
103.674143886095
 31
0.0
100
AcDbText
  0
ENDBLK
  5
3F2
330
3F0
100
AcDbEntity
  8
0
100
AcDbBlockEnd
  0
BLOCK
  5
403
330
402
100
AcDbEntity
  8
0
100
AcDbBlockBegin
  2
*D15
 70
     1
 10
0.0
 20
0.0
 30
0.0
  3
*D15
  1

  0
LINE
  5
405
330
402
100
AcDbEntity
  8
Layer70
  6
AUSGEZOGEN
 62
   136
370
    18
100
AcDbLine
 10
350.980656041469
 20
96.185596826984
 30
0.0
 11
351.480656041469
 21
96.185596826984
 31
0.0
  0
LINE
  5
406
330
402
100
AcDbEntity
  8
Layer70
  6
AUSGEZOGEN
 62
   136
370
    18
100
AcDbLine
 10
350.980656041469
 20
96.185596826984
 30
0.0
 11
351.230656041469
 21
97.435596826984
 31
0.0
  0
LINE
  5
407
330
402
100
AcDbEntity
  8
Layer70
  6
AUSGEZOGEN
 62
   136
370
    18
100
AcDbLine
 10
351.230656041469
 20
97.435596826984
 30
0.0
 11
351.480656041469
 21
96.185596826984
 31
0.0
  0
LINE
  5
408
330
402
100
AcDbEntity
  8
Layer70
  6
AUSGEZOGEN
 62
   136
370
    18
100
AcDbLine
 10
351.480656041469
 20
90.185596826984
 30
0.0
 11
350.980656041469
 21
90.185596826984
 31
0.0
  0
LINE
  5
409
330
402
100
AcDbEntity
  8
Layer70
  6
AUSGEZOGEN
 62
   136
370
    18
100
AcDbLine
 10
351.480656041469
 20
90.185596826984
 30
0.0
 11
351.230656041469
 21
88.935596826984
 31
0.0
  0
LINE
  5
40A
330
402
100
AcDbEntity
  8
Layer70
  6
AUSGEZOGEN
 62
   136
370
    18
100
AcDbLine
 10
351.230656041469
 20
88.935596826984
 30
0.0
 11
350.980656041469
 21
90.185596826984
 31
0.0
  0
LINE
  5
40B
330
402
100
AcDbEntity
  8
Layer70
  6
AUSGEZOGEN
 62
   136
370
    18
100
AcDbLine
 10
351.230656041469
 20
88.935596826984
 30
0.0
 11
351.230656041469
 21
97.435596826984
 31
0.0
  0
LINE
  5
40C
330
402
100
AcDbEntity
  8
Layer70
  6
AUSGEZOGEN
 62
   136
370
    18
100
AcDbLine
 10
337.924753214628
 20
88.935596826984
 30
0.0
 11
351.944941755754
 21
88.935596826984
 31
0.0
  0
LINE
  5
40D
330
402
100
AcDbEntity
  8
Layer70
  6
AUSGEZOGEN
 62
   136
370
    18
100
AcDbLine
 10
346.27475323847
 20
97.435596826984
 30
0.0
 11
351.944941755754
 21
97.435596826984
 31
0.0
  0
TEXT
  5
40E
330
402
100
AcDbEntity
  8
Layer70
  6
AUSGEZOGEN
 62
   136
370
    18
100
AcDbText
 10
350.730656041469
 20
91.502485404094
 30
0.0
 40
1.25
  1
8.5
 50
90.0
 41
1.197349099769
  7
Arial
 72
     5
 11
350.730656041469
 21
94.406056971033
 31
0.0
100
AcDbText
  0
TEXT
  5
40F
330
402
100
AcDbEntity
  8
Layer70
  6
AUSGEZOGEN
 62
   136
370
    18
100
AcDbText
 10
350.543156041469
 20
94.620342687447
 30
0.0
 40
0.875
  1
%%p1
 50
90.0
 41
1.17790312464
  7
Arial
 72
     5
 11
350.543156041469
 21
96.209628478368
 31
0.0
100
AcDbText
  0
ENDBLK
  5
404
330
402
100
AcDbEntity
  8
0
100
AcDbBlockEnd
  0
BLOCK
  5
413
330
412
100
AcDbEntity
  8
0
100
AcDbBlockBegin
  2
*D16
 70
     1
 10
0.0
 20
0.0
 30
0.0
  3
*D16
  1

  0
LINE
  5
415
330
412
100
AcDbEntity
  8
Layer70
  6
AUSGEZOGEN
 62
   136
370
    18
100
AcDbLine
 10
337.02475323847
 20
84.698771173166
 30
0.0
 11
337.02475323847
 21
84.198771173166
 31
0.0
  0
LINE
  5
416
330
412
100
AcDbEntity
  8
Layer70
  6
AUSGEZOGEN
 62
   136
370
    18
100
AcDbLine
 10
337.02475323847
 20
84.698771173166
 30
0.0
 11
338.27475323847
 21
84.448771173166
 31
0.0
  0
LINE
  5
417
330
412
100
AcDbEntity
  8
Layer70
  6
AUSGEZOGEN
 62
   136
370
    18
100
AcDbLine
 10
338.27475323847
 20
84.448771173166
 30
0.0
 11
337.02475323847
 21
84.198771173166
 31
0.0
  0
LINE
  5
418
330
412
100
AcDbEntity
  8
Layer70
  6
AUSGEZOGEN
 62
   136
370
    18
100
AcDbLine
 10
335.52475323847
 20
84.198771173166
 30
0.0
 11
335.52475323847
 21
84.698771173166
 31
0.0
  0
LINE
  5
419
330
412
100
AcDbEntity
  8
Layer70
  6
AUSGEZOGEN
 62
   136
370
    18
100
AcDbLine
 10
335.52475323847
 20
84.198771173166
 30
0.0
 11
334.27475323847
 21
84.448771173166
 31
0.0
  0
LINE
  5
41A
330
412
100
AcDbEntity
  8
Layer70
  6
AUSGEZOGEN
 62
   136
370
    18
100
AcDbLine
 10
334.27475323847
 20
84.448771173166
 30
0.0
 11
335.52475323847
 21
84.698771173166
 31
0.0
  0
LINE
  5
41B
330
412
100
AcDbEntity
  8
Layer70
  6
AUSGEZOGEN
 62
   136
370
    18
100
AcDbLine
 10
334.27475323847
 20
84.448771173166
 30
0.0
 11
338.27475323847
 21
84.448771173166
 31
0.0
  0
LINE
  5
41C
330
412
100
AcDbEntity
  8
Layer70
  6
AUSGEZOGEN
 62
   136
370
    18
100
AcDbLine
 10
334.27475323847
 20
89.285597208454
 30
0.0
 11
334.27475323847
 21
83.73448545888
 31
0.0
  0
LINE
  5
41D
330
412
100
AcDbEntity
  8
Layer70
  6
AUSGEZOGEN
 62
   136
370
    18
100
AcDbLine
 10
338.27475323847
 20
89.285597208454
 30
0.0
 11
338.27475323847
 21
83.73448545888
 31
0.0
  0
WIPEOUT
  5
41E
330
412
100
AcDbEntity
  8
Layer70
  6
AUSGEZOGEN
 62
   136
370
    18
 92
      152
310
98000000040000000C0000000E000000120000000C00000016000000000000C20C00000014000000010000006C0000000700000004000000CC4FDBC507F37440B008BAAAB8245540000000000000000066E950CD7C217540B008BAAAB8245540000000000000000066E950CD7C217540B008BAAAB8A4554000000000000000
310
00CC4FDBC507F37440B008BAAAB8A455400000000000000000
100
AcDbWipeout
 90
        0
 10
335.189397675215
 20
84.573771173166
 30
0.0
 11
2.903571566939377
 21
0.0
 31
0.0
 12
0.0
 22
2.903571566939377
 32
0.0
 13
1.0
 23
1.0
340
0
 70
     7
280
     1
281
    50
282
    50
283
     0
360
0
 71
     2
 91
        5
 14
-0.5
 24
0.5
 14
0.5
 24
0.5
 14
0.5
 24
-0.188806855244
 14
-0.5
 24
-0.188806855244
 14
-0.5
 24
0.5
  0
TEXT
  5
41F
330
412
100
AcDbEntity
  8
Layer70
  6
AUSGEZOGEN
 62
   136
370
    18
100
AcDbText
 10
335.189397675215
 20
84.948771173166
 30
0.0
 40
1.25
  1
M4
 41
1.109555791862
  7
Arial
 72
     5
 11
337.87868352574
 21
84.948771173166
 31
0.0
100
AcDbText
  0
ENDBLK
  5
414
330
412
100
AcDbEntity
  8
0
100
AcDbBlockEnd
  0
ENDSEC
  0
SECTION
  2
ENTITIES
  0
INSERT
  5
1A2
330
1F
100
AcDbEntity
  8
0
100
AcDbBlockReference
  2
L1_nNn00
 10
0.0
 20
0.0
 30
0.0
  0
LINE
  5
1A3
330
1F
100
AcDbEntity
  8
Layer0
  6
DASHDOT
 62
    56
370
    18
100
AcDbLine
 10
336.390007553535
 20
54.75474954867
 30
0.0
 11
336.390007553535
 21
77.36510440316
 31
0.0
  0
LINE
  5
1A4
330
1F
100
AcDbEntity
  8
Layer0
  6
DASHDOT
 62
    56
370
    18
100
AcDbLine
 10
324.848121194181
 20
66.313305835377
 30
0.0
 11
348.369106147966
 21
66.313305835377
 31
0.0
  0
CIRCLE
  5
1A5
330
1F
100
AcDbEntity
  8
Layer0
  6
AUSGEZOGEN
 62
    56
370
    18
100
AcDbCircle
 10
336.390007553535
 20
66.313305835377
 30
0.0
 40
8.5
  0
CIRCLE
  5
1A6
330
1F
100
AcDbEntity
  8
Layer0
  6
AUSGEZOGEN
 62
     9
370
    18
100
AcDbCircle
 10
336.390007553535
 20
66.313305835377
 30
0.0
 40
9.0
  0
CIRCLE
  5
1A7
330
1F
100
AcDbEntity
  8
Layer0
  6
AUSGEZOGEN
 62
     9
370
    18
100
AcDbCircle
 10
336.390007553535
 20
66.313305835377
 30
0.0
 40
10.0
  0
INSERT
  5
37A
330
1F
100
AcDbEntity
  8
0
100
AcDbBlockReference
  2
L1_nNn03
 10
0.0
 20
0.0
 30
0.0
  0
DIMENSION
  5
390
330
1F
100
AcDbEntity
  8
Layer70
  6
AUSGEZOGEN
 62
   136
370
    18
100
AcDbDimension
  2
*D6
 10
342.363319662279
 20
76.659375080648
 30
0.0
 11
347.240813450644
 21
75.142386846285
 31
0.0
 70
   160
 71
     5
 42
-1.0
 53
-30.000039718927
  3
ISO-25
100
AcDbAlignedDimension
 13
341.70162883802
 23
70.913305835377
 33
0.0
 14
339.709773598152
 24
72.063305835377
 34
0.0
 50
149.999960281073
100
AcDbRotatedDimension
1001
ACAD
1000
DSTYLE
1002
{
1070
     3
1000
<>
1070
    44
1040
0.892857142857
1070
   280
1070
     0
1070
    77
1070
     1
1070
    78
1070
     8
1070
   179
1070
     2
1070
   271
1070
     2
1070
   344
1005
391
1070
   343
1005
391
1070
   173
1070
     1
1070
    41
1040
1.25
1070
   147
1040
0.178571428571
1070
   140
1040
1.25
1070
   178
1070
   136
1070
   177
1070
   136
1070
   176
1070
   136
1002
}
  0
DIMENSION
  5
3A9
330
1F
100
AcDbEntity
  8
Layer70
  6
AUSGEZOGEN
 62
   136
370
    18
100
AcDbDimension
  2
*D8
 10
344.890007553535
 20
51.494728059499
 30
0.0
 11
336.286540587066
 21
52.619728059499
 31
0.0
 70
   160
 71
     5
 42
-1.0
  3
ISO-25
100
AcDbAlignedDimension
 13
327.890007553535
 23
66.313305835377
 33
0.0
 14
344.890007553535
 24
66.313305835377
 34
0.0
100
AcDbRotatedDimension
1001
ACAD
1000
DSTYLE
1002
{
1070
     3
1000
<>
1070
    44
1040
0.892857142857
1070
   280
1070
     0
1070
    77
1070
     1
1070
    78
1070
     8
1070
   179
1070
     2
1070
   271
1070
     2
1070
   344
1005
391
1070
   343
1005
391
1070
   173
1070
     1
1070
    41
1040
1.25
1070
   147
1040
0.178571428571
1070
   140
1040
1.25
1070
   178
1070
   136
1070
   177
1070
   136
1070
   176
1070
   136
1002
}
  0
DIMENSION
  5
3B7
330
1F
100
AcDbEntity
  8
Layer70
  6
AUSGEZOGEN
 62
   136
370
    18
100
AcDbDimension
  2
*D9
 10
346.390007553535
 20
48.043755941542
 30
0.0
 11
336.376291747013
 21
49.168755941542
 31
0.0
 70
   160
 71
     5
 42
-1.0
  3
ISO-25
100
AcDbAlignedDimension
 13
326.390007553535
 23
66.313305835377
 33
0.0
 14
346.390007553535
 24
66.313305835377
 34
0.0
100
AcDbRotatedDimension
1001
ACAD
1000
DSTYLE
1002
{
1070
     3
1000
<>
1070
    44
1040
0.892857142857
1070
   280
1070
     0
1070
    77
1070
     1
1070
    78
1070
     8
1070
   179
1070
     2
1070
   271
1070
     2
1070
   344
1005
391
1070
   343
1005
391
1070
   173
1070
     1
1070
    41
1040
1.25
1070
   147
1040
0.178571428571
1070
   140
1040
1.25
1070
   178
1070
   136
1070
   177
1070
   136
1070
   176
1070
   136
1002
}
  0
INSERT
  5
3BC
330
1F
100
AcDbEntity
  8
0
100
AcDbBlockReference
  2
Reflexwerte_nNn08
 10
0.0
 20
0.0
 30
0.0
  0
INSERT
  5
3C3
330
1F
100
AcDbEntity
  8
0
100
AcDbBlockReference
  2
QS_nNn09
 10
0.0
 20
0.0
 30
0.0
  0
LINE
  5
3C4
330
1F
100
AcDbEntity
  8
Layer0
  6
DASHDOT
 62
    56
370
    18
100
AcDbLine
 10
336.27475323847
 20
87.5
 30
0.0
 11
336.27475323847
 21
102.492364492034
 31
0.0
  0
INSERT
  5
3D4
330
1F
100
AcDbEntity
  8
0
100
AcDbBlockReference
  2
L1_nNn010
 10
0.0
 20
0.0
 30
0.0
  0
LINE
  5
3D5
330
1F
100
AcDbEntity
  8
Layer0
  6
AUSGEZOGEN
 62
     9
370
    18
100
AcDbLine
 10
326.27475323847
 20
97.435596826984
 30
0.0
 11
326.27475323847
 21
103.835596826984
 31
0.0
  0
LINE
  5
3D6
330
1F
100
AcDbEntity
  8
Layer0
  6
DASHED
 62
   136
370
    18
100
AcDbLine
 10
327.27475323847
 20
103.635596826984
 30
0.0
 11
327.27475323847
 21
103.835596826984
 31
0.0
  0
LINE
  5
3D7
330
1F
100
AcDbEntity
  8
Layer0
  6
AUSGEZOGEN
 62
     9
370
    18
100
AcDbLine
 10
346.27475323847
 20
97.435596826984
 30
0.0
 11
346.27475323847
 21
103.835596826984
 31
0.0
  0
LINE
  5
3D8
330
1F
100
AcDbEntity
  8
Layer0
  6
DASHED
 62
   136
370
    18
100
AcDbLine
 10
345.27475323847
 20
103.635596826984
 30
0.0
 11
345.27475323847
 21
103.835596826984
 31
0.0
  0
LINE
  5
3D9
330
1F
100
AcDbEntity
  8
Layer0
  6
DASHED
 62
   136
370
    18
100
AcDbLine
 10
327.27475323847
 20
103.635596826984
 30
0.0
 11
345.27475323847
 21
103.635596826984
 31
0.0
  0
LINE
  5
3DA
330
1F
100
AcDbEntity
  8
Layer0
  6
AUSGEZOGEN
 62
     9
370
    18
100
AcDbLine
 10
326.27475323847
 20
98.635596826984
 30
0.0
 11
346.27475323847
 21
98.635596826984
 31
0.0
  0
LINE
  5
3DB
330
1F
100
AcDbEntity
  8
Layer0
  6
AUSGEZOGEN
 62
     9
370
    18
100
AcDbLine
 10
326.27475323847
 20
97.435596826984
 30
0.0
 11
346.27475323847
 21
97.435596826984
 31
0.0
  0
LINE
  5
3DC
330
1F
100
AcDbEntity
  8
Layer0
  6
AUSGEZOGEN
 62
     9
370
    18
100
AcDbLine
 10
345.27475323847
 20
103.835596826984
 30
0.0
 11
346.27475323847
 21
103.835596826984
 31
0.0
  0
LINE
  5
3DD
330
1F
100
AcDbEntity
  8
Layer0
  6
AUSGEZOGEN
 62
     9
370
    18
100
AcDbLine
 10
326.27475323847
 20
103.835596826984
 30
0.0
 11
345.27475323847
 21
103.835596826984
 31
0.0
  0
LINE
  5
3DE
330
1F
100
AcDbEntity
  8
Layer0
  6
DASHED
 62
   136
370
    18
100
AcDbLine
 10
327.77475323847
 20
98.635596826984
 30
0.0
 11
327.77475323847
 21
102.268930160317
 31
0.0
  0
LINE
  5
3DF
330
1F
100
AcDbEntity
  8
Layer0
  6
DASHED
 62
   136
370
    18
100
AcDbLine
 10
344.77475323847
 20
98.635596826984
 30
0.0
 11
344.77475323847
 21
102.268930160317
 31
0.0
  0
LINE
  5
3E0
330
1F
100
AcDbEntity
  8
Layer0
  6
DASHED
 62
   136
370
    18
100
AcDbLine
 10
336.27475323847
 20
100.435596826984
 30
0.0
 11
337.47475323847
 21
102.435596826984
 31
0.0
  0
LINE
  5
3E1
330
1F
100
AcDbEntity
  8
Layer0
  6
DASHED
 62
   136
370
    18
100
AcDbLine
 10
337.47475323847
 20
102.435596826984
 30
0.0
 11
338.67475323847
 21
100.435596826984
 31
0.0
  0
LINE
  5
3E2
330
1F
100
AcDbEntity
  8
Layer0
  6
DASHED
 62
   136
370
    18
100
AcDbLine
 10
338.67475323847
 20
100.435596826984
 30
0.0
 11
339.87475323847
 21
102.435596826984
 31
0.0
  0
LINE
  5
3E3
330
1F
100
AcDbEntity
  8
Layer0
  6
DASHED
 62
   136
370
    18
100
AcDbLine
 10
339.87475323847
 20
102.435596826984
 30
0.0
 11
341.07475323847
 21
100.435596826984
 31
0.0
  0
LINE
  5
3E4
330
1F
100
AcDbEntity
  8
Layer0
  6
DASHED
 62
   136
370
    18
100
AcDbLine
 10
341.07475323847
 20
100.435596826984
 30
0.0
 11
342.27475323847
 21
102.435596826984
 31
0.0
  0
LINE
  5
3E5
330
1F
100
AcDbEntity
  8
Layer0
  6
DASHED
 62
   136
370
    18
100
AcDbLine
 10
342.27475323847
 20
102.435596826984
 30
0.0
 11
343.47475323847
 21
100.435596826984
 31
0.0
  0
LINE
  5
3E6
330
1F
100
AcDbEntity
  8
Layer0
  6
DASHED
 62
   136
370
    18
100
AcDbLine
 10
343.47475323847
 20
100.435596826984
 30
0.0
 11
344.67475323847
 21
102.435596826984
 31
0.0
  0
LINE
  5
3E7
330
1F
100
AcDbEntity
  8
Layer0
  6
DASHED
 62
   136
370
    18
100
AcDbLine
 10
344.67475323847
 20
102.435596826984
 30
0.0
 11
344.77475323847
 21
102.268930160317
 31
0.0
  0
LINE
  5
3E8
330
1F
100
AcDbEntity
  8
Layer0
  6
DASHED
 62
   136
370
    18
100
AcDbLine
 10
336.27475323847
 20
100.435596826984
 30
0.0
 11
335.07475323847
 21
102.435596826984
 31
0.0
  0
LINE
  5
3E9
330
1F
100
AcDbEntity
  8
Layer0
  6
DASHED
 62
   136
370
    18
100
AcDbLine
 10
335.07475323847
 20
102.435596826984
 30
0.0
 11
333.87475323847
 21
100.435596826984
 31
0.0
  0
LINE
  5
3EA
330
1F
100
AcDbEntity
  8
Layer0
  6
DASHED
 62
   136
370
    18
100
AcDbLine
 10
333.87475323847
 20
100.435596826984
 30
0.0
 11
332.67475323847
 21
102.435596826984
 31
0.0
  0
LINE
  5
3EB
330
1F
100
AcDbEntity
  8
Layer0
  6
DASHED
 62
   136
370
    18
100
AcDbLine
 10
332.67475323847
 20
102.435596826984
 30
0.0
 11
331.47475323847
 21
100.435596826984
 31
0.0
  0
LINE
  5
3EC
330
1F
100
AcDbEntity
  8
Layer0
  6
DASHED
 62
   136
370
    18
100
AcDbLine
 10
331.47475323847
 20
100.435596826984
 30
0.0
 11
330.27475323847
 21
102.435596826984
 31
0.0
  0
LINE
  5
3ED
330
1F
100
AcDbEntity
  8
Layer0
  6
DASHED
 62
   136
370
    18
100
AcDbLine
 10
330.27475323847
 20
102.435596826984
 30
0.0
 11
329.07475323847
 21
100.435596826984
 31
0.0
  0
LINE
  5
3EE
330
1F
100
AcDbEntity
  8
Layer0
  6
DASHED
 62
   136
370
    18
100
AcDbLine
 10
329.07475323847
 20
100.435596826984
 30
0.0
 11
327.87475323847
 21
102.435596826984
 31
0.0
  0
LINE
  5
3EF
330
1F
100
AcDbEntity
  8
Layer0
  6
DASHED
 62
   136
370
    18
100
AcDbLine
 10
327.87475323847
 20
102.435596826984
 30
0.0
 11
327.77475323847
 21
102.268930160317
 31
0.0
  0
DIMENSION
  5
400
330
1F
100
AcDbEntity
  8
Layer70
  6
AUSGEZOGEN
 62
   136
370
    18
100
AcDbDimension
  2
*D14
 10
351.229352150525
 20
103.835596826984
 30
0.0
 11
350.104352150525
 21
100.58653660438
 31
0.0
 70
   160
 71
     5
 42
-1.0
 53
90.0
  3
ISO-25
100
AcDbAlignedDimension
 13
346.27475323847
 23
97.435596826984
 33
0.0
 14
346.27475323847
 24
103.835596826984
 34
0.0
 50
90.0
100
AcDbRotatedDimension
1001
ACAD
1000
DSTYLE
1002
{
1070
     3
1000
<>\S%%p0.3
1070
    44
1040
0.892857142857
1070
   280
1070
     0
1070
    77
1070
     1
1070
    78
1070
     8
1070
   179
1070
     2
1070
   271
1070
     2
1070
   344
1005
391
1070
   343
1005
391
1070
   173
1070
     1
1070
    41
1040
1.25
1070
   147
1040
0.178571428571
1070
   140
1040
1.25
1070
   178
1070
   136
1070
   177
1070
   136
1070
   176
1070
   136
1002
}
  0
LINE
  5
401
330
1F
100
AcDbEntity
  8
Layer0
  6
AUSGEZOGEN
 62
     9
370
    18
100
AcDbLine
 10
334.624753262312
 20
98.635596826984
 30
0.0
 11
337.924753214628
 21
98.635596826984
 31
0.0
  0
DIMENSION
  5
410
330
1F
100
AcDbEntity
  8
Layer70
  6
AUSGEZOGEN
 62
   136
370
    18
100
AcDbDimension
  2
*D15
 10
351.230656041469
 20
97.435596826984
 30
0.0
 11
350.105656041469
 21
93.856056941231
 31
0.0
 70
   160
 71
     5
 42
-1.0
 53
90.0
  3
ISO-25
100
AcDbAlignedDimension
 13
337.924753214628
 23
88.935596826984
 33
0.0
 14
346.27475323847
 24
97.435596826984
 34
0.0
 50
90.0
100
AcDbRotatedDimension
1001
ACAD
1000
DSTYLE
1002
{
1070
     3
1000
<>\S%%p1
1070
    44
1040
0.892857142857
1070
   280
1070
     0
1070
    77
1070
     1
1070
    78
1070
     8
1070
   179
1070
     2
1070
   271
1070
     2
1070
   344
1005
391
1070
   343
1005
391
1070
   173
1070
     1
1070
    41
1040
1.25
1070
   147
1040
0.178571428571
1070
   140
1040
1.25
1070
   178
1070
   136
1070
   177
1070
   136
1070
   176
1070
   136
1002
}
  0
TEXT
  5
411
330
1F
100
AcDbEntity
  8
Layer50
  6
AUSGEZOGEN
 62
     9
370
    18
100
AcDbText
 10
344.608920489457
 20
11.626350933602
 30
0.0
 40
2.5
  1
Reflektor 20DM4
 41
1.249590776613
  7
Arial
 72
     5
 11
377.323207021178
 21
11.626350933602
 31
0.0
100
AcDbText
  0
DIMENSION
  5
420
330
1F
100
AcDbEntity
  8
Layer70
  6
AUSGEZOGEN
 62
   136
370
    18
100
AcDbDimension
  2
*D16
 10
338.27475323847
 20
84.448771173166
 30
0.0
 11
336.534040600478
 21
85.573771173166
 31
0.0
 70
   160
 71
     5
 42
-1.0
  3
ISO-25
100
AcDbAlignedDimension
 13
334.27475323847
 23
89.285597208454
 33
0.0
 14
338.27475323847
 24
89.285597208454
 34
0.0
100
AcDbRotatedDimension
1001
ACAD
1000
DSTYLE
1002
{
1070
     3
1000
M<>
1070
    44
1040
0.892857142857
1070
   280
1070
     0
1070
    77
1070
     1
1070
    78
1070
     8
1070
   179
1070
     2
1070
   271
1070
     2
1070
   344
1005
391
1070
   343
1005
391
1070
   173
1070
     1
1070
    41
1040
1.25
1070
   147
1040
0.178571428571
1070
   140
1040
1.25
1070
   178
1070
   136
1070
   177
1070
   136
1070
   176
1070
   136
1002
}
  0
ENDSEC
  0
SECTION
  2
OBJECTS
  0
DICTIONARY
  5
C
330
0
100
AcDbDictionary
281
     1
  3
ACAD_GROUP
350
D
  3
ACAD_LAYOUT
350
1A
  3
ACAD_MATERIAL
350
3B
  3
ACAD_MLEADERSTYLE
350
448
  3
ACAD_MLINESTYLE
350
17
  3
ACAD_PLOTSETTINGS
350
19
  3
ACAD_PLOTSTYLENAME
350
E
  3
ACAD_TABLESTYLE
350
447
  3
ACAD_VISUALSTYLE
350
2A
  3
ACAD_WIPEOUT_VARS
350
3F
  0
DICTIONARY
  5
D
102
{ACAD_REACTORS
330
C
102
}
330
C
100
AcDbDictionary
281
     1
  0
DICTIONARY
  5
1A
102
{ACAD_REACTORS
330
C
102
}
330
C
100
AcDbDictionary
281
     1
  3
Layout1
350
1E
  3
Layout2
350
26
  3
Model
350
22
  0
DICTIONARY
  5
3B
102
{ACAD_REACTORS
330
C
102
}
330
C
100
AcDbDictionary
281
     1
  3
ByBlock
350
3D
  3
ByLayer
350
3C
  3
Global
350
3E
  0
DICTIONARY
  5
448
102
{ACAD_REACTORS
330
C
102
}
330
C
100
AcDbDictionary
281
     1
  0
DICTIONARY
  5
17
102
{ACAD_REACTORS
330
C
102
}
330
C
100
AcDbDictionary
281
     1
  3
Standard
350
18
  0
DICTIONARY
  5
19
102
{ACAD_REACTORS
330
C
102
}
330
C
100
AcDbDictionary
281
     1
  0
ACDBDICTIONARYWDFLT
  5
E
102
{ACAD_REACTORS
330
C
102
}
330
C
100
AcDbDictionary
281
     1
  3
Normal
350
F
100
AcDbDictionaryWithDefault
340
F
  0
DICTIONARY
  5
447
102
{ACAD_REACTORS
330
C
102
}
330
C
100
AcDbDictionary
281
     1
  0
DICTIONARY
  5
2A
102
{ACAD_REACTORS
330
C
102
}
330
C
100
AcDbDictionary
281
     1
  3
2dWireframe
350
2F
  3
3D Hidden
350
31
  3
3dWireframe
350
30
  3
Basic
350
32
  3
Brighten
350
36
  3
ColorChange
350
3A
  3
Conceptual
350
34
  3
Dim
350
35
  3
Facepattern
350
39
  3
Flat
350
2B
  3
FlatWithEdges
350
2C
  3
Gouraud
350
2D
  3
GouraudWithEdges
350
2E
  3
Linepattern
350
38
  3
Realistic
350
33
  3
Thicken
350
37
  0
WIPEOUTVARIABLES
  5
3F
102
{ACAD_REACTORS
330
C
102
}
330
C
100
AcDbWipeoutVariables
 70
     0
  0
LAYOUT
  5
1E
102
{ACAD_REACTORS
330
1A
102
}
330
1A
100
AcDbPlotSettings
  1

  2
none_device
  4

  6

 40
0.0
 41
0.0
 42
0.0
 43
0.0
 44
0.0
 45
0.0
 46
0.0
 47
0.0
 48
0.0
 49
0.0
140
0.0
141
0.0
142
1.0
143
1.0
 70
   688
 72
     0
 73
     0
 74
     5
  7

 75
    16
 76
     0
 77
     2
 78
   300
147
1.0
148
0.0
149
0.0
100
AcDbLayout
  1
Layout1
 70
     1
 71
     1
 10
0.0
 20
0.0
 11
420.0
 21
297.0
 12
0.0
 22
0.0
 32
0.0
 14
1.000000000000E+20
 24
1.000000000000E+20
 34
1.000000000000E+20
 15
-1.000000000000E+20
 25
-1.000000000000E+20
 35
-1.000000000000E+20
146
0.0
 13
0.0
 23
0.0
 33
0.0
 16
1.0
 26
0.0
 36
0.0
 17
0.0
 27
1.0
 37
0.0
 76
     0
330
1B
  0
LAYOUT
  5
26
102
{ACAD_REACTORS
330
1A
102
}
330
1A
100
AcDbPlotSettings
  1

  2
none_device
  4

  6

 40
0.0
 41
0.0
 42
0.0
 43
0.0
 44
0.0
 45
0.0
 46
0.0
 47
0.0
 48
0.0
 49
0.0
140
0.0
141
0.0
142
1.0
143
1.0
 70
   688
 72
     0
 73
     0
 74
     5
  7

 75
    16
 76
     0
 77
     2
 78
   300
147
1.0
148
0.0
149
0.0
100
AcDbLayout
  1
Layout2
 70
     1
 71
     2
 10
0.0
 20
0.0
 11
0.0
 21
0.0
 12
0.0
 22
0.0
 32
0.0
 14
0.0
 24
0.0
 34
0.0
 15
0.0
 25
0.0
 35
0.0
146
0.0
 13
0.0
 23
0.0
 33
0.0
 16
1.0
 26
0.0
 36
0.0
 17
0.0
 27
1.0
 37
0.0
 76
     0
330
23
  0
LAYOUT
  5
22
102
{ACAD_REACTORS
330
1A
102
}
330
1A
100
AcDbPlotSettings
  1

  2
none_device
  4

  6

 40
0.0
 41
0.0
 42
0.0
 43
0.0
 44
0.0
 45
0.0
 46
0.0
 47
0.0
 48
0.0
 49
0.0
140
0.0
141
0.0
142
1.0
143
1.0
 70
  1712
 72
     0
 73
     0
 74
     0
  7

 75
     0
 76
     0
 77
     2
 78
   300
147
1.0
148
0.0
149
0.0
100
AcDbLayout
  1
Model
 70
     1
 71
     0
 10
0.0
 20
0.0
 11
420.0
 21
297.0
 12
0.0
 22
0.0
 32
0.0
 14
145.644450685231
 24
-8.619852822581
 34
0.0
 15
524.354687083468
 25
144.929147177419
 35
0.0
146
0.0
 13
0.0
 23
0.0
 33
0.0
 16
1.0
 26
0.0
 36
0.0
 17
0.0
 27
1.0
 37
0.0
 76
     0
330
1F
331
29
  0
MATERIAL
  5
3D
102
{ACAD_REACTORS
330
3B
102
}
102
{ACAD_XDICTIONARY
360
443
102
}
330
3B
100
AcDbMaterial
  1
ByBlock
  0
MATERIAL
  5
3C
102
{ACAD_REACTORS
330
3B
102
}
102
{ACAD_XDICTIONARY
360
441
102
}
330
3B
100
AcDbMaterial
  1
ByLayer
  0
MATERIAL
  5
3E
102
{ACAD_REACTORS
330
3B
102
}
102
{ACAD_XDICTIONARY
360
445
102
}
330
3B
100
AcDbMaterial
  1
Global
  0
MLINESTYLE
  5
18
102
{ACAD_REACTORS
330
17
102
}
330
17
100
AcDbMlineStyle
  2
Standard
 70
     0
  3

 62
   256
 51
90.0
 52
90.0
 71
     2
 49
0.5
 62
   256
  6
BYLAYER
 49
-0.5
 62
   256
  6
BYLAYER
  0
ACDBPLACEHOLDER
  5
F
102
{ACAD_REACTORS
330
E
102
}
330
E
  0
VISUALSTYLE
  5
2F
102
{ACAD_REACTORS
330
2A
102
}
102
{ACAD_XDICTIONARY
360
429
102
}
330
2A
100
AcDbVisualStyle
  2
2dWireframe
 70
     4
 71
     0
 72
     2
 73
     0
 90
        0
 40
-0.6
 41
-30.0
 62
     5
 63
     7
421
 16777215
 74
     1
 91
        4
 64
     7
 65
   257
 75
     1
175
     1
 42
1.0
 92
        0
 66
   257
 43
1.0
 76
     1
 77
     6
 78
     2
 67
     7
 79
     5
170
     0
171
     0
290
     0
174
     0
 93
        1
 44
0.0
173
     0
291
     0
 45
0.0
1001
ACAD
1000
AcDbSavedByObjectVersion
1070
     0
  0
VISUALSTYLE
  5
31
102
{ACAD_REACTORS
330
2A
102
}
102
{ACAD_XDICTIONARY
360
42D
102
}
330
2A
100
AcDbVisualStyle
  2
3D Hidden
 70
     6
 71
     1
 72
     2
 73
     2
 90
        0
 40
-0.6
 41
-30.0
 62
     5
 63
     7
421
 16777215
 74
     2
 91
        2
 64
     7
 65
   257
 75
     2
175
     1
 42
40.0
 92
        0
 66
   257
 43
1.0
 76
     1
 77
     6
 78
     2
 67
     7
 79
     3
170
     0
171
     0
290
     0
174
     0
 93
        1
 44
0.0
173
     0
291
     0
 45
0.0
1001
ACAD
1000
AcDbSavedByObjectVersion
1070
     0
  0
VISUALSTYLE
  5
30
102
{ACAD_REACTORS
330
2A
102
}
102
{ACAD_XDICTIONARY
360
42B
102
}
330
2A
100
AcDbVisualStyle
  2
3dWireframe
 70
     5
 71
     0
 72
     2
 73
     0
 90
        0
 40
-0.6
 41
-30.0
 62
     5
 63
     7
421
 16777215
 74
     1
 91
        4
 64
     7
 65
   257
 75
     1
175
     1
 42
1.0
 92
        0
 66
   257
 43
1.0
 76
     1
 77
     6
 78
     2
 67
     7
 79
     5
170
     0
171
     0
290
     0
174
     0
 93
        1
 44
0.0
173
     0
291
     0
 45
0.0
1001
ACAD
1000
AcDbSavedByObjectVersion
1070
     0
  0
VISUALSTYLE
  5
32
102
{ACAD_REACTORS
330
2A
102
}
102
{ACAD_XDICTIONARY
360
42F
102
}
330
2A
100
AcDbVisualStyle
  2
Basic
 70
     7
 71
     1
 72
     0
 73
     1
 90
        0
 40
-0.6
 41
-30.0
 62
     5
 63
     7
421
 16777215
 74
     0
 91
        4
 64
     7
 65
   257
 75
     1
175
     1
 42
1.0
 92
        8
 66
     7
 43
1.0
 76
     1
 77
     6
 78
     2
 67
     7
 79
     5
170
     0
171
     0
290
     0
174
     0
 93
        1
 44
0.0
173
     0
291
     1
 45
0.0
1001
ACAD
1000
AcDbSavedByObjectVersion
1070
     0
  0
VISUALSTYLE
  5
36
102
{ACAD_REACTORS
330
2A
102
}
102
{ACAD_XDICTIONARY
360
437
102
}
330
2A
100
AcDbVisualStyle
  2
Brighten
 70
    12
 71
     2
 72
     2
 73
     0
 90
        0
 40
-0.6
 41
-30.0
 62
     5
 63
     7
421
 16777215
 74
     1
 91
        4
 64
     7
 65
   257
 75
     1
175
     1
 42
1.0
 92
        8
 66
     7
 43
1.0
 76
     1
 77
     6
 78
     2
 67
     7
 79
     5
170
     0
171
     0
290
     0
174
     0
 93
        1
 44
50.0
173
     0
291
     1
 45
0.0
1001
ACAD
1000
AcDbSavedByObjectVersion
1070
     0
  0
VISUALSTYLE
  5
3A
102
{ACAD_REACTORS
330
2A
102
}
102
{ACAD_XDICTIONARY
360
43F
102
}
330
2A
100
AcDbVisualStyle
  2
ColorChange
 70
    16
 71
     2
 72
     2
 73
     3
 90
        0
 40
-0.6
 41
-30.0
 62
     5
 63
     8
421
  8421504
 74
     1
 91
        4
 64
     7
 65
   257
 75
     1
175
     1
 42
1.0
 92
        8
 66
     8
424
  8421504
 43
1.0
 76
     1
 77
     6
 78
     2
 67
     7
 79
     5
170
     0
171
     0
290
     0
174
     0
 93
        1
 44
0.0
173
     0
291
     1
 45
0.0
1001
ACAD
1000
AcDbSavedByObjectVersion
1070
     0
  0
VISUALSTYLE
  5
34
102
{ACAD_REACTORS
330
2A
102
}
102
{ACAD_XDICTIONARY
360
433
102
}
330
2A
100
AcDbVisualStyle
  2
Conceptual
 70
     9
 71
     3
 72
     2
 73
     0
 90
        0
 40
-0.6
 41
-30.0
 62
     5
 63
     7
421
 16777215
 74
     2
 91
        2
 64
     7
 65
   257
 75
     1
175
     1
 42
40.0
 92
        8
 66
     7
 43
1.0
 76
     1
 77
     6
 78
     2
 67
     7
 79
     3
170
     0
171
     0
290
     0
174
     0
 93
        1
 44
0.0
173
     0
291
     0
 45
0.0
1001
ACAD
1000
AcDbSavedByObjectVersion
1070
     0
  0
VISUALSTYLE
  5
35
102
{ACAD_REACTORS
330
2A
102
}
102
{ACAD_XDICTIONARY
360
435
102
}
330
2A
100
AcDbVisualStyle
  2
Dim
 70
    11
 71
     2
 72
     2
 73
     0
 90
        0
 40
-0.6
 41
-30.0
 62
     5
 63
     7
421
 16777215
 74
     1
 91
        4
 64
     7
 65
   257
 75
     1
175
     1
 42
1.0
 92
        8
 66
     7
 43
1.0
 76
     1
 77
     6
 78
     2
 67
     7
 79
     5
170
     0
171
     0
290
     0
174
     0
 93
        1
 44
-50.0
173
     0
291
     1
 45
0.0
1001
ACAD
1000
AcDbSavedByObjectVersion
1070
     0
  0
VISUALSTYLE
  5
39
102
{ACAD_REACTORS
330
2A
102
}
102
{ACAD_XDICTIONARY
360
43D
102
}
330
2A
100
AcDbVisualStyle
  2
Facepattern
 70
    15
 71
     2
 72
     2
 73
     0
 90
        0
 40
-0.6
 41
-30.0
 62
     5
 63
     7
421
 16777215
 74
     1
 91
        4
 64
     7
 65
   257
 75
     1
175
     1
 42
1.0
 92
        8
 66
     7
 43
1.0
 76
     1
 77
     6
 78
     2
 67
     7
 79
     5
170
     0
171
     0
290
     0
174
     0
 93
        1
 44
0.0
173
     0
291
     1
 45
0.0
1001
ACAD
1000
AcDbSavedByObjectVersion
1070
     0
  0
VISUALSTYLE
  5
2B
102
{ACAD_REACTORS
330
2A
102
}
102
{ACAD_XDICTIONARY
360
421
102
}
330
2A
100
AcDbVisualStyle
  2
Flat
 70
     0
 71
     2
 72
     1
 73
     1
 90
        2
 40
-0.6
 41
30.0
 62
     5
 63
     7
421
 16777215
 74
     0
 91
        4
 64
     7
 65
   257
 75
     1
175
     1
 42
1.0
 92
        8
 66
     7
 43
1.0
 76
     1
 77
     6
 78
     2
 67
     7
 79
     5
170
     0
171
     0
290
     0
174
     0
 93
       13
 44
0.0
173
     0
291
     1
 45
0.0
1001
ACAD
1000
AcDbSavedByObjectVersion
1070
     0
  0
VISUALSTYLE
  5
2C
102
{ACAD_REACTORS
330
2A
102
}
102
{ACAD_XDICTIONARY
360
423
102
}
330
2A
100
AcDbVisualStyle
  2
FlatWithEdges
 70
     1
 71
     2
 72
     1
 73
     1
 90
        2
 40
-0.6
 41
30.0
 62
     5
 63
     7
421
 16777215
 74
     1
 91
        4
 64
     7
 65
   257
 75
     1
175
     1
 42
1.0
 92
        0
 66
   257
 43
1.0
 76
     1
 77
     6
 78
     2
 67
     7
 79
     5
170
     0
171
     0
290
     0
174
     0
 93
       13
 44
0.0
173
     0
291
     1
 45
0.0
1001
ACAD
1000
AcDbSavedByObjectVersion
1070
     0
  0
VISUALSTYLE
  5
2D
102
{ACAD_REACTORS
330
2A
102
}
102
{ACAD_XDICTIONARY
360
425
102
}
330
2A
100
AcDbVisualStyle
  2
Gouraud
 70
     2
 71
     2
 72
     2
 73
     1
 90
        2
 40
-0.6
 41
30.0
 62
     5
 63
     7
421
 16777215
 74
     0
 91
        4
 64
     7
 65
   257
 75
     1
175
     1
 42
1.0
 92
        0
 66
     7
 43
1.0
 76
     1
 77
     6
 78
     2
 67
     7
 79
     5
170
     0
171
     0
290
     0
174
     0
 93
       13
 44
0.0
173
     0
291
     1
 45
0.0
1001
ACAD
1000
AcDbSavedByObjectVersion
1070
     0
  0
VISUALSTYLE
  5
2E
102
{ACAD_REACTORS
330
2A
102
}
102
{ACAD_XDICTIONARY
360
427
102
}
330
2A
100
AcDbVisualStyle
  2
GouraudWithEdges
 70
     3
 71
     2
 72
     2
 73
     1
 90
        2
 40
-0.6
 41
30.0
 62
     5
 63
     7
421
 16777215
 74
     1
 91
        4
 64
     7
 65
   257
 75
     1
175
     1
 42
1.0
 92
        0
 66
   257
 43
1.0
 76
     1
 77
     6
 78
     2
 67
     7
 79
     5
170
     0
171
     0
290
     0
174
     0
 93
       13
 44
0.0
173
     0
291
     1
 45
0.0
1001
ACAD
1000
AcDbSavedByObjectVersion
1070
     0
  0
VISUALSTYLE
  5
38
102
{ACAD_REACTORS
330
2A
102
}
102
{ACAD_XDICTIONARY
360
43B
102
}
330
2A
100
AcDbVisualStyle
  2
Linepattern
 70
    14
 71
     2
 72
     2
 73
     0
 90
        0
 40
-0.6
 41
-30.0
 62
     5
 63
     7
421
 16777215
 74
     1
 91
        4
 64
     7
 65
   257
 75
     7
175
     7
 42
1.0
 92
        8
 66
     7
 43
1.0
 76
     1
 77
     6
 78
     2
 67
     7
 79
     5
170
     0
171
     0
290
     0
174
     0
 93
        1
 44
0.0
173
     0
291
     1
 45
0.0
1001
ACAD
1000
AcDbSavedByObjectVersion
1070
     0
  0
VISUALSTYLE
  5
33
102
{ACAD_REACTORS
330
2A
102
}
102
{ACAD_XDICTIONARY
360
431
102
}
330
2A
100
AcDbVisualStyle
  2
Realistic
 70
     8
 71
     2
 72
     2
 73
     0
 90
        0
 40
-0.6
 41
-30.0
 62
     5
 63
     7
421
 16777215
 74
     1
 91
        0
 64
     7
 65
   257
 75
     1
175
     1
 42
1.0
 92
        8
 66
     8
424
  7895160
 43
1.0
 76
     1
 77
     6
 78
     2
 67
     7
 79
     5
170
     0
171
     0
290
     0
174
     0
 93
       13
 44
0.0
173
     0
291
     0
 45
0.0
1001
ACAD
1000
AcDbSavedByObjectVersion
1070
     0
  0
VISUALSTYLE
  5
37
102
{ACAD_REACTORS
330
2A
102
}
102
{ACAD_XDICTIONARY
360
439
102
}
330
2A
100
AcDbVisualStyle
  2
Thicken
 70
    13
 71
     2
 72
     2
 73
     0
 90
        0
 40
-0.6
 41
-30.0
 62
     5
 63
     7
421
 16777215
 74
     1
 91
        4
 64
     7
 65
   257
 75
     1
175
     1
 42
1.0
 92
       12
 66
     7
 43
1.0
 76
     1
 77
     6
 78
     2
 67
     7
 79
     5
170
     0
171
     0
290
     0
174
     0
 93
        1
 44
0.0
173
     0
291
     1
 45
0.0
1001
ACAD
1000
AcDbSavedByObjectVersion
1070
     0
  0
DICTIONARY
  5
443
330
3D
100
AcDbDictionary
280
     1
281
     1
  3
ACAD_XREC_ROUNDTRIP
360
444
  0
DICTIONARY
  5
441
330
3C
100
AcDbDictionary
280
     1
281
     1
  3
ACAD_XREC_ROUNDTRIP
360
442
  0
DICTIONARY
  5
445
330
3E
100
AcDbDictionary
280
     1
281
     1
  3
ACAD_XREC_ROUNDTRIP
360
446
  0
DICTIONARY
  5
429
330
2F
100
AcDbDictionary
280
     1
281
     1
  3
ACAD_XREC_ROUNDTRIP
360
42A
  0
DICTIONARY
  5
42D
330
31
100
AcDbDictionary
280
     1
281
     1
  3
ACAD_XREC_ROUNDTRIP
360
42E
  0
DICTIONARY
  5
42B
330
30
100
AcDbDictionary
280
     1
281
     1
  3
ACAD_XREC_ROUNDTRIP
360
42C
  0
DICTIONARY
  5
42F
330
32
100
AcDbDictionary
280
     1
281
     1
  3
ACAD_XREC_ROUNDTRIP
360
430
  0
DICTIONARY
  5
437
330
36
100
AcDbDictionary
280
     1
281
     1
  3
ACAD_XREC_ROUNDTRIP
360
438
  0
DICTIONARY
  5
43F
330
3A
100
AcDbDictionary
280
     1
281
     1
  3
ACAD_XREC_ROUNDTRIP
360
440
  0
DICTIONARY
  5
433
330
34
100
AcDbDictionary
280
     1
281
     1
  3
ACAD_XREC_ROUNDTRIP
360
434
  0
DICTIONARY
  5
435
330
35
100
AcDbDictionary
280
     1
281
     1
  3
ACAD_XREC_ROUNDTRIP
360
436
  0
DICTIONARY
  5
43D
330
39
100
AcDbDictionary
280
     1
281
     1
  3
ACAD_XREC_ROUNDTRIP
360
43E
  0
DICTIONARY
  5
421
330
2B
100
AcDbDictionary
280
     1
281
     1
  3
ACAD_XREC_ROUNDTRIP
360
422
  0
DICTIONARY
  5
423
330
2C
100
AcDbDictionary
280
     1
281
     1
  3
ACAD_XREC_ROUNDTRIP
360
424
  0
DICTIONARY
  5
425
330
2D
100
AcDbDictionary
280
     1
281
     1
  3
ACAD_XREC_ROUNDTRIP
360
426
  0
DICTIONARY
  5
427
330
2E
100
AcDbDictionary
280
     1
281
     1
  3
ACAD_XREC_ROUNDTRIP
360
428
  0
DICTIONARY
  5
43B
330
38
100
AcDbDictionary
280
     1
281
     1
  3
ACAD_XREC_ROUNDTRIP
360
43C
  0
DICTIONARY
  5
431
330
33
100
AcDbDictionary
280
     1
281
     1
  3
ACAD_XREC_ROUNDTRIP
360
432
  0
DICTIONARY
  5
439
330
37
100
AcDbDictionary
280
     1
281
     1
  3
ACAD_XREC_ROUNDTRIP
360
43A
  0
XRECORD
  5
444
102
{ACAD_REACTORS
330
443
102
}
330
443
100
AcDbXrecord
280
     1
102
MATERIAL
148
0.0
149
0.0
149
0.0
 93
        0
 94
      127
282
     0
 72
     1
 77
     1
171
     1
175
     1
179
     1
273
     0
  0
XRECORD
  5
442
102
{ACAD_REACTORS
330
441
102
}
330
441
100
AcDbXrecord
280
     1
102
MATERIAL
148
0.0
149
0.0
149
0.0
 93
        0
 94
      127
282
     0
 72
     1
 77
     1
171
     1
175
     1
179
     1
273
     0
  0
XRECORD
  5
446
102
{ACAD_REACTORS
330
445
102
}
330
445
100
AcDbXrecord
280
     1
102
MATERIAL
148
0.0
149
0.0
149
0.0
 93
        0
 94
      127
282
     0
 72
     1
 77
     1
171
     1
175
     1
179
     1
273
     0
  0
XRECORD
  5
42A
102
{ACAD_REACTORS
330
429
102
}
330
429
100
AcDbXrecord
280
     1
102
RTVSPropertyOp0
 70
     1
102
RTVSPropertyOp1
 70
     1
102
RTVSPropertyOp2
 70
     1
102
RTVSPropertyOp3
 70
     1
102
RTVSPropertyOp4
 70
     1
102
RTVSPropertyOp5
 70
     1
102
RTVSPropertyOp6
 70
     1
102
RTVSPropertyOp7
 70
     1
102
RTVSPropertyOp8
 70
     1
102
RTVSPropertyOp9
 70
     1
102
RTVSPropertyOp10
 70
     1
102
RTVSPropertyOp11
 70
     1
102
RTVSPropertyOp12
 70
     1
102
RTVSPropertyOp13
 70
     1
102
RTVSPropertyOp14
 70
     1
102
RTVSPropertyOp15
 70
     1
102
RTVSPropertyOp16
 70
     1
102
RTVSPropertyOp17
 70
     1
102
RTVSPropertyOp18
 70
     1
102
RTVSPropertyOp19
 70
     1
102
RTVSPropertyOp20
 70
     1
102
RTVSPropertyOp21
 70
     1
102
RTVSPropertyOp22
 70
     1
102
RTVSPropertyOp23
 70
     1
102
RTVSPropertyOp24
 70
     1
102
RTVSPropertyOp25
 70
     1
102
RTVSPropertyOp26
 70
     1
102
RTVSPropertyOp27
 70
     1
102
RTVSPropertyOp28
 70
     1
102
RTVSPropertyOp29
 70
     1
102
RTVSPropertyOp30
 70
     1
102
RTVSPropertyOp31
 70
     1
102
RTVSPropertyOp32
 70
     1
  0
XRECORD
  5
42E
102
{ACAD_REACTORS
330
42D
102
}
330
42D
100
AcDbXrecord
280
     1
102
RTVSPropertyOp0
 70
     1
102
RTVSPropertyOp1
 70
     1
102
RTVSPropertyOp2
 70
     1
102
RTVSPropertyOp3
 70
     1
102
RTVSPropertyOp4
 70
     1
102
RTVSPropertyOp5
 70
     1
102
RTVSPropertyOp6
 70
     1
102
RTVSPropertyOp7
 70
     1
102
RTVSPropertyOp8
 70
     1
102
RTVSPropertyOp9
 70
     1
102
RTVSPropertyOp10
 70
     1
102
RTVSPropertyOp11
 70
     1
102
RTVSPropertyOp12
 70
     1
102
RTVSPropertyOp13
 70
     1
102
RTVSPropertyOp14
 70
     1
102
RTVSPropertyOp15
 70
     1
102
RTVSPropertyOp16
 70
     1
102
RTVSPropertyOp17
 70
     1
102
RTVSPropertyOp18
 70
     1
102
RTVSPropertyOp19
 70
     1
102
RTVSPropertyOp20
 70
     1
102
RTVSPropertyOp21
 70
     1
102
RTVSPropertyOp22
 70
     1
102
RTVSPropertyOp23
 70
     1
102
RTVSPropertyOp24
 70
     1
102
RTVSPropertyOp25
 70
     1
102
RTVSPropertyOp26
 70
     1
102
RTVSPropertyOp27
 70
     1
102
RTVSPropertyOp28
 70
     1
102
RTVSPropertyOp29
 70
     1
102
RTVSPropertyOp30
 70
     1
102
RTVSPropertyOp31
 70
     1
102
RTVSPropertyOp32
 70
     1
  0
XRECORD
  5
42C
102
{ACAD_REACTORS
330
42B
102
}
330
42B
100
AcDbXrecord
280
     1
102
RTVSPropertyOp0
 70
     1
102
RTVSPropertyOp1
 70
     1
102
RTVSPropertyOp2
 70
     1
102
RTVSPropertyOp3
 70
     1
102
RTVSPropertyOp4
 70
     1
102
RTVSPropertyOp5
 70
     1
102
RTVSPropertyOp6
 70
     1
102
RTVSPropertyOp7
 70
     1
102
RTVSPropertyOp8
 70
     1
102
RTVSPropertyOp9
 70
     1
102
RTVSPropertyOp10
 70
     1
102
RTVSPropertyOp11
 70
     1
102
RTVSPropertyOp12
 70
     1
102
RTVSPropertyOp13
 70
     1
102
RTVSPropertyOp14
 70
     1
102
RTVSPropertyOp15
 70
     1
102
RTVSPropertyOp16
 70
     1
102
RTVSPropertyOp17
 70
     1
102
RTVSPropertyOp18
 70
     1
102
RTVSPropertyOp19
 70
     1
102
RTVSPropertyOp20
 70
     1
102
RTVSPropertyOp21
 70
     1
102
RTVSPropertyOp22
 70
     1
102
RTVSPropertyOp23
 70
     1
102
RTVSPropertyOp24
 70
     1
102
RTVSPropertyOp25
 70
     1
102
RTVSPropertyOp26
 70
     1
102
RTVSPropertyOp27
 70
     1
102
RTVSPropertyOp28
 70
     1
102
RTVSPropertyOp29
 70
     1
102
RTVSPropertyOp30
 70
     1
102
RTVSPropertyOp31
 70
     1
102
RTVSPropertyOp32
 70
     1
  0
XRECORD
  5
430
102
{ACAD_REACTORS
330
42F
102
}
330
42F
100
AcDbXrecord
280
     1
102
RTVSPropertyOp0
 70
     1
102
RTVSPropertyOp1
 70
     1
102
RTVSPropertyOp2
 70
     1
102
RTVSPropertyOp3
 70
     1
102
RTVSPropertyOp4
 70
     1
102
RTVSPropertyOp5
 70
     1
102
RTVSPropertyOp6
 70
     1
102
RTVSPropertyOp7
 70
     1
102
RTVSPropertyOp8
 70
     1
102
RTVSPropertyOp9
 70
     1
102
RTVSPropertyOp10
 70
     1
102
RTVSPropertyOp11
 70
     1
102
RTVSPropertyOp12
 70
     1
102
RTVSPropertyOp13
 70
     1
102
RTVSPropertyOp14
 70
     1
102
RTVSPropertyOp15
 70
     1
102
RTVSPropertyOp16
 70
     1
102
RTVSPropertyOp17
 70
     1
102
RTVSPropertyOp18
 70
     1
102
RTVSPropertyOp19
 70
     1
102
RTVSPropertyOp20
 70
     1
102
RTVSPropertyOp21
 70
     1
102
RTVSPropertyOp22
 70
     1
102
RTVSPropertyOp23
 70
     1
102
RTVSPropertyOp24
 70
     1
102
RTVSPropertyOp25
 70
     1
102
RTVSPropertyOp26
 70
     1
102
RTVSPropertyOp27
 70
     1
102
RTVSPropertyOp28
 70
     1
102
RTVSPropertyOp29
 70
     1
102
RTVSPropertyOp30
 70
     1
102
RTVSPropertyOp31
 70
     1
102
RTVSPropertyOp32
 70
     1
  0
XRECORD
  5
438
102
{ACAD_REACTORS
330
437
102
}
330
437
100
AcDbXrecord
280
     1
102
RTVSPropertyOp0
 70
     1
102
RTVSPropertyOp1
 70
     1
102
RTVSPropertyOp2
 70
     1
102
RTVSPropertyOp3
 70
     1
102
RTVSPropertyOp4
 70
     1
102
RTVSPropertyOp5
 70
     1
102
RTVSPropertyOp6
 70
     1
102
RTVSPropertyOp7
 70
     1
102
RTVSPropertyOp8
 70
     1
102
RTVSPropertyOp9
 70
     1
102
RTVSPropertyOp10
 70
     1
102
RTVSPropertyOp11
 70
     1
102
RTVSPropertyOp12
 70
     1
102
RTVSPropertyOp13
 70
     1
102
RTVSPropertyOp14
 70
     1
102
RTVSPropertyOp15
 70
     1
102
RTVSPropertyOp16
 70
     1
102
RTVSPropertyOp17
 70
     1
102
RTVSPropertyOp18
 70
     1
102
RTVSPropertyOp19
 70
     1
102
RTVSPropertyOp20
 70
     1
102
RTVSPropertyOp21
 70
     1
102
RTVSPropertyOp22
 70
     1
102
RTVSPropertyOp23
 70
     1
102
RTVSPropertyOp24
 70
     1
102
RTVSPropertyOp25
 70
     1
102
RTVSPropertyOp26
 70
     1
102
RTVSPropertyOp27
 70
     1
102
RTVSPropertyOp28
 70
     1
102
RTVSPropertyOp29
 70
     1
102
RTVSPropertyOp30
 70
     1
102
RTVSPropertyOp31
 70
     1
102
RTVSPropertyOp32
 70
     1
  0
XRECORD
  5
440
102
{ACAD_REACTORS
330
43F
102
}
330
43F
100
AcDbXrecord
280
     1
102
RTVSPropertyOp0
 70
     1
102
RTVSPropertyOp1
 70
     1
102
RTVSPropertyOp2
 70
     1
102
RTVSPropertyOp3
 70
     1
102
RTVSPropertyOp4
 70
     1
102
RTVSPropertyOp5
 70
     1
102
RTVSPropertyOp6
 70
     1
102
RTVSPropertyOp7
 70
     1
102
RTVSPropertyOp8
 70
     1
102
RTVSPropertyOp9
 70
     1
102
RTVSPropertyOp10
 70
     1
102
RTVSPropertyOp11
 70
     1
102
RTVSPropertyOp12
 70
     1
102
RTVSPropertyOp13
 70
     1
102
RTVSPropertyOp14
 70
     1
102
RTVSPropertyOp15
 70
     1
102
RTVSPropertyOp16
 70
     1
102
RTVSPropertyOp17
 70
     1
102
RTVSPropertyOp18
 70
     1
102
RTVSPropertyOp19
 70
     1
102
RTVSPropertyOp20
 70
     1
102
RTVSPropertyOp21
 70
     1
102
RTVSPropertyOp22
 70
     1
102
RTVSPropertyOp23
 70
     1
102
RTVSPropertyOp24
 70
     1
102
RTVSPropertyOp25
 70
     1
102
RTVSPropertyOp26
 70
     1
102
RTVSPropertyOp27
 70
     1
102
RTVSPropertyOp28
 70
     1
102
RTVSPropertyOp29
 70
     1
102
RTVSPropertyOp30
 70
     1
102
RTVSPropertyOp31
 70
     1
102
RTVSPropertyOp32
 70
     1
  0
XRECORD
  5
434
102
{ACAD_REACTORS
330
433
102
}
330
433
100
AcDbXrecord
280
     1
102
RTVSPropertyOp0
 70
     1
102
RTVSPropertyOp1
 70
     1
102
RTVSPropertyOp2
 70
     1
102
RTVSPropertyOp3
 70
     1
102
RTVSPropertyOp4
 70
     1
102
RTVSPropertyOp5
 70
     1
102
RTVSPropertyOp6
 70
     1
102
RTVSPropertyOp7
 70
     1
102
RTVSPropertyOp8
 70
     1
102
RTVSPropertyOp9
 70
     1
102
RTVSPropertyOp10
 70
     1
102
RTVSPropertyOp11
 70
     1
102
RTVSPropertyOp12
 70
     1
102
RTVSPropertyOp13
 70
     1
102
RTVSPropertyOp14
 70
     1
102
RTVSPropertyOp15
 70
     1
102
RTVSPropertyOp16
 70
     1
102
RTVSPropertyOp17
 70
     1
102
RTVSPropertyOp18
 70
     1
102
RTVSPropertyOp19
 70
     1
102
RTVSPropertyOp20
 70
     1
102
RTVSPropertyOp21
 70
     1
102
RTVSPropertyOp22
 70
     1
102
RTVSPropertyOp23
 70
     1
102
RTVSPropertyOp24
 70
     1
102
RTVSPropertyOp25
 70
     1
102
RTVSPropertyOp26
 70
     1
102
RTVSPropertyOp27
 70
     1
102
RTVSPropertyOp28
 70
     1
102
RTVSPropertyOp29
 70
     1
102
RTVSPropertyOp30
 70
     1
102
RTVSPropertyOp31
 70
     1
102
RTVSPropertyOp32
 70
     1
  0
XRECORD
  5
436
102
{ACAD_REACTORS
330
435
102
}
330
435
100
AcDbXrecord
280
     1
102
RTVSPropertyOp0
 70
     1
102
RTVSPropertyOp1
 70
     1
102
RTVSPropertyOp2
 70
     1
102
RTVSPropertyOp3
 70
     1
102
RTVSPropertyOp4
 70
     1
102
RTVSPropertyOp5
 70
     1
102
RTVSPropertyOp6
 70
     1
102
RTVSPropertyOp7
 70
     1
102
RTVSPropertyOp8
 70
     1
102
RTVSPropertyOp9
 70
     1
102
RTVSPropertyOp10
 70
     1
102
RTVSPropertyOp11
 70
     1
102
RTVSPropertyOp12
 70
     1
102
RTVSPropertyOp13
 70
     1
102
RTVSPropertyOp14
 70
     1
102
RTVSPropertyOp15
 70
     1
102
RTVSPropertyOp16
 70
     1
102
RTVSPropertyOp17
 70
     1
102
RTVSPropertyOp18
 70
     1
102
RTVSPropertyOp19
 70
     1
102
RTVSPropertyOp20
 70
     1
102
RTVSPropertyOp21
 70
     1
102
RTVSPropertyOp22
 70
     1
102
RTVSPropertyOp23
 70
     1
102
RTVSPropertyOp24
 70
     1
102
RTVSPropertyOp25
 70
     1
102
RTVSPropertyOp26
 70
     1
102
RTVSPropertyOp27
 70
     1
102
RTVSPropertyOp28
 70
     1
102
RTVSPropertyOp29
 70
     1
102
RTVSPropertyOp30
 70
     1
102
RTVSPropertyOp31
 70
     1
102
RTVSPropertyOp32
 70
     1
  0
XRECORD
  5
43E
102
{ACAD_REACTORS
330
43D
102
}
330
43D
100
AcDbXrecord
280
     1
102
RTVSPropertyOp0
 70
     1
102
RTVSPropertyOp1
 70
     1
102
RTVSPropertyOp2
 70
     1
102
RTVSPropertyOp3
 70
     1
102
RTVSPropertyOp4
 70
     1
102
RTVSPropertyOp5
 70
     1
102
RTVSPropertyOp6
 70
     1
102
RTVSPropertyOp7
 70
     1
102
RTVSPropertyOp8
 70
     1
102
RTVSPropertyOp9
 70
     1
102
RTVSPropertyOp10
 70
     1
102
RTVSPropertyOp11
 70
     1
102
RTVSPropertyOp12
 70
     1
102
RTVSPropertyOp13
 70
     1
102
RTVSPropertyOp14
 70
     1
102
RTVSPropertyOp15
 70
     1
102
RTVSPropertyOp16
 70
     1
102
RTVSPropertyOp17
 70
     1
102
RTVSPropertyOp18
 70
     1
102
RTVSPropertyOp19
 70
     1
102
RTVSPropertyOp20
 70
     1
102
RTVSPropertyOp21
 70
     1
102
RTVSPropertyOp22
 70
     1
102
RTVSPropertyOp23
 70
     1
102
RTVSPropertyOp24
 70
     1
102
RTVSPropertyOp25
 70
     1
102
RTVSPropertyOp26
 70
     1
102
RTVSPropertyOp27
 70
     1
102
RTVSPropertyOp28
 70
     1
102
RTVSPropertyOp29
 70
     1
102
RTVSPropertyOp30
 70
     1
102
RTVSPropertyOp31
 70
     1
102
RTVSPropertyOp32
 70
     1
  0
XRECORD
  5
422
102
{ACAD_REACTORS
330
421
102
}
330
421
100
AcDbXrecord
280
     1
102
RTVSPropertyOp0
 70
     1
102
RTVSPropertyOp1
 70
     1
102
RTVSPropertyOp2
 70
     1
102
RTVSPropertyOp3
 70
     1
102
RTVSPropertyOp4
 70
     1
102
RTVSPropertyOp5
 70
     1
102
RTVSPropertyOp6
 70
     1
102
RTVSPropertyOp7
 70
     1
102
RTVSPropertyOp8
 70
     1
102
RTVSPropertyOp9
 70
     1
102
RTVSPropertyOp10
 70
     1
102
RTVSPropertyOp11
 70
     1
102
RTVSPropertyOp12
 70
     1
102
RTVSPropertyOp13
 70
     1
102
RTVSPropertyOp14
 70
     1
102
RTVSPropertyOp15
 70
     1
102
RTVSPropertyOp16
 70
     1
102
RTVSPropertyOp17
 70
     1
102
RTVSPropertyOp18
 70
     1
102
RTVSPropertyOp19
 70
     1
102
RTVSPropertyOp20
 70
     1
102
RTVSPropertyOp21
 70
     1
102
RTVSPropertyOp22
 70
     1
102
RTVSPropertyOp23
 70
     1
102
RTVSPropertyOp24
 70
     1
102
RTVSPropertyOp25
 70
     1
102
RTVSPropertyOp26
 70
     1
102
RTVSPropertyOp27
 70
     1
102
RTVSPropertyOp28
 70
     1
102
RTVSPropertyOp29
 70
     1
102
RTVSPropertyOp30
 70
     1
102
RTVSPropertyOp31
 70
     1
102
RTVSPropertyOp32
 70
     1
  0
XRECORD
  5
424
102
{ACAD_REACTORS
330
423
102
}
330
423
100
AcDbXrecord
280
     1
102
RTVSPropertyOp0
 70
     1
102
RTVSPropertyOp1
 70
     1
102
RTVSPropertyOp2
 70
     1
102
RTVSPropertyOp3
 70
     1
102
RTVSPropertyOp4
 70
     1
102
RTVSPropertyOp5
 70
     1
102
RTVSPropertyOp6
 70
     1
102
RTVSPropertyOp7
 70
     1
102
RTVSPropertyOp8
 70
     1
102
RTVSPropertyOp9
 70
     1
102
RTVSPropertyOp10
 70
     1
102
RTVSPropertyOp11
 70
     1
102
RTVSPropertyOp12
 70
     1
102
RTVSPropertyOp13
 70
     1
102
RTVSPropertyOp14
 70
     1
102
RTVSPropertyOp15
 70
     1
102
RTVSPropertyOp16
 70
     1
102
RTVSPropertyOp17
 70
     1
102
RTVSPropertyOp18
 70
     1
102
RTVSPropertyOp19
 70
     1
102
RTVSPropertyOp20
 70
     1
102
RTVSPropertyOp21
 70
     1
102
RTVSPropertyOp22
 70
     1
102
RTVSPropertyOp23
 70
     1
102
RTVSPropertyOp24
 70
     1
102
RTVSPropertyOp25
 70
     1
102
RTVSPropertyOp26
 70
     1
102
RTVSPropertyOp27
 70
     1
102
RTVSPropertyOp28
 70
     1
102
RTVSPropertyOp29
 70
     1
102
RTVSPropertyOp30
 70
     1
102
RTVSPropertyOp31
 70
     1
102
RTVSPropertyOp32
 70
     1
  0
XRECORD
  5
426
102
{ACAD_REACTORS
330
425
102
}
330
425
100
AcDbXrecord
280
     1
102
RTVSPropertyOp0
 70
     1
102
RTVSPropertyOp1
 70
     1
102
RTVSPropertyOp2
 70
     1
102
RTVSPropertyOp3
 70
     1
102
RTVSPropertyOp4
 70
     1
102
RTVSPropertyOp5
 70
     1
102
RTVSPropertyOp6
 70
     1
102
RTVSPropertyOp7
 70
     1
102
RTVSPropertyOp8
 70
     1
102
RTVSPropertyOp9
 70
     1
102
RTVSPropertyOp10
 70
     1
102
RTVSPropertyOp11
 70
     1
102
RTVSPropertyOp12
 70
     1
102
RTVSPropertyOp13
 70
     1
102
RTVSPropertyOp14
 70
     1
102
RTVSPropertyOp15
 70
     1
102
RTVSPropertyOp16
 70
     1
102
RTVSPropertyOp17
 70
     1
102
RTVSPropertyOp18
 70
     1
102
RTVSPropertyOp19
 70
     1
102
RTVSPropertyOp20
 70
     1
102
RTVSPropertyOp21
 70
     1
102
RTVSPropertyOp22
 70
     1
102
RTVSPropertyOp23
 70
     1
102
RTVSPropertyOp24
 70
     1
102
RTVSPropertyOp25
 70
     1
102
RTVSPropertyOp26
 70
     1
102
RTVSPropertyOp27
 70
     1
102
RTVSPropertyOp28
 70
     1
102
RTVSPropertyOp29
 70
     1
102
RTVSPropertyOp30
 70
     1
102
RTVSPropertyOp31
 70
     1
102
RTVSPropertyOp32
 70
     1
  0
XRECORD
  5
428
102
{ACAD_REACTORS
330
427
102
}
330
427
100
AcDbXrecord
280
     1
102
RTVSPropertyOp0
 70
     1
102
RTVSPropertyOp1
 70
     1
102
RTVSPropertyOp2
 70
     1
102
RTVSPropertyOp3
 70
     1
102
RTVSPropertyOp4
 70
     1
102
RTVSPropertyOp5
 70
     1
102
RTVSPropertyOp6
 70
     1
102
RTVSPropertyOp7
 70
     1
102
RTVSPropertyOp8
 70
     1
102
RTVSPropertyOp9
 70
     1
102
RTVSPropertyOp10
 70
     1
102
RTVSPropertyOp11
 70
     1
102
RTVSPropertyOp12
 70
     1
102
RTVSPropertyOp13
 70
     1
102
RTVSPropertyOp14
 70
     1
102
RTVSPropertyOp15
 70
     1
102
RTVSPropertyOp16
 70
     1
102
RTVSPropertyOp17
 70
     1
102
RTVSPropertyOp18
 70
     1
102
RTVSPropertyOp19
 70
     1
102
RTVSPropertyOp20
 70
     1
102
RTVSPropertyOp21
 70
     1
102
RTVSPropertyOp22
 70
     1
102
RTVSPropertyOp23
 70
     1
102
RTVSPropertyOp24
 70
     1
102
RTVSPropertyOp25
 70
     1
102
RTVSPropertyOp26
 70
     1
102
RTVSPropertyOp27
 70
     1
102
RTVSPropertyOp28
 70
     1
102
RTVSPropertyOp29
 70
     1
102
RTVSPropertyOp30
 70
     1
102
RTVSPropertyOp31
 70
     1
102
RTVSPropertyOp32
 70
     1
  0
XRECORD
  5
43C
102
{ACAD_REACTORS
330
43B
102
}
330
43B
100
AcDbXrecord
280
     1
102
RTVSPropertyOp0
 70
     1
102
RTVSPropertyOp1
 70
     1
102
RTVSPropertyOp2
 70
     1
102
RTVSPropertyOp3
 70
     1
102
RTVSPropertyOp4
 70
     1
102
RTVSPropertyOp5
 70
     1
102
RTVSPropertyOp6
 70
     1
102
RTVSPropertyOp7
 70
     1
102
RTVSPropertyOp8
 70
     1
102
RTVSPropertyOp9
 70
     1
102
RTVSPropertyOp10
 70
     1
102
RTVSPropertyOp11
 70
     1
102
RTVSPropertyOp12
 70
     1
102
RTVSPropertyOp13
 70
     1
102
RTVSPropertyOp14
 70
     1
102
RTVSPropertyOp15
 70
     1
102
RTVSPropertyOp16
 70
     1
102
RTVSPropertyOp17
 70
     1
102
RTVSPropertyOp18
 70
     1
102
RTVSPropertyOp19
 70
     1
102
RTVSPropertyOp20
 70
     1
102
RTVSPropertyOp21
 70
     1
102
RTVSPropertyOp22
 70
     1
102
RTVSPropertyOp23
 70
     1
102
RTVSPropertyOp24
 70
     1
102
RTVSPropertyOp25
 70
     1
102
RTVSPropertyOp26
 70
     1
102
RTVSPropertyOp27
 70
     1
102
RTVSPropertyOp28
 70
     1
102
RTVSPropertyOp29
 70
     1
102
RTVSPropertyOp30
 70
     1
102
RTVSPropertyOp31
 70
     1
102
RTVSPropertyOp32
 70
     1
  0
XRECORD
  5
432
102
{ACAD_REACTORS
330
431
102
}
330
431
100
AcDbXrecord
280
     1
102
RTVSPropertyOp0
 70
     1
102
RTVSPropertyOp1
 70
     1
102
RTVSPropertyOp2
 70
     1
102
RTVSPropertyOp3
 70
     1
102
RTVSPropertyOp4
 70
     1
102
RTVSPropertyOp5
 70
     1
102
RTVSPropertyOp6
 70
     1
102
RTVSPropertyOp7
 70
     1
102
RTVSPropertyOp8
 70
     1
102
RTVSPropertyOp9
 70
     1
102
RTVSPropertyOp10
 70
     1
102
RTVSPropertyOp11
 70
     1
102
RTVSPropertyOp12
 70
     1
102
RTVSPropertyOp13
 70
     1
102
RTVSPropertyOp14
 70
     1
102
RTVSPropertyOp15
 70
     1
102
RTVSPropertyOp16
 70
     1
102
RTVSPropertyOp17
 70
     1
102
RTVSPropertyOp18
 70
     1
102
RTVSPropertyOp19
 70
     1
102
RTVSPropertyOp20
 70
     1
102
RTVSPropertyOp21
 70
     1
102
RTVSPropertyOp22
 70
     1
102
RTVSPropertyOp23
 70
     1
102
RTVSPropertyOp24
 70
     1
102
RTVSPropertyOp25
 70
     1
102
RTVSPropertyOp26
 70
     1
102
RTVSPropertyOp27
 70
     1
102
RTVSPropertyOp28
 70
     1
102
RTVSPropertyOp29
 70
     1
102
RTVSPropertyOp30
 70
     1
102
RTVSPropertyOp31
 70
     1
102
RTVSPropertyOp32
 70
     1
  0
XRECORD
  5
43A
102
{ACAD_REACTORS
330
439
102
}
330
439
100
AcDbXrecord
280
     1
102
RTVSPropertyOp0
 70
     1
102
RTVSPropertyOp1
 70
     1
102
RTVSPropertyOp2
 70
     1
102
RTVSPropertyOp3
 70
     1
102
RTVSPropertyOp4
 70
     1
102
RTVSPropertyOp5
 70
     1
102
RTVSPropertyOp6
 70
     1
102
RTVSPropertyOp7
 70
     1
102
RTVSPropertyOp8
 70
     1
102
RTVSPropertyOp9
 70
     1
102
RTVSPropertyOp10
 70
     1
102
RTVSPropertyOp11
 70
     1
102
RTVSPropertyOp12
 70
     1
102
RTVSPropertyOp13
 70
     1
102
RTVSPropertyOp14
 70
     1
102
RTVSPropertyOp15
 70
     1
102
RTVSPropertyOp16
 70
     1
102
RTVSPropertyOp17
 70
     1
102
RTVSPropertyOp18
 70
     1
102
RTVSPropertyOp19
 70
     1
102
RTVSPropertyOp20
 70
     1
102
RTVSPropertyOp21
 70
     1
102
RTVSPropertyOp22
 70
     1
102
RTVSPropertyOp23
 70
     1
102
RTVSPropertyOp24
 70
     1
102
RTVSPropertyOp25
 70
     1
102
RTVSPropertyOp26
 70
     1
102
RTVSPropertyOp27
 70
     1
102
RTVSPropertyOp28
 70
     1
102
RTVSPropertyOp29
 70
     1
102
RTVSPropertyOp30
 70
     1
102
RTVSPropertyOp31
 70
     1
102
RTVSPropertyOp32
 70
     1
  0
ENDSEC
  0
EOF
