  0
SECTION
  2
HEADER
  9
$ACADVER
  1
AC1018
  9
$ACADMAINTVER
 70
     0
  9
$DWGCODEPAGE
  3
ANSI_1252
  9
$INSBASE
 10
0.0
 20
0.0
 30
0.0
  9
$EXTMIN
 10
-99.917509899227
 20
49.946497983871
 30
0.0
  9
$EXTMAX
 10
278.792726499009
 20
203.495497983871
 30
0.0
  9
$LIMMIN
 10
0.0
 20
0.0
  9
$LIMMAX
 10
420.0
 20
297.0
  9
$ORTHOMODE
 70
     0
  9
$REGENMODE
 70
     1
  9
$FILLMODE
 70
     1
  9
$QTEXTMODE
 70
     0
  9
$MIRRTEXT
 70
     1
  9
$LTSCALE
 40
5.0
  9
$ATTMODE
 70
     1
  9
$TEXTSIZE
 40
2.5
  9
$TRACEWID
 40
1.0
  9
$TEXTSTYLE
  7
Standard
  9
$CLAYER
  8
0
  9
$CELTYPE
  6
ByLayer
  9
$CECOLOR
 62
   256
  9
$CELTSCALE
 40
1.0
  9
$DISPSILH
 70
     0
  9
$DIMSCALE
 40
1.0
  9
$DIMASZ
 40
2.5
  9
$DIMEXO
 40
0.625
  9
$DIMDLI
 40
3.75
  9
$DIMRND
 40
0.0
  9
$DIMDLE
 40
0.0
  9
$DIMEXE
 40
1.25
  9
$DIMTP
 40
0.0
  9
$DIMTM
 40
0.0
  9
$DIMTXT
 40
2.5
  9
$DIMCEN
 40
2.5
  9
$DIMTSZ
 40
0.0
  9
$DIMTOL
 70
     0
  9
$DIMLIM
 70
     0
  9
$DIMTIH
 70
     0
  9
$DIMTOH
 70
     0
  9
$DIMSE1
 70
     0
  9
$DIMSE2
 70
     0
  9
$DIMTAD
 70
     1
  9
$DIMZIN
 70
     8
  9
$DIMBLK
  1

  9
$DIMASO
 70
     1
  9
$DIMSHO
 70
     1
  9
$DIMPOST
  1

  9
$DIMAPOST
  1

  9
$DIMALT
 70
     0
  9
$DIMALTD
 70
     3
  9
$DIMALTF
 40
0.03937007874
  9
$DIMLFAC
 40
1.0
  9
$DIMTOFL
 70
     1
  9
$DIMTVP
 40
0.0
  9
$DIMTIX
 70
     0
  9
$DIMSOXD
 70
     0
  9
$DIMSAH
 70
     0
  9
$DIMBLK1
  1

  9
$DIMBLK2
  1

  9
$DIMSTYLE
  2
ISO-25
  9
$DIMCLRD
 70
     0
  9
$DIMCLRE
 70
     0
  9
$DIMCLRT
 70
     0
  9
$DIMTFAC
 40
1.0
  9
$DIMGAP
 40
0.625
  9
$DIMJUST
 70
     0
  9
$DIMSD1
 70
     0
  9
$DIMSD2
 70
     0
  9
$DIMTOLJ
 70
     0
  9
$DIMTZIN
 70
     8
  9
$DIMALTZ
 70
     0
  9
$DIMALTTZ
 70
     0
  9
$DIMUPT
 70
     0
  9
$DIMDEC
 70
     2
  9
$DIMTDEC
 70
     2
  9
$DIMALTU
 70
     2
  9
$DIMALTTD
 70
     3
  9
$DIMTXSTY
  7
Standard
  9
$DIMAUNIT
 70
     0
  9
$DIMADEC
 70
     0
  9
$DIMALTRND
 40
0.0
  9
$DIMAZIN
 70
     0
  9
$DIMDSEP
 70
    44
  9
$DIMATFIT
 70
     3
  9
$DIMFRAC
 70
     0
  9
$DIMLDRBLK
  1

  9
$DIMLUNIT
 70
     2
  9
$DIMLWD
 70
    -2
  9
$DIMLWE
 70
    -2
  9
$DIMTMOVE
 70
     0
  9
$LUNITS
 70
     2
  9
$LUPREC
 70
     4
  9
$SKETCHINC
 40
1.0
  9
$FILLETRAD
 40
10.0
  9
$AUNITS
 70
     0
  9
$AUPREC
 70
     0
  9
$MENU
  1
.
  9
$ELEVATION
 40
0.0
  9
$PELEVATION
 40
0.0
  9
$THICKNESS
 40
0.0
  9
$LIMCHECK
 70
     0
  9
$CHAMFERA
 40
10.0
  9
$CHAMFERB
 40
10.0
  9
$CHAMFERC
 40
20.0
  9
$CHAMFERD
 40
0.0
  9
$SKPOLY
 70
     0
  9
$TDCREATE
 40
2458262.664801077
  9
$TDUCREATE
 40
2458262.581467743
  9
$TDUPDATE
 40
2458262.664815521
  9
$TDUUPDATE
 40
2458262.581482187
  9
$TDINDWG
 40
0.0000000116
  9
$TDUSRTIMER
 40
0.0000000116
  9
$USRTIMER
 70
     1
  9
$ANGBASE
 50
0.0
  9
$ANGDIR
 70
     0
  9
$PDMODE
 70
     2
  9
$PDSIZE
 40
1.0
  9
$PLINEWID
 40
0.0
  9
$SPLFRAME
 70
     0
  9
$SPLINETYPE
 70
     6
  9
$SPLINESEGS
 70
     8
  9
$HANDSEED
  5
52E
  9
$SURFTAB1
 70
     6
  9
$SURFTAB2
 70
     6
  9
$SURFTYPE
 70
     6
  9
$SURFU
 70
     6
  9
$SURFV
 70
     6
  9
$UCSBASE
  2

  9
$UCSNAME
  2

  9
$UCSORG
 10
0.0
 20
0.0
 30
0.0
  9
$UCSXDIR
 10
1.0
 20
0.0
 30
0.0
  9
$UCSYDIR
 10
0.0
 20
1.0
 30
0.0
  9
$UCSORTHOREF
  2

  9
$UCSORTHOVIEW
 70
     0
  9
$UCSORGTOP
 10
0.0
 20
0.0
 30
0.0
  9
$UCSORGBOTTOM
 10
0.0
 20
0.0
 30
0.0
  9
$UCSORGLEFT
 10
0.0
 20
0.0
 30
0.0
  9
$UCSORGRIGHT
 10
0.0
 20
0.0
 30
0.0
  9
$UCSORGFRONT
 10
0.0
 20
0.0
 30
0.0
  9
$UCSORGBACK
 10
0.0
 20
0.0
 30
0.0
  9
$PUCSBASE
  2

  9
$PUCSNAME
  2

  9
$PUCSORG
 10
0.0
 20
0.0
 30
0.0
  9
$PUCSXDIR
 10
1.0
 20
0.0
 30
0.0
  9
$PUCSYDIR
 10
0.0
 20
1.0
 30
0.0
  9
$PUCSORTHOREF
  2

  9
$PUCSORTHOVIEW
 70
     0
  9
$PUCSORGTOP
 10
0.0
 20
0.0
 30
0.0
  9
$PUCSORGBOTTOM
 10
0.0
 20
0.0
 30
0.0
  9
$PUCSORGLEFT
 10
0.0
 20
0.0
 30
0.0
  9
$PUCSORGRIGHT
 10
0.0
 20
0.0
 30
0.0
  9
$PUCSORGFRONT
 10
0.0
 20
0.0
 30
0.0
  9
$PUCSORGBACK
 10
0.0
 20
0.0
 30
0.0
  9
$USERI1
 70
     0
  9
$USERI2
 70
     0
  9
$USERI3
 70
     0
  9
$USERI4
 70
     0
  9
$USERI5
 70
     0
  9
$USERR1
 40
0.0
  9
$USERR2
 40
0.0
  9
$USERR3
 40
0.0
  9
$USERR4
 40
0.0
  9
$USERR5
 40
0.0
  9
$WORLDVIEW
 70
     1
  9
$SHADEDGE
 70
     3
  9
$SHADEDIF
 70
    70
  9
$TILEMODE
 70
     1
  9
$MAXACTVP
 70
    64
  9
$PINSBASE
 10
0.0
 20
0.0
 30
0.0
  9
$PLIMCHECK
 70
     0
  9
$PEXTMIN
 10
1.000000000000E+20
 20
1.000000000000E+20
 30
1.000000000000E+20
  9
$PEXTMAX
 10
-1.000000000000E+20
 20
-1.000000000000E+20
 30
-1.000000000000E+20
  9
$PLIMMIN
 10
0.0
 20
0.0
  9
$PLIMMAX
 10
420.0
 20
297.0
  9
$UNITMODE
 70
     0
  9
$VISRETAIN
 70
     1
  9
$PLINEGEN
 70
     0
  9
$PSLTSCALE
 70
     1
  9
$TREEDEPTH
 70
  3020
  9
$CMLSTYLE
  2
Standard
  9
$CMLJUST
 70
     0
  9
$CMLSCALE
 40
20.0
  9
$PROXYGRAPHICS
 70
     1
  9
$MEASUREMENT
 70
     1
  9
$CELWEIGHT
370
    -1
  9
$ENDCAPS
280
     0
  9
$JOINSTYLE
280
     0
  9
$LWDISPLAY
290
     0
  9
$INSUNITS
 70
     4
  9
$HYPERLINKBASE
  1

  9
$STYLESHEET
  1

  9
$XEDIT
290
     1
  9
$CEPSNTYPE
380
     0
  9
$PSTYLEMODE
290
     1
  9
$FINGERPRINTGUID
  2
{888FE324-F017-4C22-B565-F7CEC0C053D7}
  9
$VERSIONGUID
  2
{FAEB1C32-E019-11D5-929B-00C0DF256EC4}
  9
$EXTNAMES
290
     1
  9
$PSVPSCALE
 40
0.0
  9
$OLESTARTUP
290
     0
  9
$SORTENTS
280
   127
  9
$INDEXCTL
280
     0
  9
$HIDETEXT
280
     1
  9
$XCLIPFRAME
290
     0
  9
$HALOGAP
280
     0
  9
$OBSCOLOR
 70
   257
  9
$OBSLTYPE
280
     0
  9
$INTERSECTIONDISPLAY
280
     0
  9
$INTERSECTIONCOLOR
 70
   257
  9
$DIMASSOC
280
     2
  9
$PROJECTNAME
  1

  0
ENDSEC
  0
SECTION
  2
CLASSES
  0
CLASS
  1
ACDBDICTIONARYWDFLT
  2
AcDbDictionaryWithDefault
  3
ObjectDBX Classes
 90
        0
 91
        4
280
     0
281
     0
  0
CLASS
  1
VISUALSTYLE
  2
AcDbVisualStyle
  3
ObjectDBX Classes
 90
     4095
 91
        4
280
     0
281
     0
  0
CLASS
  1
MATERIAL
  2
AcDbMaterial
  3
ObjectDBX Classes
 90
     1153
 91
        4
280
     0
281
     0
  0
CLASS
  1
WIPEOUTVARIABLES
  2
AcDbWipeoutVariables
  3
WipeOut|AutoCAD Express Tool|expresstools@autodesk.com
 90
        0
 91
        4
280
     0
281
     0
  0
CLASS
  1
WIPEOUT
  2
AcDbWipeout
  3
WipeOut|AutoCAD Express Tool|expresstools@autodesk.com
 90
      127
 91
        4
280
     0
281
     1
  0
ENDSEC
  0
SECTION
  2
TABLES
  0
TABLE
  2
VPORT
  5
8
330
0
100
AcDbSymbolTable
 70
     1
  0
VPORT
  5
29
330
8
100
AcDbSymbolTableRecord
100
AcDbViewportTableRecord
  2
*Active
 70
     0
 10
0.0
 20
0.0
 11
1.0
 21
1.0
 12
89.437608299891
 22
126.720997983871
 13
0.0
 23
0.0
 14
10.0
 24
10.0
 15
10.0
 25
10.0
 16
0.0
 26
0.0
 36
1.0
 17
0.0
 27
0.0
 37
0.0
 40
153.549
 41
2.466380350235
 42
50.0
 43
0.0
 44
0.0
 50
0.0
 51
0.0
 71
     0
 72
   100
 73
     1
 74
     3
 75
     0
 76
     0
 77
     0
 78
     0
281
     0
 65
     1
110
0.0
120
0.0
130
0.0
111
1.0
121
0.0
131
0.0
112
0.0
122
1.0
132
0.0
 79
     0
146
0.0
  0
ENDTAB
  0
TABLE
  2
LTYPE
  5
5
330
0
100
AcDbSymbolTable
 70
     3
  0
LTYPE
  5
14
330
5
100
AcDbSymbolTableRecord
100
AcDbLinetypeTableRecord
  2
ByBlock
 70
     0
  3

 72
    65
 73
     0
 40
0.0
  0
LTYPE
  5
15
330
5
100
AcDbSymbolTableRecord
100
AcDbLinetypeTableRecord
  2
ByLayer
 70
     0
  3

 72
    65
 73
     0
 40
0.0
  0
LTYPE
  5
16
330
5
100
AcDbSymbolTableRecord
100
AcDbLinetypeTableRecord
  2
Continuous
 70
     0
  3
Solid line
 72
    65
 73
     0
 40
0.0
  0
LTYPE
  5
40
330
5
100
AcDbSymbolTableRecord
100
AcDbLinetypeTableRecord
  2
AUSGEZOGEN
 70
     0
  3

 72
    65
 73
     0
 40
0.0
  0
LTYPE
  5
43
330
5
100
AcDbSymbolTableRecord
100
AcDbLinetypeTableRecord
  2
DASHDOT
 70
     0
  3

 72
    65
 73
     4
 40
1.0
 49
0.5
 74
     0
 49
-0.25
 74
     0
 49
0.0
 74
     0
 49
-0.25
 74
     0
  0
ENDTAB
  0
TABLE
  2
LAYER
  5
2
330
0
100
AcDbSymbolTable
 70
   257
  0
LAYER
  5
10
330
2
100
AcDbSymbolTableRecord
100
AcDbLayerTableRecord
  2
0
 70
     0
 62
     7
  6
Continuous
370
    -3
390
F
  0
LAYER
  5
45
330
2
100
AcDbSymbolTableRecord
100
AcDbLayerTableRecord
  2
99
 70
     0
 62
     7
  6
Continuous
370
    -3
390
F
  0
LAYER
  5
46
330
2
100
AcDbSymbolTableRecord
100
AcDbLayerTableRecord
  2
70
 70
     0
 62
     7
  6
Continuous
370
    -3
390
F
  0
LAYER
  5
47
330
2
100
AcDbSymbolTableRecord
100
AcDbLayerTableRecord
  2
60
 70
     0
 62
     7
  6
Continuous
370
    -3
390
F
  0
LAYER
  5
48
330
2
100
AcDbSymbolTableRecord
100
AcDbLayerTableRecord
  2
50
 70
     0
 62
     7
  6
Continuous
370
    -3
390
F
  0
LAYER
  5
49
330
2
100
AcDbSymbolTableRecord
100
AcDbLayerTableRecord
  2
GRUNDOBJEKTE
 70
     0
 62
     7
  6
Continuous
370
    -3
390
F
  0
LAYER
  5
4A
330
2
100
AcDbSymbolTableRecord
100
AcDbLayerTableRecord
  2
HILFSLINIEN
 70
     0
 62
     7
  6
Continuous
370
    -3
390
F
  0
LAYER
  5
4B
330
2
100
AcDbSymbolTableRecord
100
AcDbLayerTableRecord
  2
LAYER1
 70
     0
 62
     7
  6
Continuous
370
    -3
390
F
  0
LAYER
  5
4C
330
2
100
AcDbSymbolTableRecord
100
AcDbLayerTableRecord
  2
Layer7
 70
     0
 62
     7
  6
Continuous
370
    -3
390
F
  0
LAYER
  5
4D
330
2
100
AcDbSymbolTableRecord
100
AcDbLayerTableRecord
  2
Layer8
 70
     0
 62
     7
  6
Continuous
370
    -3
390
F
  0
LAYER
  5
4E
330
2
100
AcDbSymbolTableRecord
100
AcDbLayerTableRecord
  2
Layer9
 70
     0
 62
     7
  6
Continuous
370
    -3
390
F
  0
LAYER
  5
4F
330
2
100
AcDbSymbolTableRecord
100
AcDbLayerTableRecord
  2
Layer10
 70
     0
 62
     7
  6
Continuous
370
    -3
390
F
  0
LAYER
  5
50
330
2
100
AcDbSymbolTableRecord
100
AcDbLayerTableRecord
  2
Layer11
 70
     0
 62
     7
  6
Continuous
370
    -3
390
F
  0
LAYER
  5
51
330
2
100
AcDbSymbolTableRecord
100
AcDbLayerTableRecord
  2
Layer12
 70
     0
 62
     7
  6
Continuous
370
    -3
390
F
  0
LAYER
  5
52
330
2
100
AcDbSymbolTableRecord
100
AcDbLayerTableRecord
  2
Layer13
 70
     0
 62
     7
  6
Continuous
370
    -3
390
F
  0
LAYER
  5
53
330
2
100
AcDbSymbolTableRecord
100
AcDbLayerTableRecord
  2
Layer14
 70
     0
 62
     7
  6
Continuous
370
    -3
390
F
  0
LAYER
  5
54
330
2
100
AcDbSymbolTableRecord
100
AcDbLayerTableRecord
  2
Layer15
 70
     0
 62
     7
  6
Continuous
370
    -3
390
F
  0
LAYER
  5
55
330
2
100
AcDbSymbolTableRecord
100
AcDbLayerTableRecord
  2
Layer16
 70
     0
 62
     7
  6
Continuous
370
    -3
390
F
  0
LAYER
  5
56
330
2
100
AcDbSymbolTableRecord
100
AcDbLayerTableRecord
  2
Layer17
 70
     0
 62
     7
  6
Continuous
370
    -3
390
F
  0
LAYER
  5
57
330
2
100
AcDbSymbolTableRecord
100
AcDbLayerTableRecord
  2
Layer18
 70
     0
 62
     7
  6
Continuous
370
    -3
390
F
  0
LAYER
  5
58
330
2
100
AcDbSymbolTableRecord
100
AcDbLayerTableRecord
  2
Layer19
 70
     0
 62
     7
  6
Continuous
370
    -3
390
F
  0
LAYER
  5
59
330
2
100
AcDbSymbolTableRecord
100
AcDbLayerTableRecord
  2
Layer20
 70
     0
 62
     7
  6
Continuous
370
    -3
390
F
  0
LAYER
  5
5A
330
2
100
AcDbSymbolTableRecord
100
AcDbLayerTableRecord
  2
Layer21
 70
     0
 62
     7
  6
Continuous
370
    -3
390
F
  0
LAYER
  5
5B
330
2
100
AcDbSymbolTableRecord
100
AcDbLayerTableRecord
  2
Layer22
 70
     0
 62
     7
  6
Continuous
370
    -3
390
F
  0
LAYER
  5
5C
330
2
100
AcDbSymbolTableRecord
100
AcDbLayerTableRecord
  2
Layer23
 70
     0
 62
     7
  6
Continuous
370
    -3
390
F
  0
LAYER
  5
5D
330
2
100
AcDbSymbolTableRecord
100
AcDbLayerTableRecord
  2
Layer24
 70
     0
 62
     7
  6
Continuous
370
    -3
390
F
  0
LAYER
  5
5E
330
2
100
AcDbSymbolTableRecord
100
AcDbLayerTableRecord
  2
Layer25
 70
     0
 62
     7
  6
Continuous
370
    -3
390
F
  0
LAYER
  5
5F
330
2
100
AcDbSymbolTableRecord
100
AcDbLayerTableRecord
  2
Layer26
 70
     0
 62
     7
  6
Continuous
370
    -3
390
F
  0
LAYER
  5
60
330
2
100
AcDbSymbolTableRecord
100
AcDbLayerTableRecord
  2
Layer27
 70
     0
 62
     7
  6
Continuous
370
    -3
390
F
  0
LAYER
  5
61
330
2
100
AcDbSymbolTableRecord
100
AcDbLayerTableRecord
  2
Layer28
 70
     0
 62
     7
  6
Continuous
370
    -3
390
F
  0
LAYER
  5
62
330
2
100
AcDbSymbolTableRecord
100
AcDbLayerTableRecord
  2
Layer29
 70
     0
 62
     7
  6
Continuous
370
    -3
390
F
  0
LAYER
  5
63
330
2
100
AcDbSymbolTableRecord
100
AcDbLayerTableRecord
  2
Layer30
 70
     0
 62
     7
  6
Continuous
370
    -3
390
F
  0
LAYER
  5
64
330
2
100
AcDbSymbolTableRecord
100
AcDbLayerTableRecord
  2
Layer31
 70
     0
 62
     7
  6
Continuous
370
    -3
390
F
  0
LAYER
  5
65
330
2
100
AcDbSymbolTableRecord
100
AcDbLayerTableRecord
  2
Layer32
 70
     0
 62
     7
  6
Continuous
370
    -3
390
F
  0
LAYER
  5
66
330
2
100
AcDbSymbolTableRecord
100
AcDbLayerTableRecord
  2
Layer33
 70
     0
 62
     7
  6
Continuous
370
    -3
390
F
  0
LAYER
  5
67
330
2
100
AcDbSymbolTableRecord
100
AcDbLayerTableRecord
  2
Layer34
 70
     0
 62
     7
  6
Continuous
370
    -3
390
F
  0
LAYER
  5
68
330
2
100
AcDbSymbolTableRecord
100
AcDbLayerTableRecord
  2
Layer35
 70
     0
 62
     7
  6
Continuous
370
    -3
390
F
  0
LAYER
  5
69
330
2
100
AcDbSymbolTableRecord
100
AcDbLayerTableRecord
  2
Layer36
 70
     0
 62
     7
  6
Continuous
370
    -3
390
F
  0
LAYER
  5
6A
330
2
100
AcDbSymbolTableRecord
100
AcDbLayerTableRecord
  2
Layer37
 70
     0
 62
     7
  6
Continuous
370
    -3
390
F
  0
LAYER
  5
6B
330
2
100
AcDbSymbolTableRecord
100
AcDbLayerTableRecord
  2
Layer38
 70
     0
 62
     7
  6
Continuous
370
    -3
390
F
  0
LAYER
  5
6C
330
2
100
AcDbSymbolTableRecord
100
AcDbLayerTableRecord
  2
Layer39
 70
     0
 62
     7
  6
Continuous
370
    -3
390
F
  0
LAYER
  5
6D
330
2
100
AcDbSymbolTableRecord
100
AcDbLayerTableRecord
  2
Layer40
 70
     0
 62
     7
  6
Continuous
370
    -3
390
F
  0
LAYER
  5
6E
330
2
100
AcDbSymbolTableRecord
100
AcDbLayerTableRecord
  2
Layer41
 70
     0
 62
     7
  6
Continuous
370
    -3
390
F
  0
LAYER
  5
6F
330
2
100
AcDbSymbolTableRecord
100
AcDbLayerTableRecord
  2
Layer42
 70
     0
 62
     7
  6
Continuous
370
    -3
390
F
  0
LAYER
  5
70
330
2
100
AcDbSymbolTableRecord
100
AcDbLayerTableRecord
  2
Layer43
 70
     0
 62
     7
  6
Continuous
370
    -3
390
F
  0
LAYER
  5
71
330
2
100
AcDbSymbolTableRecord
100
AcDbLayerTableRecord
  2
Layer44
 70
     0
 62
     7
  6
Continuous
370
    -3
390
F
  0
LAYER
  5
72
330
2
100
AcDbSymbolTableRecord
100
AcDbLayerTableRecord
  2
Layer45
 70
     0
 62
     7
  6
Continuous
370
    -3
390
F
  0
LAYER
  5
73
330
2
100
AcDbSymbolTableRecord
100
AcDbLayerTableRecord
  2
Layer46
 70
     0
 62
     7
  6
Continuous
370
    -3
390
F
  0
LAYER
  5
74
330
2
100
AcDbSymbolTableRecord
100
AcDbLayerTableRecord
  2
Layer47
 70
     0
 62
     7
  6
Continuous
370
    -3
390
F
  0
LAYER
  5
75
330
2
100
AcDbSymbolTableRecord
100
AcDbLayerTableRecord
  2
Layer48
 70
     0
 62
     7
  6
Continuous
370
    -3
390
F
  0
LAYER
  5
76
330
2
100
AcDbSymbolTableRecord
100
AcDbLayerTableRecord
  2
Layer49
 70
     0
 62
     7
  6
Continuous
370
    -3
390
F
  0
LAYER
  5
77
330
2
100
AcDbSymbolTableRecord
100
AcDbLayerTableRecord
  2
Layer50
 70
     0
 62
     7
  6
Continuous
370
    -3
390
F
  0
LAYER
  5
78
330
2
100
AcDbSymbolTableRecord
100
AcDbLayerTableRecord
  2
Layer51
 70
     0
 62
     7
  6
Continuous
370
    -3
390
F
  0
LAYER
  5
79
330
2
100
AcDbSymbolTableRecord
100
AcDbLayerTableRecord
  2
Layer52
 70
     0
 62
     7
  6
Continuous
370
    -3
390
F
  0
LAYER
  5
7A
330
2
100
AcDbSymbolTableRecord
100
AcDbLayerTableRecord
  2
Layer53
 70
     0
 62
     7
  6
Continuous
370
    -3
390
F
  0
LAYER
  5
7B
330
2
100
AcDbSymbolTableRecord
100
AcDbLayerTableRecord
  2
Layer54
 70
     0
 62
     7
  6
Continuous
370
    -3
390
F
  0
LAYER
  5
7C
330
2
100
AcDbSymbolTableRecord
100
AcDbLayerTableRecord
  2
Layer55
 70
     0
 62
     7
  6
Continuous
370
    -3
390
F
  0
LAYER
  5
7D
330
2
100
AcDbSymbolTableRecord
100
AcDbLayerTableRecord
  2
Layer56
 70
     0
 62
     7
  6
Continuous
370
    -3
390
F
  0
LAYER
  5
7E
330
2
100
AcDbSymbolTableRecord
100
AcDbLayerTableRecord
  2
Layer57
 70
     0
 62
     7
  6
Continuous
370
    -3
390
F
  0
LAYER
  5
7F
330
2
100
AcDbSymbolTableRecord
100
AcDbLayerTableRecord
  2
Layer58
 70
     0
 62
     7
  6
Continuous
370
    -3
390
F
  0
LAYER
  5
80
330
2
100
AcDbSymbolTableRecord
100
AcDbLayerTableRecord
  2
Layer59
 70
     0
 62
     7
  6
Continuous
370
    -3
390
F
  0
LAYER
  5
81
330
2
100
AcDbSymbolTableRecord
100
AcDbLayerTableRecord
  2
Layer60
 70
     0
 62
     7
  6
Continuous
370
    -3
390
F
  0
LAYER
  5
82
330
2
100
AcDbSymbolTableRecord
100
AcDbLayerTableRecord
  2
Layer61
 70
     0
 62
     7
  6
Continuous
370
    -3
390
F
  0
LAYER
  5
83
330
2
100
AcDbSymbolTableRecord
100
AcDbLayerTableRecord
  2
Layer62
 70
     0
 62
     7
  6
Continuous
370
    -3
390
F
  0
LAYER
  5
84
330
2
100
AcDbSymbolTableRecord
100
AcDbLayerTableRecord
  2
Layer63
 70
     0
 62
     7
  6
Continuous
370
    -3
390
F
  0
LAYER
  5
85
330
2
100
AcDbSymbolTableRecord
100
AcDbLayerTableRecord
  2
Layer64
 70
     0
 62
     7
  6
Continuous
370
    -3
390
F
  0
LAYER
  5
86
330
2
100
AcDbSymbolTableRecord
100
AcDbLayerTableRecord
  2
Layer65
 70
     0
 62
     7
  6
Continuous
370
    -3
390
F
  0
LAYER
  5
87
330
2
100
AcDbSymbolTableRecord
100
AcDbLayerTableRecord
  2
Layer66
 70
     0
 62
     7
  6
Continuous
370
    -3
390
F
  0
LAYER
  5
88
330
2
100
AcDbSymbolTableRecord
100
AcDbLayerTableRecord
  2
Layer67
 70
     0
 62
     7
  6
Continuous
370
    -3
390
F
  0
LAYER
  5
89
330
2
100
AcDbSymbolTableRecord
100
AcDbLayerTableRecord
  2
Layer68
 70
     0
 62
     7
  6
Continuous
370
    -3
390
F
  0
LAYER
  5
8A
330
2
100
AcDbSymbolTableRecord
100
AcDbLayerTableRecord
  2
Layer69
 70
     0
 62
     7
  6
Continuous
370
    -3
390
F
  0
LAYER
  5
8B
330
2
100
AcDbSymbolTableRecord
100
AcDbLayerTableRecord
  2
Layer70
 70
     0
 62
     7
  6
Continuous
370
    -3
390
F
  0
LAYER
  5
8C
330
2
100
AcDbSymbolTableRecord
100
AcDbLayerTableRecord
  2
Layer71
 70
     0
 62
     7
  6
Continuous
370
    -3
390
F
  0
LAYER
  5
8D
330
2
100
AcDbSymbolTableRecord
100
AcDbLayerTableRecord
  2
Layer72
 70
     0
 62
     7
  6
Continuous
370
    -3
390
F
  0
LAYER
  5
8E
330
2
100
AcDbSymbolTableRecord
100
AcDbLayerTableRecord
  2
Layer73
 70
     0
 62
     7
  6
Continuous
370
    -3
390
F
  0
LAYER
  5
8F
330
2
100
AcDbSymbolTableRecord
100
AcDbLayerTableRecord
  2
Layer74
 70
     0
 62
     7
  6
Continuous
370
    -3
390
F
  0
LAYER
  5
90
330
2
100
AcDbSymbolTableRecord
100
AcDbLayerTableRecord
  2
Layer75
 70
     0
 62
     7
  6
Continuous
370
    -3
390
F
  0
LAYER
  5
91
330
2
100
AcDbSymbolTableRecord
100
AcDbLayerTableRecord
  2
Layer76
 70
     0
 62
     7
  6
Continuous
370
    -3
390
F
  0
LAYER
  5
92
330
2
100
AcDbSymbolTableRecord
100
AcDbLayerTableRecord
  2
Layer77
 70
     0
 62
     7
  6
Continuous
370
    -3
390
F
  0
LAYER
  5
93
330
2
100
AcDbSymbolTableRecord
100
AcDbLayerTableRecord
  2
Layer78
 70
     0
 62
     7
  6
Continuous
370
    -3
390
F
  0
LAYER
  5
94
330
2
100
AcDbSymbolTableRecord
100
AcDbLayerTableRecord
  2
Layer79
 70
     0
 62
     7
  6
Continuous
370
    -3
390
F
  0
LAYER
  5
95
330
2
100
AcDbSymbolTableRecord
100
AcDbLayerTableRecord
  2
Layer80
 70
     0
 62
     7
  6
Continuous
370
    -3
390
F
  0
LAYER
  5
96
330
2
100
AcDbSymbolTableRecord
100
AcDbLayerTableRecord
  2
Layer81
 70
     0
 62
     7
  6
Continuous
370
    -3
390
F
  0
LAYER
  5
97
330
2
100
AcDbSymbolTableRecord
100
AcDbLayerTableRecord
  2
Layer82
 70
     0
 62
     7
  6
Continuous
370
    -3
390
F
  0
LAYER
  5
98
330
2
100
AcDbSymbolTableRecord
100
AcDbLayerTableRecord
  2
Layer83
 70
     0
 62
     7
  6
Continuous
370
    -3
390
F
  0
LAYER
  5
99
330
2
100
AcDbSymbolTableRecord
100
AcDbLayerTableRecord
  2
Layer84
 70
     0
 62
     7
  6
Continuous
370
    -3
390
F
  0
LAYER
  5
9A
330
2
100
AcDbSymbolTableRecord
100
AcDbLayerTableRecord
  2
Layer85
 70
     0
 62
     7
  6
Continuous
370
    -3
390
F
  0
LAYER
  5
9B
330
2
100
AcDbSymbolTableRecord
100
AcDbLayerTableRecord
  2
Layer86
 70
     0
 62
     7
  6
Continuous
370
    -3
390
F
  0
LAYER
  5
9C
330
2
100
AcDbSymbolTableRecord
100
AcDbLayerTableRecord
  2
Layer87
 70
     0
 62
     7
  6
Continuous
370
    -3
390
F
  0
LAYER
  5
9D
330
2
100
AcDbSymbolTableRecord
100
AcDbLayerTableRecord
  2
Layer88
 70
     0
 62
     7
  6
Continuous
370
    -3
390
F
  0
LAYER
  5
9E
330
2
100
AcDbSymbolTableRecord
100
AcDbLayerTableRecord
  2
Layer89
 70
     0
 62
     7
  6
Continuous
370
    -3
390
F
  0
LAYER
  5
9F
330
2
100
AcDbSymbolTableRecord
100
AcDbLayerTableRecord
  2
Layer90
 70
     0
 62
     7
  6
Continuous
370
    -3
390
F
  0
LAYER
  5
A0
330
2
100
AcDbSymbolTableRecord
100
AcDbLayerTableRecord
  2
Layer91
 70
     0
 62
     7
  6
Continuous
370
    -3
390
F
  0
LAYER
  5
A1
330
2
100
AcDbSymbolTableRecord
100
AcDbLayerTableRecord
  2
Layer92
 70
     0
 62
     7
  6
Continuous
370
    -3
390
F
  0
LAYER
  5
A2
330
2
100
AcDbSymbolTableRecord
100
AcDbLayerTableRecord
  2
Layer93
 70
     0
 62
     7
  6
Continuous
370
    -3
390
F
  0
LAYER
  5
A3
330
2
100
AcDbSymbolTableRecord
100
AcDbLayerTableRecord
  2
Layer94
 70
     0
 62
     7
  6
Continuous
370
    -3
390
F
  0
LAYER
  5
A4
330
2
100
AcDbSymbolTableRecord
100
AcDbLayerTableRecord
  2
Layer95
 70
     0
 62
     7
  6
Continuous
370
    -3
390
F
  0
LAYER
  5
A5
330
2
100
AcDbSymbolTableRecord
100
AcDbLayerTableRecord
  2
Layer96
 70
     0
 62
     7
  6
Continuous
370
    -3
390
F
  0
LAYER
  5
A6
330
2
100
AcDbSymbolTableRecord
100
AcDbLayerTableRecord
  2
Layer97
 70
     0
 62
     7
  6
Continuous
370
    -3
390
F
  0
LAYER
  5
A7
330
2
100
AcDbSymbolTableRecord
100
AcDbLayerTableRecord
  2
Layer98
 70
     0
 62
     7
  6
Continuous
370
    -3
390
F
  0
LAYER
  5
A8
330
2
100
AcDbSymbolTableRecord
100
AcDbLayerTableRecord
  2
Layer99
 70
     0
 62
     7
  6
Continuous
370
    -3
390
F
  0
LAYER
  5
A9
330
2
100
AcDbSymbolTableRecord
100
AcDbLayerTableRecord
  2
Layer100
 70
     0
 62
     7
  6
Continuous
370
    -3
390
F
  0
LAYER
  5
AA
330
2
100
AcDbSymbolTableRecord
100
AcDbLayerTableRecord
  2
Layer101
 70
     0
 62
     7
  6
Continuous
370
    -3
390
F
  0
LAYER
  5
AB
330
2
100
AcDbSymbolTableRecord
100
AcDbLayerTableRecord
  2
Layer102
 70
     0
 62
     7
  6
Continuous
370
    -3
390
F
  0
LAYER
  5
AC
330
2
100
AcDbSymbolTableRecord
100
AcDbLayerTableRecord
  2
Layer103
 70
     0
 62
     7
  6
Continuous
370
    -3
390
F
  0
LAYER
  5
AD
330
2
100
AcDbSymbolTableRecord
100
AcDbLayerTableRecord
  2
Layer104
 70
     0
 62
     7
  6
Continuous
370
    -3
390
F
  0
LAYER
  5
AE
330
2
100
AcDbSymbolTableRecord
100
AcDbLayerTableRecord
  2
Layer105
 70
     0
 62
     7
  6
Continuous
370
    -3
390
F
  0
LAYER
  5
AF
330
2
100
AcDbSymbolTableRecord
100
AcDbLayerTableRecord
  2
Layer106
 70
     0
 62
     7
  6
Continuous
370
    -3
390
F
  0
LAYER
  5
B0
330
2
100
AcDbSymbolTableRecord
100
AcDbLayerTableRecord
  2
Layer107
 70
     0
 62
     7
  6
Continuous
370
    -3
390
F
  0
LAYER
  5
B1
330
2
100
AcDbSymbolTableRecord
100
AcDbLayerTableRecord
  2
Layer108
 70
     0
 62
     7
  6
Continuous
370
    -3
390
F
  0
LAYER
  5
B2
330
2
100
AcDbSymbolTableRecord
100
AcDbLayerTableRecord
  2
Layer109
 70
     0
 62
     7
  6
Continuous
370
    -3
390
F
  0
LAYER
  5
B3
330
2
100
AcDbSymbolTableRecord
100
AcDbLayerTableRecord
  2
Layer110
 70
     0
 62
     7
  6
Continuous
370
    -3
390
F
  0
LAYER
  5
B4
330
2
100
AcDbSymbolTableRecord
100
AcDbLayerTableRecord
  2
Layer111
 70
     0
 62
     7
  6
Continuous
370
    -3
390
F
  0
LAYER
  5
B5
330
2
100
AcDbSymbolTableRecord
100
AcDbLayerTableRecord
  2
Layer112
 70
     0
 62
     7
  6
Continuous
370
    -3
390
F
  0
LAYER
  5
B6
330
2
100
AcDbSymbolTableRecord
100
AcDbLayerTableRecord
  2
Layer113
 70
     0
 62
     7
  6
Continuous
370
    -3
390
F
  0
LAYER
  5
B7
330
2
100
AcDbSymbolTableRecord
100
AcDbLayerTableRecord
  2
Layer114
 70
     0
 62
     7
  6
Continuous
370
    -3
390
F
  0
LAYER
  5
B8
330
2
100
AcDbSymbolTableRecord
100
AcDbLayerTableRecord
  2
Layer115
 70
     0
 62
     7
  6
Continuous
370
    -3
390
F
  0
LAYER
  5
B9
330
2
100
AcDbSymbolTableRecord
100
AcDbLayerTableRecord
  2
Layer116
 70
     0
 62
     7
  6
Continuous
370
    -3
390
F
  0
LAYER
  5
BA
330
2
100
AcDbSymbolTableRecord
100
AcDbLayerTableRecord
  2
Layer117
 70
     0
 62
     7
  6
Continuous
370
    -3
390
F
  0
LAYER
  5
BB
330
2
100
AcDbSymbolTableRecord
100
AcDbLayerTableRecord
  2
Layer118
 70
     0
 62
     7
  6
Continuous
370
    -3
390
F
  0
LAYER
  5
BC
330
2
100
AcDbSymbolTableRecord
100
AcDbLayerTableRecord
  2
Layer119
 70
     0
 62
     7
  6
Continuous
370
    -3
390
F
  0
LAYER
  5
BD
330
2
100
AcDbSymbolTableRecord
100
AcDbLayerTableRecord
  2
Layer120
 70
     0
 62
     7
  6
Continuous
370
    -3
390
F
  0
LAYER
  5
BE
330
2
100
AcDbSymbolTableRecord
100
AcDbLayerTableRecord
  2
Layer121
 70
     0
 62
     7
  6
Continuous
370
    -3
390
F
  0
LAYER
  5
BF
330
2
100
AcDbSymbolTableRecord
100
AcDbLayerTableRecord
  2
Layer122
 70
     0
 62
     7
  6
Continuous
370
    -3
390
F
  0
LAYER
  5
C0
330
2
100
AcDbSymbolTableRecord
100
AcDbLayerTableRecord
  2
Layer123
 70
     0
 62
     7
  6
Continuous
370
    -3
390
F
  0
LAYER
  5
C1
330
2
100
AcDbSymbolTableRecord
100
AcDbLayerTableRecord
  2
Layer124
 70
     0
 62
     7
  6
Continuous
370
    -3
390
F
  0
LAYER
  5
C2
330
2
100
AcDbSymbolTableRecord
100
AcDbLayerTableRecord
  2
Layer125
 70
     0
 62
     7
  6
Continuous
370
    -3
390
F
  0
LAYER
  5
C3
330
2
100
AcDbSymbolTableRecord
100
AcDbLayerTableRecord
  2
Layer126
 70
     0
 62
     7
  6
Continuous
370
    -3
390
F
  0
LAYER
  5
C4
330
2
100
AcDbSymbolTableRecord
100
AcDbLayerTableRecord
  2
Layer127
 70
     0
 62
     7
  6
Continuous
370
    -3
390
F
  0
LAYER
  5
C5
330
2
100
AcDbSymbolTableRecord
100
AcDbLayerTableRecord
  2
Layer128
 70
     0
 62
     7
  6
Continuous
370
    -3
390
F
  0
LAYER
  5
C6
330
2
100
AcDbSymbolTableRecord
100
AcDbLayerTableRecord
  2
Layer129
 70
     0
 62
     7
  6
Continuous
370
    -3
390
F
  0
LAYER
  5
C7
330
2
100
AcDbSymbolTableRecord
100
AcDbLayerTableRecord
  2
Layer130
 70
     0
 62
     7
  6
Continuous
370
    -3
390
F
  0
LAYER
  5
C8
330
2
100
AcDbSymbolTableRecord
100
AcDbLayerTableRecord
  2
Layer131
 70
     0
 62
     7
  6
Continuous
370
    -3
390
F
  0
LAYER
  5
C9
330
2
100
AcDbSymbolTableRecord
100
AcDbLayerTableRecord
  2
Layer132
 70
     0
 62
     7
  6
Continuous
370
    -3
390
F
  0
LAYER
  5
CA
330
2
100
AcDbSymbolTableRecord
100
AcDbLayerTableRecord
  2
Layer133
 70
     0
 62
     7
  6
Continuous
370
    -3
390
F
  0
LAYER
  5
CB
330
2
100
AcDbSymbolTableRecord
100
AcDbLayerTableRecord
  2
Layer134
 70
     0
 62
     7
  6
Continuous
370
    -3
390
F
  0
LAYER
  5
CC
330
2
100
AcDbSymbolTableRecord
100
AcDbLayerTableRecord
  2
Layer135
 70
     0
 62
     7
  6
Continuous
370
    -3
390
F
  0
LAYER
  5
CD
330
2
100
AcDbSymbolTableRecord
100
AcDbLayerTableRecord
  2
Layer136
 70
     0
 62
     7
  6
Continuous
370
    -3
390
F
  0
LAYER
  5
CE
330
2
100
AcDbSymbolTableRecord
100
AcDbLayerTableRecord
  2
Layer137
 70
     0
 62
     7
  6
Continuous
370
    -3
390
F
  0
LAYER
  5
CF
330
2
100
AcDbSymbolTableRecord
100
AcDbLayerTableRecord
  2
Layer138
 70
     0
 62
     7
  6
Continuous
370
    -3
390
F
  0
LAYER
  5
D0
330
2
100
AcDbSymbolTableRecord
100
AcDbLayerTableRecord
  2
Layer139
 70
     0
 62
     7
  6
Continuous
370
    -3
390
F
  0
LAYER
  5
D1
330
2
100
AcDbSymbolTableRecord
100
AcDbLayerTableRecord
  2
Layer140
 70
     0
 62
     7
  6
Continuous
370
    -3
390
F
  0
LAYER
  5
D2
330
2
100
AcDbSymbolTableRecord
100
AcDbLayerTableRecord
  2
Layer141
 70
     0
 62
     7
  6
Continuous
370
    -3
390
F
  0
LAYER
  5
D3
330
2
100
AcDbSymbolTableRecord
100
AcDbLayerTableRecord
  2
Layer142
 70
     0
 62
     7
  6
Continuous
370
    -3
390
F
  0
LAYER
  5
D4
330
2
100
AcDbSymbolTableRecord
100
AcDbLayerTableRecord
  2
Layer143
 70
     0
 62
     7
  6
Continuous
370
    -3
390
F
  0
LAYER
  5
D5
330
2
100
AcDbSymbolTableRecord
100
AcDbLayerTableRecord
  2
Layer144
 70
     0
 62
     7
  6
Continuous
370
    -3
390
F
  0
LAYER
  5
D6
330
2
100
AcDbSymbolTableRecord
100
AcDbLayerTableRecord
  2
Layer145
 70
     0
 62
     7
  6
Continuous
370
    -3
390
F
  0
LAYER
  5
D7
330
2
100
AcDbSymbolTableRecord
100
AcDbLayerTableRecord
  2
Layer146
 70
     0
 62
     7
  6
Continuous
370
    -3
390
F
  0
LAYER
  5
D8
330
2
100
AcDbSymbolTableRecord
100
AcDbLayerTableRecord
  2
Layer147
 70
     0
 62
     7
  6
Continuous
370
    -3
390
F
  0
LAYER
  5
D9
330
2
100
AcDbSymbolTableRecord
100
AcDbLayerTableRecord
  2
Layer148
 70
     0
 62
     7
  6
Continuous
370
    -3
390
F
  0
LAYER
  5
DA
330
2
100
AcDbSymbolTableRecord
100
AcDbLayerTableRecord
  2
Layer149
 70
     0
 62
     7
  6
Continuous
370
    -3
390
F
  0
LAYER
  5
DB
330
2
100
AcDbSymbolTableRecord
100
AcDbLayerTableRecord
  2
Layer150
 70
     0
 62
     7
  6
Continuous
370
    -3
390
F
  0
LAYER
  5
DC
330
2
100
AcDbSymbolTableRecord
100
AcDbLayerTableRecord
  2
Layer151
 70
     0
 62
     7
  6
Continuous
370
    -3
390
F
  0
LAYER
  5
DD
330
2
100
AcDbSymbolTableRecord
100
AcDbLayerTableRecord
  2
Layer152
 70
     0
 62
     7
  6
Continuous
370
    -3
390
F
  0
LAYER
  5
DE
330
2
100
AcDbSymbolTableRecord
100
AcDbLayerTableRecord
  2
Layer153
 70
     0
 62
     7
  6
Continuous
370
    -3
390
F
  0
LAYER
  5
DF
330
2
100
AcDbSymbolTableRecord
100
AcDbLayerTableRecord
  2
Layer154
 70
     0
 62
     7
  6
Continuous
370
    -3
390
F
  0
LAYER
  5
E0
330
2
100
AcDbSymbolTableRecord
100
AcDbLayerTableRecord
  2
Layer155
 70
     0
 62
     7
  6
Continuous
370
    -3
390
F
  0
LAYER
  5
E1
330
2
100
AcDbSymbolTableRecord
100
AcDbLayerTableRecord
  2
Layer156
 70
     0
 62
     7
  6
Continuous
370
    -3
390
F
  0
LAYER
  5
E2
330
2
100
AcDbSymbolTableRecord
100
AcDbLayerTableRecord
  2
Layer157
 70
     0
 62
     7
  6
Continuous
370
    -3
390
F
  0
LAYER
  5
E3
330
2
100
AcDbSymbolTableRecord
100
AcDbLayerTableRecord
  2
Layer158
 70
     0
 62
     7
  6
Continuous
370
    -3
390
F
  0
LAYER
  5
E4
330
2
100
AcDbSymbolTableRecord
100
AcDbLayerTableRecord
  2
Layer159
 70
     0
 62
     7
  6
Continuous
370
    -3
390
F
  0
LAYER
  5
E5
330
2
100
AcDbSymbolTableRecord
100
AcDbLayerTableRecord
  2
Layer160
 70
     0
 62
     7
  6
Continuous
370
    -3
390
F
  0
LAYER
  5
E6
330
2
100
AcDbSymbolTableRecord
100
AcDbLayerTableRecord
  2
Layer161
 70
     0
 62
     7
  6
Continuous
370
    -3
390
F
  0
LAYER
  5
E7
330
2
100
AcDbSymbolTableRecord
100
AcDbLayerTableRecord
  2
Layer162
 70
     0
 62
     7
  6
Continuous
370
    -3
390
F
  0
LAYER
  5
E8
330
2
100
AcDbSymbolTableRecord
100
AcDbLayerTableRecord
  2
Layer163
 70
     0
 62
     7
  6
Continuous
370
    -3
390
F
  0
LAYER
  5
E9
330
2
100
AcDbSymbolTableRecord
100
AcDbLayerTableRecord
  2
Layer164
 70
     0
 62
     7
  6
Continuous
370
    -3
390
F
  0
LAYER
  5
EA
330
2
100
AcDbSymbolTableRecord
100
AcDbLayerTableRecord
  2
Layer165
 70
     0
 62
     7
  6
Continuous
370
    -3
390
F
  0
LAYER
  5
EB
330
2
100
AcDbSymbolTableRecord
100
AcDbLayerTableRecord
  2
Layer166
 70
     0
 62
     7
  6
Continuous
370
    -3
390
F
  0
LAYER
  5
EC
330
2
100
AcDbSymbolTableRecord
100
AcDbLayerTableRecord
  2
Layer167
 70
     0
 62
     7
  6
Continuous
370
    -3
390
F
  0
LAYER
  5
ED
330
2
100
AcDbSymbolTableRecord
100
AcDbLayerTableRecord
  2
Layer168
 70
     0
 62
     7
  6
Continuous
370
    -3
390
F
  0
LAYER
  5
EE
330
2
100
AcDbSymbolTableRecord
100
AcDbLayerTableRecord
  2
Layer169
 70
     0
 62
     7
  6
Continuous
370
    -3
390
F
  0
LAYER
  5
EF
330
2
100
AcDbSymbolTableRecord
100
AcDbLayerTableRecord
  2
Layer170
 70
     0
 62
     7
  6
Continuous
370
    -3
390
F
  0
LAYER
  5
F0
330
2
100
AcDbSymbolTableRecord
100
AcDbLayerTableRecord
  2
Layer171
 70
     0
 62
     7
  6
Continuous
370
    -3
390
F
  0
LAYER
  5
F1
330
2
100
AcDbSymbolTableRecord
100
AcDbLayerTableRecord
  2
Layer172
 70
     0
 62
     7
  6
Continuous
370
    -3
390
F
  0
LAYER
  5
F2
330
2
100
AcDbSymbolTableRecord
100
AcDbLayerTableRecord
  2
Layer173
 70
     0
 62
     7
  6
Continuous
370
    -3
390
F
  0
LAYER
  5
F3
330
2
100
AcDbSymbolTableRecord
100
AcDbLayerTableRecord
  2
Layer174
 70
     0
 62
     7
  6
Continuous
370
    -3
390
F
  0
LAYER
  5
F4
330
2
100
AcDbSymbolTableRecord
100
AcDbLayerTableRecord
  2
Layer175
 70
     0
 62
     7
  6
Continuous
370
    -3
390
F
  0
LAYER
  5
F5
330
2
100
AcDbSymbolTableRecord
100
AcDbLayerTableRecord
  2
Layer176
 70
     0
 62
     7
  6
Continuous
370
    -3
390
F
  0
LAYER
  5
F6
330
2
100
AcDbSymbolTableRecord
100
AcDbLayerTableRecord
  2
Layer177
 70
     0
 62
     7
  6
Continuous
370
    -3
390
F
  0
LAYER
  5
F7
330
2
100
AcDbSymbolTableRecord
100
AcDbLayerTableRecord
  2
Layer178
 70
     0
 62
     7
  6
Continuous
370
    -3
390
F
  0
LAYER
  5
F8
330
2
100
AcDbSymbolTableRecord
100
AcDbLayerTableRecord
  2
Layer179
 70
     0
 62
     7
  6
Continuous
370
    -3
390
F
  0
LAYER
  5
F9
330
2
100
AcDbSymbolTableRecord
100
AcDbLayerTableRecord
  2
Layer180
 70
     0
 62
     7
  6
Continuous
370
    -3
390
F
  0
LAYER
  5
FA
330
2
100
AcDbSymbolTableRecord
100
AcDbLayerTableRecord
  2
Layer181
 70
     0
 62
     7
  6
Continuous
370
    -3
390
F
  0
LAYER
  5
FB
330
2
100
AcDbSymbolTableRecord
100
AcDbLayerTableRecord
  2
Layer182
 70
     0
 62
     7
  6
Continuous
370
    -3
390
F
  0
LAYER
  5
FC
330
2
100
AcDbSymbolTableRecord
100
AcDbLayerTableRecord
  2
Layer183
 70
     0
 62
     7
  6
Continuous
370
    -3
390
F
  0
LAYER
  5
FD
330
2
100
AcDbSymbolTableRecord
100
AcDbLayerTableRecord
  2
Layer184
 70
     0
 62
     7
  6
Continuous
370
    -3
390
F
  0
LAYER
  5
FE
330
2
100
AcDbSymbolTableRecord
100
AcDbLayerTableRecord
  2
Layer185
 70
     0
 62
     7
  6
Continuous
370
    -3
390
F
  0
LAYER
  5
FF
330
2
100
AcDbSymbolTableRecord
100
AcDbLayerTableRecord
  2
Layer186
 70
     0
 62
     7
  6
Continuous
370
    -3
390
F
  0
LAYER
  5
100
330
2
100
AcDbSymbolTableRecord
100
AcDbLayerTableRecord
  2
Layer187
 70
     0
 62
     7
  6
Continuous
370
    -3
390
F
  0
LAYER
  5
101
330
2
100
AcDbSymbolTableRecord
100
AcDbLayerTableRecord
  2
Layer188
 70
     0
 62
     7
  6
Continuous
370
    -3
390
F
  0
LAYER
  5
102
330
2
100
AcDbSymbolTableRecord
100
AcDbLayerTableRecord
  2
Layer189
 70
     0
 62
     7
  6
Continuous
370
    -3
390
F
  0
LAYER
  5
103
330
2
100
AcDbSymbolTableRecord
100
AcDbLayerTableRecord
  2
Layer190
 70
     0
 62
     7
  6
Continuous
370
    -3
390
F
  0
LAYER
  5
104
330
2
100
AcDbSymbolTableRecord
100
AcDbLayerTableRecord
  2
Layer191
 70
     0
 62
     7
  6
Continuous
370
    -3
390
F
  0
LAYER
  5
105
330
2
100
AcDbSymbolTableRecord
100
AcDbLayerTableRecord
  2
Layer192
 70
     0
 62
     7
  6
Continuous
370
    -3
390
F
  0
LAYER
  5
106
330
2
100
AcDbSymbolTableRecord
100
AcDbLayerTableRecord
  2
Layer193
 70
     0
 62
     7
  6
Continuous
370
    -3
390
F
  0
LAYER
  5
107
330
2
100
AcDbSymbolTableRecord
100
AcDbLayerTableRecord
  2
Layer194
 70
     0
 62
     7
  6
Continuous
370
    -3
390
F
  0
LAYER
  5
108
330
2
100
AcDbSymbolTableRecord
100
AcDbLayerTableRecord
  2
Layer195
 70
     0
 62
     7
  6
Continuous
370
    -3
390
F
  0
LAYER
  5
109
330
2
100
AcDbSymbolTableRecord
100
AcDbLayerTableRecord
  2
Layer196
 70
     0
 62
     7
  6
Continuous
370
    -3
390
F
  0
LAYER
  5
10A
330
2
100
AcDbSymbolTableRecord
100
AcDbLayerTableRecord
  2
Layer197
 70
     0
 62
     7
  6
Continuous
370
    -3
390
F
  0
LAYER
  5
10B
330
2
100
AcDbSymbolTableRecord
100
AcDbLayerTableRecord
  2
Layer198
 70
     0
 62
     7
  6
Continuous
370
    -3
390
F
  0
LAYER
  5
10C
330
2
100
AcDbSymbolTableRecord
100
AcDbLayerTableRecord
  2
Layer199
 70
     0
 62
     7
  6
Continuous
370
    -3
390
F
  0
LAYER
  5
10D
330
2
100
AcDbSymbolTableRecord
100
AcDbLayerTableRecord
  2
Layer200
 70
     0
 62
    -7
  6
Continuous
370
    -3
390
F
  0
LAYER
  5
10E
330
2
100
AcDbSymbolTableRecord
100
AcDbLayerTableRecord
  2
Layer201
 70
     0
 62
     7
  6
Continuous
370
    -3
390
F
  0
LAYER
  5
10F
330
2
100
AcDbSymbolTableRecord
100
AcDbLayerTableRecord
  2
Layer202
 70
     0
 62
     7
  6
Continuous
370
    -3
390
F
  0
LAYER
  5
110
330
2
100
AcDbSymbolTableRecord
100
AcDbLayerTableRecord
  2
Layer203
 70
     0
 62
     7
  6
Continuous
370
    -3
390
F
  0
LAYER
  5
111
330
2
100
AcDbSymbolTableRecord
100
AcDbLayerTableRecord
  2
Layer204
 70
     0
 62
     7
  6
Continuous
370
    -3
390
F
  0
LAYER
  5
112
330
2
100
AcDbSymbolTableRecord
100
AcDbLayerTableRecord
  2
Layer205
 70
     0
 62
     7
  6
Continuous
370
    -3
390
F
  0
LAYER
  5
113
330
2
100
AcDbSymbolTableRecord
100
AcDbLayerTableRecord
  2
Layer206
 70
     0
 62
     7
  6
Continuous
370
    -3
390
F
  0
LAYER
  5
114
330
2
100
AcDbSymbolTableRecord
100
AcDbLayerTableRecord
  2
Layer207
 70
     0
 62
     7
  6
Continuous
370
    -3
390
F
  0
LAYER
  5
115
330
2
100
AcDbSymbolTableRecord
100
AcDbLayerTableRecord
  2
Layer208
 70
     0
 62
     7
  6
Continuous
370
    -3
390
F
  0
LAYER
  5
116
330
2
100
AcDbSymbolTableRecord
100
AcDbLayerTableRecord
  2
Layer209
 70
     0
 62
     7
  6
Continuous
370
    -3
390
F
  0
LAYER
  5
117
330
2
100
AcDbSymbolTableRecord
100
AcDbLayerTableRecord
  2
Layer210
 70
     0
 62
     7
  6
Continuous
370
    -3
390
F
  0
LAYER
  5
118
330
2
100
AcDbSymbolTableRecord
100
AcDbLayerTableRecord
  2
Layer211
 70
     0
 62
     7
  6
Continuous
370
    -3
390
F
  0
LAYER
  5
119
330
2
100
AcDbSymbolTableRecord
100
AcDbLayerTableRecord
  2
Layer212
 70
     0
 62
     7
  6
Continuous
370
    -3
390
F
  0
LAYER
  5
11A
330
2
100
AcDbSymbolTableRecord
100
AcDbLayerTableRecord
  2
Layer213
 70
     0
 62
     7
  6
Continuous
370
    -3
390
F
  0
LAYER
  5
11B
330
2
100
AcDbSymbolTableRecord
100
AcDbLayerTableRecord
  2
Layer214
 70
     0
 62
     7
  6
Continuous
370
    -3
390
F
  0
LAYER
  5
11C
330
2
100
AcDbSymbolTableRecord
100
AcDbLayerTableRecord
  2
Layer215
 70
     0
 62
     7
  6
Continuous
370
    -3
390
F
  0
LAYER
  5
11D
330
2
100
AcDbSymbolTableRecord
100
AcDbLayerTableRecord
  2
Layer216
 70
     0
 62
     7
  6
Continuous
370
    -3
390
F
  0
LAYER
  5
11E
330
2
100
AcDbSymbolTableRecord
100
AcDbLayerTableRecord
  2
Layer217
 70
     0
 62
     7
  6
Continuous
370
    -3
390
F
  0
LAYER
  5
11F
330
2
100
AcDbSymbolTableRecord
100
AcDbLayerTableRecord
  2
Layer218
 70
     0
 62
     7
  6
Continuous
370
    -3
390
F
  0
LAYER
  5
120
330
2
100
AcDbSymbolTableRecord
100
AcDbLayerTableRecord
  2
Layer219
 70
     0
 62
     7
  6
Continuous
370
    -3
390
F
  0
LAYER
  5
121
330
2
100
AcDbSymbolTableRecord
100
AcDbLayerTableRecord
  2
Layer220
 70
     0
 62
     7
  6
Continuous
370
    -3
390
F
  0
LAYER
  5
122
330
2
100
AcDbSymbolTableRecord
100
AcDbLayerTableRecord
  2
Layer221
 70
     0
 62
     7
  6
Continuous
370
    -3
390
F
  0
LAYER
  5
123
330
2
100
AcDbSymbolTableRecord
100
AcDbLayerTableRecord
  2
Layer222
 70
     0
 62
     7
  6
Continuous
370
    -3
390
F
  0
LAYER
  5
124
330
2
100
AcDbSymbolTableRecord
100
AcDbLayerTableRecord
  2
Layer223
 70
     0
 62
     7
  6
Continuous
370
    -3
390
F
  0
LAYER
  5
125
330
2
100
AcDbSymbolTableRecord
100
AcDbLayerTableRecord
  2
Layer224
 70
     0
 62
     7
  6
Continuous
370
    -3
390
F
  0
LAYER
  5
126
330
2
100
AcDbSymbolTableRecord
100
AcDbLayerTableRecord
  2
Layer225
 70
     0
 62
     7
  6
Continuous
370
    -3
390
F
  0
LAYER
  5
127
330
2
100
AcDbSymbolTableRecord
100
AcDbLayerTableRecord
  2
Layer226
 70
     0
 62
     7
  6
Continuous
370
    -3
390
F
  0
LAYER
  5
128
330
2
100
AcDbSymbolTableRecord
100
AcDbLayerTableRecord
  2
Layer227
 70
     0
 62
     7
  6
Continuous
370
    -3
390
F
  0
LAYER
  5
129
330
2
100
AcDbSymbolTableRecord
100
AcDbLayerTableRecord
  2
Layer228
 70
     0
 62
     7
  6
Continuous
370
    -3
390
F
  0
LAYER
  5
12A
330
2
100
AcDbSymbolTableRecord
100
AcDbLayerTableRecord
  2
Layer229
 70
     0
 62
     7
  6
Continuous
370
    -3
390
F
  0
LAYER
  5
12B
330
2
100
AcDbSymbolTableRecord
100
AcDbLayerTableRecord
  2
Layer230
 70
     0
 62
     7
  6
Continuous
370
    -3
390
F
  0
LAYER
  5
12C
330
2
100
AcDbSymbolTableRecord
100
AcDbLayerTableRecord
  2
Layer231
 70
     0
 62
     7
  6
Continuous
370
    -3
390
F
  0
LAYER
  5
12D
330
2
100
AcDbSymbolTableRecord
100
AcDbLayerTableRecord
  2
Layer232
 70
     0
 62
     7
  6
Continuous
370
    -3
390
F
  0
LAYER
  5
12E
330
2
100
AcDbSymbolTableRecord
100
AcDbLayerTableRecord
  2
Layer233
 70
     0
 62
     7
  6
Continuous
370
    -3
390
F
  0
LAYER
  5
12F
330
2
100
AcDbSymbolTableRecord
100
AcDbLayerTableRecord
  2
Layer234
 70
     0
 62
     7
  6
Continuous
370
    -3
390
F
  0
LAYER
  5
130
330
2
100
AcDbSymbolTableRecord
100
AcDbLayerTableRecord
  2
Layer235
 70
     0
 62
     7
  6
Continuous
370
    -3
390
F
  0
LAYER
  5
131
330
2
100
AcDbSymbolTableRecord
100
AcDbLayerTableRecord
  2
Layer236
 70
     0
 62
     7
  6
Continuous
370
    -3
390
F
  0
LAYER
  5
132
330
2
100
AcDbSymbolTableRecord
100
AcDbLayerTableRecord
  2
Layer237
 70
     0
 62
     7
  6
Continuous
370
    -3
390
F
  0
LAYER
  5
133
330
2
100
AcDbSymbolTableRecord
100
AcDbLayerTableRecord
  2
Layer238
 70
     0
 62
     7
  6
Continuous
370
    -3
390
F
  0
LAYER
  5
134
330
2
100
AcDbSymbolTableRecord
100
AcDbLayerTableRecord
  2
Layer239
 70
     0
 62
     7
  6
Continuous
370
    -3
390
F
  0
LAYER
  5
135
330
2
100
AcDbSymbolTableRecord
100
AcDbLayerTableRecord
  2
Layer240
 70
     0
 62
     7
  6
Continuous
370
    -3
390
F
  0
LAYER
  5
136
330
2
100
AcDbSymbolTableRecord
100
AcDbLayerTableRecord
  2
Layer241
 70
     0
 62
     7
  6
Continuous
370
    -3
390
F
  0
LAYER
  5
137
330
2
100
AcDbSymbolTableRecord
100
AcDbLayerTableRecord
  2
Layer242
 70
     0
 62
     7
  6
Continuous
370
    -3
390
F
  0
LAYER
  5
138
330
2
100
AcDbSymbolTableRecord
100
AcDbLayerTableRecord
  2
Layer243
 70
     0
 62
     7
  6
Continuous
370
    -3
390
F
  0
LAYER
  5
139
330
2
100
AcDbSymbolTableRecord
100
AcDbLayerTableRecord
  2
Layer244
 70
     0
 62
     7
  6
Continuous
370
    -3
390
F
  0
LAYER
  5
13A
330
2
100
AcDbSymbolTableRecord
100
AcDbLayerTableRecord
  2
Layer245
 70
     0
 62
     7
  6
Continuous
370
    -3
390
F
  0
LAYER
  5
13B
330
2
100
AcDbSymbolTableRecord
100
AcDbLayerTableRecord
  2
Layer246
 70
     0
 62
     7
  6
Continuous
370
    -3
390
F
  0
LAYER
  5
13C
330
2
100
AcDbSymbolTableRecord
100
AcDbLayerTableRecord
  2
Layer247
 70
     0
 62
     7
  6
Continuous
370
    -3
390
F
  0
LAYER
  5
13D
330
2
100
AcDbSymbolTableRecord
100
AcDbLayerTableRecord
  2
Layer248
 70
     0
 62
     7
  6
Continuous
370
    -3
390
F
  0
LAYER
  5
13E
330
2
100
AcDbSymbolTableRecord
100
AcDbLayerTableRecord
  2
Layer249
 70
     0
 62
     7
  6
Continuous
370
    -3
390
F
  0
LAYER
  5
13F
330
2
100
AcDbSymbolTableRecord
100
AcDbLayerTableRecord
  2
Layer250
 70
     0
 62
     7
  6
Continuous
370
    -3
390
F
  0
LAYER
  5
140
330
2
100
AcDbSymbolTableRecord
100
AcDbLayerTableRecord
  2
Layer251
 70
     0
 62
     7
  6
Continuous
370
    -3
390
F
  0
LAYER
  5
141
330
2
100
AcDbSymbolTableRecord
100
AcDbLayerTableRecord
  2
Layer252
 70
     0
 62
     7
  6
Continuous
370
    -3
390
F
  0
LAYER
  5
142
330
2
100
AcDbSymbolTableRecord
100
AcDbLayerTableRecord
  2
Layer253
 70
     0
 62
     7
  6
Continuous
370
    -3
390
F
  0
LAYER
  5
143
330
2
100
AcDbSymbolTableRecord
100
AcDbLayerTableRecord
  2
Layer254
 70
     0
 62
     7
  6
Continuous
370
    -3
390
F
  0
LAYER
  5
144
330
2
100
AcDbSymbolTableRecord
100
AcDbLayerTableRecord
  2
Layer255
 70
     0
 62
     7
  6
Continuous
370
    -3
390
F
  0
ENDTAB
  0
TABLE
  2
STYLE
  5
3
330
0
100
AcDbSymbolTable
 70
     4
  0
STYLE
  5
11
330
3
100
AcDbSymbolTableRecord
100
AcDbTextStyleTableRecord
  2
Standard
 70
     0
 40
0.0
 41
1.0
 50
0.0
 71
     0
 42
2.5
  3
txt
  4

  0
STYLE
  5
41
330
3
100
AcDbSymbolTableRecord
100
AcDbTextStyleTableRecord
  2
Arial
 70
     0
 40
0.0
 41
1.0
 50
0.0
 71
     0
 42
0.2
  3
arial.ttf
  4

1001
ACAD
1000
Arial
1071
       34
  0
STYLE
  5
42
330
3
100
AcDbSymbolTableRecord
100
AcDbTextStyleTableRecord
  2
Arial Black
 70
     0
 40
0.0
 41
1.0
 50
0.0
 71
     0
 42
0.2
  3
ariblk.ttf
  4

1001
ACAD
1000
Arial Black
1071
       34
  0
STYLE
  5
44
330
3
100
AcDbSymbolTableRecord
100
AcDbTextStyleTableRecord
  2
Toleranzfont
 70
     0
 40
0.0
 41
1.0
 50
0.0
 71
     0
 42
0.2
  3
IGES1003.SHX
  4

  0
ENDTAB
  0
TABLE
  2
VIEW
  5
6
330
0
100
AcDbSymbolTable
 70
     0
  0
ENDTAB
  0
TABLE
  2
UCS
  5
7
330
0
100
AcDbSymbolTable
 70
     0
  0
ENDTAB
  0
TABLE
  2
APPID
  5
9
330
0
100
AcDbSymbolTable
 70
     1
  0
APPID
  5
12
330
9
100
AcDbSymbolTableRecord
100
AcDbRegAppTableRecord
  2
ACAD
 70
     0
  0
ENDTAB
  0
TABLE
  2
DIMSTYLE
  5
A
330
0
100
AcDbSymbolTable
 70
     1
100
AcDbDimStyleTable
  0
DIMSTYLE
105
27
102
{ACAD_REACTORS
330
43C
330
451
330
45F
330
46D
330
47B
330
48B
330
4C5
330
4D7
330
4FF
102
}
330
A
100
AcDbSymbolTableRecord
100
AcDbDimStyleTableRecord
  2
ISO-25
 70
     0
 41
2.5
 42
0.625
 43
3.75
 44
1.25
 73
     0
 74
     0
 77
     1
 78
     8
140
2.5
141
2.5
143
0.03937007874
147
0.625
171
     3
172
     1
178
     0
271
     2
272
     2
274
     3
278
    44
283
     0
284
     8
340
11
  0
ENDTAB
  0
TABLE
  2
BLOCK_RECORD
  5
1
330
0
100
AcDbSymbolTable
 70
    20
  0
BLOCK_RECORD
  5
1F
330
1
100
AcDbSymbolTableRecord
100
AcDbBlockTableRecord
  2
*Model_Space
340
22
  0
BLOCK_RECORD
  5
1B
330
1
100
AcDbSymbolTableRecord
100
AcDbBlockTableRecord
  2
*Paper_Space
340
1E
  0
BLOCK_RECORD
  5
23
330
1
100
AcDbSymbolTableRecord
100
AcDbBlockTableRecord
  2
*Paper_Space0
340
26
  0
BLOCK_RECORD
  5
145
330
1
100
AcDbSymbolTableRecord
100
AcDbBlockTableRecord
  2
L1_nNn00
340
0
102
{BLKREFS
331
1A2
102
}
  0
BLOCK_RECORD
  5
14A
330
1
100
AcDbSymbolTableRecord
100
AcDbBlockTableRecord
  2
Schriftfeld_nNn01
340
0
102
{BLKREFS
331
195
102
}
  0
BLOCK_RECORD
  5
176
330
1
100
AcDbSymbolTableRecord
100
AcDbBlockTableRecord
  2
ULTRAREFLEX_nNn02
340
0
102
{BLKREFS
331
18E
102
}
  0
BLOCK_RECORD
  5
198
330
1
100
AcDbSymbolTableRecord
100
AcDbBlockTableRecord
  2
A4_nNn03
340
0
102
{BLKREFS
331
1A1
102
}
  0
BLOCK_RECORD
  5
1A5
330
1
100
AcDbSymbolTableRecord
100
AcDbBlockTableRecord
  2
L1_nNn04
340
0
102
{BLKREFS
331
1BE
102
}
  0
BLOCK_RECORD
  5
1BF
330
1
100
AcDbSymbolTableRecord
100
AcDbBlockTableRecord
  2
SECHSK1_nNn05
340
0
102
{BLKREFS
331
2F6
102
}
  0
BLOCK_RECORD
  5
42F
330
1
100
AcDbSymbolTableRecord
100
AcDbBlockTableRecord
  2
*D7
340
0
  0
BLOCK_RECORD
  5
43D
330
1
100
AcDbSymbolTableRecord
100
AcDbBlockTableRecord
  2
_CLOSED
340
0
  0
BLOCK_RECORD
  5
444
330
1
100
AcDbSymbolTableRecord
100
AcDbBlockTableRecord
  2
*D9
340
0
  0
BLOCK_RECORD
  5
452
330
1
100
AcDbSymbolTableRecord
100
AcDbBlockTableRecord
  2
*D10
340
0
  0
BLOCK_RECORD
  5
460
330
1
100
AcDbSymbolTableRecord
100
AcDbBlockTableRecord
  2
*D11
340
0
  0
BLOCK_RECORD
  5
46E
330
1
100
AcDbSymbolTableRecord
100
AcDbBlockTableRecord
  2
*D12
340
0
  0
BLOCK_RECORD
  5
47C
330
1
100
AcDbSymbolTableRecord
100
AcDbBlockTableRecord
  2
*D13
340
0
  0
BLOCK_RECORD
  5
4B7
330
1
100
AcDbSymbolTableRecord
100
AcDbBlockTableRecord
  2
*D14
340
0
  0
BLOCK_RECORD
  5
4C7
330
1
100
AcDbSymbolTableRecord
100
AcDbBlockTableRecord
  2
*D15
340
0
  0
BLOCK_RECORD
  5
4D8
330
1
100
AcDbSymbolTableRecord
100
AcDbBlockTableRecord
  2
QS_nNn014
340
0
102
{BLKREFS
331
4DE
102
}
  0
BLOCK_RECORD
  5
4DF
330
1
100
AcDbSymbolTableRecord
100
AcDbBlockTableRecord
  2
Reflexwerte_nNn015
340
0
102
{BLKREFS
331
4E3
102
}
  0
BLOCK_RECORD
  5
4EE
330
1
100
AcDbSymbolTableRecord
100
AcDbBlockTableRecord
  2
*D18
340
0
  0
BLOCK_RECORD
  5
500
330
1
100
AcDbSymbolTableRecord
100
AcDbBlockTableRecord
  2
AENINDEX_nNn017
340
0
102
{BLKREFS
331
505
102
}
  0
ENDTAB
  0
ENDSEC
  0
SECTION
  2
BLOCKS
  0
BLOCK
  5
20
330
1F
100
AcDbEntity
  8
0
100
AcDbBlockBegin
  2
*Model_Space
 70
     0
 10
0.0
 20
0.0
 30
0.0
  3
*Model_Space
  1

  0
ENDBLK
  5
21
330
1F
100
AcDbEntity
  8
0
100
AcDbBlockEnd
  0
BLOCK
  5
1C
330
1B
100
AcDbEntity
 67
     1
  8
0
100
AcDbBlockBegin
  2
*Paper_Space
 70
     0
 10
0.0
 20
0.0
 30
0.0
  3
*Paper_Space
  1

  0
ENDBLK
  5
1D
330
1B
100
AcDbEntity
 67
     1
  8
0
100
AcDbBlockEnd
  0
BLOCK
  5
24
330
23
100
AcDbEntity
  8
0
100
AcDbBlockBegin
  2
*Paper_Space0
 70
     0
 10
0.0
 20
0.0
 30
0.0
  3
*Paper_Space0
  1

  0
ENDBLK
  5
25
330
23
100
AcDbEntity
  8
0
100
AcDbBlockEnd
  0
BLOCK
  5
146
330
145
100
AcDbEntity
  8
0
100
AcDbBlockBegin
  2
L1_nNn00
 70
     0
 10
0.0
 20
0.0
 30
0.0
  3
L1_nNn00
  1

  0
LINE
  5
148
330
145
100
AcDbEntity
  8
Layer99
  6
AUSGEZOGEN
 62
     9
370
    18
100
AcDbLine
 10
42.437608299891
 20
59.275997983871
 30
0.0
 11
136.437608299891
 21
59.275997983871
 31
0.0
  0
LINE
  5
149
330
145
100
AcDbEntity
  8
99
  6
AUSGEZOGEN
 62
    56
370
    18
100
AcDbLine
 10
40.087608299891
 20
56.925997983871
 30
0.0
 11
138.787608299891
 21
56.925997983871
 31
0.0
  0
INSERT
  5
195
330
145
100
AcDbEntity
  8
0
100
AcDbBlockReference
  2
Schriftfeld_nNn01
 10
0.0
 20
0.0
 30
0.0
  0
TEXT
  5
196
330
145
100
AcDbEntity
  8
Layer50
  6
AUSGEZOGEN
 62
     9
370
    18
100
AcDbText
 10
105.178127967103
 20
63.196268693862
 30
0.0
 40
2.35
  1
0113411k
 41
1.216033599894
  7
Arial
 72
     5
 11
122.695699990375
 21
63.196268693862
 31
0.0
100
AcDbText
  0
TEXT
  5
197
330
145
100
AcDbEntity
  8
Layer50
  6
AUSGEZOGEN
 62
     9
370
    18
100
AcDbText
 10
98.155641587957
 20
71.762053614727
 30
0.0
 40
2.35
  1
Reflektor 18x54LH
 41
1.257449401602
  7
Arial
 72
     5
 11
132.312557025775
 21
71.762053614727
 31
0.0
100
AcDbText
  0
INSERT
  5
1A1
330
145
100
AcDbEntity
  8
0
100
AcDbBlockReference
  2
A4_nNn03
 10
0.0
 20
0.0
 30
0.0
  0
ENDBLK
  5
147
330
145
100
AcDbEntity
  8
0
100
AcDbBlockEnd
  0
BLOCK
  5
14B
330
14A
100
AcDbEntity
  8
0
100
AcDbBlockBegin
  2
Schriftfeld_nNn01
 70
     0
 10
0.0
 20
0.0
 30
0.0
  3
Schriftfeld_nNn01
  1

  0
LINE
  5
14D
330
14A
100
AcDbEntity
  8
Layer99
  6
AUSGEZOGEN
 62
    56
370
    18
100
AcDbLine
 10
80.037608299891
 20
77.253497983871
 30
0.0
 11
80.037608299891
 21
69.263497983871
 31
0.0
  0
LINE
  5
14E
330
14A
100
AcDbEntity
  8
Layer99
  6
AUSGEZOGEN
 62
    56
370
    18
100
AcDbLine
 10
53.15363124911
 20
77.253497983871
 30
0.0
 11
53.15363124911
 21
59.275997983871
 31
0.0
  0
LINE
  5
14F
330
14A
100
AcDbEntity
  8
Layer99
  6
AUSGEZOGEN
 62
     9
370
    18
100
AcDbLine
 10
130.327608299891
 20
67.265997983871
 30
0.0
 11
130.327608299891
 21
61.555499059616
 31
0.0
  0
LINE
  5
150
330
14A
100
AcDbEntity
  8
Layer99
  6
AUSGEZOGEN
 62
    56
370
    18
100
AcDbLine
 10
75.149596825282
 20
61.273497983871
 30
0.0
 11
49.487608299891
 21
61.273497983871
 31
0.0
  0
LINE
  5
151
330
14A
100
AcDbEntity
  8
Layer99
  6
AUSGEZOGEN
 62
    56
370
    18
100
AcDbLine
 10
75.149596825282
 20
63.270997983871
 30
0.0
 11
49.487608299891
 21
63.270997983871
 31
0.0
  0
LINE
  5
152
330
14A
100
AcDbEntity
  8
Layer99
  6
AUSGEZOGEN
 62
    56
370
    18
100
AcDbLine
 10
75.149596825282
 20
65.268497983871
 30
0.0
 11
49.487608299891
 21
65.268497983871
 31
0.0
  0
LINE
  5
153
330
14A
100
AcDbEntity
  8
Layer99
  6
AUSGEZOGEN
 62
    56
370
    18
100
AcDbLine
 10
75.149596825282
 20
67.265997983871
 30
0.0
 11
49.487608299891
 21
67.265997983871
 31
0.0
  0
LINE
  5
154
330
14A
100
AcDbEntity
  8
Layer99
  6
AUSGEZOGEN
 62
     9
370
    18
100
AcDbLine
 10
136.437608299891
 20
67.265997983871
 30
0.0
 11
75.149596825282
 21
67.265997983871
 31
0.0
  0
LINE
  5
155
330
14A
100
AcDbEntity
  8
Layer99
  6
AUSGEZOGEN
 62
    56
370
    18
100
AcDbLine
 10
95.92363124911
 20
69.263497983871
 30
0.0
 11
49.487608299891
 21
69.263497983871
 31
0.0
  0
LINE
  5
156
330
14A
100
AcDbEntity
  8
Layer99
  6
AUSGEZOGEN
 62
    56
370
    18
100
AcDbLine
 10
95.92363124911
 20
71.260997983871
 30
0.0
 11
49.487608299891
 21
71.260997983871
 31
0.0
  0
LINE
  5
157
330
14A
100
AcDbEntity
  8
Layer99
  6
AUSGEZOGEN
 62
    56
370
    18
100
AcDbLine
 10
95.92363124911
 20
73.258497983871
 30
0.0
 11
49.487608299891
 21
73.258497983871
 31
0.0
  0
LINE
  5
158
330
14A
100
AcDbEntity
  8
Layer99
  6
AUSGEZOGEN
 62
    56
370
    18
100
AcDbLine
 10
95.92363124911
 20
75.255997983871
 30
0.0
 11
49.487608299891
 21
75.255997983871
 31
0.0
  0
LINE
  5
159
330
14A
100
AcDbEntity
  8
Layer99
  6
AUSGEZOGEN
 62
     9
370
    18
100
AcDbLine
 10
136.437608299891
 20
77.253497983871
 30
0.0
 11
49.487608299891
 21
77.253497983871
 31
0.0
  0
LINE
  5
15A
330
14A
100
AcDbEntity
  8
Layer99
  6
AUSGEZOGEN
 62
    56
370
    18
100
AcDbLine
 10
75.149596825282
 20
82.247247983871
 30
0.0
 11
49.487608299891
 21
82.247247983871
 31
0.0
  0
LINE
  5
15B
330
14A
100
AcDbEntity
  8
Layer99
  6
AUSGEZOGEN
 62
    56
370
    18
100
AcDbLine
 10
136.437608299891
 20
82.247247983871
 30
0.0
 11
95.92363124911
 21
82.247247983871
 31
0.0
  0
LINE
  5
15C
330
14A
100
AcDbEntity
  8
Layer99
  6
AUSGEZOGEN
 62
    56
370
    18
100
AcDbLine
 10
119.329596825282
 20
85.243497983871
 30
0.0
 11
119.329596825282
 21
82.247247983871
 31
0.0
  0
LINE
  5
15D
330
14A
100
AcDbEntity
  8
Layer99
  6
AUSGEZOGEN
 62
     9
370
    18
100
AcDbLine
 10
95.92363124911
 20
85.243497983871
 30
0.0
 11
95.92363124911
 21
61.555499059616
 31
0.0
  0
LINE
  5
15E
330
14A
100
AcDbEntity
  8
Layer99
  6
AUSGEZOGEN
 62
    56
370
    18
100
AcDbLine
 10
87.369596825282
 20
77.253497983871
 30
0.0
 11
87.369596825282
 21
67.265997983871
 31
0.0
  0
LINE
  5
15F
330
14A
100
AcDbEntity
  8
Layer99
  6
AUSGEZOGEN
 62
     9
370
    18
100
AcDbLine
 10
75.149596825282
 20
85.243497983871
 30
0.0
 11
75.149596825282
 21
59.275997983871
 31
0.0
  0
LINE
  5
160
330
14A
100
AcDbEntity
  8
Layer99
  6
AUSGEZOGEN
 62
     9
370
    18
100
AcDbLine
 10
49.487608299891
 20
85.243497983871
 30
0.0
 11
49.487608299891
 21
59.275997983871
 31
0.0
  0
LINE
  5
161
330
14A
100
AcDbEntity
  8
Layer99
  6
AUSGEZOGEN
 62
     9
370
    18
100
AcDbLine
 10
136.437608299891
 20
85.243497983871
 30
0.0
 11
49.487608299891
 21
85.243497983871
 31
0.0
  0
TEXT
  5
162
330
14A
100
AcDbEntity
  8
Layer99
  6
AUSGEZOGEN
 62
    56
370
    18
100
AcDbText
 10
75.477311669032
 20
73.705153249679
 30
0.0
 40
0.94
  1
Bearb. 05.02.03   MS
 41
1.267237127053
  7
Arial
 72
     5
 11
91.189277912513
 21
73.705153249679
 31
0.0
100
AcDbText
  0
TEXT
  5
163
330
14A
100
AcDbEntity
  8
Layer99
  6
AUSGEZOGEN
 62
    56
370
    18
100
AcDbText
 10
75.58603359286
 20
71.747011159835
 30
0.0
 40
0.94
  1
Gepr.
 41
1.215533862924
  7
Arial
 72
     5
 11
79.574856585399
 21
71.747011159835
 31
0.0
100
AcDbText
  0
TEXT
  5
164
330
14A
100
AcDbEntity
  8
Layer99
  6
AUSGEZOGEN
 62
    56
370
    18
100
AcDbText
 10
75.58603359286
 20
69.680089773117
 30
0.0
 40
0.94
  1
Norm
 41
1.171328125812
  7
Arial
 72
     5
 11
79.342810864214
 21
69.680089773117
 31
0.0
100
AcDbText
  0
TEXT
  5
165
330
14A
100
AcDbEntity
  8
Layer99
  6
AUSGEZOGEN
 62
    56
370
    18
100
AcDbText
 10
131.239380760829
 20
65.738788434921
 30
0.0
 40
1.175
  1
Blatt
 41
1.26499927539
  7
Arial
 72
     5
 11
135.390823757822
 21
65.738788434921
 31
0.0
100
AcDbText
  0
TEXT
  5
166
330
14A
100
AcDbEntity
  8
99
  6
AUSGEZOGEN
 62
   136
370
    18
100
AcDbText
 10
76.578128319422
 20
83.126941739974
 30
0.0
 40
1.175
  1
Allgemeintoleranzen
 41
1.263559891189
  7
Arial
 72
     5
 11
95.351943237717
 21
83.126941739974
 31
0.0
100
AcDbText
  0
TEXT
  5
167
330
14A
100
AcDbEntity
  8
99
  6
AUSGEZOGEN
 62
   136
370
    18
100
AcDbText
 10
76.251388817469
 20
80.948071195541
 30
0.0
 40
1.175
  1
Nach:130
 41
1.221483613102
  7
Arial
 72
     5
 11
84.825531965459
 21
80.948071195541
 31
0.0
100
AcDbText
  0
TEXT
  5
168
330
14A
100
AcDbEntity
  8
99
  6
AUSGEZOGEN
 62
   136
370
    18
100
AcDbText
 10
76.330448876063
 20
78.769193479476
 30
0.0
 40
1.175
  1
DIN: 16901
 41
1.239741037486
  7
Arial
 72
     5
 11
86.61472065253
 21
78.769193479476
 31
0.0
100
AcDbText
  0
TEXT
  5
169
330
14A
100
AcDbEntity
  8
99
  6
AUSGEZOGEN
 62
    56
370
    18
100
AcDbText
 10
120.0874947745
 20
83.235885984359
 30
0.0
 40
1.175
  1
Gewicht:
 41
1.240831402125
  7
Arial
 72
     5
 11
128.00430932791
 21
83.235885984359
 31
0.0
100
AcDbText
  0
TEXT
  5
16A
330
14A
100
AcDbEntity
  8
99
  6
AUSGEZOGEN
 62
    56
370
    18
100
AcDbText
 10
96.540907860438
 20
83.245847379623
 30
0.0
 40
1.175
  1
Maßstab: 2:1
 41
1.251587148984
  7
Arial
 72
     5
 11
108.520536836291
 21
83.245847379623
 31
0.0
100
AcDbText
  0
TEXT
  5
16B
330
14A
100
AcDbEntity
  8
99
  6
AUSGEZOGEN
 62
    56
370
    18
100
AcDbText
 10
50.051642723719
 20
83.245997983871
 30
0.0
 40
1.175
  1
Schwindung:
 41
1.234746274162
  7
Arial
 72
     5
 11
61.645200258995
 21
83.245997983871
 31
0.0
100
AcDbText
  0
TEXT
  5
16C
330
14A
100
AcDbEntity
  8
99
  6
AUSGEZOGEN
 62
    56
370
    18
100
AcDbText
 10
50.108327294032
 20
80.305686704574
 30
0.0
 40
1.175
  1
Diese Zeichnung darf nur
 41
1.271210741346
  7
Arial
 72
     5
 11
73.515670938993
 21
80.305686704574
 31
0.0
100
AcDbText
  0
TEXT
  5
16D
330
14A
100
AcDbEntity
  8
99
  6
AUSGEZOGEN
 62
    56
370
    18
100
AcDbText
 10
50.108327294032
 20
78.42568667656
 30
0.0
 40
1.175
  1
mit CAD geändert werden
 41
1.255342283876
  7
Arial
 72
     5
 11
73.794313807542
 21
78.42568667656
 31
0.0
100
AcDbText
  0
LINE
  5
16E
330
14A
100
AcDbEntity
  8
Layer99
  6
AUSGEZOGEN
 62
    56
370
    18
100
AcDbLine
 10
136.437608299891
 20
61.555499059616
 30
0.0
 11
95.92363124911
 21
61.555499059616
 31
0.0
  0
LINE
  5
16F
330
14A
100
AcDbEntity
  8
Layer99
  6
AUSGEZOGEN
 62
    56
370
    18
100
AcDbLine
 10
136.437608299891
 20
63.552999059616
 30
0.0
 11
130.327608299891
 21
63.552999059616
 31
0.0
  0
TEXT
  5
170
330
14A
100
AcDbEntity
  8
Layer99
  6
AUSGEZOGEN
 62
    56
370
    18
100
AcDbText
 10
133.795636864344
 20
62.002521154342
 30
0.0
 40
1.175
  1
Bl.
 41
1.229150265254
  7
Arial
 72
     5
 11
136.14832265831
 21
62.002521154342
 31
0.0
100
AcDbText
  0
LINE
  5
171
330
14A
100
AcDbEntity
  8
Layer99
  6
AUSGEZOGEN
 62
    56
370
    18
100
AcDbLine
 10
95.92363124911
 20
61.555499059616
 30
0.0
 11
75.149596825282
 21
61.555499059616
 31
0.0
  0
LINE
  5
172
330
14A
100
AcDbEntity
  8
Layer99
  6
AUSGEZOGEN
 62
    56
370
    18
100
AcDbLine
 10
67.300505028407
 20
77.253497983871
 30
0.0
 11
67.300505028407
 21
59.275997983871
 31
0.0
  0
TEXT
  5
173
330
14A
100
AcDbEntity
  8
Layer50
  6
AUSGEZOGEN
 62
   136
370
    18
100
AcDbText
 10
51.524896507899
 20
61.704814027725
 30
0.0
 40
0.94
  1
1  Maß war 3
 41
1.251740812231
  7
Arial
 72
     5
 11
61.108599688581
 21
61.704814027725
 31
0.0
100
AcDbText
  0
TEXT
  5
174
330
14A
100
AcDbEntity
  8
Layer50
  6
AUSGEZOGEN
 62
   136
370
    18
100
AcDbText
 10
67.410718651453
 20
61.819966215072
 30
0.0
 40
0.94
  1
29.04.14/Ms
 41
0.967972920193
  7
Arial
 72
     5
 11
74.399618651453
 21
61.819966215072
 31
0.0
100
AcDbText
  0
TEXT
  5
175
330
14A
100
AcDbEntity
  8
99
  6
AUSGEZOGEN
 62
    56
370
    18
100
AcDbText
 10
75.734629784266
 20
59.790705258308
 30
0.0
 40
1.175
  1
Schutzvermerk nach DIN 34 beachten .        Copyright reserved
 41
1.286227457357
  7
Arial
 72
     5
 11
135.061388919572
 21
59.790705258308
 31
0.0
100
AcDbText
  0
INSERT
  5
18E
330
14A
100
AcDbEntity
  8
0
100
AcDbBlockReference
  2
ULTRAREFLEX_nNn02
 10
0.0
 20
0.0
 30
0.0
  0
TEXT
  5
18F
330
14A
100
AcDbEntity
  8
Layer50
  6
AUSGEZOGEN
 62
   136
370
    18
100
AcDbText
 10
96.935322448446
 20
67.874291426171
 30
0.0
 40
0.94
  1
---
 41
1.259600656861
  7
Arial
 72
     5
 11
98.587036789789
 21
67.874291426171
 31
0.0
100
AcDbText
  0
TEXT
  5
190
330
14A
100
AcDbEntity
  8
Layer99
  6
AUSGEZOGEN
 62
    56
370
    18
100
AcDbText
 10
67.552546070636
 20
59.742848552304
 30
0.0
 40
0.94
  1
Dat./Nam.
 41
1.239717192527
  7
Arial
 72
     5
 11
74.874340604043
 21
59.742848552304
 31
0.0
100
AcDbText
  0
TEXT
  5
191
330
14A
100
AcDbEntity
  8
Layer99
  6
AUSGEZOGEN
 62
    56
370
    18
100
AcDbText
 10
49.580126079898
 20
59.740717454902
 30
0.0
 40
0.94
  1
Zust.
 41
1.239906123597
  7
Arial
 72
     5
 11
53.196709059327
 21
59.740717454902
 31
0.0
100
AcDbText
  0
TEXT
  5
192
330
14A
100
AcDbEntity
  8
99
  6
AUSGEZOGEN
 62
    56
370
    18
100
AcDbText
 10
80.813913039531
 20
75.659194242416
 30
0.0
 40
1.175
  1
Datum
 41
1.188171149402
  7
Arial
 72
     5
 11
86.553284663881
 21
75.659194242416
 31
0.0
100
AcDbText
  0
TEXT
  5
193
330
14A
100
AcDbEntity
  8
99
  6
AUSGEZOGEN
 62
    56
370
    18
100
AcDbText
 10
89.116552238087
 20
75.663121898435
 30
0.0
 40
1.175
  1
Name
 41
1.15958716227
  7
Arial
 72
     5
 11
94.189195269118
 21
75.663121898435
 31
0.0
100
AcDbText
  0
TEXT
  5
194
330
14A
100
AcDbEntity
  8
Layer99
  6
AUSGEZOGEN
 62
    56
370
    18
100
AcDbText
 10
53.823888188127
 20
59.74082928578
 30
0.0
 40
0.94
  1
Änderung
 41
1.218204176926
  7
Arial
 72
     5
 11
60.754105566159
 21
59.74082928578
 31
0.0
100
AcDbText
  0
ENDBLK
  5
14C
330
14A
100
AcDbEntity
  8
0
100
AcDbBlockEnd
  0
BLOCK
  5
177
330
176
100
AcDbEntity
  8
0
100
AcDbBlockBegin
  2
ULTRAREFLEX_nNn02
 70
     0
 10
0.0
 20
0.0
 30
0.0
  3
ULTRAREFLEX_nNn02
  1

  0
LINE
  5
179
330
176
100
AcDbEntity
  8
99
  6
AUSGEZOGEN
 62
    30
370
    18
100
AcDbLine
 10
94.424599682981
 20
65.78245402858
 30
0.0
 11
92.994560801225
 21
65.78245402858
 31
0.0
  0
LINE
  5
17A
330
176
100
AcDbEntity
  8
99
  6
AUSGEZOGEN
 62
    30
370
    18
100
AcDbLine
 10
92.8561699417
 20
65.70255402858
 30
0.0
 11
92.141150500822
 21
64.46410402858
 31
0.0
  0
LINE
  5
17B
330
176
100
AcDbEntity
  8
99
  6
AUSGEZOGEN
 62
    30
370
    18
100
AcDbLine
 10
92.141150500822
 20
64.30430402858
 30
0.0
 11
92.8561699417
 21
63.06585402858
 31
0.0
  0
LINE
  5
17C
330
176
100
AcDbEntity
  8
99
  6
AUSGEZOGEN
 62
    30
370
    18
100
AcDbLine
 10
92.994560801225
 20
62.98595402858
 30
0.0
 11
94.424599682981
 21
62.98595402858
 31
0.0
  0
LINE
  5
17D
330
176
100
AcDbEntity
  8
99
  6
AUSGEZOGEN
 62
    30
370
    18
100
AcDbLine
 10
94.562990542506
 20
63.06585402858
 30
0.0
 11
95.278009983383
 21
64.30430402858
 31
0.0
  0
LINE
  5
17E
330
176
100
AcDbEntity
  8
99
  6
AUSGEZOGEN
 62
    30
370
    18
100
AcDbLine
 10
95.278009983383
 20
64.46410402858
 30
0.0
 11
94.562990542506
 21
65.702554028579
 31
0.0
  0
LINE
  5
17F
330
176
100
AcDbEntity
  8
99
  6
AUSGEZOGEN
 62
    30
370
    18
100
AcDbLine
 10
93.847971101628
 20
64.46410402858
 30
0.0
 11
95.278009983383
 21
64.46410402858
 31
0.0
  0
LINE
  5
180
330
176
100
AcDbEntity
  8
99
  6
AUSGEZOGEN
 62
    30
370
    18
100
AcDbLine
 10
92.141150500822
 20
64.46410402858
 30
0.0
 11
93.571189382578
 21
64.46410402858
 31
0.0
  0
LINE
  5
181
330
176
100
AcDbEntity
  8
99
  6
AUSGEZOGEN
 62
    30
370
    18
100
AcDbLine
 10
93.847971101628
 20
64.30430402858
 30
0.0
 11
95.278009983383
 21
64.30430402858
 31
0.0
  0
LINE
  5
182
330
176
100
AcDbEntity
  8
99
  6
AUSGEZOGEN
 62
    30
370
    18
100
AcDbLine
 10
92.141150500822
 20
64.30430402858
 30
0.0
 11
93.571189382578
 21
64.30430402858
 31
0.0
  0
LINE
  5
183
330
176
100
AcDbEntity
  8
99
  6
AUSGEZOGEN
 62
    30
370
    18
100
AcDbLine
 10
93.847971101628
 20
64.30430402858
 30
0.0
 11
94.562990542506
 21
63.06585402858
 31
0.0
  0
LINE
  5
184
330
176
100
AcDbEntity
  8
99
  6
AUSGEZOGEN
 62
    30
370
    18
100
AcDbLine
 10
92.994560801225
 20
65.78245402858
 30
0.0
 11
93.709580242103
 21
64.54400402858
 31
0.0
  0
LINE
  5
185
330
176
100
AcDbEntity
  8
99
  6
AUSGEZOGEN
 62
    30
370
    18
100
AcDbLine
 10
93.709580242103
 20
64.22440402858
 30
0.0
 11
94.424599682981
 21
62.985954028579
 31
0.0
  0
LINE
  5
186
330
176
100
AcDbEntity
  8
99
  6
AUSGEZOGEN
 62
    30
370
    18
100
AcDbLine
 10
92.8561699417
 20
65.70255402858
 30
0.0
 11
93.571189382578
 21
64.46410402858
 31
0.0
  0
LINE
  5
187
330
176
100
AcDbEntity
  8
99
  6
AUSGEZOGEN
 62
    30
370
    18
100
AcDbLine
 10
93.709580242103
 20
64.224404028579
 30
0.0
 11
92.994560801225
 21
62.98595402858
 31
0.0
  0
LINE
  5
188
330
176
100
AcDbEntity
  8
99
  6
AUSGEZOGEN
 62
    30
370
    18
100
AcDbLine
 10
94.562990542506
 20
65.70255402858
 30
0.0
 11
93.847971101628
 21
64.46410402858
 31
0.0
  0
LINE
  5
189
330
176
100
AcDbEntity
  8
99
  6
AUSGEZOGEN
 62
    30
370
    18
100
AcDbLine
 10
93.571189382578
 20
64.30430402858
 30
0.0
 11
92.8561699417
 21
63.06585402858
 31
0.0
  0
LINE
  5
18A
330
176
100
AcDbEntity
  8
99
  6
AUSGEZOGEN
 62
    30
370
    18
100
AcDbLine
 10
94.424599682981
 20
65.78245402858
 30
0.0
 11
93.709580242103
 21
64.54400402858
 31
0.0
  0
HATCH
  5
18B
330
176
100
AcDbEntity
  8
99
  6
AUSGEZOGEN
 62
    30
370
    18
100
AcDbHatch
 10
0.0
 20
0.0
 30
0.0
210
0.0
220
0.0
230
1.0
  2
SOLID
 70
     1
 71
     0
 91
        6
 92
        2
 72
     0
 73
     1
 93
        3
 10
93.5711893825781
 20
64.30430402857951
 10
92.14115050082225
 20
64.30430402857951
 10
92.85616994170019
 20
63.06585402857952
 97
        0
 92
        2
 72
     0
 73
     1
 93
        3
 10
93.5711893825781
 20
64.46410402857951
 10
92.85616994170019
 20
65.70255402857951
 10
92.14115050082225
 20
64.46410402857951
 97
        0
 92
        2
 72
     0
 73
     1
 93
        3
 10
93.70958024210285
 20
64.54400402857951
 10
94.42459968298067
 20
65.78245402857951
 10
92.99456080122494
 20
65.78245402857951
 97
        0
 92
        2
 72
     0
 73
     1
 93
        3
 10
93.84797110162759
 20
64.46410402857951
 10
95.27800998338333
 20
64.46410402857951
 10
94.5629905425055
 20
65.7025540285795
 97
        0
 92
        2
 72
     0
 73
     1
 93
        3
 10
94.5629905425055
 20
63.06585402857951
 10
95.27800998338333
 20
64.30430402857951
 10
93.84797110162759
 20
64.30430402857951
 97
        0
 92
        2
 72
     0
 73
     1
 93
        3
 10
93.70958024210285
 20
64.2244040285795
 10
92.99456080122494
 20
62.98595402857951
 10
94.42459968298067
 20
62.98595402857951
 97
        0
 75
     0
 76
     1
 98
        0
  0
TEXT
  5
18C
330
176
100
AcDbEntity
  8
99
  6
AUSGEZOGEN
 62
     7
370
    70
100
AcDbText
 10
83.600735602633
 20
63.484086913322
 30
0.0
 40
1.8377
  1
REFLEX
 41
0.705366510959
  7
Arial Black
 72
     5
 11
91.450910602633
 21
63.484086913322
 31
0.0
100
AcDbText
  0
TEXT
  5
18D
330
176
100
AcDbEntity
  8
99
  6
AUSGEZOGEN
 62
     7
370
    18
100
AcDbText
 10
75.851229583582
 20
63.570779531752
 30
0.0
 40
1.39825
  1
ULTRA
 41
1.159777722278
  7
Arial
 72
     5
 11
83.271942083582
 21
63.570779531752
 31
0.0
100
AcDbText
  0
ENDBLK
  5
178
330
176
100
AcDbEntity
  8
0
100
AcDbBlockEnd
  0
BLOCK
  5
199
330
198
100
AcDbEntity
  8
0
100
AcDbBlockBegin
  2
A4_nNn03
 70
     0
 10
0.0
 20
0.0
 30
0.0
  3
A4_nNn03
  1

  0
LINE
  5
19B
330
198
100
AcDbEntity
  8
Layer99
  6
AUSGEZOGEN
 62
     9
370
    18
100
AcDbLine
 10
136.437608299891
 20
59.275997983871
 30
0.0
 11
136.437608299891
 21
194.165997983871
 31
0.0
  0
LINE
  5
19C
330
198
100
AcDbEntity
  8
99
  6
AUSGEZOGEN
 62
     9
370
    18
100
AcDbLine
 10
42.437608299891
 20
59.275997983871
 30
0.0
 11
42.437608299891
 21
194.165997983871
 31
0.0
  0
LINE
  5
19D
330
198
100
AcDbEntity
  8
99
  6
AUSGEZOGEN
 62
     9
370
    18
100
AcDbLine
 10
42.437608299891
 20
194.165997983871
 30
0.0
 11
136.437608299891
 21
194.165997983871
 31
0.0
  0
LINE
  5
19E
330
198
100
AcDbEntity
  8
99
  6
AUSGEZOGEN
 62
    56
370
    18
100
AcDbLine
 10
40.087608299891
 20
196.515997983871
 30
0.0
 11
138.787608299891
 21
196.515997983871
 31
0.0
  0
LINE
  5
19F
330
198
100
AcDbEntity
  8
99
  6
AUSGEZOGEN
 62
    56
370
    18
100
AcDbLine
 10
40.087608299891
 20
56.925997983871
 30
0.0
 11
40.087608299891
 21
196.515997983871
 31
0.0
  0
LINE
  5
1A0
330
198
100
AcDbEntity
  8
99
  6
AUSGEZOGEN
 62
    56
370
    18
100
AcDbLine
 10
138.787608299891
 20
56.925997983871
 30
0.0
 11
138.787608299891
 21
196.515997983871
 31
0.0
  0
ENDBLK
  5
19A
330
198
100
AcDbEntity
  8
0
100
AcDbBlockEnd
  0
BLOCK
  5
1A6
330
1A5
100
AcDbEntity
  8
0
100
AcDbBlockBegin
  2
L1_nNn04
 70
     0
 10
0.0
 20
0.0
 30
0.0
  3
L1_nNn04
  1

  0
LINE
  5
1A8
330
1A5
100
AcDbEntity
  8
99
  6
DASHDOT
 62
    56
370
    18
100
AcDbLine
 10
77.055173829346
 20
187.248406105991
 30
0.0
 11
77.055173829346
 21
111.358404953917
 31
0.0
  0
LINE
  5
1A9
330
1A5
100
AcDbEntity
  8
99
  6
DASHDOT
 62
    56
370
    18
100
AcDbLine
 10
65.570798829346
 20
149.214955645161
 30
0.0
 11
87.316111329346
 21
149.214955645161
 31
0.0
  0
LINE
  5
1AA
330
1A5
100
AcDbEntity
  8
99
  6
AUSGEZOGEN
 62
     9
370
    18
100
AcDbLine
 10
71.155173829346
 20
113.214955645161
 30
0.0
 11
82.955173829346
 21
113.214955645161
 31
0.0
  0
LINE
  5
1AB
330
1A5
100
AcDbEntity
  8
99
  6
AUSGEZOGEN
 62
     9
370
    18
100
AcDbLine
 10
71.155173829346
 20
185.214955645161
 30
0.0
 11
82.955173829346
 21
185.214955645161
 31
0.0
  0
LINE
  5
1AC
330
1A5
100
AcDbEntity
  8
99
  6
AUSGEZOGEN
 62
     9
370
    18
100
AcDbLine
 10
85.955173829346
 20
182.214955645161
 30
0.0
 11
85.955173829346
 21
116.214955645161
 31
0.0
  0
LINE
  5
1AD
330
1A5
100
AcDbEntity
  8
99
  6
AUSGEZOGEN
 62
     9
370
    18
100
AcDbLine
 10
68.155173829346
 20
182.214955645161
 30
0.0
 11
68.155173829346
 21
116.214955645161
 31
0.0
  0
ARC
  5
1AE
330
1A5
100
AcDbEntity
  8
99
  6
AUSGEZOGEN
 62
     9
370
    18
100
AcDbCircle
 10
82.955173829346
 20
182.214955645161
 30
0.0
 40
2.999999999999989
100
AcDbArc
 50
360.0
 51
90.0
  0
ARC
  5
1AF
330
1A5
100
AcDbEntity
  8
99
  6
AUSGEZOGEN
 62
     9
370
    18
100
AcDbCircle
 10
71.155173829346
 20
182.214955645161
 30
0.0
 40
2.999999999999989
100
AcDbArc
 50
90.0
 51
180.0
  0
ARC
  5
1B0
330
1A5
100
AcDbEntity
  8
99
  6
AUSGEZOGEN
 62
     9
370
    18
100
AcDbCircle
 10
71.155173829346
 20
116.214955645161
 30
0.0
 40
3.000000000000013
100
AcDbArc
 50
180.0
 51
270.0
  0
ARC
  5
1B1
330
1A5
100
AcDbEntity
  8
99
  6
AUSGEZOGEN
 62
     9
370
    18
100
AcDbCircle
 10
82.955173829346
 20
116.214955645161
 30
0.0
 40
3.000000000000014
100
AcDbArc
 50
270.0
 51
0.0
  0
LINE
  5
1B2
330
1A5
100
AcDbEntity
  8
99
  6
DASHDOT
 62
    56
370
    18
100
AcDbLine
 10
73.093953142893
 20
117.714955645161
 30
0.0
 11
81.273923829346
 21
117.714955645161
 31
0.0
  0
LINE
  5
1B3
330
1A5
100
AcDbEntity
  8
99
  6
DASHDOT
 62
    56
370
    18
100
AcDbLine
 10
73.471212255888
 20
180.714955645161
 30
0.0
 11
81.691111329346
 21
180.714955645161
 31
0.0
  0
CIRCLE
  5
1B4
330
1A5
100
AcDbEntity
  8
99
  6
AUSGEZOGEN
 62
     9
370
    18
100
AcDbCircle
 10
77.055173829346
 20
180.714955645161
 30
0.0
 40
1.75
  0
CIRCLE
  5
1B5
330
1A5
100
AcDbEntity
  8
99
  6
AUSGEZOGEN
 62
     9
370
    18
100
AcDbCircle
 10
77.055173829346
 20
117.714955645161
 30
0.0
 40
1.75
  0
LINE
  5
1B6
330
1A5
100
AcDbEntity
  8
99
  6
AUSGEZOGEN
 62
     9
370
    18
100
AcDbLine
 10
69.305173829346
 20
123.714955645161
 30
0.0
 11
84.805173829346
 21
123.714955645161
 31
0.0
  0
LINE
  5
1B7
330
1A5
100
AcDbEntity
  8
99
  6
AUSGEZOGEN
 62
     9
370
    18
100
AcDbLine
 10
69.305173829346
 20
174.714955645161
 30
0.0
 11
84.805173829346
 21
174.714955645161
 31
0.0
  0
LINE
  5
1B8
330
1A5
100
AcDbEntity
  8
99
  6
AUSGEZOGEN
 62
     9
370
    18
100
AcDbLine
 10
85.805173829346
 20
173.714955645161
 30
0.0
 11
85.805173829346
 21
124.714955645161
 31
0.0
  0
LINE
  5
1B9
330
1A5
100
AcDbEntity
  8
99
  6
AUSGEZOGEN
 62
     9
370
    18
100
AcDbLine
 10
68.305173829346
 20
173.714955645161
 30
0.0
 11
68.305173829346
 21
124.714955645161
 31
0.0
  0
ARC
  5
1BA
330
1A5
100
AcDbEntity
  8
99
  6
AUSGEZOGEN
 62
     9
370
    18
100
AcDbCircle
 10
84.805173829346
 20
173.714955645161
 30
0.0
 40
1.0
100
AcDbArc
 50
0.0
 51
90.0
  0
ARC
  5
1BB
330
1A5
100
AcDbEntity
  8
99
  6
AUSGEZOGEN
 62
     9
370
    18
100
AcDbCircle
 10
69.305173829346
 20
173.714955645161
 30
0.0
 40
1.0
100
AcDbArc
 50
90.0
 51
180.0
  0
ARC
  5
1BC
330
1A5
100
AcDbEntity
  8
99
  6
AUSGEZOGEN
 62
     9
370
    18
100
AcDbCircle
 10
69.305173829346
 20
124.714955645161
 30
0.0
 40
1.0
100
AcDbArc
 50
180.0
 51
270.0
  0
ARC
  5
1BD
330
1A5
100
AcDbEntity
  8
99
  6
AUSGEZOGEN
 62
     9
370
    18
100
AcDbCircle
 10
84.805173829346
 20
124.714955645161
 30
0.0
 40
1.0
100
AcDbArc
 50
270.0
 51
0.0
  0
ENDBLK
  5
1A7
330
1A5
100
AcDbEntity
  8
0
100
AcDbBlockEnd
  0
BLOCK
  5
1C0
330
1BF
100
AcDbEntity
  8
0
100
AcDbBlockBegin
  2
SECHSK1_nNn05
 70
     0
 10
0.0
 20
0.0
 30
0.0
  3
SECHSK1_nNn05
  1

  0
LINE
  5
1C2
330
1BF
100
AcDbEntity
  8
99
  6
AUSGEZOGEN
 62
     9
370
    18
100
AcDbLine
 10
83.05517878478
 20
126.698295908528
 30
0.0
 11
81.55517878478
 21
127.564316111165
 31
0.0
  0
LINE
  5
1C3
330
1BF
100
AcDbEntity
  8
99
  6
AUSGEZOGEN
 62
     9
370
    18
100
AcDbLine
 10
81.55517878478
 20
127.564316111165
 30
0.0
 11
80.05517878478
 21
126.698295908528
 31
0.0
  0
LINE
  5
1C4
330
1BF
100
AcDbEntity
  8
70
  6
AUSGEZOGEN
 62
    56
370
    18
100
AcDbLine
 10
81.55517878478
 20
126.698295908528
 30
0.0
 11
81.55517878478
 21
127.564316111165
 31
0.0
  0
LINE
  5
1C5
330
1BF
100
AcDbEntity
  8
70
  6
AUSGEZOGEN
 62
    56
370
    18
100
AcDbLine
 10
78.55517878478
 20
126.698295908528
 30
0.0
 11
78.55517878478
 21
127.564316111165
 31
0.0
  0
LINE
  5
1C6
330
1BF
100
AcDbEntity
  8
99
  6
AUSGEZOGEN
 62
     9
370
    18
100
AcDbLine
 10
80.05517878478
 20
126.698295908528
 30
0.0
 11
78.55517878478
 21
127.564316111165
 31
0.0
  0
LINE
  5
1C7
330
1BF
100
AcDbEntity
  8
99
  6
AUSGEZOGEN
 62
     9
370
    18
100
AcDbLine
 10
78.55517878478
 20
127.564316111165
 30
0.0
 11
77.05517878478
 21
126.698295908528
 31
0.0
  0
LINE
  5
1C8
330
1BF
100
AcDbEntity
  8
99
  6
AUSGEZOGEN
 62
     9
370
    18
100
AcDbLine
 10
74.05517878478
 20
126.698295908528
 30
0.0
 11
72.55517878478
 21
127.564316111165
 31
0.0
  0
LINE
  5
1C9
330
1BF
100
AcDbEntity
  8
99
  6
AUSGEZOGEN
 62
     9
370
    18
100
AcDbLine
 10
72.55517878478
 20
127.564316111165
 30
0.0
 11
71.05517878478
 21
126.698295908528
 31
0.0
  0
LINE
  5
1CA
330
1BF
100
AcDbEntity
  8
70
  6
AUSGEZOGEN
 62
    56
370
    18
100
AcDbLine
 10
72.55517878478
 20
126.698295908528
 30
0.0
 11
72.55517878478
 21
127.564316111165
 31
0.0
  0
LINE
  5
1CB
330
1BF
100
AcDbEntity
  8
70
  6
AUSGEZOGEN
 62
    56
370
    18
100
AcDbLine
 10
75.55517878478
 20
126.698295908528
 30
0.0
 11
75.55517878478
 21
127.564316111165
 31
0.0
  0
LINE
  5
1CC
330
1BF
100
AcDbEntity
  8
99
  6
AUSGEZOGEN
 62
     9
370
    18
100
AcDbLine
 10
77.05517878478
 20
126.698295908528
 30
0.0
 11
75.55517878478
 21
127.564316111165
 31
0.0
  0
LINE
  5
1CD
330
1BF
100
AcDbEntity
  8
99
  6
AUSGEZOGEN
 62
     9
370
    18
100
AcDbLine
 10
75.55517878478
 20
127.564316111165
 30
0.0
 11
74.05517878478
 21
126.698295908528
 31
0.0
  0
LINE
  5
1CE
330
1BF
100
AcDbEntity
  8
99
  6
AUSGEZOGEN
 62
     9
370
    18
100
AcDbLine
 10
72.55517878478
 20
127.564316111165
 30
0.0
 11
74.05517878478
 21
126.698295908528
 31
0.0
  0
LINE
  5
1CF
330
1BF
100
AcDbEntity
  8
99
  6
AUSGEZOGEN
 62
     9
370
    18
100
AcDbLine
 10
74.05517878478
 20
126.698295908528
 30
0.0
 11
75.55517878478
 21
127.564316111165
 31
0.0
  0
LINE
  5
1D0
330
1BF
100
AcDbEntity
  8
99
  6
AUSGEZOGEN
 62
     9
370
    18
100
AcDbLine
 10
75.55517878478
 20
127.564316111165
 30
0.0
 11
75.55517878478
 21
129.29636796053
 31
0.0
  0
LINE
  5
1D1
330
1BF
100
AcDbEntity
  8
99
  6
AUSGEZOGEN
 62
     9
370
    18
100
AcDbLine
 10
75.55517878478
 20
129.29636796053
 30
0.0
 11
74.05517878478
 21
130.162393885213
 31
0.0
  0
LINE
  5
1D2
330
1BF
100
AcDbEntity
  8
99
  6
AUSGEZOGEN
 62
     9
370
    18
100
AcDbLine
 10
74.05517878478
 20
130.162393885213
 30
0.0
 11
72.55517878478
 21
129.29636796053
 31
0.0
  0
LINE
  5
1D3
330
1BF
100
AcDbEntity
  8
99
  6
AUSGEZOGEN
 62
     9
370
    18
100
AcDbLine
 10
72.55517878478
 20
129.29636796053
 30
0.0
 11
72.55517878478
 21
127.564316111165
 31
0.0
  0
LINE
  5
1D4
330
1BF
100
AcDbEntity
  8
70
  6
AUSGEZOGEN
 62
    56
370
    18
100
AcDbLine
 10
72.55517878478
 20
127.564316111165
 30
0.0
 11
74.05517878478
 21
128.430342035847
 31
0.0
  0
LINE
  5
1D5
330
1BF
100
AcDbEntity
  8
70
  6
AUSGEZOGEN
 62
    56
370
    18
100
AcDbLine
 10
74.05517878478
 20
128.430342035847
 30
0.0
 11
74.05517878478
 21
130.162393885213
 31
0.0
  0
LINE
  5
1D6
330
1BF
100
AcDbEntity
  8
70
  6
AUSGEZOGEN
 62
    56
370
    18
100
AcDbLine
 10
74.05517878478
 20
128.430342035847
 30
0.0
 11
75.55517878478
 21
127.564316111165
 31
0.0
  0
LINE
  5
1D7
330
1BF
100
AcDbEntity
  8
70
  6
AUSGEZOGEN
 62
    56
370
    18
100
AcDbLine
 10
71.05517878478
 20
128.430342035847
 30
0.0
 11
72.55517878478
 21
127.564316111165
 31
0.0
  0
LINE
  5
1D8
330
1BF
100
AcDbEntity
  8
99
  6
AUSGEZOGEN
 62
     9
370
    18
100
AcDbLine
 10
71.05517878478
 20
126.698295908528
 30
0.0
 11
72.55517878478
 21
127.564316111165
 31
0.0
  0
LINE
  5
1D9
330
1BF
100
AcDbEntity
  8
99
  6
AUSGEZOGEN
 62
     9
370
    18
100
AcDbLine
 10
72.55517878478
 20
127.564316111165
 30
0.0
 11
72.55517878478
 21
129.29636796053
 31
0.0
  0
LINE
  5
1DA
330
1BF
100
AcDbEntity
  8
99
  6
AUSGEZOGEN
 62
     9
370
    18
100
AcDbLine
 10
72.55517878478
 20
129.29636796053
 30
0.0
 11
71.05517878478
 21
130.162393885213
 31
0.0
  0
LINE
  5
1DB
330
1BF
100
AcDbEntity
  8
99
  6
AUSGEZOGEN
 62
     9
370
    18
100
AcDbLine
 10
75.55517878478
 20
127.564316111165
 30
0.0
 11
77.05517878478
 21
126.698295908528
 31
0.0
  0
LINE
  5
1DC
330
1BF
100
AcDbEntity
  8
99
  6
AUSGEZOGEN
 62
     9
370
    18
100
AcDbLine
 10
77.05517878478
 20
126.698295908528
 30
0.0
 11
78.55517878478
 21
127.564316111165
 31
0.0
  0
LINE
  5
1DD
330
1BF
100
AcDbEntity
  8
99
  6
AUSGEZOGEN
 62
     9
370
    18
100
AcDbLine
 10
78.55517878478
 20
127.564316111165
 30
0.0
 11
78.55517878478
 21
129.29636796053
 31
0.0
  0
LINE
  5
1DE
330
1BF
100
AcDbEntity
  8
99
  6
AUSGEZOGEN
 62
     9
370
    18
100
AcDbLine
 10
78.55517878478
 20
129.29636796053
 30
0.0
 11
77.05517878478
 21
130.162393885213
 31
0.0
  0
LINE
  5
1DF
330
1BF
100
AcDbEntity
  8
99
  6
AUSGEZOGEN
 62
     9
370
    18
100
AcDbLine
 10
77.05517878478
 20
130.162393885213
 30
0.0
 11
75.55517878478
 21
129.29636796053
 31
0.0
  0
LINE
  5
1E0
330
1BF
100
AcDbEntity
  8
99
  6
AUSGEZOGEN
 62
     9
370
    18
100
AcDbLine
 10
75.55517878478
 20
129.29636796053
 30
0.0
 11
75.55517878478
 21
127.564316111165
 31
0.0
  0
LINE
  5
1E1
330
1BF
100
AcDbEntity
  8
70
  6
AUSGEZOGEN
 62
    56
370
    18
100
AcDbLine
 10
75.55517878478
 20
127.564316111165
 30
0.0
 11
77.05517878478
 21
128.430342035847
 31
0.0
  0
LINE
  5
1E2
330
1BF
100
AcDbEntity
  8
70
  6
AUSGEZOGEN
 62
    56
370
    18
100
AcDbLine
 10
77.05517878478
 20
128.430342035847
 30
0.0
 11
77.05517878478
 21
130.162393885213
 31
0.0
  0
LINE
  5
1E3
330
1BF
100
AcDbEntity
  8
70
  6
AUSGEZOGEN
 62
    56
370
    18
100
AcDbLine
 10
77.05517878478
 20
128.430342035847
 30
0.0
 11
78.55517878478
 21
127.564316111165
 31
0.0
  0
LINE
  5
1E4
330
1BF
100
AcDbEntity
  8
70
  6
AUSGEZOGEN
 62
    56
370
    18
100
AcDbLine
 10
80.05517878478
 20
128.430342035847
 30
0.0
 11
81.55517878478
 21
127.564316111165
 31
0.0
  0
LINE
  5
1E5
330
1BF
100
AcDbEntity
  8
70
  6
AUSGEZOGEN
 62
    56
370
    18
100
AcDbLine
 10
80.05517878478
 20
128.430342035847
 30
0.0
 11
80.05517878478
 21
130.162393885213
 31
0.0
  0
LINE
  5
1E6
330
1BF
100
AcDbEntity
  8
70
  6
AUSGEZOGEN
 62
    56
370
    18
100
AcDbLine
 10
78.55517878478
 20
127.564316111165
 30
0.0
 11
80.05517878478
 21
128.430342035847
 31
0.0
  0
LINE
  5
1E7
330
1BF
100
AcDbEntity
  8
99
  6
AUSGEZOGEN
 62
     9
370
    18
100
AcDbLine
 10
78.55517878478
 20
127.564316111165
 30
0.0
 11
80.05517878478
 21
126.698295908528
 31
0.0
  0
LINE
  5
1E8
330
1BF
100
AcDbEntity
  8
99
  6
AUSGEZOGEN
 62
     9
370
    18
100
AcDbLine
 10
80.05517878478
 20
126.698295908528
 30
0.0
 11
81.55517878478
 21
127.564316111165
 31
0.0
  0
LINE
  5
1E9
330
1BF
100
AcDbEntity
  8
99
  6
AUSGEZOGEN
 62
     9
370
    18
100
AcDbLine
 10
81.55517878478
 20
127.564316111165
 30
0.0
 11
81.55517878478
 21
129.29636796053
 31
0.0
  0
LINE
  5
1EA
330
1BF
100
AcDbEntity
  8
99
  6
AUSGEZOGEN
 62
     9
370
    18
100
AcDbLine
 10
81.55517878478
 20
129.29636796053
 30
0.0
 11
80.05517878478
 21
130.162393885213
 31
0.0
  0
LINE
  5
1EB
330
1BF
100
AcDbEntity
  8
99
  6
AUSGEZOGEN
 62
     9
370
    18
100
AcDbLine
 10
80.05517878478
 20
130.162393885213
 30
0.0
 11
78.55517878478
 21
129.29636796053
 31
0.0
  0
LINE
  5
1EC
330
1BF
100
AcDbEntity
  8
99
  6
AUSGEZOGEN
 62
     9
370
    18
100
AcDbLine
 10
78.55517878478
 20
129.29636796053
 30
0.0
 11
78.55517878478
 21
127.564316111165
 31
0.0
  0
LINE
  5
1ED
330
1BF
100
AcDbEntity
  8
70
  6
AUSGEZOGEN
 62
    56
370
    18
100
AcDbLine
 10
81.55517878478
 20
127.564316111165
 30
0.0
 11
83.05517878478
 21
128.430342035847
 31
0.0
  0
LINE
  5
1EE
330
1BF
100
AcDbEntity
  8
99
  6
AUSGEZOGEN
 62
     9
370
    18
100
AcDbLine
 10
81.55517878478
 20
127.564316111165
 30
0.0
 11
83.05517878478
 21
126.698295908528
 31
0.0
  0
LINE
  5
1EF
330
1BF
100
AcDbEntity
  8
99
  6
AUSGEZOGEN
 62
     9
370
    18
100
AcDbLine
 10
83.05517878478
 20
130.162393885213
 30
0.0
 11
81.55517878478
 21
129.29636796053
 31
0.0
  0
LINE
  5
1F0
330
1BF
100
AcDbEntity
  8
99
  6
AUSGEZOGEN
 62
     9
370
    18
100
AcDbLine
 10
81.55517878478
 20
129.29636796053
 30
0.0
 11
81.55517878478
 21
127.564316111165
 31
0.0
  0
LINE
  5
1F1
330
1BF
100
AcDbEntity
  8
99
  6
AUSGEZOGEN
 62
     9
370
    18
100
AcDbLine
 10
81.55517878478
 20
132.76047165926
 30
0.0
 11
83.05517878478
 21
131.894445734578
 31
0.0
  0
LINE
  5
1F2
330
1BF
100
AcDbEntity
  8
99
  6
AUSGEZOGEN
 62
     9
370
    18
100
AcDbLine
 10
83.05517878478
 20
135.358549433308
 30
0.0
 11
81.55517878478
 21
134.492523508626
 31
0.0
  0
LINE
  5
1F3
330
1BF
100
AcDbEntity
  8
99
  6
AUSGEZOGEN
 62
     9
370
    18
100
AcDbLine
 10
81.55517878478
 20
134.492523508626
 30
0.0
 11
81.55517878478
 21
132.76047165926
 31
0.0
  0
LINE
  5
1F4
330
1BF
100
AcDbEntity
  8
70
  6
AUSGEZOGEN
 62
    56
370
    18
100
AcDbLine
 10
81.55517878478
 20
132.76047165926
 30
0.0
 11
83.05517878478
 21
133.626497583943
 31
0.0
  0
LINE
  5
1F5
330
1BF
100
AcDbEntity
  8
99
  6
AUSGEZOGEN
 62
     9
370
    18
100
AcDbLine
 10
78.55517878478
 20
132.76047165926
 30
0.0
 11
80.05517878478
 21
131.894445734578
 31
0.0
  0
LINE
  5
1F6
330
1BF
100
AcDbEntity
  8
99
  6
AUSGEZOGEN
 62
     9
370
    18
100
AcDbLine
 10
80.05517878478
 20
131.894445734578
 30
0.0
 11
81.55517878478
 21
132.76047165926
 31
0.0
  0
LINE
  5
1F7
330
1BF
100
AcDbEntity
  8
99
  6
AUSGEZOGEN
 62
     9
370
    18
100
AcDbLine
 10
81.55517878478
 20
132.76047165926
 30
0.0
 11
81.55517878478
 21
134.492523508626
 31
0.0
  0
LINE
  5
1F8
330
1BF
100
AcDbEntity
  8
99
  6
AUSGEZOGEN
 62
     9
370
    18
100
AcDbLine
 10
81.55517878478
 20
134.492523508626
 30
0.0
 11
80.05517878478
 21
135.358549433308
 31
0.0
  0
LINE
  5
1F9
330
1BF
100
AcDbEntity
  8
99
  6
AUSGEZOGEN
 62
     9
370
    18
100
AcDbLine
 10
80.05517878478
 20
135.358549433308
 30
0.0
 11
78.55517878478
 21
134.492523508626
 31
0.0
  0
LINE
  5
1FA
330
1BF
100
AcDbEntity
  8
99
  6
AUSGEZOGEN
 62
     9
370
    18
100
AcDbLine
 10
78.55517878478
 20
134.492523508626
 30
0.0
 11
78.55517878478
 21
132.76047165926
 31
0.0
  0
LINE
  5
1FB
330
1BF
100
AcDbEntity
  8
70
  6
AUSGEZOGEN
 62
    56
370
    18
100
AcDbLine
 10
78.55517878478
 20
132.76047165926
 30
0.0
 11
80.05517878478
 21
133.626497583943
 31
0.0
  0
LINE
  5
1FC
330
1BF
100
AcDbEntity
  8
70
  6
AUSGEZOGEN
 62
    56
370
    18
100
AcDbLine
 10
80.05517878478
 20
133.626497583943
 30
0.0
 11
80.05517878478
 21
135.358549433308
 31
0.0
  0
LINE
  5
1FD
330
1BF
100
AcDbEntity
  8
70
  6
AUSGEZOGEN
 62
    56
370
    18
100
AcDbLine
 10
80.05517878478
 20
133.626497583943
 30
0.0
 11
81.55517878478
 21
132.76047165926
 31
0.0
  0
LINE
  5
1FE
330
1BF
100
AcDbEntity
  8
70
  6
AUSGEZOGEN
 62
    56
370
    18
100
AcDbLine
 10
77.05517878478
 20
133.626497583943
 30
0.0
 11
78.55517878478
 21
132.76047165926
 31
0.0
  0
LINE
  5
1FF
330
1BF
100
AcDbEntity
  8
70
  6
AUSGEZOGEN
 62
    56
370
    18
100
AcDbLine
 10
77.05517878478
 20
133.626497583943
 30
0.0
 11
77.05517878478
 21
135.358549433308
 31
0.0
  0
LINE
  5
200
330
1BF
100
AcDbEntity
  8
70
  6
AUSGEZOGEN
 62
    56
370
    18
100
AcDbLine
 10
75.55517878478
 20
132.76047165926
 30
0.0
 11
77.05517878478
 21
133.626497583943
 31
0.0
  0
LINE
  5
201
330
1BF
100
AcDbEntity
  8
99
  6
AUSGEZOGEN
 62
     9
370
    18
100
AcDbLine
 10
75.55517878478
 20
132.76047165926
 30
0.0
 11
77.05517878478
 21
131.894445734578
 31
0.0
  0
LINE
  5
202
330
1BF
100
AcDbEntity
  8
99
  6
AUSGEZOGEN
 62
     9
370
    18
100
AcDbLine
 10
77.05517878478
 20
131.894445734578
 30
0.0
 11
78.55517878478
 21
132.76047165926
 31
0.0
  0
LINE
  5
203
330
1BF
100
AcDbEntity
  8
99
  6
AUSGEZOGEN
 62
     9
370
    18
100
AcDbLine
 10
78.55517878478
 20
132.76047165926
 30
0.0
 11
78.55517878478
 21
134.492523508626
 31
0.0
  0
LINE
  5
204
330
1BF
100
AcDbEntity
  8
99
  6
AUSGEZOGEN
 62
     9
370
    18
100
AcDbLine
 10
78.55517878478
 20
134.492523508626
 30
0.0
 11
77.05517878478
 21
135.358549433308
 31
0.0
  0
LINE
  5
205
330
1BF
100
AcDbEntity
  8
99
  6
AUSGEZOGEN
 62
     9
370
    18
100
AcDbLine
 10
77.05517878478
 20
135.358549433308
 30
0.0
 11
75.55517878478
 21
134.492523508626
 31
0.0
  0
LINE
  5
206
330
1BF
100
AcDbEntity
  8
99
  6
AUSGEZOGEN
 62
     9
370
    18
100
AcDbLine
 10
75.55517878478
 20
134.492523508626
 30
0.0
 11
75.55517878478
 21
132.76047165926
 31
0.0
  0
LINE
  5
207
330
1BF
100
AcDbEntity
  8
99
  6
AUSGEZOGEN
 62
     9
370
    18
100
AcDbLine
 10
71.05517878478
 20
131.894445734578
 30
0.0
 11
72.55517878478
 21
132.76047165926
 31
0.0
  0
LINE
  5
208
330
1BF
100
AcDbEntity
  8
99
  6
AUSGEZOGEN
 62
     9
370
    18
100
AcDbLine
 10
72.55517878478
 20
132.76047165926
 30
0.0
 11
72.55517878478
 21
134.492523508626
 31
0.0
  0
LINE
  5
209
330
1BF
100
AcDbEntity
  8
99
  6
AUSGEZOGEN
 62
     9
370
    18
100
AcDbLine
 10
72.55517878478
 20
134.492523508626
 30
0.0
 11
71.05517878478
 21
135.358549433308
 31
0.0
  0
LINE
  5
20A
330
1BF
100
AcDbEntity
  8
70
  6
AUSGEZOGEN
 62
    56
370
    18
100
AcDbLine
 10
71.05517878478
 20
133.626497583943
 30
0.0
 11
72.55517878478
 21
132.76047165926
 31
0.0
  0
LINE
  5
20B
330
1BF
100
AcDbEntity
  8
70
  6
AUSGEZOGEN
 62
    56
370
    18
100
AcDbLine
 10
74.05517878478
 20
133.626497583943
 30
0.0
 11
75.55517878478
 21
132.76047165926
 31
0.0
  0
LINE
  5
20C
330
1BF
100
AcDbEntity
  8
70
  6
AUSGEZOGEN
 62
    56
370
    18
100
AcDbLine
 10
74.05517878478
 20
133.626497583943
 30
0.0
 11
74.05517878478
 21
135.358549433308
 31
0.0
  0
LINE
  5
20D
330
1BF
100
AcDbEntity
  8
70
  6
AUSGEZOGEN
 62
    56
370
    18
100
AcDbLine
 10
72.55517878478
 20
132.76047165926
 30
0.0
 11
74.05517878478
 21
133.626497583943
 31
0.0
  0
LINE
  5
20E
330
1BF
100
AcDbEntity
  8
99
  6
AUSGEZOGEN
 62
     9
370
    18
100
AcDbLine
 10
72.55517878478
 20
132.76047165926
 30
0.0
 11
74.05517878478
 21
131.894445734578
 31
0.0
  0
LINE
  5
20F
330
1BF
100
AcDbEntity
  8
99
  6
AUSGEZOGEN
 62
     9
370
    18
100
AcDbLine
 10
74.05517878478
 20
131.894445734578
 30
0.0
 11
75.55517878478
 21
132.76047165926
 31
0.0
  0
LINE
  5
210
330
1BF
100
AcDbEntity
  8
99
  6
AUSGEZOGEN
 62
     9
370
    18
100
AcDbLine
 10
75.55517878478
 20
132.76047165926
 30
0.0
 11
75.55517878478
 21
134.492523508626
 31
0.0
  0
LINE
  5
211
330
1BF
100
AcDbEntity
  8
99
  6
AUSGEZOGEN
 62
     9
370
    18
100
AcDbLine
 10
75.55517878478
 20
134.492523508626
 30
0.0
 11
74.05517878478
 21
135.358549433308
 31
0.0
  0
LINE
  5
212
330
1BF
100
AcDbEntity
  8
99
  6
AUSGEZOGEN
 62
     9
370
    18
100
AcDbLine
 10
74.05517878478
 20
135.358549433308
 30
0.0
 11
72.55517878478
 21
134.492523508626
 31
0.0
  0
LINE
  5
213
330
1BF
100
AcDbEntity
  8
99
  6
AUSGEZOGEN
 62
     9
370
    18
100
AcDbLine
 10
72.55517878478
 20
134.492523508626
 30
0.0
 11
72.55517878478
 21
132.76047165926
 31
0.0
  0
LINE
  5
214
330
1BF
100
AcDbEntity
  8
99
  6
AUSGEZOGEN
 62
     9
370
    18
100
AcDbLine
 10
74.05517878478
 20
130.162393885213
 30
0.0
 11
75.55517878478
 21
129.29636796053
 31
0.0
  0
LINE
  5
215
330
1BF
100
AcDbEntity
  8
99
  6
AUSGEZOGEN
 62
     9
370
    18
100
AcDbLine
 10
75.55517878478
 20
129.29636796053
 30
0.0
 11
77.05517878478
 21
130.162393885213
 31
0.0
  0
LINE
  5
216
330
1BF
100
AcDbEntity
  8
99
  6
AUSGEZOGEN
 62
     9
370
    18
100
AcDbLine
 10
77.05517878478
 20
130.162393885213
 30
0.0
 11
77.05517878478
 21
131.894445734578
 31
0.0
  0
LINE
  5
217
330
1BF
100
AcDbEntity
  8
99
  6
AUSGEZOGEN
 62
     9
370
    18
100
AcDbLine
 10
77.05517878478
 20
131.894445734578
 30
0.0
 11
75.55517878478
 21
132.76047165926
 31
0.0
  0
LINE
  5
218
330
1BF
100
AcDbEntity
  8
99
  6
AUSGEZOGEN
 62
     9
370
    18
100
AcDbLine
 10
75.55517878478
 20
132.76047165926
 30
0.0
 11
74.05517878478
 21
131.894445734578
 31
0.0
  0
LINE
  5
219
330
1BF
100
AcDbEntity
  8
99
  6
AUSGEZOGEN
 62
     9
370
    18
100
AcDbLine
 10
74.05517878478
 20
131.894445734578
 30
0.0
 11
74.05517878478
 21
130.162393885213
 31
0.0
  0
LINE
  5
21A
330
1BF
100
AcDbEntity
  8
70
  6
AUSGEZOGEN
 62
    56
370
    18
100
AcDbLine
 10
74.05517878478
 20
130.162393885213
 30
0.0
 11
75.55517878478
 21
131.028419809895
 31
0.0
  0
LINE
  5
21B
330
1BF
100
AcDbEntity
  8
70
  6
AUSGEZOGEN
 62
    56
370
    18
100
AcDbLine
 10
75.55517878478
 20
131.028419809895
 30
0.0
 11
75.55517878478
 21
132.76047165926
 31
0.0
  0
LINE
  5
21C
330
1BF
100
AcDbEntity
  8
70
  6
AUSGEZOGEN
 62
    56
370
    18
100
AcDbLine
 10
75.55517878478
 20
131.028419809895
 30
0.0
 11
77.05517878478
 21
130.162393885213
 31
0.0
  0
LINE
  5
21D
330
1BF
100
AcDbEntity
  8
70
  6
AUSGEZOGEN
 62
    56
370
    18
100
AcDbLine
 10
72.55517878478
 20
131.028419809895
 30
0.0
 11
74.05517878478
 21
130.162393885213
 31
0.0
  0
LINE
  5
21E
330
1BF
100
AcDbEntity
  8
70
  6
AUSGEZOGEN
 62
    56
370
    18
100
AcDbLine
 10
72.55517878478
 20
131.028419809895
 30
0.0
 11
72.55517878478
 21
132.76047165926
 31
0.0
  0
LINE
  5
21F
330
1BF
100
AcDbEntity
  8
70
  6
AUSGEZOGEN
 62
    56
370
    18
100
AcDbLine
 10
71.05517878478
 20
130.162393885213
 30
0.0
 11
72.55517878478
 21
131.028419809895
 31
0.0
  0
LINE
  5
220
330
1BF
100
AcDbEntity
  8
99
  6
AUSGEZOGEN
 62
     9
370
    18
100
AcDbLine
 10
71.05517878478
 20
130.162393885213
 30
0.0
 11
72.55517878478
 21
129.29636796053
 31
0.0
  0
LINE
  5
221
330
1BF
100
AcDbEntity
  8
99
  6
AUSGEZOGEN
 62
     9
370
    18
100
AcDbLine
 10
72.55517878478
 20
129.29636796053
 30
0.0
 11
74.05517878478
 21
130.162393885213
 31
0.0
  0
LINE
  5
222
330
1BF
100
AcDbEntity
  8
99
  6
AUSGEZOGEN
 62
     9
370
    18
100
AcDbLine
 10
74.05517878478
 20
130.162393885213
 30
0.0
 11
74.05517878478
 21
131.894445734578
 31
0.0
  0
LINE
  5
223
330
1BF
100
AcDbEntity
  8
99
  6
AUSGEZOGEN
 62
     9
370
    18
100
AcDbLine
 10
74.05517878478
 20
131.894445734578
 30
0.0
 11
72.55517878478
 21
132.76047165926
 31
0.0
  0
LINE
  5
224
330
1BF
100
AcDbEntity
  8
99
  6
AUSGEZOGEN
 62
     9
370
    18
100
AcDbLine
 10
72.55517878478
 20
132.76047165926
 30
0.0
 11
71.05517878478
 21
131.894445734578
 31
0.0
  0
LINE
  5
225
330
1BF
100
AcDbEntity
  8
99
  6
AUSGEZOGEN
 62
     9
370
    18
100
AcDbLine
 10
77.05517878478
 20
130.162393885213
 30
0.0
 11
78.55517878478
 21
129.29636796053
 31
0.0
  0
LINE
  5
226
330
1BF
100
AcDbEntity
  8
99
  6
AUSGEZOGEN
 62
     9
370
    18
100
AcDbLine
 10
78.55517878478
 20
129.29636796053
 30
0.0
 11
80.05517878478
 21
130.162393885213
 31
0.0
  0
LINE
  5
227
330
1BF
100
AcDbEntity
  8
99
  6
AUSGEZOGEN
 62
     9
370
    18
100
AcDbLine
 10
80.05517878478
 20
130.162393885213
 30
0.0
 11
80.05517878478
 21
131.894445734578
 31
0.0
  0
LINE
  5
228
330
1BF
100
AcDbEntity
  8
99
  6
AUSGEZOGEN
 62
     9
370
    18
100
AcDbLine
 10
80.05517878478
 20
131.894445734578
 30
0.0
 11
78.55517878478
 21
132.76047165926
 31
0.0
  0
LINE
  5
229
330
1BF
100
AcDbEntity
  8
99
  6
AUSGEZOGEN
 62
     9
370
    18
100
AcDbLine
 10
78.55517878478
 20
132.76047165926
 30
0.0
 11
77.05517878478
 21
131.894445734578
 31
0.0
  0
LINE
  5
22A
330
1BF
100
AcDbEntity
  8
99
  6
AUSGEZOGEN
 62
     9
370
    18
100
AcDbLine
 10
77.05517878478
 20
131.894445734578
 30
0.0
 11
77.05517878478
 21
130.162393885213
 31
0.0
  0
LINE
  5
22B
330
1BF
100
AcDbEntity
  8
70
  6
AUSGEZOGEN
 62
    56
370
    18
100
AcDbLine
 10
77.05517878478
 20
130.162393885213
 30
0.0
 11
78.55517878478
 21
131.028419809895
 31
0.0
  0
LINE
  5
22C
330
1BF
100
AcDbEntity
  8
70
  6
AUSGEZOGEN
 62
    56
370
    18
100
AcDbLine
 10
78.55517878478
 20
131.028419809895
 30
0.0
 11
78.55517878478
 21
132.76047165926
 31
0.0
  0
LINE
  5
22D
330
1BF
100
AcDbEntity
  8
70
  6
AUSGEZOGEN
 62
    56
370
    18
100
AcDbLine
 10
78.55517878478
 20
131.028419809895
 30
0.0
 11
80.05517878478
 21
130.162393885213
 31
0.0
  0
LINE
  5
22E
330
1BF
100
AcDbEntity
  8
70
  6
AUSGEZOGEN
 62
    56
370
    18
100
AcDbLine
 10
81.55517878478
 20
131.028419809895
 30
0.0
 11
83.05517878478
 21
130.162393885213
 31
0.0
  0
LINE
  5
22F
330
1BF
100
AcDbEntity
  8
70
  6
AUSGEZOGEN
 62
    56
370
    18
100
AcDbLine
 10
81.55517878478
 20
131.028419809895
 30
0.0
 11
81.55517878478
 21
132.76047165926
 31
0.0
  0
LINE
  5
230
330
1BF
100
AcDbEntity
  8
70
  6
AUSGEZOGEN
 62
    56
370
    18
100
AcDbLine
 10
80.05517878478
 20
130.162393885213
 30
0.0
 11
81.55517878478
 21
131.028419809895
 31
0.0
  0
LINE
  5
231
330
1BF
100
AcDbEntity
  8
99
  6
AUSGEZOGEN
 62
     9
370
    18
100
AcDbLine
 10
80.05517878478
 20
130.162393885213
 30
0.0
 11
81.55517878478
 21
129.29636796053
 31
0.0
  0
LINE
  5
232
330
1BF
100
AcDbEntity
  8
99
  6
AUSGEZOGEN
 62
     9
370
    18
100
AcDbLine
 10
81.55517878478
 20
129.29636796053
 30
0.0
 11
83.05517878478
 21
130.162393885213
 31
0.0
  0
LINE
  5
233
330
1BF
100
AcDbEntity
  8
99
  6
AUSGEZOGEN
 62
     9
370
    18
100
AcDbLine
 10
83.05517878478
 20
131.894445734578
 30
0.0
 11
81.55517878478
 21
132.76047165926
 31
0.0
  0
LINE
  5
234
330
1BF
100
AcDbEntity
  8
99
  6
AUSGEZOGEN
 62
     9
370
    18
100
AcDbLine
 10
81.55517878478
 20
132.76047165926
 30
0.0
 11
80.05517878478
 21
131.894445734578
 31
0.0
  0
LINE
  5
235
330
1BF
100
AcDbEntity
  8
99
  6
AUSGEZOGEN
 62
     9
370
    18
100
AcDbLine
 10
80.05517878478
 20
131.894445734578
 30
0.0
 11
80.05517878478
 21
130.162393885213
 31
0.0
  0
LINE
  5
236
330
1BF
100
AcDbEntity
  8
99
  6
AUSGEZOGEN
 62
     9
370
    18
100
AcDbLine
 10
81.55517878478
 20
137.95662148531
 30
0.0
 11
83.05517878478
 21
137.090595560628
 31
0.0
  0
LINE
  5
237
330
1BF
100
AcDbEntity
  8
99
  6
AUSGEZOGEN
 62
     9
370
    18
100
AcDbLine
 10
83.05517878478
 20
140.554699259358
 30
0.0
 11
81.55517878478
 21
139.688673334675
 31
0.0
  0
LINE
  5
238
330
1BF
100
AcDbEntity
  8
99
  6
AUSGEZOGEN
 62
     9
370
    18
100
AcDbLine
 10
81.55517878478
 20
139.688673334675
 30
0.0
 11
81.55517878478
 21
137.95662148531
 31
0.0
  0
LINE
  5
239
330
1BF
100
AcDbEntity
  8
70
  6
AUSGEZOGEN
 62
    56
370
    18
100
AcDbLine
 10
81.55517878478
 20
137.95662148531
 30
0.0
 11
83.05517878478
 21
138.822647409993
 31
0.0
  0
LINE
  5
23A
330
1BF
100
AcDbEntity
  8
99
  6
AUSGEZOGEN
 62
     9
370
    18
100
AcDbLine
 10
78.55517878478
 20
137.95662148531
 30
0.0
 11
80.05517878478
 21
137.090595560628
 31
0.0
  0
LINE
  5
23B
330
1BF
100
AcDbEntity
  8
99
  6
AUSGEZOGEN
 62
     9
370
    18
100
AcDbLine
 10
80.05517878478
 20
137.090595560628
 30
0.0
 11
81.55517878478
 21
137.95662148531
 31
0.0
  0
LINE
  5
23C
330
1BF
100
AcDbEntity
  8
99
  6
AUSGEZOGEN
 62
     9
370
    18
100
AcDbLine
 10
81.55517878478
 20
137.95662148531
 30
0.0
 11
81.55517878478
 21
139.688673334675
 31
0.0
  0
LINE
  5
23D
330
1BF
100
AcDbEntity
  8
99
  6
AUSGEZOGEN
 62
     9
370
    18
100
AcDbLine
 10
81.55517878478
 20
139.688673334675
 30
0.0
 11
80.05517878478
 21
140.554699259358
 31
0.0
  0
LINE
  5
23E
330
1BF
100
AcDbEntity
  8
99
  6
AUSGEZOGEN
 62
     9
370
    18
100
AcDbLine
 10
80.05517878478
 20
140.554699259358
 30
0.0
 11
78.55517878478
 21
139.688673334675
 31
0.0
  0
LINE
  5
23F
330
1BF
100
AcDbEntity
  8
99
  6
AUSGEZOGEN
 62
     9
370
    18
100
AcDbLine
 10
78.55517878478
 20
139.688673334675
 30
0.0
 11
78.55517878478
 21
137.95662148531
 31
0.0
  0
LINE
  5
240
330
1BF
100
AcDbEntity
  8
70
  6
AUSGEZOGEN
 62
    56
370
    18
100
AcDbLine
 10
78.55517878478
 20
137.95662148531
 30
0.0
 11
80.05517878478
 21
138.822647409993
 31
0.0
  0
LINE
  5
241
330
1BF
100
AcDbEntity
  8
70
  6
AUSGEZOGEN
 62
    56
370
    18
100
AcDbLine
 10
80.05517878478
 20
138.822647409993
 30
0.0
 11
80.05517878478
 21
140.554699259358
 31
0.0
  0
LINE
  5
242
330
1BF
100
AcDbEntity
  8
70
  6
AUSGEZOGEN
 62
    56
370
    18
100
AcDbLine
 10
80.05517878478
 20
138.822647409993
 30
0.0
 11
81.55517878478
 21
137.95662148531
 31
0.0
  0
LINE
  5
243
330
1BF
100
AcDbEntity
  8
70
  6
AUSGEZOGEN
 62
    56
370
    18
100
AcDbLine
 10
77.05517878478
 20
138.822647409993
 30
0.0
 11
78.55517878478
 21
137.95662148531
 31
0.0
  0
LINE
  5
244
330
1BF
100
AcDbEntity
  8
70
  6
AUSGEZOGEN
 62
    56
370
    18
100
AcDbLine
 10
77.05517878478
 20
138.822647409993
 30
0.0
 11
77.05517878478
 21
140.554699259358
 31
0.0
  0
LINE
  5
245
330
1BF
100
AcDbEntity
  8
70
  6
AUSGEZOGEN
 62
    56
370
    18
100
AcDbLine
 10
75.55517878478
 20
137.95662148531
 30
0.0
 11
77.05517878478
 21
138.822647409993
 31
0.0
  0
LINE
  5
246
330
1BF
100
AcDbEntity
  8
99
  6
AUSGEZOGEN
 62
     9
370
    18
100
AcDbLine
 10
75.55517878478
 20
137.95662148531
 30
0.0
 11
77.05517878478
 21
137.090595560628
 31
0.0
  0
LINE
  5
247
330
1BF
100
AcDbEntity
  8
99
  6
AUSGEZOGEN
 62
     9
370
    18
100
AcDbLine
 10
77.05517878478
 20
137.090595560628
 30
0.0
 11
78.55517878478
 21
137.95662148531
 31
0.0
  0
LINE
  5
248
330
1BF
100
AcDbEntity
  8
99
  6
AUSGEZOGEN
 62
     9
370
    18
100
AcDbLine
 10
78.55517878478
 20
137.95662148531
 30
0.0
 11
78.55517878478
 21
139.688673334675
 31
0.0
  0
LINE
  5
249
330
1BF
100
AcDbEntity
  8
99
  6
AUSGEZOGEN
 62
     9
370
    18
100
AcDbLine
 10
78.55517878478
 20
139.688673334675
 30
0.0
 11
77.05517878478
 21
140.554699259358
 31
0.0
  0
LINE
  5
24A
330
1BF
100
AcDbEntity
  8
99
  6
AUSGEZOGEN
 62
     9
370
    18
100
AcDbLine
 10
77.05517878478
 20
140.554699259358
 30
0.0
 11
75.55517878478
 21
139.688673334675
 31
0.0
  0
LINE
  5
24B
330
1BF
100
AcDbEntity
  8
99
  6
AUSGEZOGEN
 62
     9
370
    18
100
AcDbLine
 10
75.55517878478
 20
139.688673334675
 30
0.0
 11
75.55517878478
 21
137.95662148531
 31
0.0
  0
LINE
  5
24C
330
1BF
100
AcDbEntity
  8
99
  6
AUSGEZOGEN
 62
     9
370
    18
100
AcDbLine
 10
71.05517878478
 20
137.090595560628
 30
0.0
 11
72.55517878478
 21
137.95662148531
 31
0.0
  0
LINE
  5
24D
330
1BF
100
AcDbEntity
  8
99
  6
AUSGEZOGEN
 62
     9
370
    18
100
AcDbLine
 10
72.55517878478
 20
137.95662148531
 30
0.0
 11
72.55517878478
 21
139.688673334675
 31
0.0
  0
LINE
  5
24E
330
1BF
100
AcDbEntity
  8
99
  6
AUSGEZOGEN
 62
     9
370
    18
100
AcDbLine
 10
72.55517878478
 20
139.688673334675
 30
0.0
 11
71.05517878478
 21
140.554699259358
 31
0.0
  0
LINE
  5
24F
330
1BF
100
AcDbEntity
  8
70
  6
AUSGEZOGEN
 62
    56
370
    18
100
AcDbLine
 10
71.05517878478
 20
138.822647409993
 30
0.0
 11
72.55517878478
 21
137.95662148531
 31
0.0
  0
LINE
  5
250
330
1BF
100
AcDbEntity
  8
70
  6
AUSGEZOGEN
 62
    56
370
    18
100
AcDbLine
 10
74.05517878478
 20
138.822647409993
 30
0.0
 11
75.55517878478
 21
137.95662148531
 31
0.0
  0
LINE
  5
251
330
1BF
100
AcDbEntity
  8
70
  6
AUSGEZOGEN
 62
    56
370
    18
100
AcDbLine
 10
74.05517878478
 20
138.822647409993
 30
0.0
 11
74.05517878478
 21
140.554699259358
 31
0.0
  0
LINE
  5
252
330
1BF
100
AcDbEntity
  8
70
  6
AUSGEZOGEN
 62
    56
370
    18
100
AcDbLine
 10
72.55517878478
 20
137.95662148531
 30
0.0
 11
74.05517878478
 21
138.822647409993
 31
0.0
  0
LINE
  5
253
330
1BF
100
AcDbEntity
  8
99
  6
AUSGEZOGEN
 62
     9
370
    18
100
AcDbLine
 10
72.55517878478
 20
137.95662148531
 30
0.0
 11
74.05517878478
 21
137.090595560628
 31
0.0
  0
LINE
  5
254
330
1BF
100
AcDbEntity
  8
99
  6
AUSGEZOGEN
 62
     9
370
    18
100
AcDbLine
 10
74.05517878478
 20
137.090595560628
 30
0.0
 11
75.55517878478
 21
137.95662148531
 31
0.0
  0
LINE
  5
255
330
1BF
100
AcDbEntity
  8
99
  6
AUSGEZOGEN
 62
     9
370
    18
100
AcDbLine
 10
75.55517878478
 20
137.95662148531
 30
0.0
 11
75.55517878478
 21
139.688673334675
 31
0.0
  0
LINE
  5
256
330
1BF
100
AcDbEntity
  8
99
  6
AUSGEZOGEN
 62
     9
370
    18
100
AcDbLine
 10
75.55517878478
 20
139.688673334675
 30
0.0
 11
74.05517878478
 21
140.554699259358
 31
0.0
  0
LINE
  5
257
330
1BF
100
AcDbEntity
  8
99
  6
AUSGEZOGEN
 62
     9
370
    18
100
AcDbLine
 10
74.05517878478
 20
140.554699259358
 30
0.0
 11
72.55517878478
 21
139.688673334675
 31
0.0
  0
LINE
  5
258
330
1BF
100
AcDbEntity
  8
99
  6
AUSGEZOGEN
 62
     9
370
    18
100
AcDbLine
 10
72.55517878478
 20
139.688673334675
 30
0.0
 11
72.55517878478
 21
137.95662148531
 31
0.0
  0
LINE
  5
259
330
1BF
100
AcDbEntity
  8
99
  6
AUSGEZOGEN
 62
     9
370
    18
100
AcDbLine
 10
74.05517878478
 20
135.358549433308
 30
0.0
 11
75.55517878478
 21
134.492523508626
 31
0.0
  0
LINE
  5
25A
330
1BF
100
AcDbEntity
  8
99
  6
AUSGEZOGEN
 62
     9
370
    18
100
AcDbLine
 10
75.55517878478
 20
134.492523508626
 30
0.0
 11
77.05517878478
 21
135.358549433308
 31
0.0
  0
LINE
  5
25B
330
1BF
100
AcDbEntity
  8
99
  6
AUSGEZOGEN
 62
     9
370
    18
100
AcDbLine
 10
77.05517878478
 20
135.358549433308
 30
0.0
 11
77.05517878478
 21
137.090595560628
 31
0.0
  0
LINE
  5
25C
330
1BF
100
AcDbEntity
  8
99
  6
AUSGEZOGEN
 62
     9
370
    18
100
AcDbLine
 10
77.05517878478
 20
137.090595560628
 30
0.0
 11
75.55517878478
 21
137.95662148531
 31
0.0
  0
LINE
  5
25D
330
1BF
100
AcDbEntity
  8
99
  6
AUSGEZOGEN
 62
     9
370
    18
100
AcDbLine
 10
75.55517878478
 20
137.95662148531
 30
0.0
 11
74.05517878478
 21
137.090595560628
 31
0.0
  0
LINE
  5
25E
330
1BF
100
AcDbEntity
  8
99
  6
AUSGEZOGEN
 62
     9
370
    18
100
AcDbLine
 10
74.05517878478
 20
137.090595560628
 30
0.0
 11
74.05517878478
 21
135.358549433308
 31
0.0
  0
LINE
  5
25F
330
1BF
100
AcDbEntity
  8
70
  6
AUSGEZOGEN
 62
    56
370
    18
100
AcDbLine
 10
74.05517878478
 20
135.358549433308
 30
0.0
 11
75.55517878478
 21
136.224569635945
 31
0.0
  0
LINE
  5
260
330
1BF
100
AcDbEntity
  8
70
  6
AUSGEZOGEN
 62
    56
370
    18
100
AcDbLine
 10
75.55517878478
 20
136.224569635945
 30
0.0
 11
75.55517878478
 21
137.95662148531
 31
0.0
  0
LINE
  5
261
330
1BF
100
AcDbEntity
  8
70
  6
AUSGEZOGEN
 62
    56
370
    18
100
AcDbLine
 10
75.55517878478
 20
136.224569635945
 30
0.0
 11
77.05517878478
 21
135.358549433308
 31
0.0
  0
LINE
  5
262
330
1BF
100
AcDbEntity
  8
70
  6
AUSGEZOGEN
 62
    56
370
    18
100
AcDbLine
 10
72.55517878478
 20
136.224569635945
 30
0.0
 11
74.05517878478
 21
135.358549433308
 31
0.0
  0
LINE
  5
263
330
1BF
100
AcDbEntity
  8
70
  6
AUSGEZOGEN
 62
    56
370
    18
100
AcDbLine
 10
72.55517878478
 20
136.224569635945
 30
0.0
 11
72.55517878478
 21
137.95662148531
 31
0.0
  0
LINE
  5
264
330
1BF
100
AcDbEntity
  8
70
  6
AUSGEZOGEN
 62
    56
370
    18
100
AcDbLine
 10
71.05517878478
 20
135.358549433308
 30
0.0
 11
72.55517878478
 21
136.224569635945
 31
0.0
  0
LINE
  5
265
330
1BF
100
AcDbEntity
  8
99
  6
AUSGEZOGEN
 62
     9
370
    18
100
AcDbLine
 10
71.05517878478
 20
135.358549433308
 30
0.0
 11
72.55517878478
 21
134.492523508626
 31
0.0
  0
LINE
  5
266
330
1BF
100
AcDbEntity
  8
99
  6
AUSGEZOGEN
 62
     9
370
    18
100
AcDbLine
 10
72.55517878478
 20
134.492523508626
 30
0.0
 11
74.05517878478
 21
135.358549433308
 31
0.0
  0
LINE
  5
267
330
1BF
100
AcDbEntity
  8
99
  6
AUSGEZOGEN
 62
     9
370
    18
100
AcDbLine
 10
74.05517878478
 20
135.358549433308
 30
0.0
 11
74.05517878478
 21
137.090595560628
 31
0.0
  0
LINE
  5
268
330
1BF
100
AcDbEntity
  8
99
  6
AUSGEZOGEN
 62
     9
370
    18
100
AcDbLine
 10
74.05517878478
 20
137.090595560628
 30
0.0
 11
72.55517878478
 21
137.95662148531
 31
0.0
  0
LINE
  5
269
330
1BF
100
AcDbEntity
  8
99
  6
AUSGEZOGEN
 62
     9
370
    18
100
AcDbLine
 10
72.55517878478
 20
137.95662148531
 30
0.0
 11
71.05517878478
 21
137.090595560628
 31
0.0
  0
LINE
  5
26A
330
1BF
100
AcDbEntity
  8
99
  6
AUSGEZOGEN
 62
     9
370
    18
100
AcDbLine
 10
77.05517878478
 20
135.358549433308
 30
0.0
 11
78.55517878478
 21
134.492523508626
 31
0.0
  0
LINE
  5
26B
330
1BF
100
AcDbEntity
  8
99
  6
AUSGEZOGEN
 62
     9
370
    18
100
AcDbLine
 10
78.55517878478
 20
134.492523508626
 30
0.0
 11
80.05517878478
 21
135.358549433308
 31
0.0
  0
LINE
  5
26C
330
1BF
100
AcDbEntity
  8
99
  6
AUSGEZOGEN
 62
     9
370
    18
100
AcDbLine
 10
80.05517878478
 20
135.358549433308
 30
0.0
 11
80.05517878478
 21
137.090595560628
 31
0.0
  0
LINE
  5
26D
330
1BF
100
AcDbEntity
  8
99
  6
AUSGEZOGEN
 62
     9
370
    18
100
AcDbLine
 10
80.05517878478
 20
137.090595560628
 30
0.0
 11
78.55517878478
 21
137.95662148531
 31
0.0
  0
LINE
  5
26E
330
1BF
100
AcDbEntity
  8
99
  6
AUSGEZOGEN
 62
     9
370
    18
100
AcDbLine
 10
78.55517878478
 20
137.95662148531
 30
0.0
 11
77.05517878478
 21
137.090595560628
 31
0.0
  0
LINE
  5
26F
330
1BF
100
AcDbEntity
  8
99
  6
AUSGEZOGEN
 62
     9
370
    18
100
AcDbLine
 10
77.05517878478
 20
137.090595560628
 30
0.0
 11
77.05517878478
 21
135.358549433308
 31
0.0
  0
LINE
  5
270
330
1BF
100
AcDbEntity
  8
70
  6
AUSGEZOGEN
 62
    56
370
    18
100
AcDbLine
 10
77.05517878478
 20
135.358549433308
 30
0.0
 11
78.55517878478
 21
136.224569635945
 31
0.0
  0
LINE
  5
271
330
1BF
100
AcDbEntity
  8
70
  6
AUSGEZOGEN
 62
    56
370
    18
100
AcDbLine
 10
78.55517878478
 20
136.224569635945
 30
0.0
 11
78.55517878478
 21
137.95662148531
 31
0.0
  0
LINE
  5
272
330
1BF
100
AcDbEntity
  8
70
  6
AUSGEZOGEN
 62
    56
370
    18
100
AcDbLine
 10
78.55517878478
 20
136.224569635945
 30
0.0
 11
80.05517878478
 21
135.358549433308
 31
0.0
  0
LINE
  5
273
330
1BF
100
AcDbEntity
  8
70
  6
AUSGEZOGEN
 62
    56
370
    18
100
AcDbLine
 10
81.55517878478
 20
136.224569635945
 30
0.0
 11
83.05517878478
 21
135.358549433308
 31
0.0
  0
LINE
  5
274
330
1BF
100
AcDbEntity
  8
70
  6
AUSGEZOGEN
 62
    56
370
    18
100
AcDbLine
 10
81.55517878478
 20
136.224569635945
 30
0.0
 11
81.55517878478
 21
137.95662148531
 31
0.0
  0
LINE
  5
275
330
1BF
100
AcDbEntity
  8
70
  6
AUSGEZOGEN
 62
    56
370
    18
100
AcDbLine
 10
80.05517878478
 20
135.358549433308
 30
0.0
 11
81.55517878478
 21
136.224569635945
 31
0.0
  0
LINE
  5
276
330
1BF
100
AcDbEntity
  8
99
  6
AUSGEZOGEN
 62
     9
370
    18
100
AcDbLine
 10
80.05517878478
 20
135.358549433308
 30
0.0
 11
81.55517878478
 21
134.492523508626
 31
0.0
  0
LINE
  5
277
330
1BF
100
AcDbEntity
  8
99
  6
AUSGEZOGEN
 62
     9
370
    18
100
AcDbLine
 10
81.55517878478
 20
134.492523508626
 30
0.0
 11
83.05517878478
 21
135.358549433308
 31
0.0
  0
LINE
  5
278
330
1BF
100
AcDbEntity
  8
99
  6
AUSGEZOGEN
 62
     9
370
    18
100
AcDbLine
 10
83.05517878478
 20
137.090595560628
 30
0.0
 11
81.55517878478
 21
137.95662148531
 31
0.0
  0
LINE
  5
279
330
1BF
100
AcDbEntity
  8
99
  6
AUSGEZOGEN
 62
     9
370
    18
100
AcDbLine
 10
81.55517878478
 20
137.95662148531
 30
0.0
 11
80.05517878478
 21
137.090595560628
 31
0.0
  0
LINE
  5
27A
330
1BF
100
AcDbEntity
  8
99
  6
AUSGEZOGEN
 62
     9
370
    18
100
AcDbLine
 10
80.05517878478
 20
137.090595560628
 30
0.0
 11
80.05517878478
 21
135.358549433308
 31
0.0
  0
LINE
  5
27B
330
1BF
100
AcDbEntity
  8
99
  6
AUSGEZOGEN
 62
     9
370
    18
100
AcDbLine
 10
81.55517878478
 20
143.152777033406
 30
0.0
 11
83.05517878478
 21
142.286751108723
 31
0.0
  0
LINE
  5
27C
330
1BF
100
AcDbEntity
  8
99
  6
AUSGEZOGEN
 62
     9
370
    18
100
AcDbLine
 10
83.05517878478
 20
145.750854807454
 30
0.0
 11
81.55517878478
 21
144.884828882771
 31
0.0
  0
LINE
  5
27D
330
1BF
100
AcDbEntity
  8
99
  6
AUSGEZOGEN
 62
     9
370
    18
100
AcDbLine
 10
81.55517878478
 20
144.884828882771
 30
0.0
 11
81.55517878478
 21
143.152777033406
 31
0.0
  0
LINE
  5
27E
330
1BF
100
AcDbEntity
  8
70
  6
AUSGEZOGEN
 62
    56
370
    18
100
AcDbLine
 10
81.55517878478
 20
143.152777033406
 30
0.0
 11
83.05517878478
 21
144.018802958089
 31
0.0
  0
LINE
  5
27F
330
1BF
100
AcDbEntity
  8
99
  6
AUSGEZOGEN
 62
     9
370
    18
100
AcDbLine
 10
78.55517878478
 20
143.152777033406
 30
0.0
 11
80.05517878478
 21
142.286751108723
 31
0.0
  0
LINE
  5
280
330
1BF
100
AcDbEntity
  8
99
  6
AUSGEZOGEN
 62
     9
370
    18
100
AcDbLine
 10
80.05517878478
 20
142.286751108723
 30
0.0
 11
81.55517878478
 21
143.152777033406
 31
0.0
  0
LINE
  5
281
330
1BF
100
AcDbEntity
  8
99
  6
AUSGEZOGEN
 62
     9
370
    18
100
AcDbLine
 10
81.55517878478
 20
143.152777033406
 30
0.0
 11
81.55517878478
 21
144.884828882771
 31
0.0
  0
LINE
  5
282
330
1BF
100
AcDbEntity
  8
99
  6
AUSGEZOGEN
 62
     9
370
    18
100
AcDbLine
 10
81.55517878478
 20
144.884828882771
 30
0.0
 11
80.05517878478
 21
145.750854807454
 31
0.0
  0
LINE
  5
283
330
1BF
100
AcDbEntity
  8
99
  6
AUSGEZOGEN
 62
     9
370
    18
100
AcDbLine
 10
80.05517878478
 20
145.750854807454
 30
0.0
 11
78.55517878478
 21
144.884828882771
 31
0.0
  0
LINE
  5
284
330
1BF
100
AcDbEntity
  8
99
  6
AUSGEZOGEN
 62
     9
370
    18
100
AcDbLine
 10
78.55517878478
 20
144.884828882771
 30
0.0
 11
78.55517878478
 21
143.152777033406
 31
0.0
  0
LINE
  5
285
330
1BF
100
AcDbEntity
  8
70
  6
AUSGEZOGEN
 62
    56
370
    18
100
AcDbLine
 10
78.55517878478
 20
143.152777033406
 30
0.0
 11
80.05517878478
 21
144.018802958089
 31
0.0
  0
LINE
  5
286
330
1BF
100
AcDbEntity
  8
70
  6
AUSGEZOGEN
 62
    56
370
    18
100
AcDbLine
 10
80.05517878478
 20
144.018802958089
 30
0.0
 11
80.05517878478
 21
145.750854807454
 31
0.0
  0
LINE
  5
287
330
1BF
100
AcDbEntity
  8
70
  6
AUSGEZOGEN
 62
    56
370
    18
100
AcDbLine
 10
80.05517878478
 20
144.018802958089
 30
0.0
 11
81.55517878478
 21
143.152777033406
 31
0.0
  0
LINE
  5
288
330
1BF
100
AcDbEntity
  8
70
  6
AUSGEZOGEN
 62
    56
370
    18
100
AcDbLine
 10
77.05517878478
 20
144.018802958089
 30
0.0
 11
78.55517878478
 21
143.152777033406
 31
0.0
  0
LINE
  5
289
330
1BF
100
AcDbEntity
  8
70
  6
AUSGEZOGEN
 62
    56
370
    18
100
AcDbLine
 10
77.05517878478
 20
144.018802958089
 30
0.0
 11
77.05517878478
 21
145.750854807454
 31
0.0
  0
LINE
  5
28A
330
1BF
100
AcDbEntity
  8
70
  6
AUSGEZOGEN
 62
    56
370
    18
100
AcDbLine
 10
75.55517878478
 20
143.152777033406
 30
0.0
 11
77.05517878478
 21
144.018802958089
 31
0.0
  0
LINE
  5
28B
330
1BF
100
AcDbEntity
  8
99
  6
AUSGEZOGEN
 62
     9
370
    18
100
AcDbLine
 10
75.55517878478
 20
143.152777033406
 30
0.0
 11
77.05517878478
 21
142.286751108723
 31
0.0
  0
LINE
  5
28C
330
1BF
100
AcDbEntity
  8
99
  6
AUSGEZOGEN
 62
     9
370
    18
100
AcDbLine
 10
77.05517878478
 20
142.286751108723
 30
0.0
 11
78.55517878478
 21
143.152777033406
 31
0.0
  0
LINE
  5
28D
330
1BF
100
AcDbEntity
  8
99
  6
AUSGEZOGEN
 62
     9
370
    18
100
AcDbLine
 10
78.55517878478
 20
143.152777033406
 30
0.0
 11
78.55517878478
 21
144.884828882771
 31
0.0
  0
LINE
  5
28E
330
1BF
100
AcDbEntity
  8
99
  6
AUSGEZOGEN
 62
     9
370
    18
100
AcDbLine
 10
78.55517878478
 20
144.884828882771
 30
0.0
 11
77.05517878478
 21
145.750854807454
 31
0.0
  0
LINE
  5
28F
330
1BF
100
AcDbEntity
  8
99
  6
AUSGEZOGEN
 62
     9
370
    18
100
AcDbLine
 10
77.05517878478
 20
145.750854807454
 30
0.0
 11
75.55517878478
 21
144.884828882771
 31
0.0
  0
LINE
  5
290
330
1BF
100
AcDbEntity
  8
99
  6
AUSGEZOGEN
 62
     9
370
    18
100
AcDbLine
 10
75.55517878478
 20
144.884828882771
 30
0.0
 11
75.55517878478
 21
143.152777033406
 31
0.0
  0
LINE
  5
291
330
1BF
100
AcDbEntity
  8
99
  6
AUSGEZOGEN
 62
     9
370
    18
100
AcDbLine
 10
71.05517878478
 20
142.286751108723
 30
0.0
 11
72.55517878478
 21
143.152777033406
 31
0.0
  0
LINE
  5
292
330
1BF
100
AcDbEntity
  8
99
  6
AUSGEZOGEN
 62
     9
370
    18
100
AcDbLine
 10
72.55517878478
 20
143.152777033406
 30
0.0
 11
72.55517878478
 21
144.884828882771
 31
0.0
  0
LINE
  5
293
330
1BF
100
AcDbEntity
  8
99
  6
AUSGEZOGEN
 62
     9
370
    18
100
AcDbLine
 10
72.55517878478
 20
144.884828882771
 30
0.0
 11
71.05517878478
 21
145.750854807454
 31
0.0
  0
LINE
  5
294
330
1BF
100
AcDbEntity
  8
70
  6
AUSGEZOGEN
 62
    56
370
    18
100
AcDbLine
 10
71.05517878478
 20
144.018802958089
 30
0.0
 11
72.55517878478
 21
143.152777033406
 31
0.0
  0
LINE
  5
295
330
1BF
100
AcDbEntity
  8
70
  6
AUSGEZOGEN
 62
    56
370
    18
100
AcDbLine
 10
74.05517878478
 20
144.018802958089
 30
0.0
 11
75.55517878478
 21
143.152777033406
 31
0.0
  0
LINE
  5
296
330
1BF
100
AcDbEntity
  8
70
  6
AUSGEZOGEN
 62
    56
370
    18
100
AcDbLine
 10
74.05517878478
 20
144.018802958089
 30
0.0
 11
74.05517878478
 21
145.750854807454
 31
0.0
  0
LINE
  5
297
330
1BF
100
AcDbEntity
  8
70
  6
AUSGEZOGEN
 62
    56
370
    18
100
AcDbLine
 10
72.55517878478
 20
143.152777033406
 30
0.0
 11
74.05517878478
 21
144.018802958089
 31
0.0
  0
LINE
  5
298
330
1BF
100
AcDbEntity
  8
99
  6
AUSGEZOGEN
 62
     9
370
    18
100
AcDbLine
 10
72.55517878478
 20
143.152777033406
 30
0.0
 11
74.05517878478
 21
142.286751108723
 31
0.0
  0
LINE
  5
299
330
1BF
100
AcDbEntity
  8
99
  6
AUSGEZOGEN
 62
     9
370
    18
100
AcDbLine
 10
74.05517878478
 20
142.286751108723
 30
0.0
 11
75.55517878478
 21
143.152777033406
 31
0.0
  0
LINE
  5
29A
330
1BF
100
AcDbEntity
  8
99
  6
AUSGEZOGEN
 62
     9
370
    18
100
AcDbLine
 10
75.55517878478
 20
143.152777033406
 30
0.0
 11
75.55517878478
 21
144.884828882771
 31
0.0
  0
LINE
  5
29B
330
1BF
100
AcDbEntity
  8
99
  6
AUSGEZOGEN
 62
     9
370
    18
100
AcDbLine
 10
75.55517878478
 20
144.884828882771
 30
0.0
 11
74.05517878478
 21
145.750854807454
 31
0.0
  0
LINE
  5
29C
330
1BF
100
AcDbEntity
  8
99
  6
AUSGEZOGEN
 62
     9
370
    18
100
AcDbLine
 10
74.05517878478
 20
145.750854807454
 30
0.0
 11
72.55517878478
 21
144.884828882771
 31
0.0
  0
LINE
  5
29D
330
1BF
100
AcDbEntity
  8
99
  6
AUSGEZOGEN
 62
     9
370
    18
100
AcDbLine
 10
72.55517878478
 20
144.884828882771
 30
0.0
 11
72.55517878478
 21
143.152777033406
 31
0.0
  0
LINE
  5
29E
330
1BF
100
AcDbEntity
  8
99
  6
AUSGEZOGEN
 62
     9
370
    18
100
AcDbLine
 10
74.05517878478
 20
140.554699259358
 30
0.0
 11
75.55517878478
 21
139.688673334675
 31
0.0
  0
LINE
  5
29F
330
1BF
100
AcDbEntity
  8
99
  6
AUSGEZOGEN
 62
     9
370
    18
100
AcDbLine
 10
75.55517878478
 20
139.688673334675
 30
0.0
 11
77.05517878478
 21
140.554699259358
 31
0.0
  0
LINE
  5
2A0
330
1BF
100
AcDbEntity
  8
99
  6
AUSGEZOGEN
 62
     9
370
    18
100
AcDbLine
 10
77.05517878478
 20
140.554699259358
 30
0.0
 11
77.05517878478
 21
142.286751108723
 31
0.0
  0
LINE
  5
2A1
330
1BF
100
AcDbEntity
  8
99
  6
AUSGEZOGEN
 62
     9
370
    18
100
AcDbLine
 10
77.05517878478
 20
142.286751108723
 30
0.0
 11
75.55517878478
 21
143.152777033406
 31
0.0
  0
LINE
  5
2A2
330
1BF
100
AcDbEntity
  8
99
  6
AUSGEZOGEN
 62
     9
370
    18
100
AcDbLine
 10
75.55517878478
 20
143.152777033406
 30
0.0
 11
74.05517878478
 21
142.286751108723
 31
0.0
  0
LINE
  5
2A3
330
1BF
100
AcDbEntity
  8
99
  6
AUSGEZOGEN
 62
     9
370
    18
100
AcDbLine
 10
74.05517878478
 20
142.286751108723
 30
0.0
 11
74.05517878478
 21
140.554699259358
 31
0.0
  0
LINE
  5
2A4
330
1BF
100
AcDbEntity
  8
70
  6
AUSGEZOGEN
 62
    56
370
    18
100
AcDbLine
 10
74.05517878478
 20
140.554699259358
 30
0.0
 11
75.55517878478
 21
141.420725184041
 31
0.0
  0
LINE
  5
2A5
330
1BF
100
AcDbEntity
  8
70
  6
AUSGEZOGEN
 62
    56
370
    18
100
AcDbLine
 10
75.55517878478
 20
141.420725184041
 30
0.0
 11
75.55517878478
 21
143.152777033406
 31
0.0
  0
LINE
  5
2A6
330
1BF
100
AcDbEntity
  8
70
  6
AUSGEZOGEN
 62
    56
370
    18
100
AcDbLine
 10
75.55517878478
 20
141.420725184041
 30
0.0
 11
77.05517878478
 21
140.554699259358
 31
0.0
  0
LINE
  5
2A7
330
1BF
100
AcDbEntity
  8
70
  6
AUSGEZOGEN
 62
    56
370
    18
100
AcDbLine
 10
72.55517878478
 20
141.420725184041
 30
0.0
 11
74.05517878478
 21
140.554699259358
 31
0.0
  0
LINE
  5
2A8
330
1BF
100
AcDbEntity
  8
70
  6
AUSGEZOGEN
 62
    56
370
    18
100
AcDbLine
 10
72.55517878478
 20
141.420725184041
 30
0.0
 11
72.55517878478
 21
143.152777033406
 31
0.0
  0
LINE
  5
2A9
330
1BF
100
AcDbEntity
  8
70
  6
AUSGEZOGEN
 62
    56
370
    18
100
AcDbLine
 10
71.05517878478
 20
140.554699259358
 30
0.0
 11
72.55517878478
 21
141.420725184041
 31
0.0
  0
LINE
  5
2AA
330
1BF
100
AcDbEntity
  8
99
  6
AUSGEZOGEN
 62
     9
370
    18
100
AcDbLine
 10
71.05517878478
 20
140.554699259358
 30
0.0
 11
72.55517878478
 21
139.688673334675
 31
0.0
  0
LINE
  5
2AB
330
1BF
100
AcDbEntity
  8
99
  6
AUSGEZOGEN
 62
     9
370
    18
100
AcDbLine
 10
72.55517878478
 20
139.688673334675
 30
0.0
 11
74.05517878478
 21
140.554699259358
 31
0.0
  0
LINE
  5
2AC
330
1BF
100
AcDbEntity
  8
99
  6
AUSGEZOGEN
 62
     9
370
    18
100
AcDbLine
 10
74.05517878478
 20
140.554699259358
 30
0.0
 11
74.05517878478
 21
142.286751108723
 31
0.0
  0
LINE
  5
2AD
330
1BF
100
AcDbEntity
  8
99
  6
AUSGEZOGEN
 62
     9
370
    18
100
AcDbLine
 10
74.05517878478
 20
142.286751108723
 30
0.0
 11
72.55517878478
 21
143.152777033406
 31
0.0
  0
LINE
  5
2AE
330
1BF
100
AcDbEntity
  8
99
  6
AUSGEZOGEN
 62
     9
370
    18
100
AcDbLine
 10
72.55517878478
 20
143.152777033406
 30
0.0
 11
71.05517878478
 21
142.286751108723
 31
0.0
  0
LINE
  5
2AF
330
1BF
100
AcDbEntity
  8
99
  6
AUSGEZOGEN
 62
     9
370
    18
100
AcDbLine
 10
77.05517878478
 20
140.554699259358
 30
0.0
 11
78.55517878478
 21
139.688673334675
 31
0.0
  0
LINE
  5
2B0
330
1BF
100
AcDbEntity
  8
99
  6
AUSGEZOGEN
 62
     9
370
    18
100
AcDbLine
 10
78.55517878478
 20
139.688673334675
 30
0.0
 11
80.05517878478
 21
140.554699259358
 31
0.0
  0
LINE
  5
2B1
330
1BF
100
AcDbEntity
  8
99
  6
AUSGEZOGEN
 62
     9
370
    18
100
AcDbLine
 10
80.05517878478
 20
140.554699259358
 30
0.0
 11
80.05517878478
 21
142.286751108723
 31
0.0
  0
LINE
  5
2B2
330
1BF
100
AcDbEntity
  8
99
  6
AUSGEZOGEN
 62
     9
370
    18
100
AcDbLine
 10
80.05517878478
 20
142.286751108723
 30
0.0
 11
78.55517878478
 21
143.152777033406
 31
0.0
  0
LINE
  5
2B3
330
1BF
100
AcDbEntity
  8
99
  6
AUSGEZOGEN
 62
     9
370
    18
100
AcDbLine
 10
78.55517878478
 20
143.152777033406
 30
0.0
 11
77.05517878478
 21
142.286751108723
 31
0.0
  0
LINE
  5
2B4
330
1BF
100
AcDbEntity
  8
99
  6
AUSGEZOGEN
 62
     9
370
    18
100
AcDbLine
 10
77.05517878478
 20
142.286751108723
 30
0.0
 11
77.05517878478
 21
140.554699259358
 31
0.0
  0
LINE
  5
2B5
330
1BF
100
AcDbEntity
  8
70
  6
AUSGEZOGEN
 62
    56
370
    18
100
AcDbLine
 10
77.05517878478
 20
140.554699259358
 30
0.0
 11
78.55517878478
 21
141.420725184041
 31
0.0
  0
LINE
  5
2B6
330
1BF
100
AcDbEntity
  8
70
  6
AUSGEZOGEN
 62
    56
370
    18
100
AcDbLine
 10
78.55517878478
 20
141.420725184041
 30
0.0
 11
78.55517878478
 21
143.152777033406
 31
0.0
  0
LINE
  5
2B7
330
1BF
100
AcDbEntity
  8
70
  6
AUSGEZOGEN
 62
    56
370
    18
100
AcDbLine
 10
78.55517878478
 20
141.420725184041
 30
0.0
 11
80.05517878478
 21
140.554699259358
 31
0.0
  0
LINE
  5
2B8
330
1BF
100
AcDbEntity
  8
70
  6
AUSGEZOGEN
 62
    56
370
    18
100
AcDbLine
 10
81.55517878478
 20
141.420725184041
 30
0.0
 11
83.05517878478
 21
140.554699259358
 31
0.0
  0
LINE
  5
2B9
330
1BF
100
AcDbEntity
  8
70
  6
AUSGEZOGEN
 62
    56
370
    18
100
AcDbLine
 10
81.55517878478
 20
141.420725184041
 30
0.0
 11
81.55517878478
 21
143.152777033406
 31
0.0
  0
LINE
  5
2BA
330
1BF
100
AcDbEntity
  8
70
  6
AUSGEZOGEN
 62
    56
370
    18
100
AcDbLine
 10
80.05517878478
 20
140.554699259358
 30
0.0
 11
81.55517878478
 21
141.420725184041
 31
0.0
  0
LINE
  5
2BB
330
1BF
100
AcDbEntity
  8
99
  6
AUSGEZOGEN
 62
     9
370
    18
100
AcDbLine
 10
80.05517878478
 20
140.554699259358
 30
0.0
 11
81.55517878478
 21
139.688673334675
 31
0.0
  0
LINE
  5
2BC
330
1BF
100
AcDbEntity
  8
99
  6
AUSGEZOGEN
 62
     9
370
    18
100
AcDbLine
 10
81.55517878478
 20
139.688673334675
 30
0.0
 11
83.05517878478
 21
140.554699259358
 31
0.0
  0
LINE
  5
2BD
330
1BF
100
AcDbEntity
  8
99
  6
AUSGEZOGEN
 62
     9
370
    18
100
AcDbLine
 10
83.05517878478
 20
142.286751108723
 30
0.0
 11
81.55517878478
 21
143.152777033406
 31
0.0
  0
LINE
  5
2BE
330
1BF
100
AcDbEntity
  8
99
  6
AUSGEZOGEN
 62
     9
370
    18
100
AcDbLine
 10
81.55517878478
 20
143.152777033406
 30
0.0
 11
80.05517878478
 21
142.286751108723
 31
0.0
  0
LINE
  5
2BF
330
1BF
100
AcDbEntity
  8
99
  6
AUSGEZOGEN
 62
     9
370
    18
100
AcDbLine
 10
80.05517878478
 20
142.286751108723
 30
0.0
 11
80.05517878478
 21
140.554699259358
 31
0.0
  0
LINE
  5
2C0
330
1BF
100
AcDbEntity
  8
99
  6
AUSGEZOGEN
 62
     9
370
    18
100
AcDbLine
 10
81.55517878478
 20
148.348926859456
 30
0.0
 11
83.05517878478
 21
147.482900934773
 31
0.0
  0
LINE
  5
2C1
330
1BF
100
AcDbEntity
  8
99
  6
AUSGEZOGEN
 62
     9
370
    18
100
AcDbLine
 10
81.55517878478
 20
149.214955645161
 30
0.0
 11
81.55517878478
 21
148.348926859456
 31
0.0
  0
LINE
  5
2C2
330
1BF
100
AcDbEntity
  8
70
  6
AUSGEZOGEN
 62
    56
370
    18
100
AcDbLine
 10
81.55517878478
 20
148.348926859456
 30
0.0
 11
83.05517878478
 21
149.214952784138
 31
0.0
  0
LINE
  5
2C3
330
1BF
100
AcDbEntity
  8
99
  6
AUSGEZOGEN
 62
     9
370
    18
100
AcDbLine
 10
78.55517878478
 20
148.348926859456
 30
0.0
 11
80.05517878478
 21
147.482900934773
 31
0.0
  0
LINE
  5
2C4
330
1BF
100
AcDbEntity
  8
99
  6
AUSGEZOGEN
 62
     9
370
    18
100
AcDbLine
 10
80.05517878478
 20
147.482900934773
 30
0.0
 11
81.55517878478
 21
148.348926859456
 31
0.0
  0
LINE
  5
2C5
330
1BF
100
AcDbEntity
  8
99
  6
AUSGEZOGEN
 62
     9
370
    18
100
AcDbLine
 10
78.55517878478
 20
149.214955645161
 30
0.0
 11
78.55517878478
 21
148.348926859456
 31
0.0
  0
LINE
  5
2C6
330
1BF
100
AcDbEntity
  8
70
  6
AUSGEZOGEN
 62
    56
370
    18
100
AcDbLine
 10
78.55517878478
 20
148.348926859456
 30
0.0
 11
80.05517878478
 21
149.214952784138
 31
0.0
  0
LINE
  5
2C7
330
1BF
100
AcDbEntity
  8
70
  6
AUSGEZOGEN
 62
    56
370
    18
100
AcDbLine
 10
80.05517878478
 20
149.214952784138
 30
0.0
 11
81.55517878478
 21
148.348926859456
 31
0.0
  0
LINE
  5
2C8
330
1BF
100
AcDbEntity
  8
70
  6
AUSGEZOGEN
 62
    56
370
    18
100
AcDbLine
 10
77.05517878478
 20
149.214952784138
 30
0.0
 11
78.55517878478
 21
148.348926859456
 31
0.0
  0
LINE
  5
2C9
330
1BF
100
AcDbEntity
  8
70
  6
AUSGEZOGEN
 62
    56
370
    18
100
AcDbLine
 10
75.55517878478
 20
148.348926859456
 30
0.0
 11
77.05517878478
 21
149.214952784138
 31
0.0
  0
LINE
  5
2CA
330
1BF
100
AcDbEntity
  8
99
  6
AUSGEZOGEN
 62
     9
370
    18
100
AcDbLine
 10
75.55517878478
 20
148.348926859456
 30
0.0
 11
77.05517878478
 21
147.482900934773
 31
0.0
  0
LINE
  5
2CB
330
1BF
100
AcDbEntity
  8
99
  6
AUSGEZOGEN
 62
     9
370
    18
100
AcDbLine
 10
77.05517878478
 20
147.482900934773
 30
0.0
 11
78.55517878478
 21
148.348926859456
 31
0.0
  0
LINE
  5
2CC
330
1BF
100
AcDbEntity
  8
99
  6
AUSGEZOGEN
 62
     9
370
    18
100
AcDbLine
 10
75.55517878478
 20
149.214955645161
 30
0.0
 11
75.55517878478
 21
148.348926859456
 31
0.0
  0
LINE
  5
2CD
330
1BF
100
AcDbEntity
  8
99
  6
AUSGEZOGEN
 62
     9
370
    18
100
AcDbLine
 10
71.05517878478
 20
147.482900934773
 30
0.0
 11
72.55517878478
 21
148.348926859456
 31
0.0
  0
LINE
  5
2CE
330
1BF
100
AcDbEntity
  8
99
  6
AUSGEZOGEN
 62
     9
370
    18
100
AcDbLine
 10
72.55517878478
 20
148.348926859456
 30
0.0
 11
72.55517878478
 21
149.214955645161
 31
0.0
  0
LINE
  5
2CF
330
1BF
100
AcDbEntity
  8
70
  6
AUSGEZOGEN
 62
    56
370
    18
100
AcDbLine
 10
71.05517878478
 20
149.214952784138
 30
0.0
 11
72.55517878478
 21
148.348926859456
 31
0.0
  0
LINE
  5
2D0
330
1BF
100
AcDbEntity
  8
70
  6
AUSGEZOGEN
 62
    56
370
    18
100
AcDbLine
 10
74.05517878478
 20
149.214952784138
 30
0.0
 11
75.55517878478
 21
148.348926859456
 31
0.0
  0
LINE
  5
2D1
330
1BF
100
AcDbEntity
  8
70
  6
AUSGEZOGEN
 62
    56
370
    18
100
AcDbLine
 10
72.55517878478
 20
148.348926859456
 30
0.0
 11
74.05517878478
 21
149.214952784138
 31
0.0
  0
LINE
  5
2D2
330
1BF
100
AcDbEntity
  8
99
  6
AUSGEZOGEN
 62
     9
370
    18
100
AcDbLine
 10
72.55517878478
 20
148.348926859456
 30
0.0
 11
74.05517878478
 21
147.482900934773
 31
0.0
  0
LINE
  5
2D3
330
1BF
100
AcDbEntity
  8
99
  6
AUSGEZOGEN
 62
     9
370
    18
100
AcDbLine
 10
74.05517878478
 20
147.482900934773
 30
0.0
 11
75.55517878478
 21
148.348926859456
 31
0.0
  0
LINE
  5
2D4
330
1BF
100
AcDbEntity
  8
99
  6
AUSGEZOGEN
 62
     9
370
    18
100
AcDbLine
 10
74.05517878478
 20
145.750854807454
 30
0.0
 11
75.55517878478
 21
144.884828882771
 31
0.0
  0
LINE
  5
2D5
330
1BF
100
AcDbEntity
  8
99
  6
AUSGEZOGEN
 62
     9
370
    18
100
AcDbLine
 10
75.55517878478
 20
144.884828882771
 30
0.0
 11
77.05517878478
 21
145.750854807454
 31
0.0
  0
LINE
  5
2D6
330
1BF
100
AcDbEntity
  8
99
  6
AUSGEZOGEN
 62
     9
370
    18
100
AcDbLine
 10
77.05517878478
 20
145.750854807454
 30
0.0
 11
77.05517878478
 21
147.482900934773
 31
0.0
  0
LINE
  5
2D7
330
1BF
100
AcDbEntity
  8
99
  6
AUSGEZOGEN
 62
     9
370
    18
100
AcDbLine
 10
77.05517878478
 20
147.482900934773
 30
0.0
 11
75.55517878478
 21
148.348926859456
 31
0.0
  0
LINE
  5
2D8
330
1BF
100
AcDbEntity
  8
99
  6
AUSGEZOGEN
 62
     9
370
    18
100
AcDbLine
 10
75.55517878478
 20
148.348926859456
 30
0.0
 11
74.05517878478
 21
147.482900934773
 31
0.0
  0
LINE
  5
2D9
330
1BF
100
AcDbEntity
  8
99
  6
AUSGEZOGEN
 62
     9
370
    18
100
AcDbLine
 10
74.05517878478
 20
147.482900934773
 30
0.0
 11
74.05517878478
 21
145.750854807454
 31
0.0
  0
LINE
  5
2DA
330
1BF
100
AcDbEntity
  8
70
  6
AUSGEZOGEN
 62
    56
370
    18
100
AcDbLine
 10
74.05517878478
 20
145.750854807454
 30
0.0
 11
75.55517878478
 21
146.61687501009
 31
0.0
  0
LINE
  5
2DB
330
1BF
100
AcDbEntity
  8
70
  6
AUSGEZOGEN
 62
    56
370
    18
100
AcDbLine
 10
75.55517878478
 20
146.61687501009
 30
0.0
 11
75.55517878478
 21
148.348926859456
 31
0.0
  0
LINE
  5
2DC
330
1BF
100
AcDbEntity
  8
70
  6
AUSGEZOGEN
 62
    56
370
    18
100
AcDbLine
 10
75.55517878478
 20
146.61687501009
 30
0.0
 11
77.05517878478
 21
145.750854807454
 31
0.0
  0
LINE
  5
2DD
330
1BF
100
AcDbEntity
  8
70
  6
AUSGEZOGEN
 62
    56
370
    18
100
AcDbLine
 10
72.55517878478
 20
146.61687501009
 30
0.0
 11
74.05517878478
 21
145.750854807454
 31
0.0
  0
LINE
  5
2DE
330
1BF
100
AcDbEntity
  8
70
  6
AUSGEZOGEN
 62
    56
370
    18
100
AcDbLine
 10
72.55517878478
 20
146.61687501009
 30
0.0
 11
72.55517878478
 21
148.348926859456
 31
0.0
  0
LINE
  5
2DF
330
1BF
100
AcDbEntity
  8
70
  6
AUSGEZOGEN
 62
    56
370
    18
100
AcDbLine
 10
71.05517878478
 20
145.750854807454
 30
0.0
 11
72.55517878478
 21
146.61687501009
 31
0.0
  0
LINE
  5
2E0
330
1BF
100
AcDbEntity
  8
99
  6
AUSGEZOGEN
 62
     9
370
    18
100
AcDbLine
 10
71.05517878478
 20
145.750854807454
 30
0.0
 11
72.55517878478
 21
144.884828882771
 31
0.0
  0
LINE
  5
2E1
330
1BF
100
AcDbEntity
  8
99
  6
AUSGEZOGEN
 62
     9
370
    18
100
AcDbLine
 10
72.55517878478
 20
144.884828882771
 30
0.0
 11
74.05517878478
 21
145.750854807454
 31
0.0
  0
LINE
  5
2E2
330
1BF
100
AcDbEntity
  8
99
  6
AUSGEZOGEN
 62
     9
370
    18
100
AcDbLine
 10
74.05517878478
 20
145.750854807454
 30
0.0
 11
74.05517878478
 21
147.482900934773
 31
0.0
  0
LINE
  5
2E3
330
1BF
100
AcDbEntity
  8
99
  6
AUSGEZOGEN
 62
     9
370
    18
100
AcDbLine
 10
74.05517878478
 20
147.482900934773
 30
0.0
 11
72.55517878478
 21
148.348926859456
 31
0.0
  0
LINE
  5
2E4
330
1BF
100
AcDbEntity
  8
99
  6
AUSGEZOGEN
 62
     9
370
    18
100
AcDbLine
 10
72.55517878478
 20
148.348926859456
 30
0.0
 11
71.05517878478
 21
147.482900934773
 31
0.0
  0
LINE
  5
2E5
330
1BF
100
AcDbEntity
  8
99
  6
AUSGEZOGEN
 62
     9
370
    18
100
AcDbLine
 10
77.05517878478
 20
145.750854807454
 30
0.0
 11
78.55517878478
 21
144.884828882771
 31
0.0
  0
LINE
  5
2E6
330
1BF
100
AcDbEntity
  8
99
  6
AUSGEZOGEN
 62
     9
370
    18
100
AcDbLine
 10
78.55517878478
 20
144.884828882771
 30
0.0
 11
80.05517878478
 21
145.750854807454
 31
0.0
  0
LINE
  5
2E7
330
1BF
100
AcDbEntity
  8
99
  6
AUSGEZOGEN
 62
     9
370
    18
100
AcDbLine
 10
80.05517878478
 20
145.750854807454
 30
0.0
 11
80.05517878478
 21
147.482900934773
 31
0.0
  0
LINE
  5
2E8
330
1BF
100
AcDbEntity
  8
99
  6
AUSGEZOGEN
 62
     9
370
    18
100
AcDbLine
 10
80.05517878478
 20
147.482900934773
 30
0.0
 11
78.55517878478
 21
148.348926859456
 31
0.0
  0
LINE
  5
2E9
330
1BF
100
AcDbEntity
  8
99
  6
AUSGEZOGEN
 62
     9
370
    18
100
AcDbLine
 10
78.55517878478
 20
148.348926859456
 30
0.0
 11
77.05517878478
 21
147.482900934773
 31
0.0
  0
LINE
  5
2EA
330
1BF
100
AcDbEntity
  8
99
  6
AUSGEZOGEN
 62
     9
370
    18
100
AcDbLine
 10
77.05517878478
 20
147.482900934773
 30
0.0
 11
77.05517878478
 21
145.750854807454
 31
0.0
  0
LINE
  5
2EB
330
1BF
100
AcDbEntity
  8
70
  6
AUSGEZOGEN
 62
    56
370
    18
100
AcDbLine
 10
77.05517878478
 20
145.750854807454
 30
0.0
 11
78.55517878478
 21
146.61687501009
 31
0.0
  0
LINE
  5
2EC
330
1BF
100
AcDbEntity
  8
70
  6
AUSGEZOGEN
 62
    56
370
    18
100
AcDbLine
 10
78.55517878478
 20
146.61687501009
 30
0.0
 11
78.55517878478
 21
148.348926859456
 31
0.0
  0
LINE
  5
2ED
330
1BF
100
AcDbEntity
  8
70
  6
AUSGEZOGEN
 62
    56
370
    18
100
AcDbLine
 10
78.55517878478
 20
146.61687501009
 30
0.0
 11
80.05517878478
 21
145.750854807454
 31
0.0
  0
LINE
  5
2EE
330
1BF
100
AcDbEntity
  8
70
  6
AUSGEZOGEN
 62
    56
370
    18
100
AcDbLine
 10
81.55517878478
 20
146.61687501009
 30
0.0
 11
83.05517878478
 21
145.750854807454
 31
0.0
  0
LINE
  5
2EF
330
1BF
100
AcDbEntity
  8
70
  6
AUSGEZOGEN
 62
    56
370
    18
100
AcDbLine
 10
81.55517878478
 20
146.61687501009
 30
0.0
 11
81.55517878478
 21
148.348926859456
 31
0.0
  0
LINE
  5
2F0
330
1BF
100
AcDbEntity
  8
70
  6
AUSGEZOGEN
 62
    56
370
    18
100
AcDbLine
 10
80.05517878478
 20
145.750854807454
 30
0.0
 11
81.55517878478
 21
146.61687501009
 31
0.0
  0
LINE
  5
2F1
330
1BF
100
AcDbEntity
  8
99
  6
AUSGEZOGEN
 62
     9
370
    18
100
AcDbLine
 10
80.05517878478
 20
145.750854807454
 30
0.0
 11
81.55517878478
 21
144.884828882771
 31
0.0
  0
LINE
  5
2F2
330
1BF
100
AcDbEntity
  8
99
  6
AUSGEZOGEN
 62
     9
370
    18
100
AcDbLine
 10
81.55517878478
 20
144.884828882771
 30
0.0
 11
83.05517878478
 21
145.750854807454
 31
0.0
  0
LINE
  5
2F3
330
1BF
100
AcDbEntity
  8
99
  6
AUSGEZOGEN
 62
     9
370
    18
100
AcDbLine
 10
83.05517878478
 20
147.482900934773
 30
0.0
 11
81.55517878478
 21
148.348926859456
 31
0.0
  0
LINE
  5
2F4
330
1BF
100
AcDbEntity
  8
99
  6
AUSGEZOGEN
 62
     9
370
    18
100
AcDbLine
 10
81.55517878478
 20
148.348926859456
 30
0.0
 11
80.05517878478
 21
147.482900934773
 31
0.0
  0
LINE
  5
2F5
330
1BF
100
AcDbEntity
  8
99
  6
AUSGEZOGEN
 62
     9
370
    18
100
AcDbLine
 10
80.05517878478
 20
147.482900934773
 30
0.0
 11
80.05517878478
 21
145.750854807454
 31
0.0
  0
ENDBLK
  5
1C1
330
1BF
100
AcDbEntity
  8
0
100
AcDbBlockEnd
  0
BLOCK
  5
430
330
42F
100
AcDbEntity
  8
0
100
AcDbBlockBegin
  2
*D7
 70
     1
 10
0.0
 20
0.0
 30
0.0
  3
*D7
  1

  0
LINE
  5
432
330
42F
100
AcDbEntity
  8
Layer70
  6
AUSGEZOGEN
 62
   136
370
    18
100
AcDbLine
 10
81.80517878478
 20
108.248485023041
 30
0.0
 11
81.80517878478
 21
107.748485023041
 31
0.0
  0
LINE
  5
433
330
42F
100
AcDbEntity
  8
Layer70
  6
AUSGEZOGEN
 62
   136
370
    18
100
AcDbLine
 10
81.80517878478
 20
108.248485023041
 30
0.0
 11
83.05517878478
 21
107.998485023041
 31
0.0
  0
LINE
  5
434
330
42F
100
AcDbEntity
  8
Layer70
  6
AUSGEZOGEN
 62
   136
370
    18
100
AcDbLine
 10
83.05517878478
 20
107.998485023041
 30
0.0
 11
81.80517878478
 21
107.748485023041
 31
0.0
  0
LINE
  5
435
330
42F
100
AcDbEntity
  8
Layer70
  6
AUSGEZOGEN
 62
   136
370
    18
100
AcDbLine
 10
72.30517878478
 20
107.748485023041
 30
0.0
 11
72.30517878478
 21
108.248485023041
 31
0.0
  0
LINE
  5
436
330
42F
100
AcDbEntity
  8
Layer70
  6
AUSGEZOGEN
 62
   136
370
    18
100
AcDbLine
 10
72.30517878478
 20
107.748485023041
 30
0.0
 11
71.05517878478
 21
107.998485023041
 31
0.0
  0
LINE
  5
437
330
42F
100
AcDbEntity
  8
Layer70
  6
AUSGEZOGEN
 62
   136
370
    18
100
AcDbLine
 10
71.05517878478
 20
107.998485023041
 30
0.0
 11
72.30517878478
 21
108.248485023041
 31
0.0
  0
LINE
  5
438
330
42F
100
AcDbEntity
  8
Layer70
  6
AUSGEZOGEN
 62
   136
370
    18
100
AcDbLine
 10
71.05517878478
 20
107.998485023041
 30
0.0
 11
83.05517878478
 21
107.998485023041
 31
0.0
  0
LINE
  5
439
330
42F
100
AcDbEntity
  8
Layer70
  6
AUSGEZOGEN
 62
   136
370
    18
100
AcDbLine
 10
71.05517878478
 20
126.698295908528
 30
0.0
 11
71.05517878478
 21
107.284199308756
 31
0.0
  0
LINE
  5
43A
330
42F
100
AcDbEntity
  8
Layer70
  6
AUSGEZOGEN
 62
   136
370
    18
100
AcDbLine
 10
83.05517878478
 20
126.698295908528
 30
0.0
 11
83.05517878478
 21
107.284199308756
 31
0.0
  0
TEXT
  5
43B
330
42F
100
AcDbEntity
  8
Layer70
  6
AUSGEZOGEN
 62
   136
370
    18
100
AcDbText
 10
75.745481774009
 20
108.498485023041
 30
0.0
 40
1.25
  1
12
 41
1.131075166857
  7
Arial
 72
     5
 11
77.939767597712
 21
108.498485023041
 31
0.0
100
AcDbText
  0
ENDBLK
  5
431
330
42F
100
AcDbEntity
  8
0
100
AcDbBlockEnd
  0
BLOCK
  5
43E
330
43D
100
AcDbEntity
  8
0
100
AcDbBlockBegin
  2
_CLOSED
 70
     0
 10
0.0
 20
0.0
 30
0.0
  3
_CLOSED
  1

  0
LINE
  5
440
330
43D
100
AcDbEntity
  8
0
  6
ByBlock
 62
     0
370
    -2
100
AcDbLine
 10
-1.0
 20
0.166667
 30
0.0
 11
0.0
 21
0.0
 31
0.0
  0
LINE
  5
441
330
43D
100
AcDbEntity
  8
0
  6
ByBlock
 62
     0
370
    -2
100
AcDbLine
 10
0.0
 20
0.0
 30
0.0
 11
-1.0
 21
-0.166667
 31
0.0
  0
LINE
  5
442
330
43D
100
AcDbEntity
  8
0
  6
ByBlock
 62
     0
370
    -2
100
AcDbLine
 10
-1.0
 20
0.166667
 30
0.0
 11
-1.0
 21
-0.166667
 31
0.0
  0
LINE
  5
443
330
43D
100
AcDbEntity
  8
0
  6
ByBlock
 62
     0
370
    -2
100
AcDbLine
 10
0.0
 20
0.0
 30
0.0
 11
-1.0
 21
0.0
 31
0.0
  0
ENDBLK
  5
43F
330
43D
100
AcDbEntity
  8
0
100
AcDbBlockEnd
  0
BLOCK
  5
445
330
444
100
AcDbEntity
  8
0
100
AcDbBlockBegin
  2
*D9
 70
     1
 10
0.0
 20
0.0
 30
0.0
  3
*D9
  1

  0
LINE
  5
447
330
444
100
AcDbEntity
  8
Layer70
  6
AUSGEZOGEN
 62
   136
370
    18
100
AcDbLine
 10
84.705173829346
 20
104.248485023041
 30
0.0
 11
84.705173829346
 21
103.748485023041
 31
0.0
  0
LINE
  5
448
330
444
100
AcDbEntity
  8
Layer70
  6
AUSGEZOGEN
 62
   136
370
    18
100
AcDbLine
 10
84.705173829346
 20
104.248485023041
 30
0.0
 11
85.955173829346
 21
103.998485023041
 31
0.0
  0
LINE
  5
449
330
444
100
AcDbEntity
  8
Layer70
  6
AUSGEZOGEN
 62
   136
370
    18
100
AcDbLine
 10
85.955173829346
 20
103.998485023041
 30
0.0
 11
84.705173829346
 21
103.748485023041
 31
0.0
  0
LINE
  5
44A
330
444
100
AcDbEntity
  8
Layer70
  6
AUSGEZOGEN
 62
   136
370
    18
100
AcDbLine
 10
69.405173829346
 20
103.748485023041
 30
0.0
 11
69.405173829346
 21
104.248485023041
 31
0.0
  0
LINE
  5
44B
330
444
100
AcDbEntity
  8
Layer70
  6
AUSGEZOGEN
 62
   136
370
    18
100
AcDbLine
 10
69.405173829346
 20
103.748485023041
 30
0.0
 11
68.155173829346
 21
103.998485023041
 31
0.0
  0
LINE
  5
44C
330
444
100
AcDbEntity
  8
Layer70
  6
AUSGEZOGEN
 62
   136
370
    18
100
AcDbLine
 10
68.155173829346
 20
103.998485023041
 30
0.0
 11
69.405173829346
 21
104.248485023041
 31
0.0
  0
LINE
  5
44D
330
444
100
AcDbEntity
  8
Layer70
  6
AUSGEZOGEN
 62
   136
370
    18
100
AcDbLine
 10
68.155173829346
 20
103.998485023041
 30
0.0
 11
85.955173829346
 21
103.998485023041
 31
0.0
  0
LINE
  5
44E
330
444
100
AcDbEntity
  8
Layer70
  6
AUSGEZOGEN
 62
   136
370
    18
100
AcDbLine
 10
68.155173829346
 20
116.214955645161
 30
0.0
 11
68.155173829346
 21
103.284199308756
 31
0.0
  0
LINE
  5
44F
330
444
100
AcDbEntity
  8
Layer70
  6
AUSGEZOGEN
 62
   136
370
    18
100
AcDbLine
 10
85.955173829346
 20
116.214955645161
 30
0.0
 11
85.955173829346
 21
103.284199308756
 31
0.0
  0
TEXT
  5
450
330
444
100
AcDbEntity
  8
Layer70
  6
AUSGEZOGEN
 62
   136
370
    18
100
AcDbText
 10
75.745481774009
 20
104.498485023041
 30
0.0
 40
1.25
  1
17.8
 41
1.209972706038
  7
Arial
 72
     5
 11
79.853339111007
 21
104.498485023041
 31
0.0
100
AcDbText
  0
ENDBLK
  5
446
330
444
100
AcDbEntity
  8
0
100
AcDbBlockEnd
  0
BLOCK
  5
453
330
452
100
AcDbEntity
  8
0
100
AcDbBlockBegin
  2
*D10
 70
     1
 10
0.0
 20
0.0
 30
0.0
  3
*D10
  1

  0
LINE
  5
455
330
452
100
AcDbEntity
  8
Layer70
  6
AUSGEZOGEN
 62
   136
370
    18
100
AcDbLine
 10
63.995481774009
 20
170.481615381795
 30
0.0
 11
64.495481774009
 21
170.481615381795
 31
0.0
  0
LINE
  5
456
330
452
100
AcDbEntity
  8
Layer70
  6
AUSGEZOGEN
 62
   136
370
    18
100
AcDbLine
 10
63.995481774009
 20
170.481615381795
 30
0.0
 11
64.245481774009
 21
171.731615381795
 31
0.0
  0
LINE
  5
457
330
452
100
AcDbEntity
  8
Layer70
  6
AUSGEZOGEN
 62
   136
370
    18
100
AcDbLine
 10
64.245481774009
 20
171.731615381795
 30
0.0
 11
64.495481774009
 21
170.481615381795
 31
0.0
  0
LINE
  5
458
330
452
100
AcDbEntity
  8
Layer70
  6
AUSGEZOGEN
 62
   136
370
    18
100
AcDbLine
 10
64.495481774009
 20
127.948295908528
 30
0.0
 11
63.995481774009
 21
127.948295908528
 31
0.0
  0
LINE
  5
459
330
452
100
AcDbEntity
  8
Layer70
  6
AUSGEZOGEN
 62
   136
370
    18
100
AcDbLine
 10
64.495481774009
 20
127.948295908528
 30
0.0
 11
64.245481774009
 21
126.698295908528
 31
0.0
  0
LINE
  5
45A
330
452
100
AcDbEntity
  8
Layer70
  6
AUSGEZOGEN
 62
   136
370
    18
100
AcDbLine
 10
64.245481774009
 20
126.698295908528
 30
0.0
 11
63.995481774009
 21
127.948295908528
 31
0.0
  0
LINE
  5
45B
330
452
100
AcDbEntity
  8
Layer70
  6
AUSGEZOGEN
 62
   136
370
    18
100
AcDbLine
 10
64.245481774009
 20
126.698295908528
 30
0.0
 11
64.245481774009
 21
171.731615381795
 31
0.0
  0
LINE
  5
45C
330
452
100
AcDbEntity
  8
Layer70
  6
AUSGEZOGEN
 62
   136
370
    18
100
AcDbLine
 10
71.05517878478
 20
126.698295908528
 30
0.0
 11
63.531196059723
 21
126.698295908528
 31
0.0
  0
LINE
  5
45D
330
452
100
AcDbEntity
  8
Layer70
  6
AUSGEZOGEN
 62
   136
370
    18
100
AcDbLine
 10
71.05517878478
 20
171.731615381795
 30
0.0
 11
63.531196059723
 21
171.731615381795
 31
0.0
  0
TEXT
  5
45E
330
452
100
AcDbEntity
  8
Layer70
  6
AUSGEZOGEN
 62
   136
370
    18
100
AcDbText
 10
63.745481774009
 20
146.498485023041
 30
0.0
 40
1.25
  1
45.03
 50
90.0
 41
1.216985820632
  7
Arial
 72
     5
 11
63.745481774009
 21
151.810628130098
 31
0.0
100
AcDbText
  0
ENDBLK
  5
454
330
452
100
AcDbEntity
  8
0
100
AcDbBlockEnd
  0
BLOCK
  5
461
330
460
100
AcDbEntity
  8
0
100
AcDbBlockBegin
  2
*D11
 70
     1
 10
0.0
 20
0.0
 30
0.0
  3
*D11
  1

  0
LINE
  5
463
330
460
100
AcDbEntity
  8
Layer70
  6
AUSGEZOGEN
 62
   136
370
    18
100
AcDbLine
 10
60.495481774009
 20
179.464955645161
 30
0.0
 11
60.995481774009
 21
179.464955645161
 31
0.0
  0
LINE
  5
464
330
460
100
AcDbEntity
  8
Layer70
  6
AUSGEZOGEN
 62
   136
370
    18
100
AcDbLine
 10
60.495481774009
 20
179.464955645161
 30
0.0
 11
60.745481774009
 21
180.714955645161
 31
0.0
  0
LINE
  5
465
330
460
100
AcDbEntity
  8
Layer70
  6
AUSGEZOGEN
 62
   136
370
    18
100
AcDbLine
 10
60.745481774009
 20
180.714955645161
 30
0.0
 11
60.995481774009
 21
179.464955645161
 31
0.0
  0
LINE
  5
466
330
460
100
AcDbEntity
  8
Layer70
  6
AUSGEZOGEN
 62
   136
370
    18
100
AcDbLine
 10
60.995481774009
 20
118.964955645161
 30
0.0
 11
60.495481774009
 21
118.964955645161
 31
0.0
  0
LINE
  5
467
330
460
100
AcDbEntity
  8
Layer70
  6
AUSGEZOGEN
 62
   136
370
    18
100
AcDbLine
 10
60.995481774009
 20
118.964955645161
 30
0.0
 11
60.745481774009
 21
117.714955645161
 31
0.0
  0
LINE
  5
468
330
460
100
AcDbEntity
  8
Layer70
  6
AUSGEZOGEN
 62
   136
370
    18
100
AcDbLine
 10
60.745481774009
 20
117.714955645161
 30
0.0
 11
60.495481774009
 21
118.964955645161
 31
0.0
  0
LINE
  5
469
330
460
100
AcDbEntity
  8
Layer70
  6
AUSGEZOGEN
 62
   136
370
    18
100
AcDbLine
 10
60.745481774009
 20
117.714955645161
 30
0.0
 11
60.745481774009
 21
180.714955645161
 31
0.0
  0
LINE
  5
46A
330
460
100
AcDbEntity
  8
Layer70
  6
AUSGEZOGEN
 62
   136
370
    18
100
AcDbLine
 10
73.093953142893
 20
117.714955645161
 30
0.0
 11
60.031196059723
 21
117.714955645161
 31
0.0
  0
LINE
  5
46B
330
460
100
AcDbEntity
  8
Layer70
  6
AUSGEZOGEN
 62
   136
370
    18
100
AcDbLine
 10
73.471212255888
 20
180.714955645161
 30
0.0
 11
60.031196059723
 21
180.714955645161
 31
0.0
  0
TEXT
  5
46C
330
460
100
AcDbEntity
  8
Layer70
  6
AUSGEZOGEN
 62
   136
370
    18
100
AcDbText
 10
60.245481774009
 20
147.998485023041
 30
0.0
 40
1.25
  1
63
 50
90.0
 41
1.131075166857
  7
Arial
 72
     5
 11
60.245481774009
 21
150.192770846744
 31
0.0
100
AcDbText
  0
ENDBLK
  5
462
330
460
100
AcDbEntity
  8
0
100
AcDbBlockEnd
  0
BLOCK
  5
46F
330
46E
100
AcDbEntity
  8
0
100
AcDbBlockBegin
  2
*D12
 70
     1
 10
0.0
 20
0.0
 30
0.0
  3
*D12
  1

  0
LINE
  5
471
330
46E
100
AcDbEntity
  8
Layer70
  6
AUSGEZOGEN
 62
   136
370
    18
100
AcDbLine
 10
56.995481774009
 20
183.964955645161
 30
0.0
 11
57.495481774009
 21
183.964955645161
 31
0.0
  0
LINE
  5
472
330
46E
100
AcDbEntity
  8
Layer70
  6
AUSGEZOGEN
 62
   136
370
    18
100
AcDbLine
 10
56.995481774009
 20
183.964955645161
 30
0.0
 11
57.245481774009
 21
185.214955645161
 31
0.0
  0
LINE
  5
473
330
46E
100
AcDbEntity
  8
Layer70
  6
AUSGEZOGEN
 62
   136
370
    18
100
AcDbLine
 10
57.245481774009
 20
185.214955645161
 30
0.0
 11
57.495481774009
 21
183.964955645161
 31
0.0
  0
LINE
  5
474
330
46E
100
AcDbEntity
  8
Layer70
  6
AUSGEZOGEN
 62
   136
370
    18
100
AcDbLine
 10
57.495481774009
 20
114.464955645161
 30
0.0
 11
56.995481774009
 21
114.464955645161
 31
0.0
  0
LINE
  5
475
330
46E
100
AcDbEntity
  8
Layer70
  6
AUSGEZOGEN
 62
   136
370
    18
100
AcDbLine
 10
57.495481774009
 20
114.464955645161
 30
0.0
 11
57.245481774009
 21
113.214955645161
 31
0.0
  0
LINE
  5
476
330
46E
100
AcDbEntity
  8
Layer70
  6
AUSGEZOGEN
 62
   136
370
    18
100
AcDbLine
 10
57.245481774009
 20
113.214955645161
 30
0.0
 11
56.995481774009
 21
114.464955645161
 31
0.0
  0
LINE
  5
477
330
46E
100
AcDbEntity
  8
Layer70
  6
AUSGEZOGEN
 62
   136
370
    18
100
AcDbLine
 10
57.245481774009
 20
113.214955645161
 30
0.0
 11
57.245481774009
 21
185.214955645161
 31
0.0
  0
LINE
  5
478
330
46E
100
AcDbEntity
  8
Layer70
  6
AUSGEZOGEN
 62
   136
370
    18
100
AcDbLine
 10
71.155173829346
 20
113.214955645161
 30
0.0
 11
56.531196059723
 21
113.214955645161
 31
0.0
  0
LINE
  5
479
330
46E
100
AcDbEntity
  8
Layer70
  6
AUSGEZOGEN
 62
   136
370
    18
100
AcDbLine
 10
71.155173829346
 20
185.214955645161
 30
0.0
 11
56.531196059723
 21
185.214955645161
 31
0.0
  0
TEXT
  5
47A
330
46E
100
AcDbEntity
  8
Layer70
  6
AUSGEZOGEN
 62
   136
370
    18
100
AcDbText
 10
56.745481774009
 20
147.998485023041
 30
0.0
 40
1.25
  1
72
 50
90.0
 41
1.131075166857
  7
Arial
 72
     5
 11
56.745481774009
 21
150.192770846744
 31
0.0
100
AcDbText
  0
ENDBLK
  5
470
330
46E
100
AcDbEntity
  8
0
100
AcDbBlockEnd
  0
BLOCK
  5
47D
330
47C
100
AcDbEntity
  8
0
100
AcDbBlockBegin
  2
*D13
 70
     1
 10
0.0
 20
0.0
 30
0.0
  3
*D13
  1

  0
LINE
  5
47F
330
47C
100
AcDbEntity
  8
Layer70
  6
AUSGEZOGEN
 62
   136
370
    18
100
AcDbLine
 10
92.215386935892
 20
163.452532843456
 30
0.0
 11
92.648399702896
 21
163.702532730678
 31
0.0
  0
LINE
  5
480
330
47C
100
AcDbEntity
  8
Layer70
  6
AUSGEZOGEN
 62
   136
370
    18
100
AcDbLine
 10
92.215386935892
 20
163.452532843456
 30
0.0
 11
91.806893601338
 21
164.660064704578
 31
0.0
  0
LINE
  5
481
330
47C
100
AcDbEntity
  8
Layer70
  6
AUSGEZOGEN
 62
   136
370
    18
100
AcDbLine
 10
91.806893601338
 20
164.660064704578
 30
0.0
 11
92.648399702896
 21
163.702532730678
 31
0.0
  0
LINE
  5
482
330
47C
100
AcDbEntity
  8
Layer70
  6
AUSGEZOGEN
 62
   136
370
    18
100
AcDbLine
 10
89.898400266785
 20
168.465674339748
 30
0.0
 11
89.46538749978
 21
168.215674452526
 31
0.0
  0
LINE
  5
483
330
47C
100
AcDbEntity
  8
Layer70
  6
AUSGEZOGEN
 62
   136
370
    18
100
AcDbLine
 10
89.898400266785
 20
168.465674339748
 30
0.0
 11
90.306893601338
 21
167.258142478626
 31
0.0
  0
LINE
  5
484
330
47C
100
AcDbEntity
  8
Layer70
  6
AUSGEZOGEN
 62
   136
370
    18
100
AcDbLine
 10
90.306893601338
 20
167.258142478626
 30
0.0
 11
89.46538749978
 21
168.215674452526
 31
0.0
  0
LINE
  5
485
330
47C
100
AcDbEntity
  8
Layer70
  6
AUSGEZOGEN
 62
   136
370
    18
100
AcDbLine
 10
90.306893601338
 20
167.258142478626
 30
0.0
 11
91.806893601338
 21
164.660064704578
 31
0.0
  0
LINE
  5
486
330
47C
100
AcDbEntity
  8
Layer70
  6
AUSGEZOGEN
 62
   136
370
    18
100
AcDbLine
 10
91.806893601338
 20
164.660064704578
 30
0.0
 11
93.681892755505
 21
161.412468952044
 31
0.0
  0
LINE
  5
487
330
47C
100
AcDbEntity
  8
Layer70
  6
AUSGEZOGEN
 62
   136
370
    18
100
AcDbLine
 10
90.306893601338
 20
167.258142478626
 30
0.0
 11
88.431894447171
 21
170.505738231159
 31
0.0
  0
LINE
  5
488
330
47C
100
AcDbEntity
  8
Layer70
  6
AUSGEZOGEN
 62
   136
370
    18
100
AcDbLine
 10
80.05517878478
 20
161.339315729695
 30
0.0
 11
90.925483268487
 21
167.615285174658
 31
0.0
  0
LINE
  5
489
330
47C
100
AcDbEntity
  8
Layer70
  6
AUSGEZOGEN
 62
   136
370
    18
100
AcDbLine
 10
81.55517878478
 20
158.741237955647
 30
0.0
 11
92.425483268487
 21
165.01720740061
 31
0.0
  0
TEXT
  5
48A
330
47C
100
AcDbEntity
  8
Layer70
  6
AUSGEZOGEN
 62
   136
370
    18
100
AcDbText
 10
91.178494541013
 20
166.748484910264
 30
0.0
 40
1.25
  1
3
 50
299.999985077373
 41
1.020618612004
  7
Arial
 72
     5
 11
91.673494344535
 21
165.891119585138
 31
0.0
100
AcDbText
  0
ENDBLK
  5
47E
330
47C
100
AcDbEntity
  8
0
100
AcDbBlockEnd
  0
BLOCK
  5
4B8
330
4B7
100
AcDbEntity
  8
0
100
AcDbBlockBegin
  2
*D14
 70
     1
 10
0.0
 20
0.0
 30
0.0
  3
*D14
  1

  0
LINE
  5
4BA
330
4B7
100
AcDbEntity
  8
Layer70
  6
AUSGEZOGEN
 62
   136
370
    18
100
AcDbLine
 10
110.925777703343
 20
105.823700967848
 30
0.0
 11
110.925777703343
 21
105.323700967848
 31
0.0
  0
LINE
  5
4BB
330
4B7
100
AcDbEntity
  8
Layer70
  6
AUSGEZOGEN
 62
   136
370
    18
100
AcDbLine
 10
110.925777703343
 20
105.823700967848
 30
0.0
 11
112.175777703343
 21
105.573700967848
 31
0.0
  0
LINE
  5
4BC
330
4B7
100
AcDbEntity
  8
Layer70
  6
AUSGEZOGEN
 62
   136
370
    18
100
AcDbLine
 10
112.175777703343
 20
105.573700967848
 30
0.0
 11
110.925777703343
 21
105.323700967848
 31
0.0
  0
LINE
  5
4BD
330
4B7
100
AcDbEntity
  8
Layer70
  6
AUSGEZOGEN
 62
   136
370
    18
100
AcDbLine
 10
107.425777703343
 20
105.323700967848
 30
0.0
 11
107.425777703343
 21
105.823700967848
 31
0.0
  0
LINE
  5
4BE
330
4B7
100
AcDbEntity
  8
Layer70
  6
AUSGEZOGEN
 62
   136
370
    18
100
AcDbLine
 10
107.425777703343
 20
105.323700967848
 30
0.0
 11
106.175777703343
 21
105.573700967848
 31
0.0
  0
LINE
  5
4BF
330
4B7
100
AcDbEntity
  8
Layer70
  6
AUSGEZOGEN
 62
   136
370
    18
100
AcDbLine
 10
106.175777703343
 20
105.573700967848
 30
0.0
 11
107.425777703343
 21
105.823700967848
 31
0.0
  0
LINE
  5
4C0
330
4B7
100
AcDbEntity
  8
Layer70
  6
AUSGEZOGEN
 62
   136
370
    18
100
AcDbLine
 10
106.175777703343
 20
105.573700967848
 30
0.0
 11
112.175777703343
 21
105.573700967848
 31
0.0
  0
LINE
  5
4C1
330
4B7
100
AcDbEntity
  8
Layer70
  6
AUSGEZOGEN
 62
   136
370
    18
100
AcDbLine
 10
106.175777703343
 20
113.214955645161
 30
0.0
 11
106.175777703343
 21
104.859415253562
 31
0.0
  0
LINE
  5
4C2
330
4B7
100
AcDbEntity
  8
Layer70
  6
AUSGEZOGEN
 62
   136
370
    18
100
AcDbLine
 10
112.175777703343
 20
123.872099107874
 30
0.0
 11
112.175777703343
 21
104.859415253562
 31
0.0
  0
TEXT
  5
4C3
330
4B7
100
AcDbEntity
  8
Layer70
  6
AUSGEZOGEN
 62
   136
370
    18
100
AcDbText
 10
107.229818044589
 20
106.073700967848
 30
0.0
 40
1.25
  1
6
 41
1.020618612004
  7
Arial
 72
     5
 11
108.219818098233
 21
106.073700967848
 31
0.0
100
AcDbText
  0
TEXT
  5
4C4
330
4B7
100
AcDbEntity
  8
Layer70
  6
AUSGEZOGEN
 62
   136
370
    18
100
AcDbText
 10
108.434103814648
 20
106.261200967848
 30
0.0
 40
0.875
  1
%%p0.3
 41
1.291250039099
  7
Arial
 72
     5
 11
111.491461094723
 21
106.261200967848
 31
0.0
100
AcDbText
  0
ENDBLK
  5
4B9
330
4B7
100
AcDbEntity
  8
0
100
AcDbBlockEnd
  0
BLOCK
  5
4C8
330
4C7
100
AcDbEntity
  8
0
100
AcDbBlockBegin
  2
*D15
 70
     1
 10
0.0
 20
0.0
 30
0.0
  3
*D15
  1

  0
LINE
  5
4CA
330
4C7
100
AcDbEntity
  8
Layer70
  6
AUSGEZOGEN
 62
   136
370
    18
100
AcDbLine
 10
117.495481774009
 20
183.710211803359
 30
0.0
 11
116.995481774009
 21
183.710211803359
 31
0.0
  0
LINE
  5
4CB
330
4C7
100
AcDbEntity
  8
Layer70
  6
AUSGEZOGEN
 62
   136
370
    18
100
AcDbLine
 10
117.495481774009
 20
183.710211803359
 30
0.0
 11
117.245481774009
 21
182.460211803359
 31
0.0
  0
LINE
  5
4CC
330
4C7
100
AcDbEntity
  8
Layer70
  6
AUSGEZOGEN
 62
   136
370
    18
100
AcDbLine
 10
117.245481774009
 20
182.460211803359
 30
0.0
 11
116.995481774009
 21
183.710211803359
 31
0.0
  0
LINE
  5
4CD
330
4C7
100
AcDbEntity
  8
Layer70
  6
AUSGEZOGEN
 62
   136
370
    18
100
AcDbLine
 10
116.995481774009
 20
177.709699486964
 30
0.0
 11
117.495481774009
 21
177.709699486964
 31
0.0
  0
LINE
  5
4CE
330
4C7
100
AcDbEntity
  8
Layer70
  6
AUSGEZOGEN
 62
   136
370
    18
100
AcDbLine
 10
116.995481774009
 20
177.709699486964
 30
0.0
 11
117.245481774009
 21
178.959699486964
 31
0.0
  0
LINE
  5
4CF
330
4C7
100
AcDbEntity
  8
Layer70
  6
AUSGEZOGEN
 62
   136
370
    18
100
AcDbLine
 10
117.245481774009
 20
178.959699486964
 30
0.0
 11
117.495481774009
 21
177.709699486964
 31
0.0
  0
LINE
  5
4D0
330
4C7
100
AcDbEntity
  8
Layer70
  6
AUSGEZOGEN
 62
   136
370
    18
100
AcDbLine
 10
117.245481774009
 20
178.959699486964
 30
0.0
 11
117.245481774009
 21
182.460211803359
 31
0.0
  0
LINE
  5
4D1
330
4C7
100
AcDbEntity
  8
Layer70
  6
AUSGEZOGEN
 62
   136
370
    18
100
AcDbLine
 10
117.245481774009
 20
182.460211803359
 30
0.0
 11
117.245481774009
 21
186.210211803359
 31
0.0
  0
LINE
  5
4D2
330
4C7
100
AcDbEntity
  8
Layer70
  6
AUSGEZOGEN
 62
   136
370
    18
100
AcDbLine
 10
117.245481774009
 20
178.959699486964
 30
0.0
 11
117.245481774009
 21
175.209699486964
 31
0.0
  0
LINE
  5
4D3
330
4C7
100
AcDbEntity
  8
Layer70
  6
AUSGEZOGEN
 62
   136
370
    18
100
AcDbLine
 10
117.245481774009
 20
182.460211803359
 30
0.0
 11
117.245481774009
 21
188.904913822671
 31
0.0
  0
LINE
  5
4D4
330
4C7
100
AcDbEntity
  8
Layer70
  6
AUSGEZOGEN
 62
   136
370
    18
100
AcDbLine
 10
106.175777703343
 20
178.959699486964
 30
0.0
 11
117.959767488295
 21
178.959699486964
 31
0.0
  0
LINE
  5
4D5
330
4C7
100
AcDbEntity
  8
Layer70
  6
AUSGEZOGEN
 62
   136
370
    18
100
AcDbLine
 10
106.175777703343
 20
182.460211803359
 30
0.0
 11
117.959767488295
 21
182.460211803359
 31
0.0
  0
TEXT
  5
4D6
330
4C7
100
AcDbEntity
  8
Layer70
  6
AUSGEZOGEN
 62
   136
370
    18
100
AcDbText
 10
116.745481774009
 20
184.595627908071
 30
0.0
 40
1.25
  1
%%c3.5
 50
90.0
 41
1.110943306383
  7
Arial
 72
     5
 11
116.745481774009
 21
188.797770964463
 31
0.0
100
AcDbText
  0
ENDBLK
  5
4C9
330
4C7
100
AcDbEntity
  8
0
100
AcDbBlockEnd
  0
BLOCK
  5
4D9
330
4D8
100
AcDbEntity
  8
0
100
AcDbBlockBegin
  2
QS_nNn014
 70
     0
 10
0.0
 20
0.0
 30
0.0
  3
QS_nNn014
  1

  0
TEXT
  5
4DB
330
4D8
100
AcDbEntity
  8
99
  6
AUSGEZOGEN
 62
   136
370
    18
100
AcDbText
 10
49.160505703231
 20
96.444846882351
 30
0.0
 40
1.25
  1
Teil frei von Rissen, Grat, Blasen, Einfallstellen,
 41
1.13496141796
  7
Arial
 72
     5
 11
90.871756515047
 21
96.444846882351
 31
0.0
100
AcDbText
  0
TEXT
  5
4DC
330
4D8
100
AcDbEntity
  8
99
  6
AUSGEZOGEN
 62
   136
370
    18
100
AcDbText
 10
49.160505703231
 20
94.444846852549
 30
0.0
 40
1.25
  1
Fliesslinien, Einschlüssen, Formbelag, Kratzer, Schlieren
 41
1.134732261281
  7
Arial
 72
     5
 11
99.114256675468
 21
94.444846852549
 31
0.0
100
AcDbText
  0
TEXT
  5
4DD
330
4D8
100
AcDbEntity
  8
99
  6
AUSGEZOGEN
 62
   136
370
    18
100
AcDbText
 10
49.160505703231
 20
92.444846822746
 30
0.0
 40
1.25
  1
Grenzwertmuster werden gesondert vereinbart
 41
1.135456394682
  7
Arial
 72
     5
 11
90.119256500401
 21
92.444846822746
 31
0.0
100
AcDbText
  0
ENDBLK
  5
4DA
330
4D8
100
AcDbEntity
  8
0
100
AcDbBlockEnd
  0
BLOCK
  5
4E0
330
4DF
100
AcDbEntity
  8
0
100
AcDbBlockBegin
  2
Reflexwerte_nNn015
 70
     0
 10
0.0
 20
0.0
 30
0.0
  3
Reflexwerte_nNn015
  1

  0
TEXT
  5
4E2
330
4DF
100
AcDbEntity
  8
99
  6
AUSGEZOGEN
 62
   136
370
    18
100
AcDbText
 10
49.068804374421
 20
88.78031943592
 30
0.0
 40
1.25
  1
Reflexionswerte werden gesondert vereinbart
 41
1.135633679475
  7
Arial
 72
     5
 11
88.933805150303
 21
88.78031943592
 31
0.0
100
AcDbText
  0
ENDBLK
  5
4E1
330
4DF
100
AcDbEntity
  8
0
100
AcDbBlockEnd
  0
BLOCK
  5
4EF
330
4EE
100
AcDbEntity
  8
0
100
AcDbBlockBegin
  2
*D18
 70
     1
 10
0.0
 20
0.0
 30
0.0
  3
*D18
  1

  0
LINE
  5
4F1
330
4EE
100
AcDbEntity
  8
Layer70
  6
AUSGEZOGEN
 62
   136
370
    18
100
AcDbLine
 10
111.025777703343
 20
109.25
 30
0.0
 11
111.025777703343
 21
109.75
 31
0.0
  0
LINE
  5
4F2
330
4EE
100
AcDbEntity
  8
Layer70
  6
AUSGEZOGEN
 62
   136
370
    18
100
AcDbLine
 10
111.025777703343
 20
109.25
 30
0.0
 11
109.775777703343
 21
109.5
 31
0.0
  0
LINE
  5
4F3
330
4EE
100
AcDbEntity
  8
Layer70
  6
AUSGEZOGEN
 62
   136
370
    18
100
AcDbLine
 10
109.775777703343
 20
109.5
 30
0.0
 11
111.025777703343
 21
109.75
 31
0.0
  0
LINE
  5
4F4
330
4EE
100
AcDbEntity
  8
Layer70
  6
AUSGEZOGEN
 62
   136
370
    18
100
AcDbLine
 10
104.925777703343
 20
109.75
 30
0.0
 11
104.925777703343
 21
109.25
 31
0.0
  0
LINE
  5
4F5
330
4EE
100
AcDbEntity
  8
Layer70
  6
AUSGEZOGEN
 62
   136
370
    18
100
AcDbLine
 10
104.925777703343
 20
109.75
 30
0.0
 11
106.175777703343
 21
109.5
 31
0.0
  0
LINE
  5
4F6
330
4EE
100
AcDbEntity
  8
Layer70
  6
AUSGEZOGEN
 62
   136
370
    18
100
AcDbLine
 10
106.175777703343
 20
109.5
 30
0.0
 11
104.925777703343
 21
109.25
 31
0.0
  0
LINE
  5
4F7
330
4EE
100
AcDbEntity
  8
Layer70
  6
AUSGEZOGEN
 62
   136
370
    18
100
AcDbLine
 10
106.175777703343
 20
109.5
 30
0.0
 11
109.775777703343
 21
109.5
 31
0.0
  0
LINE
  5
4F8
330
4EE
100
AcDbEntity
  8
Layer70
  6
AUSGEZOGEN
 62
   136
370
    18
100
AcDbLine
 10
109.775777703343
 20
109.5
 30
0.0
 11
113.525777703343
 21
109.5
 31
0.0
  0
LINE
  5
4F9
330
4EE
100
AcDbEntity
  8
Layer70
  6
AUSGEZOGEN
 62
   136
370
    18
100
AcDbLine
 10
106.175777703343
 20
109.5
 30
0.0
 11
102.425777703343
 21
109.5
 31
0.0
  0
LINE
  5
4FA
330
4EE
100
AcDbEntity
  8
Layer70
  6
AUSGEZOGEN
 62
   136
370
    18
100
AcDbLine
 10
106.175777703343
 20
109.5
 30
0.0
 11
101.5
 21
109.5
 31
0.0
  0
LINE
  5
4FB
330
4EE
100
AcDbEntity
  8
Layer70
  6
AUSGEZOGEN
 62
   136
370
    18
100
AcDbLine
 10
106.175777703343
 20
113.214955645161
 30
0.0
 11
106.175777703343
 21
108.785714285714
 31
0.0
  0
LINE
  5
4FC
330
4EE
100
AcDbEntity
  8
Layer70
  6
AUSGEZOGEN
 62
   136
370
    18
100
AcDbLine
 10
109.775777703343
 20
113.340670415332
 30
0.0
 11
109.775777703343
 21
108.785714285714
 31
0.0
  0
WIPEOUT
  5
4FD
330
4EE
100
AcDbEntity
  8
Layer70
  6
AUSGEZOGEN
 62
   136
370
    18
 92
      152
310
98000000040000000C0000000E000000120000000C00000016000000000000C20C00000014000000010000006C00000007000000040000000000B86DDB6659400000000000685B4000000000000000006666FE66662E5A400000000000685B4000000000000000006666FE66662E5A400000000000E85B4000000000000000
310
000000B86DDB6659400000000000E85B400000000000000000
100
AcDbWipeout
 90
        0
 10
101.607142858207
 20
109.625
 30
0.0
 11
3.1178572833538
 21
0.0
 31
0.0
 12
0.0
 22
3.1178572833538
 32
0.0
 13
1.0
 23
1.0
340
0
 70
     7
280
     1
281
    50
282
    50
283
     0
360
0
 71
     2
 91
        5
 14
-0.5
 24
0.5
 14
0.5
 24
0.5
 14
0.5
 24
-0.141466179571
 14
-0.5
 24
-0.141466179571
 14
-0.5
 24
0.5
  0
TEXT
  5
4FE
330
4EE
100
AcDbEntity
  8
Layer70
  6
AUSGEZOGEN
 62
   136
370
    18
100
AcDbText
 10
101.607142858207
 20
110.0
 30
0.0
 40
1.25
  1
3.6
 41
1.197349099769
  7
Arial
 72
     5
 11
104.510714425147
 21
110.0
 31
0.0
100
AcDbText
  0
ENDBLK
  5
4F0
330
4EE
100
AcDbEntity
  8
0
100
AcDbBlockEnd
  0
BLOCK
  5
501
330
500
100
AcDbEntity
  8
0
100
AcDbBlockBegin
  2
AENINDEX_nNn017
 70
     0
 10
0.0
 20
0.0
 30
0.0
  3
AENINDEX_nNn017
  1

  0
CIRCLE
  5
503
330
500
100
AcDbEntity
  8
99
  6
AUSGEZOGEN
 62
     9
370
    18
100
AcDbCircle
 10
99.5
 20
110.5
 30
0.0
 40
1.200000017881393
  0
TEXT
  5
504
330
500
100
AcDbEntity
  8
Layer50
  6
AUSGEZOGEN
 62
     9
370
    18
100
AcDbText
 10
98.944096868264
 20
109.761979044912
 30
0.0
 40
1.5
  1
1
 41
0.811855670103
  7
Arial
 72
     5
 11
99.889096868264
 21
109.761979044912
 31
0.0
100
AcDbText
  0
ENDBLK
  5
502
330
500
100
AcDbEntity
  8
0
100
AcDbBlockEnd
  0
ENDSEC
  0
SECTION
  2
ENTITIES
  0
INSERT
  5
1A2
330
1F
100
AcDbEntity
  8
0
100
AcDbBlockReference
  2
L1_nNn00
 10
0.0
 20
0.0
 30
0.0
  0
TEXT
  5
1A3
330
1F
100
AcDbEntity
  8
99
  6
AUSGEZOGEN
 62
    56
370
    18
100
AcDbText
 10
96.540907860438
 20
79.977749540267
 30
0.0
 40
1.175
  1
Werkstoff/Farbe:Reflektor PMMA glasklar
 41
1.273145125602
  7
Arial
 72
     5
 11
134.949309152732
 21
79.977749540267
 31
0.0
100
AcDbText
  0
TEXT
  5
1A4
330
1F
100
AcDbEntity
  8
99
  6
AUSGEZOGEN
 62
    56
370
    18
100
AcDbText
 10
96.540907860438
 20
78.097749512253
 30
0.0
 40
1.175
  1
                     Abdeckplatte PMMA weiss
 41
1.318934362581
  7
Arial
 72
     5
 11
134.774737710054
 21
78.097749512253
 31
0.0
100
AcDbText
  0
INSERT
  5
1BE
330
1F
100
AcDbEntity
  8
0
100
AcDbBlockReference
  2
L1_nNn04
 10
0.0
 20
0.0
 30
0.0
  0
INSERT
  5
2F6
330
1F
100
AcDbEntity
  8
0
100
AcDbBlockReference
  2
SECHSK1_nNn05
 10
0.0
 20
0.0
 30
0.0
  0
LINE
  5
2F7
330
1F
100
AcDbEntity
  8
99
  6
AUSGEZOGEN
 62
     9
370
    18
100
AcDbLine
 10
71.05517878478
 20
126.698295908528
 30
0.0
 11
83.05517878478
 21
126.698295908528
 31
0.0
  0
LINE
  5
2F8
330
1F
100
AcDbEntity
  8
99
  6
AUSGEZOGEN
 62
     9
370
    18
100
AcDbLine
 10
71.05517878478
 20
126.698295908528
 30
0.0
 11
71.05517878478
 21
171.731615381795
 31
0.0
  0
LINE
  5
2F9
330
1F
100
AcDbEntity
  8
99
  6
AUSGEZOGEN
 62
     9
370
    18
100
AcDbLine
 10
83.05517878478
 20
126.698295908528
 30
0.0
 11
83.05517878478
 21
171.731615381795
 31
0.0
  0
LINE
  5
2FA
330
1F
100
AcDbEntity
  8
99
  6
AUSGEZOGEN
 62
     9
370
    18
100
AcDbLine
 10
71.05517878478
 20
171.731615381795
 30
0.0
 11
83.05517878478
 21
171.731615381795
 31
0.0
  0
LINE
  5
2FB
330
1F
100
AcDbEntity
  8
99
  6
AUSGEZOGEN
 62
     9
370
    18
100
AcDbLine
 10
83.05517878478
 20
171.731615381795
 30
0.0
 11
81.55517878478
 21
170.865595179158
 31
0.0
  0
LINE
  5
2FC
330
1F
100
AcDbEntity
  8
99
  6
AUSGEZOGEN
 62
     9
370
    18
100
AcDbLine
 10
81.55517878478
 20
170.865595179158
 30
0.0
 11
80.05517878478
 21
171.731615381795
 31
0.0
  0
LINE
  5
2FD
330
1F
100
AcDbEntity
  8
70
  6
AUSGEZOGEN
 62
    56
370
    18
100
AcDbLine
 10
81.55517878478
 20
171.731615381795
 30
0.0
 11
81.55517878478
 21
170.865595179158
 31
0.0
  0
LINE
  5
2FE
330
1F
100
AcDbEntity
  8
70
  6
AUSGEZOGEN
 62
    56
370
    18
100
AcDbLine
 10
78.55517878478
 20
171.731615381795
 30
0.0
 11
78.55517878478
 21
170.865595179158
 31
0.0
  0
LINE
  5
2FF
330
1F
100
AcDbEntity
  8
99
  6
AUSGEZOGEN
 62
     9
370
    18
100
AcDbLine
 10
80.05517878478
 20
171.731615381795
 30
0.0
 11
78.55517878478
 21
170.865595179158
 31
0.0
  0
LINE
  5
300
330
1F
100
AcDbEntity
  8
99
  6
AUSGEZOGEN
 62
     9
370
    18
100
AcDbLine
 10
78.55517878478
 20
170.865595179158
 30
0.0
 11
77.05517878478
 21
171.731615381795
 31
0.0
  0
LINE
  5
301
330
1F
100
AcDbEntity
  8
99
  6
AUSGEZOGEN
 62
     9
370
    18
100
AcDbLine
 10
74.05517878478
 20
171.731615381795
 30
0.0
 11
72.55517878478
 21
170.865595179158
 31
0.0
  0
LINE
  5
302
330
1F
100
AcDbEntity
  8
99
  6
AUSGEZOGEN
 62
     9
370
    18
100
AcDbLine
 10
72.55517878478
 20
170.865595179158
 30
0.0
 11
71.05517878478
 21
171.731615381795
 31
0.0
  0
LINE
  5
303
330
1F
100
AcDbEntity
  8
70
  6
AUSGEZOGEN
 62
    56
370
    18
100
AcDbLine
 10
72.55517878478
 20
171.731615381795
 30
0.0
 11
72.55517878478
 21
170.865595179158
 31
0.0
  0
LINE
  5
304
330
1F
100
AcDbEntity
  8
70
  6
AUSGEZOGEN
 62
    56
370
    18
100
AcDbLine
 10
75.55517878478
 20
171.731615381795
 30
0.0
 11
75.55517878478
 21
170.865595179158
 31
0.0
  0
LINE
  5
305
330
1F
100
AcDbEntity
  8
99
  6
AUSGEZOGEN
 62
     9
370
    18
100
AcDbLine
 10
77.05517878478
 20
171.731615381795
 30
0.0
 11
75.55517878478
 21
170.865595179158
 31
0.0
  0
LINE
  5
306
330
1F
100
AcDbEntity
  8
99
  6
AUSGEZOGEN
 62
     9
370
    18
100
AcDbLine
 10
75.55517878478
 20
170.865595179158
 30
0.0
 11
74.05517878478
 21
171.731615381795
 31
0.0
  0
LINE
  5
307
330
1F
100
AcDbEntity
  8
99
  6
AUSGEZOGEN
 62
     9
370
    18
100
AcDbLine
 10
72.55517878478
 20
170.865595179158
 30
0.0
 11
74.05517878478
 21
171.731615381795
 31
0.0
  0
LINE
  5
308
330
1F
100
AcDbEntity
  8
99
  6
AUSGEZOGEN
 62
     9
370
    18
100
AcDbLine
 10
74.05517878478
 20
171.731615381795
 30
0.0
 11
75.55517878478
 21
170.865595179158
 31
0.0
  0
LINE
  5
309
330
1F
100
AcDbEntity
  8
99
  6
AUSGEZOGEN
 62
     9
370
    18
100
AcDbLine
 10
75.55517878478
 20
170.865595179158
 30
0.0
 11
75.55517878478
 21
169.133543329793
 31
0.0
  0
LINE
  5
30A
330
1F
100
AcDbEntity
  8
99
  6
AUSGEZOGEN
 62
     9
370
    18
100
AcDbLine
 10
75.55517878478
 20
169.133543329793
 30
0.0
 11
74.05517878478
 21
168.26751740511
 31
0.0
  0
LINE
  5
30B
330
1F
100
AcDbEntity
  8
99
  6
AUSGEZOGEN
 62
     9
370
    18
100
AcDbLine
 10
74.05517878478
 20
168.26751740511
 30
0.0
 11
72.55517878478
 21
169.133543329793
 31
0.0
  0
LINE
  5
30C
330
1F
100
AcDbEntity
  8
99
  6
AUSGEZOGEN
 62
     9
370
    18
100
AcDbLine
 10
72.55517878478
 20
169.133543329793
 30
0.0
 11
72.55517878478
 21
170.865595179158
 31
0.0
  0
LINE
  5
30D
330
1F
100
AcDbEntity
  8
70
  6
AUSGEZOGEN
 62
    56
370
    18
100
AcDbLine
 10
72.55517878478
 20
170.865595179158
 30
0.0
 11
74.05517878478
 21
169.999569254475
 31
0.0
  0
LINE
  5
30E
330
1F
100
AcDbEntity
  8
70
  6
AUSGEZOGEN
 62
    56
370
    18
100
AcDbLine
 10
74.05517878478
 20
169.999569254475
 30
0.0
 11
74.05517878478
 21
168.26751740511
 31
0.0
  0
LINE
  5
30F
330
1F
100
AcDbEntity
  8
70
  6
AUSGEZOGEN
 62
    56
370
    18
100
AcDbLine
 10
74.05517878478
 20
169.999569254475
 30
0.0
 11
75.55517878478
 21
170.865595179158
 31
0.0
  0
LINE
  5
310
330
1F
100
AcDbEntity
  8
70
  6
AUSGEZOGEN
 62
    56
370
    18
100
AcDbLine
 10
71.05517878478
 20
169.999569254475
 30
0.0
 11
72.55517878478
 21
170.865595179158
 31
0.0
  0
LINE
  5
311
330
1F
100
AcDbEntity
  8
99
  6
AUSGEZOGEN
 62
     9
370
    18
100
AcDbLine
 10
71.05517878478
 20
171.731615381795
 30
0.0
 11
72.55517878478
 21
170.865595179158
 31
0.0
  0
LINE
  5
312
330
1F
100
AcDbEntity
  8
99
  6
AUSGEZOGEN
 62
     9
370
    18
100
AcDbLine
 10
72.55517878478
 20
170.865595179158
 30
0.0
 11
72.55517878478
 21
169.133543329793
 31
0.0
  0
LINE
  5
313
330
1F
100
AcDbEntity
  8
99
  6
AUSGEZOGEN
 62
     9
370
    18
100
AcDbLine
 10
72.55517878478
 20
169.133543329793
 30
0.0
 11
71.05517878478
 21
168.26751740511
 31
0.0
  0
LINE
  5
314
330
1F
100
AcDbEntity
  8
99
  6
AUSGEZOGEN
 62
     9
370
    18
100
AcDbLine
 10
75.55517878478
 20
170.865595179158
 30
0.0
 11
77.05517878478
 21
171.731615381795
 31
0.0
  0
LINE
  5
315
330
1F
100
AcDbEntity
  8
99
  6
AUSGEZOGEN
 62
     9
370
    18
100
AcDbLine
 10
77.05517878478
 20
171.731615381795
 30
0.0
 11
78.55517878478
 21
170.865595179158
 31
0.0
  0
LINE
  5
316
330
1F
100
AcDbEntity
  8
99
  6
AUSGEZOGEN
 62
     9
370
    18
100
AcDbLine
 10
78.55517878478
 20
170.865595179158
 30
0.0
 11
78.55517878478
 21
169.133543329793
 31
0.0
  0
LINE
  5
317
330
1F
100
AcDbEntity
  8
99
  6
AUSGEZOGEN
 62
     9
370
    18
100
AcDbLine
 10
78.55517878478
 20
169.133543329793
 30
0.0
 11
77.05517878478
 21
168.26751740511
 31
0.0
  0
LINE
  5
318
330
1F
100
AcDbEntity
  8
99
  6
AUSGEZOGEN
 62
     9
370
    18
100
AcDbLine
 10
77.05517878478
 20
168.26751740511
 30
0.0
 11
75.55517878478
 21
169.133543329793
 31
0.0
  0
LINE
  5
319
330
1F
100
AcDbEntity
  8
99
  6
AUSGEZOGEN
 62
     9
370
    18
100
AcDbLine
 10
75.55517878478
 20
169.133543329793
 30
0.0
 11
75.55517878478
 21
170.865595179158
 31
0.0
  0
LINE
  5
31A
330
1F
100
AcDbEntity
  8
70
  6
AUSGEZOGEN
 62
    56
370
    18
100
AcDbLine
 10
75.55517878478
 20
170.865595179158
 30
0.0
 11
77.05517878478
 21
169.999569254475
 31
0.0
  0
LINE
  5
31B
330
1F
100
AcDbEntity
  8
70
  6
AUSGEZOGEN
 62
    56
370
    18
100
AcDbLine
 10
77.05517878478
 20
169.999569254475
 30
0.0
 11
77.05517878478
 21
168.26751740511
 31
0.0
  0
LINE
  5
31C
330
1F
100
AcDbEntity
  8
70
  6
AUSGEZOGEN
 62
    56
370
    18
100
AcDbLine
 10
77.05517878478
 20
169.999569254475
 30
0.0
 11
78.55517878478
 21
170.865595179158
 31
0.0
  0
LINE
  5
31D
330
1F
100
AcDbEntity
  8
70
  6
AUSGEZOGEN
 62
    56
370
    18
100
AcDbLine
 10
80.05517878478
 20
169.999569254475
 30
0.0
 11
81.55517878478
 21
170.865595179158
 31
0.0
  0
LINE
  5
31E
330
1F
100
AcDbEntity
  8
70
  6
AUSGEZOGEN
 62
    56
370
    18
100
AcDbLine
 10
80.05517878478
 20
169.999569254475
 30
0.0
 11
80.05517878478
 21
168.26751740511
 31
0.0
  0
LINE
  5
31F
330
1F
100
AcDbEntity
  8
70
  6
AUSGEZOGEN
 62
    56
370
    18
100
AcDbLine
 10
78.55517878478
 20
170.865595179158
 30
0.0
 11
80.05517878478
 21
169.999569254475
 31
0.0
  0
LINE
  5
320
330
1F
100
AcDbEntity
  8
99
  6
AUSGEZOGEN
 62
     9
370
    18
100
AcDbLine
 10
78.55517878478
 20
170.865595179158
 30
0.0
 11
80.05517878478
 21
171.731615381795
 31
0.0
  0
LINE
  5
321
330
1F
100
AcDbEntity
  8
99
  6
AUSGEZOGEN
 62
     9
370
    18
100
AcDbLine
 10
80.05517878478
 20
171.731615381795
 30
0.0
 11
81.55517878478
 21
170.865595179158
 31
0.0
  0
LINE
  5
322
330
1F
100
AcDbEntity
  8
99
  6
AUSGEZOGEN
 62
     9
370
    18
100
AcDbLine
 10
81.55517878478
 20
170.865595179158
 30
0.0
 11
81.55517878478
 21
169.133543329793
 31
0.0
  0
LINE
  5
323
330
1F
100
AcDbEntity
  8
99
  6
AUSGEZOGEN
 62
     9
370
    18
100
AcDbLine
 10
81.55517878478
 20
169.133543329793
 30
0.0
 11
80.05517878478
 21
168.26751740511
 31
0.0
  0
LINE
  5
324
330
1F
100
AcDbEntity
  8
99
  6
AUSGEZOGEN
 62
     9
370
    18
100
AcDbLine
 10
80.05517878478
 20
168.26751740511
 30
0.0
 11
78.55517878478
 21
169.133543329793
 31
0.0
  0
LINE
  5
325
330
1F
100
AcDbEntity
  8
99
  6
AUSGEZOGEN
 62
     9
370
    18
100
AcDbLine
 10
78.55517878478
 20
169.133543329793
 30
0.0
 11
78.55517878478
 21
170.865595179158
 31
0.0
  0
LINE
  5
326
330
1F
100
AcDbEntity
  8
70
  6
AUSGEZOGEN
 62
    56
370
    18
100
AcDbLine
 10
81.55517878478
 20
170.865595179158
 30
0.0
 11
83.05517878478
 21
169.999569254475
 31
0.0
  0
LINE
  5
327
330
1F
100
AcDbEntity
  8
99
  6
AUSGEZOGEN
 62
     9
370
    18
100
AcDbLine
 10
81.55517878478
 20
170.865595179158
 30
0.0
 11
83.05517878478
 21
171.731615381795
 31
0.0
  0
LINE
  5
328
330
1F
100
AcDbEntity
  8
99
  6
AUSGEZOGEN
 62
     9
370
    18
100
AcDbLine
 10
83.05517878478
 20
168.26751740511
 30
0.0
 11
81.55517878478
 21
169.133543329793
 31
0.0
  0
LINE
  5
329
330
1F
100
AcDbEntity
  8
99
  6
AUSGEZOGEN
 62
     9
370
    18
100
AcDbLine
 10
81.55517878478
 20
169.133543329793
 30
0.0
 11
81.55517878478
 21
170.865595179158
 31
0.0
  0
LINE
  5
32A
330
1F
100
AcDbEntity
  8
99
  6
AUSGEZOGEN
 62
     9
370
    18
100
AcDbLine
 10
81.55517878478
 20
165.669439631062
 30
0.0
 11
83.05517878478
 21
166.535465555745
 31
0.0
  0
LINE
  5
32B
330
1F
100
AcDbEntity
  8
99
  6
AUSGEZOGEN
 62
     9
370
    18
100
AcDbLine
 10
83.05517878478
 20
163.071361857014
 30
0.0
 11
81.55517878478
 21
163.937387781697
 31
0.0
  0
LINE
  5
32C
330
1F
100
AcDbEntity
  8
99
  6
AUSGEZOGEN
 62
     9
370
    18
100
AcDbLine
 10
81.55517878478
 20
163.937387781697
 30
0.0
 11
81.55517878478
 21
165.669439631062
 31
0.0
  0
LINE
  5
32D
330
1F
100
AcDbEntity
  8
70
  6
AUSGEZOGEN
 62
    56
370
    18
100
AcDbLine
 10
81.55517878478
 20
165.669439631062
 30
0.0
 11
83.05517878478
 21
164.80341370638
 31
0.0
  0
LINE
  5
32E
330
1F
100
AcDbEntity
  8
99
  6
AUSGEZOGEN
 62
     9
370
    18
100
AcDbLine
 10
78.55517878478
 20
165.669439631062
 30
0.0
 11
80.05517878478
 21
166.535465555745
 31
0.0
  0
LINE
  5
32F
330
1F
100
AcDbEntity
  8
99
  6
AUSGEZOGEN
 62
     9
370
    18
100
AcDbLine
 10
80.05517878478
 20
166.535465555745
 30
0.0
 11
81.55517878478
 21
165.669439631062
 31
0.0
  0
LINE
  5
330
330
1F
100
AcDbEntity
  8
99
  6
AUSGEZOGEN
 62
     9
370
    18
100
AcDbLine
 10
81.55517878478
 20
165.669439631062
 30
0.0
 11
81.55517878478
 21
163.937387781697
 31
0.0
  0
LINE
  5
331
330
1F
100
AcDbEntity
  8
99
  6
AUSGEZOGEN
 62
     9
370
    18
100
AcDbLine
 10
81.55517878478
 20
163.937387781697
 30
0.0
 11
80.05517878478
 21
163.071361857014
 31
0.0
  0
LINE
  5
332
330
1F
100
AcDbEntity
  8
99
  6
AUSGEZOGEN
 62
     9
370
    18
100
AcDbLine
 10
80.05517878478
 20
163.071361857014
 30
0.0
 11
78.55517878478
 21
163.937387781697
 31
0.0
  0
LINE
  5
333
330
1F
100
AcDbEntity
  8
99
  6
AUSGEZOGEN
 62
     9
370
    18
100
AcDbLine
 10
78.55517878478
 20
163.937387781697
 30
0.0
 11
78.55517878478
 21
165.669439631062
 31
0.0
  0
LINE
  5
334
330
1F
100
AcDbEntity
  8
70
  6
AUSGEZOGEN
 62
    56
370
    18
100
AcDbLine
 10
78.55517878478
 20
165.669439631062
 30
0.0
 11
80.05517878478
 21
164.80341370638
 31
0.0
  0
LINE
  5
335
330
1F
100
AcDbEntity
  8
70
  6
AUSGEZOGEN
 62
    56
370
    18
100
AcDbLine
 10
80.05517878478
 20
164.80341370638
 30
0.0
 11
80.05517878478
 21
163.071361857014
 31
0.0
  0
LINE
  5
336
330
1F
100
AcDbEntity
  8
70
  6
AUSGEZOGEN
 62
    56
370
    18
100
AcDbLine
 10
80.05517878478
 20
164.80341370638
 30
0.0
 11
81.55517878478
 21
165.669439631062
 31
0.0
  0
LINE
  5
337
330
1F
100
AcDbEntity
  8
70
  6
AUSGEZOGEN
 62
    56
370
    18
100
AcDbLine
 10
77.05517878478
 20
164.80341370638
 30
0.0
 11
78.55517878478
 21
165.669439631062
 31
0.0
  0
LINE
  5
338
330
1F
100
AcDbEntity
  8
70
  6
AUSGEZOGEN
 62
    56
370
    18
100
AcDbLine
 10
77.05517878478
 20
164.80341370638
 30
0.0
 11
77.05517878478
 21
163.071361857014
 31
0.0
  0
LINE
  5
339
330
1F
100
AcDbEntity
  8
70
  6
AUSGEZOGEN
 62
    56
370
    18
100
AcDbLine
 10
75.55517878478
 20
165.669439631062
 30
0.0
 11
77.05517878478
 21
164.80341370638
 31
0.0
  0
LINE
  5
33A
330
1F
100
AcDbEntity
  8
99
  6
AUSGEZOGEN
 62
     9
370
    18
100
AcDbLine
 10
75.55517878478
 20
165.669439631062
 30
0.0
 11
77.05517878478
 21
166.535465555745
 31
0.0
  0
LINE
  5
33B
330
1F
100
AcDbEntity
  8
99
  6
AUSGEZOGEN
 62
     9
370
    18
100
AcDbLine
 10
77.05517878478
 20
166.535465555745
 30
0.0
 11
78.55517878478
 21
165.669439631062
 31
0.0
  0
LINE
  5
33C
330
1F
100
AcDbEntity
  8
99
  6
AUSGEZOGEN
 62
     9
370
    18
100
AcDbLine
 10
78.55517878478
 20
165.669439631062
 30
0.0
 11
78.55517878478
 21
163.937387781697
 31
0.0
  0
LINE
  5
33D
330
1F
100
AcDbEntity
  8
99
  6
AUSGEZOGEN
 62
     9
370
    18
100
AcDbLine
 10
78.55517878478
 20
163.937387781697
 30
0.0
 11
77.05517878478
 21
163.071361857014
 31
0.0
  0
LINE
  5
33E
330
1F
100
AcDbEntity
  8
99
  6
AUSGEZOGEN
 62
     9
370
    18
100
AcDbLine
 10
77.05517878478
 20
163.071361857014
 30
0.0
 11
75.55517878478
 21
163.937387781697
 31
0.0
  0
LINE
  5
33F
330
1F
100
AcDbEntity
  8
99
  6
AUSGEZOGEN
 62
     9
370
    18
100
AcDbLine
 10
75.55517878478
 20
163.937387781697
 30
0.0
 11
75.55517878478
 21
165.669439631062
 31
0.0
  0
LINE
  5
340
330
1F
100
AcDbEntity
  8
99
  6
AUSGEZOGEN
 62
     9
370
    18
100
AcDbLine
 10
71.05517878478
 20
166.535465555745
 30
0.0
 11
72.55517878478
 21
165.669439631062
 31
0.0
  0
LINE
  5
341
330
1F
100
AcDbEntity
  8
99
  6
AUSGEZOGEN
 62
     9
370
    18
100
AcDbLine
 10
72.55517878478
 20
165.669439631062
 30
0.0
 11
72.55517878478
 21
163.937387781697
 31
0.0
  0
LINE
  5
342
330
1F
100
AcDbEntity
  8
99
  6
AUSGEZOGEN
 62
     9
370
    18
100
AcDbLine
 10
72.55517878478
 20
163.937387781697
 30
0.0
 11
71.05517878478
 21
163.071361857014
 31
0.0
  0
LINE
  5
343
330
1F
100
AcDbEntity
  8
70
  6
AUSGEZOGEN
 62
    56
370
    18
100
AcDbLine
 10
71.05517878478
 20
164.80341370638
 30
0.0
 11
72.55517878478
 21
165.669439631062
 31
0.0
  0
LINE
  5
344
330
1F
100
AcDbEntity
  8
70
  6
AUSGEZOGEN
 62
    56
370
    18
100
AcDbLine
 10
74.05517878478
 20
164.80341370638
 30
0.0
 11
75.55517878478
 21
165.669439631062
 31
0.0
  0
LINE
  5
345
330
1F
100
AcDbEntity
  8
70
  6
AUSGEZOGEN
 62
    56
370
    18
100
AcDbLine
 10
74.05517878478
 20
164.80341370638
 30
0.0
 11
74.05517878478
 21
163.071361857014
 31
0.0
  0
LINE
  5
346
330
1F
100
AcDbEntity
  8
70
  6
AUSGEZOGEN
 62
    56
370
    18
100
AcDbLine
 10
72.55517878478
 20
165.669439631062
 30
0.0
 11
74.05517878478
 21
164.80341370638
 31
0.0
  0
LINE
  5
347
330
1F
100
AcDbEntity
  8
99
  6
AUSGEZOGEN
 62
     9
370
    18
100
AcDbLine
 10
72.55517878478
 20
165.669439631062
 30
0.0
 11
74.05517878478
 21
166.535465555745
 31
0.0
  0
LINE
  5
348
330
1F
100
AcDbEntity
  8
99
  6
AUSGEZOGEN
 62
     9
370
    18
100
AcDbLine
 10
74.05517878478
 20
166.535465555745
 30
0.0
 11
75.55517878478
 21
165.669439631062
 31
0.0
  0
LINE
  5
349
330
1F
100
AcDbEntity
  8
99
  6
AUSGEZOGEN
 62
     9
370
    18
100
AcDbLine
 10
75.55517878478
 20
165.669439631062
 30
0.0
 11
75.55517878478
 21
163.937387781697
 31
0.0
  0
LINE
  5
34A
330
1F
100
AcDbEntity
  8
99
  6
AUSGEZOGEN
 62
     9
370
    18
100
AcDbLine
 10
75.55517878478
 20
163.937387781697
 30
0.0
 11
74.05517878478
 21
163.071361857014
 31
0.0
  0
LINE
  5
34B
330
1F
100
AcDbEntity
  8
99
  6
AUSGEZOGEN
 62
     9
370
    18
100
AcDbLine
 10
74.05517878478
 20
163.071361857014
 30
0.0
 11
72.55517878478
 21
163.937387781697
 31
0.0
  0
LINE
  5
34C
330
1F
100
AcDbEntity
  8
99
  6
AUSGEZOGEN
 62
     9
370
    18
100
AcDbLine
 10
72.55517878478
 20
163.937387781697
 30
0.0
 11
72.55517878478
 21
165.669439631062
 31
0.0
  0
LINE
  5
34D
330
1F
100
AcDbEntity
  8
99
  6
AUSGEZOGEN
 62
     9
370
    18
100
AcDbLine
 10
74.05517878478
 20
168.26751740511
 30
0.0
 11
75.55517878478
 21
169.133543329793
 31
0.0
  0
LINE
  5
34E
330
1F
100
AcDbEntity
  8
99
  6
AUSGEZOGEN
 62
     9
370
    18
100
AcDbLine
 10
75.55517878478
 20
169.133543329793
 30
0.0
 11
77.05517878478
 21
168.26751740511
 31
0.0
  0
LINE
  5
34F
330
1F
100
AcDbEntity
  8
99
  6
AUSGEZOGEN
 62
     9
370
    18
100
AcDbLine
 10
77.05517878478
 20
168.26751740511
 30
0.0
 11
77.05517878478
 21
166.535465555745
 31
0.0
  0
LINE
  5
350
330
1F
100
AcDbEntity
  8
99
  6
AUSGEZOGEN
 62
     9
370
    18
100
AcDbLine
 10
77.05517878478
 20
166.535465555745
 30
0.0
 11
75.55517878478
 21
165.669439631062
 31
0.0
  0
LINE
  5
351
330
1F
100
AcDbEntity
  8
99
  6
AUSGEZOGEN
 62
     9
370
    18
100
AcDbLine
 10
75.55517878478
 20
165.669439631062
 30
0.0
 11
74.05517878478
 21
166.535465555745
 31
0.0
  0
LINE
  5
352
330
1F
100
AcDbEntity
  8
99
  6
AUSGEZOGEN
 62
     9
370
    18
100
AcDbLine
 10
74.05517878478
 20
166.535465555745
 30
0.0
 11
74.05517878478
 21
168.26751740511
 31
0.0
  0
LINE
  5
353
330
1F
100
AcDbEntity
  8
70
  6
AUSGEZOGEN
 62
    56
370
    18
100
AcDbLine
 10
74.05517878478
 20
168.26751740511
 30
0.0
 11
75.55517878478
 21
167.401491480427
 31
0.0
  0
LINE
  5
354
330
1F
100
AcDbEntity
  8
70
  6
AUSGEZOGEN
 62
    56
370
    18
100
AcDbLine
 10
75.55517878478
 20
167.401491480427
 30
0.0
 11
75.55517878478
 21
165.669439631062
 31
0.0
  0
LINE
  5
355
330
1F
100
AcDbEntity
  8
70
  6
AUSGEZOGEN
 62
    56
370
    18
100
AcDbLine
 10
75.55517878478
 20
167.401491480427
 30
0.0
 11
77.05517878478
 21
168.26751740511
 31
0.0
  0
LINE
  5
356
330
1F
100
AcDbEntity
  8
70
  6
AUSGEZOGEN
 62
    56
370
    18
100
AcDbLine
 10
72.55517878478
 20
167.401491480427
 30
0.0
 11
74.05517878478
 21
168.26751740511
 31
0.0
  0
LINE
  5
357
330
1F
100
AcDbEntity
  8
70
  6
AUSGEZOGEN
 62
    56
370
    18
100
AcDbLine
 10
72.55517878478
 20
167.401491480427
 30
0.0
 11
72.55517878478
 21
165.669439631062
 31
0.0
  0
LINE
  5
358
330
1F
100
AcDbEntity
  8
70
  6
AUSGEZOGEN
 62
    56
370
    18
100
AcDbLine
 10
71.05517878478
 20
168.26751740511
 30
0.0
 11
72.55517878478
 21
167.401491480427
 31
0.0
  0
LINE
  5
359
330
1F
100
AcDbEntity
  8
99
  6
AUSGEZOGEN
 62
     9
370
    18
100
AcDbLine
 10
71.05517878478
 20
168.26751740511
 30
0.0
 11
72.55517878478
 21
169.133543329793
 31
0.0
  0
LINE
  5
35A
330
1F
100
AcDbEntity
  8
99
  6
AUSGEZOGEN
 62
     9
370
    18
100
AcDbLine
 10
72.55517878478
 20
169.133543329793
 30
0.0
 11
74.05517878478
 21
168.26751740511
 31
0.0
  0
LINE
  5
35B
330
1F
100
AcDbEntity
  8
99
  6
AUSGEZOGEN
 62
     9
370
    18
100
AcDbLine
 10
74.05517878478
 20
168.26751740511
 30
0.0
 11
74.05517878478
 21
166.535465555745
 31
0.0
  0
LINE
  5
35C
330
1F
100
AcDbEntity
  8
99
  6
AUSGEZOGEN
 62
     9
370
    18
100
AcDbLine
 10
74.05517878478
 20
166.535465555745
 30
0.0
 11
72.55517878478
 21
165.669439631062
 31
0.0
  0
LINE
  5
35D
330
1F
100
AcDbEntity
  8
99
  6
AUSGEZOGEN
 62
     9
370
    18
100
AcDbLine
 10
72.55517878478
 20
165.669439631062
 30
0.0
 11
71.05517878478
 21
166.535465555745
 31
0.0
  0
LINE
  5
35E
330
1F
100
AcDbEntity
  8
99
  6
AUSGEZOGEN
 62
     9
370
    18
100
AcDbLine
 10
77.05517878478
 20
168.26751740511
 30
0.0
 11
78.55517878478
 21
169.133543329793
 31
0.0
  0
LINE
  5
35F
330
1F
100
AcDbEntity
  8
99
  6
AUSGEZOGEN
 62
     9
370
    18
100
AcDbLine
 10
78.55517878478
 20
169.133543329793
 30
0.0
 11
80.05517878478
 21
168.26751740511
 31
0.0
  0
LINE
  5
360
330
1F
100
AcDbEntity
  8
99
  6
AUSGEZOGEN
 62
     9
370
    18
100
AcDbLine
 10
80.05517878478
 20
168.26751740511
 30
0.0
 11
80.05517878478
 21
166.535465555745
 31
0.0
  0
LINE
  5
361
330
1F
100
AcDbEntity
  8
99
  6
AUSGEZOGEN
 62
     9
370
    18
100
AcDbLine
 10
80.05517878478
 20
166.535465555745
 30
0.0
 11
78.55517878478
 21
165.669439631062
 31
0.0
  0
LINE
  5
362
330
1F
100
AcDbEntity
  8
99
  6
AUSGEZOGEN
 62
     9
370
    18
100
AcDbLine
 10
78.55517878478
 20
165.669439631062
 30
0.0
 11
77.05517878478
 21
166.535465555745
 31
0.0
  0
LINE
  5
363
330
1F
100
AcDbEntity
  8
99
  6
AUSGEZOGEN
 62
     9
370
    18
100
AcDbLine
 10
77.05517878478
 20
166.535465555745
 30
0.0
 11
77.05517878478
 21
168.26751740511
 31
0.0
  0
LINE
  5
364
330
1F
100
AcDbEntity
  8
70
  6
AUSGEZOGEN
 62
    56
370
    18
100
AcDbLine
 10
77.05517878478
 20
168.26751740511
 30
0.0
 11
78.55517878478
 21
167.401491480427
 31
0.0
  0
LINE
  5
365
330
1F
100
AcDbEntity
  8
70
  6
AUSGEZOGEN
 62
    56
370
    18
100
AcDbLine
 10
78.55517878478
 20
167.401491480427
 30
0.0
 11
78.55517878478
 21
165.669439631062
 31
0.0
  0
LINE
  5
366
330
1F
100
AcDbEntity
  8
70
  6
AUSGEZOGEN
 62
    56
370
    18
100
AcDbLine
 10
78.55517878478
 20
167.401491480427
 30
0.0
 11
80.05517878478
 21
168.26751740511
 31
0.0
  0
LINE
  5
367
330
1F
100
AcDbEntity
  8
70
  6
AUSGEZOGEN
 62
    56
370
    18
100
AcDbLine
 10
81.55517878478
 20
167.401491480427
 30
0.0
 11
83.05517878478
 21
168.26751740511
 31
0.0
  0
LINE
  5
368
330
1F
100
AcDbEntity
  8
70
  6
AUSGEZOGEN
 62
    56
370
    18
100
AcDbLine
 10
81.55517878478
 20
167.401491480427
 30
0.0
 11
81.55517878478
 21
165.669439631062
 31
0.0
  0
LINE
  5
369
330
1F
100
AcDbEntity
  8
70
  6
AUSGEZOGEN
 62
    56
370
    18
100
AcDbLine
 10
80.05517878478
 20
168.26751740511
 30
0.0
 11
81.55517878478
 21
167.401491480427
 31
0.0
  0
LINE
  5
36A
330
1F
100
AcDbEntity
  8
99
  6
AUSGEZOGEN
 62
     9
370
    18
100
AcDbLine
 10
80.05517878478
 20
168.26751740511
 30
0.0
 11
81.55517878478
 21
169.133543329793
 31
0.0
  0
LINE
  5
36B
330
1F
100
AcDbEntity
  8
99
  6
AUSGEZOGEN
 62
     9
370
    18
100
AcDbLine
 10
81.55517878478
 20
169.133543329793
 30
0.0
 11
83.05517878478
 21
168.26751740511
 31
0.0
  0
LINE
  5
36C
330
1F
100
AcDbEntity
  8
99
  6
AUSGEZOGEN
 62
     9
370
    18
100
AcDbLine
 10
83.05517878478
 20
166.535465555745
 30
0.0
 11
81.55517878478
 21
165.669439631062
 31
0.0
  0
LINE
  5
36D
330
1F
100
AcDbEntity
  8
99
  6
AUSGEZOGEN
 62
     9
370
    18
100
AcDbLine
 10
81.55517878478
 20
165.669439631062
 30
0.0
 11
80.05517878478
 21
166.535465555745
 31
0.0
  0
LINE
  5
36E
330
1F
100
AcDbEntity
  8
99
  6
AUSGEZOGEN
 62
     9
370
    18
100
AcDbLine
 10
80.05517878478
 20
166.535465555745
 30
0.0
 11
80.05517878478
 21
168.26751740511
 31
0.0
  0
LINE
  5
36F
330
1F
100
AcDbEntity
  8
99
  6
AUSGEZOGEN
 62
     9
370
    18
100
AcDbLine
 10
81.55517878478
 20
160.473289805012
 30
0.0
 11
83.05517878478
 21
161.339315729695
 31
0.0
  0
LINE
  5
370
330
1F
100
AcDbEntity
  8
99
  6
AUSGEZOGEN
 62
     9
370
    18
100
AcDbLine
 10
83.05517878478
 20
157.875212030965
 30
0.0
 11
81.55517878478
 21
158.741237955647
 31
0.0
  0
LINE
  5
371
330
1F
100
AcDbEntity
  8
99
  6
AUSGEZOGEN
 62
     9
370
    18
100
AcDbLine
 10
81.55517878478
 20
158.741237955647
 30
0.0
 11
81.55517878478
 21
160.473289805012
 31
0.0
  0
LINE
  5
372
330
1F
100
AcDbEntity
  8
70
  6
AUSGEZOGEN
 62
    56
370
    18
100
AcDbLine
 10
81.55517878478
 20
160.473289805012
 30
0.0
 11
83.05517878478
 21
159.60726388033
 31
0.0
  0
LINE
  5
373
330
1F
100
AcDbEntity
  8
99
  6
AUSGEZOGEN
 62
     9
370
    18
100
AcDbLine
 10
78.55517878478
 20
160.473289805012
 30
0.0
 11
80.05517878478
 21
161.339315729695
 31
0.0
  0
LINE
  5
374
330
1F
100
AcDbEntity
  8
99
  6
AUSGEZOGEN
 62
     9
370
    18
100
AcDbLine
 10
80.05517878478
 20
161.339315729695
 30
0.0
 11
81.55517878478
 21
160.473289805012
 31
0.0
  0
LINE
  5
375
330
1F
100
AcDbEntity
  8
99
  6
AUSGEZOGEN
 62
     9
370
    18
100
AcDbLine
 10
81.55517878478
 20
160.473289805012
 30
0.0
 11
81.55517878478
 21
158.741237955647
 31
0.0
  0
LINE
  5
376
330
1F
100
AcDbEntity
  8
99
  6
AUSGEZOGEN
 62
     9
370
    18
100
AcDbLine
 10
81.55517878478
 20
158.741237955647
 30
0.0
 11
80.05517878478
 21
157.875212030965
 31
0.0
  0
LINE
  5
377
330
1F
100
AcDbEntity
  8
99
  6
AUSGEZOGEN
 62
     9
370
    18
100
AcDbLine
 10
80.05517878478
 20
157.875212030965
 30
0.0
 11
78.55517878478
 21
158.741237955647
 31
0.0
  0
LINE
  5
378
330
1F
100
AcDbEntity
  8
99
  6
AUSGEZOGEN
 62
     9
370
    18
100
AcDbLine
 10
78.55517878478
 20
158.741237955647
 30
0.0
 11
78.55517878478
 21
160.473289805012
 31
0.0
  0
LINE
  5
379
330
1F
100
AcDbEntity
  8
70
  6
AUSGEZOGEN
 62
    56
370
    18
100
AcDbLine
 10
78.55517878478
 20
160.473289805012
 30
0.0
 11
80.05517878478
 21
159.60726388033
 31
0.0
  0
LINE
  5
37A
330
1F
100
AcDbEntity
  8
70
  6
AUSGEZOGEN
 62
    56
370
    18
100
AcDbLine
 10
80.05517878478
 20
159.60726388033
 30
0.0
 11
80.05517878478
 21
157.875212030965
 31
0.0
  0
LINE
  5
37B
330
1F
100
AcDbEntity
  8
70
  6
AUSGEZOGEN
 62
    56
370
    18
100
AcDbLine
 10
80.05517878478
 20
159.60726388033
 30
0.0
 11
81.55517878478
 21
160.473289805012
 31
0.0
  0
LINE
  5
37C
330
1F
100
AcDbEntity
  8
70
  6
AUSGEZOGEN
 62
    56
370
    18
100
AcDbLine
 10
77.05517878478
 20
159.60726388033
 30
0.0
 11
78.55517878478
 21
160.473289805012
 31
0.0
  0
LINE
  5
37D
330
1F
100
AcDbEntity
  8
70
  6
AUSGEZOGEN
 62
    56
370
    18
100
AcDbLine
 10
77.05517878478
 20
159.60726388033
 30
0.0
 11
77.05517878478
 21
157.875212030965
 31
0.0
  0
LINE
  5
37E
330
1F
100
AcDbEntity
  8
70
  6
AUSGEZOGEN
 62
    56
370
    18
100
AcDbLine
 10
75.55517878478
 20
160.473289805012
 30
0.0
 11
77.05517878478
 21
159.60726388033
 31
0.0
  0
LINE
  5
37F
330
1F
100
AcDbEntity
  8
99
  6
AUSGEZOGEN
 62
     9
370
    18
100
AcDbLine
 10
75.55517878478
 20
160.473289805012
 30
0.0
 11
77.05517878478
 21
161.339315729695
 31
0.0
  0
LINE
  5
380
330
1F
100
AcDbEntity
  8
99
  6
AUSGEZOGEN
 62
     9
370
    18
100
AcDbLine
 10
77.05517878478
 20
161.339315729695
 30
0.0
 11
78.55517878478
 21
160.473289805012
 31
0.0
  0
LINE
  5
381
330
1F
100
AcDbEntity
  8
99
  6
AUSGEZOGEN
 62
     9
370
    18
100
AcDbLine
 10
78.55517878478
 20
160.473289805012
 30
0.0
 11
78.55517878478
 21
158.741237955647
 31
0.0
  0
LINE
  5
382
330
1F
100
AcDbEntity
  8
99
  6
AUSGEZOGEN
 62
     9
370
    18
100
AcDbLine
 10
78.55517878478
 20
158.741237955647
 30
0.0
 11
77.05517878478
 21
157.875212030965
 31
0.0
  0
LINE
  5
383
330
1F
100
AcDbEntity
  8
99
  6
AUSGEZOGEN
 62
     9
370
    18
100
AcDbLine
 10
77.05517878478
 20
157.875212030965
 30
0.0
 11
75.55517878478
 21
158.741237955647
 31
0.0
  0
LINE
  5
384
330
1F
100
AcDbEntity
  8
99
  6
AUSGEZOGEN
 62
     9
370
    18
100
AcDbLine
 10
75.55517878478
 20
158.741237955647
 30
0.0
 11
75.55517878478
 21
160.473289805012
 31
0.0
  0
LINE
  5
385
330
1F
100
AcDbEntity
  8
99
  6
AUSGEZOGEN
 62
     9
370
    18
100
AcDbLine
 10
71.05517878478
 20
161.339315729695
 30
0.0
 11
72.55517878478
 21
160.473289805012
 31
0.0
  0
LINE
  5
386
330
1F
100
AcDbEntity
  8
99
  6
AUSGEZOGEN
 62
     9
370
    18
100
AcDbLine
 10
72.55517878478
 20
160.473289805012
 30
0.0
 11
72.55517878478
 21
158.741237955647
 31
0.0
  0
LINE
  5
387
330
1F
100
AcDbEntity
  8
99
  6
AUSGEZOGEN
 62
     9
370
    18
100
AcDbLine
 10
72.55517878478
 20
158.741237955647
 30
0.0
 11
71.05517878478
 21
157.875212030965
 31
0.0
  0
LINE
  5
388
330
1F
100
AcDbEntity
  8
70
  6
AUSGEZOGEN
 62
    56
370
    18
100
AcDbLine
 10
71.05517878478
 20
159.60726388033
 30
0.0
 11
72.55517878478
 21
160.473289805012
 31
0.0
  0
LINE
  5
389
330
1F
100
AcDbEntity
  8
70
  6
AUSGEZOGEN
 62
    56
370
    18
100
AcDbLine
 10
74.05517878478
 20
159.60726388033
 30
0.0
 11
75.55517878478
 21
160.473289805012
 31
0.0
  0
LINE
  5
38A
330
1F
100
AcDbEntity
  8
70
  6
AUSGEZOGEN
 62
    56
370
    18
100
AcDbLine
 10
74.05517878478
 20
159.60726388033
 30
0.0
 11
74.05517878478
 21
157.875212030965
 31
0.0
  0
LINE
  5
38B
330
1F
100
AcDbEntity
  8
70
  6
AUSGEZOGEN
 62
    56
370
    18
100
AcDbLine
 10
72.55517878478
 20
160.473289805012
 30
0.0
 11
74.05517878478
 21
159.60726388033
 31
0.0
  0
LINE
  5
38C
330
1F
100
AcDbEntity
  8
99
  6
AUSGEZOGEN
 62
     9
370
    18
100
AcDbLine
 10
72.55517878478
 20
160.473289805012
 30
0.0
 11
74.05517878478
 21
161.339315729695
 31
0.0
  0
LINE
  5
38D
330
1F
100
AcDbEntity
  8
99
  6
AUSGEZOGEN
 62
     9
370
    18
100
AcDbLine
 10
74.05517878478
 20
161.339315729695
 30
0.0
 11
75.55517878478
 21
160.473289805012
 31
0.0
  0
LINE
  5
38E
330
1F
100
AcDbEntity
  8
99
  6
AUSGEZOGEN
 62
     9
370
    18
100
AcDbLine
 10
75.55517878478
 20
160.473289805012
 30
0.0
 11
75.55517878478
 21
158.741237955647
 31
0.0
  0
LINE
  5
38F
330
1F
100
AcDbEntity
  8
99
  6
AUSGEZOGEN
 62
     9
370
    18
100
AcDbLine
 10
75.55517878478
 20
158.741237955647
 30
0.0
 11
74.05517878478
 21
157.875212030965
 31
0.0
  0
LINE
  5
390
330
1F
100
AcDbEntity
  8
99
  6
AUSGEZOGEN
 62
     9
370
    18
100
AcDbLine
 10
74.05517878478
 20
157.875212030965
 30
0.0
 11
72.55517878478
 21
158.741237955647
 31
0.0
  0
LINE
  5
391
330
1F
100
AcDbEntity
  8
99
  6
AUSGEZOGEN
 62
     9
370
    18
100
AcDbLine
 10
72.55517878478
 20
158.741237955647
 30
0.0
 11
72.55517878478
 21
160.473289805012
 31
0.0
  0
LINE
  5
392
330
1F
100
AcDbEntity
  8
99
  6
AUSGEZOGEN
 62
     9
370
    18
100
AcDbLine
 10
74.05517878478
 20
163.071361857014
 30
0.0
 11
75.55517878478
 21
163.937387781697
 31
0.0
  0
LINE
  5
393
330
1F
100
AcDbEntity
  8
99
  6
AUSGEZOGEN
 62
     9
370
    18
100
AcDbLine
 10
75.55517878478
 20
163.937387781697
 30
0.0
 11
77.05517878478
 21
163.071361857014
 31
0.0
  0
LINE
  5
394
330
1F
100
AcDbEntity
  8
99
  6
AUSGEZOGEN
 62
     9
370
    18
100
AcDbLine
 10
77.05517878478
 20
163.071361857014
 30
0.0
 11
77.05517878478
 21
161.339315729695
 31
0.0
  0
LINE
  5
395
330
1F
100
AcDbEntity
  8
99
  6
AUSGEZOGEN
 62
     9
370
    18
100
AcDbLine
 10
77.05517878478
 20
161.339315729695
 30
0.0
 11
75.55517878478
 21
160.473289805012
 31
0.0
  0
LINE
  5
396
330
1F
100
AcDbEntity
  8
99
  6
AUSGEZOGEN
 62
     9
370
    18
100
AcDbLine
 10
75.55517878478
 20
160.473289805012
 30
0.0
 11
74.05517878478
 21
161.339315729695
 31
0.0
  0
LINE
  5
397
330
1F
100
AcDbEntity
  8
99
  6
AUSGEZOGEN
 62
     9
370
    18
100
AcDbLine
 10
74.05517878478
 20
161.339315729695
 30
0.0
 11
74.05517878478
 21
163.071361857014
 31
0.0
  0
LINE
  5
398
330
1F
100
AcDbEntity
  8
70
  6
AUSGEZOGEN
 62
    56
370
    18
100
AcDbLine
 10
74.05517878478
 20
163.071361857014
 30
0.0
 11
75.55517878478
 21
162.205341654378
 31
0.0
  0
LINE
  5
399
330
1F
100
AcDbEntity
  8
70
  6
AUSGEZOGEN
 62
    56
370
    18
100
AcDbLine
 10
75.55517878478
 20
162.205341654378
 30
0.0
 11
75.55517878478
 21
160.473289805012
 31
0.0
  0
LINE
  5
39A
330
1F
100
AcDbEntity
  8
70
  6
AUSGEZOGEN
 62
    56
370
    18
100
AcDbLine
 10
75.55517878478
 20
162.205341654378
 30
0.0
 11
77.05517878478
 21
163.071361857014
 31
0.0
  0
LINE
  5
39B
330
1F
100
AcDbEntity
  8
70
  6
AUSGEZOGEN
 62
    56
370
    18
100
AcDbLine
 10
72.55517878478
 20
162.205341654378
 30
0.0
 11
74.05517878478
 21
163.071361857014
 31
0.0
  0
LINE
  5
39C
330
1F
100
AcDbEntity
  8
70
  6
AUSGEZOGEN
 62
    56
370
    18
100
AcDbLine
 10
72.55517878478
 20
162.205341654378
 30
0.0
 11
72.55517878478
 21
160.473289805012
 31
0.0
  0
LINE
  5
39D
330
1F
100
AcDbEntity
  8
70
  6
AUSGEZOGEN
 62
    56
370
    18
100
AcDbLine
 10
71.05517878478
 20
163.071361857014
 30
0.0
 11
72.55517878478
 21
162.205341654378
 31
0.0
  0
LINE
  5
39E
330
1F
100
AcDbEntity
  8
99
  6
AUSGEZOGEN
 62
     9
370
    18
100
AcDbLine
 10
71.05517878478
 20
163.071361857014
 30
0.0
 11
72.55517878478
 21
163.937387781697
 31
0.0
  0
LINE
  5
39F
330
1F
100
AcDbEntity
  8
99
  6
AUSGEZOGEN
 62
     9
370
    18
100
AcDbLine
 10
72.55517878478
 20
163.937387781697
 30
0.0
 11
74.05517878478
 21
163.071361857014
 31
0.0
  0
LINE
  5
3A0
330
1F
100
AcDbEntity
  8
99
  6
AUSGEZOGEN
 62
     9
370
    18
100
AcDbLine
 10
74.05517878478
 20
163.071361857014
 30
0.0
 11
74.05517878478
 21
161.339315729695
 31
0.0
  0
LINE
  5
3A1
330
1F
100
AcDbEntity
  8
99
  6
AUSGEZOGEN
 62
     9
370
    18
100
AcDbLine
 10
74.05517878478
 20
161.339315729695
 30
0.0
 11
72.55517878478
 21
160.473289805012
 31
0.0
  0
LINE
  5
3A2
330
1F
100
AcDbEntity
  8
99
  6
AUSGEZOGEN
 62
     9
370
    18
100
AcDbLine
 10
72.55517878478
 20
160.473289805012
 30
0.0
 11
71.05517878478
 21
161.339315729695
 31
0.0
  0
LINE
  5
3A3
330
1F
100
AcDbEntity
  8
99
  6
AUSGEZOGEN
 62
     9
370
    18
100
AcDbLine
 10
77.05517878478
 20
163.071361857014
 30
0.0
 11
78.55517878478
 21
163.937387781697
 31
0.0
  0
LINE
  5
3A4
330
1F
100
AcDbEntity
  8
99
  6
AUSGEZOGEN
 62
     9
370
    18
100
AcDbLine
 10
78.55517878478
 20
163.937387781697
 30
0.0
 11
80.05517878478
 21
163.071361857014
 31
0.0
  0
LINE
  5
3A5
330
1F
100
AcDbEntity
  8
99
  6
AUSGEZOGEN
 62
     9
370
    18
100
AcDbLine
 10
80.05517878478
 20
163.071361857014
 30
0.0
 11
80.05517878478
 21
161.339315729695
 31
0.0
  0
LINE
  5
3A6
330
1F
100
AcDbEntity
  8
99
  6
AUSGEZOGEN
 62
     9
370
    18
100
AcDbLine
 10
80.05517878478
 20
161.339315729695
 30
0.0
 11
78.55517878478
 21
160.473289805012
 31
0.0
  0
LINE
  5
3A7
330
1F
100
AcDbEntity
  8
99
  6
AUSGEZOGEN
 62
     9
370
    18
100
AcDbLine
 10
78.55517878478
 20
160.473289805012
 30
0.0
 11
77.05517878478
 21
161.339315729695
 31
0.0
  0
LINE
  5
3A8
330
1F
100
AcDbEntity
  8
99
  6
AUSGEZOGEN
 62
     9
370
    18
100
AcDbLine
 10
77.05517878478
 20
161.339315729695
 30
0.0
 11
77.05517878478
 21
163.071361857014
 31
0.0
  0
LINE
  5
3A9
330
1F
100
AcDbEntity
  8
70
  6
AUSGEZOGEN
 62
    56
370
    18
100
AcDbLine
 10
77.05517878478
 20
163.071361857014
 30
0.0
 11
78.55517878478
 21
162.205341654378
 31
0.0
  0
LINE
  5
3AA
330
1F
100
AcDbEntity
  8
70
  6
AUSGEZOGEN
 62
    56
370
    18
100
AcDbLine
 10
78.55517878478
 20
162.205341654378
 30
0.0
 11
78.55517878478
 21
160.473289805012
 31
0.0
  0
LINE
  5
3AB
330
1F
100
AcDbEntity
  8
70
  6
AUSGEZOGEN
 62
    56
370
    18
100
AcDbLine
 10
78.55517878478
 20
162.205341654378
 30
0.0
 11
80.05517878478
 21
163.071361857014
 31
0.0
  0
LINE
  5
3AC
330
1F
100
AcDbEntity
  8
70
  6
AUSGEZOGEN
 62
    56
370
    18
100
AcDbLine
 10
81.55517878478
 20
162.205341654378
 30
0.0
 11
83.05517878478
 21
163.071361857014
 31
0.0
  0
LINE
  5
3AD
330
1F
100
AcDbEntity
  8
70
  6
AUSGEZOGEN
 62
    56
370
    18
100
AcDbLine
 10
81.55517878478
 20
162.205341654378
 30
0.0
 11
81.55517878478
 21
160.473289805012
 31
0.0
  0
LINE
  5
3AE
330
1F
100
AcDbEntity
  8
70
  6
AUSGEZOGEN
 62
    56
370
    18
100
AcDbLine
 10
80.05517878478
 20
163.071361857014
 30
0.0
 11
81.55517878478
 21
162.205341654378
 31
0.0
  0
LINE
  5
3AF
330
1F
100
AcDbEntity
  8
99
  6
AUSGEZOGEN
 62
     9
370
    18
100
AcDbLine
 10
80.05517878478
 20
163.071361857014
 30
0.0
 11
81.55517878478
 21
163.937387781697
 31
0.0
  0
LINE
  5
3B0
330
1F
100
AcDbEntity
  8
99
  6
AUSGEZOGEN
 62
     9
370
    18
100
AcDbLine
 10
81.55517878478
 20
163.937387781697
 30
0.0
 11
83.05517878478
 21
163.071361857014
 31
0.0
  0
LINE
  5
3B1
330
1F
100
AcDbEntity
  8
99
  6
AUSGEZOGEN
 62
     9
370
    18
100
AcDbLine
 10
83.05517878478
 20
161.339315729695
 30
0.0
 11
81.55517878478
 21
160.473289805012
 31
0.0
  0
LINE
  5
3B2
330
1F
100
AcDbEntity
  8
99
  6
AUSGEZOGEN
 62
     9
370
    18
100
AcDbLine
 10
81.55517878478
 20
160.473289805012
 30
0.0
 11
80.05517878478
 21
161.339315729695
 31
0.0
  0
LINE
  5
3B3
330
1F
100
AcDbEntity
  8
99
  6
AUSGEZOGEN
 62
     9
370
    18
100
AcDbLine
 10
80.05517878478
 20
161.339315729695
 30
0.0
 11
80.05517878478
 21
163.071361857014
 31
0.0
  0
LINE
  5
3B4
330
1F
100
AcDbEntity
  8
99
  6
AUSGEZOGEN
 62
     9
370
    18
100
AcDbLine
 10
81.55517878478
 20
155.277134256917
 30
0.0
 11
83.05517878478
 21
156.143160181599
 31
0.0
  0
LINE
  5
3B5
330
1F
100
AcDbEntity
  8
99
  6
AUSGEZOGEN
 62
     9
370
    18
100
AcDbLine
 10
83.05517878478
 20
152.679056482869
 30
0.0
 11
81.55517878478
 21
153.545082407551
 31
0.0
  0
LINE
  5
3B6
330
1F
100
AcDbEntity
  8
99
  6
AUSGEZOGEN
 62
     9
370
    18
100
AcDbLine
 10
81.55517878478
 20
153.545082407551
 30
0.0
 11
81.55517878478
 21
155.277134256917
 31
0.0
  0
LINE
  5
3B7
330
1F
100
AcDbEntity
  8
70
  6
AUSGEZOGEN
 62
    56
370
    18
100
AcDbLine
 10
81.55517878478
 20
155.277134256917
 30
0.0
 11
83.05517878478
 21
154.411108332234
 31
0.0
  0
LINE
  5
3B8
330
1F
100
AcDbEntity
  8
99
  6
AUSGEZOGEN
 62
     9
370
    18
100
AcDbLine
 10
78.55517878478
 20
155.277134256917
 30
0.0
 11
80.05517878478
 21
156.143160181599
 31
0.0
  0
LINE
  5
3B9
330
1F
100
AcDbEntity
  8
99
  6
AUSGEZOGEN
 62
     9
370
    18
100
AcDbLine
 10
80.05517878478
 20
156.143160181599
 30
0.0
 11
81.55517878478
 21
155.277134256917
 31
0.0
  0
LINE
  5
3BA
330
1F
100
AcDbEntity
  8
99
  6
AUSGEZOGEN
 62
     9
370
    18
100
AcDbLine
 10
81.55517878478
 20
155.277134256917
 30
0.0
 11
81.55517878478
 21
153.545082407551
 31
0.0
  0
LINE
  5
3BB
330
1F
100
AcDbEntity
  8
99
  6
AUSGEZOGEN
 62
     9
370
    18
100
AcDbLine
 10
81.55517878478
 20
153.545082407551
 30
0.0
 11
80.05517878478
 21
152.679056482869
 31
0.0
  0
LINE
  5
3BC
330
1F
100
AcDbEntity
  8
99
  6
AUSGEZOGEN
 62
     9
370
    18
100
AcDbLine
 10
80.05517878478
 20
152.679056482869
 30
0.0
 11
78.55517878478
 21
153.545082407551
 31
0.0
  0
LINE
  5
3BD
330
1F
100
AcDbEntity
  8
99
  6
AUSGEZOGEN
 62
     9
370
    18
100
AcDbLine
 10
78.55517878478
 20
153.545082407551
 30
0.0
 11
78.55517878478
 21
155.277134256917
 31
0.0
  0
LINE
  5
3BE
330
1F
100
AcDbEntity
  8
70
  6
AUSGEZOGEN
 62
    56
370
    18
100
AcDbLine
 10
78.55517878478
 20
155.277134256917
 30
0.0
 11
80.05517878478
 21
154.411108332234
 31
0.0
  0
LINE
  5
3BF
330
1F
100
AcDbEntity
  8
70
  6
AUSGEZOGEN
 62
    56
370
    18
100
AcDbLine
 10
80.05517878478
 20
154.411108332234
 30
0.0
 11
80.05517878478
 21
152.679056482869
 31
0.0
  0
LINE
  5
3C0
330
1F
100
AcDbEntity
  8
70
  6
AUSGEZOGEN
 62
    56
370
    18
100
AcDbLine
 10
80.05517878478
 20
154.411108332234
 30
0.0
 11
81.55517878478
 21
155.277134256917
 31
0.0
  0
LINE
  5
3C1
330
1F
100
AcDbEntity
  8
70
  6
AUSGEZOGEN
 62
    56
370
    18
100
AcDbLine
 10
77.05517878478
 20
154.411108332234
 30
0.0
 11
78.55517878478
 21
155.277134256917
 31
0.0
  0
LINE
  5
3C2
330
1F
100
AcDbEntity
  8
70
  6
AUSGEZOGEN
 62
    56
370
    18
100
AcDbLine
 10
77.05517878478
 20
154.411108332234
 30
0.0
 11
77.05517878478
 21
152.679056482869
 31
0.0
  0
LINE
  5
3C3
330
1F
100
AcDbEntity
  8
70
  6
AUSGEZOGEN
 62
    56
370
    18
100
AcDbLine
 10
75.55517878478
 20
155.277134256917
 30
0.0
 11
77.05517878478
 21
154.411108332234
 31
0.0
  0
LINE
  5
3C4
330
1F
100
AcDbEntity
  8
99
  6
AUSGEZOGEN
 62
     9
370
    18
100
AcDbLine
 10
75.55517878478
 20
155.277134256917
 30
0.0
 11
77.05517878478
 21
156.143160181599
 31
0.0
  0
LINE
  5
3C5
330
1F
100
AcDbEntity
  8
99
  6
AUSGEZOGEN
 62
     9
370
    18
100
AcDbLine
 10
77.05517878478
 20
156.143160181599
 30
0.0
 11
78.55517878478
 21
155.277134256917
 31
0.0
  0
LINE
  5
3C6
330
1F
100
AcDbEntity
  8
99
  6
AUSGEZOGEN
 62
     9
370
    18
100
AcDbLine
 10
78.55517878478
 20
155.277134256917
 30
0.0
 11
78.55517878478
 21
153.545082407551
 31
0.0
  0
LINE
  5
3C7
330
1F
100
AcDbEntity
  8
99
  6
AUSGEZOGEN
 62
     9
370
    18
100
AcDbLine
 10
78.55517878478
 20
153.545082407551
 30
0.0
 11
77.05517878478
 21
152.679056482869
 31
0.0
  0
LINE
  5
3C8
330
1F
100
AcDbEntity
  8
99
  6
AUSGEZOGEN
 62
     9
370
    18
100
AcDbLine
 10
77.05517878478
 20
152.679056482869
 30
0.0
 11
75.55517878478
 21
153.545082407551
 31
0.0
  0
LINE
  5
3C9
330
1F
100
AcDbEntity
  8
99
  6
AUSGEZOGEN
 62
     9
370
    18
100
AcDbLine
 10
75.55517878478
 20
153.545082407551
 30
0.0
 11
75.55517878478
 21
155.277134256917
 31
0.0
  0
LINE
  5
3CA
330
1F
100
AcDbEntity
  8
99
  6
AUSGEZOGEN
 62
     9
370
    18
100
AcDbLine
 10
71.05517878478
 20
156.143160181599
 30
0.0
 11
72.55517878478
 21
155.277134256917
 31
0.0
  0
LINE
  5
3CB
330
1F
100
AcDbEntity
  8
99
  6
AUSGEZOGEN
 62
     9
370
    18
100
AcDbLine
 10
72.55517878478
 20
155.277134256917
 30
0.0
 11
72.55517878478
 21
153.545082407551
 31
0.0
  0
LINE
  5
3CC
330
1F
100
AcDbEntity
  8
99
  6
AUSGEZOGEN
 62
     9
370
    18
100
AcDbLine
 10
72.55517878478
 20
153.545082407551
 30
0.0
 11
71.05517878478
 21
152.679056482869
 31
0.0
  0
LINE
  5
3CD
330
1F
100
AcDbEntity
  8
70
  6
AUSGEZOGEN
 62
    56
370
    18
100
AcDbLine
 10
71.05517878478
 20
154.411108332234
 30
0.0
 11
72.55517878478
 21
155.277134256917
 31
0.0
  0
LINE
  5
3CE
330
1F
100
AcDbEntity
  8
70
  6
AUSGEZOGEN
 62
    56
370
    18
100
AcDbLine
 10
74.05517878478
 20
154.411108332234
 30
0.0
 11
75.55517878478
 21
155.277134256917
 31
0.0
  0
LINE
  5
3CF
330
1F
100
AcDbEntity
  8
70
  6
AUSGEZOGEN
 62
    56
370
    18
100
AcDbLine
 10
74.05517878478
 20
154.411108332234
 30
0.0
 11
74.05517878478
 21
152.679056482869
 31
0.0
  0
LINE
  5
3D0
330
1F
100
AcDbEntity
  8
70
  6
AUSGEZOGEN
 62
    56
370
    18
100
AcDbLine
 10
72.55517878478
 20
155.277134256917
 30
0.0
 11
74.05517878478
 21
154.411108332234
 31
0.0
  0
LINE
  5
3D1
330
1F
100
AcDbEntity
  8
99
  6
AUSGEZOGEN
 62
     9
370
    18
100
AcDbLine
 10
72.55517878478
 20
155.277134256917
 30
0.0
 11
74.05517878478
 21
156.143160181599
 31
0.0
  0
LINE
  5
3D2
330
1F
100
AcDbEntity
  8
99
  6
AUSGEZOGEN
 62
     9
370
    18
100
AcDbLine
 10
74.05517878478
 20
156.143160181599
 30
0.0
 11
75.55517878478
 21
155.277134256917
 31
0.0
  0
LINE
  5
3D3
330
1F
100
AcDbEntity
  8
99
  6
AUSGEZOGEN
 62
     9
370
    18
100
AcDbLine
 10
75.55517878478
 20
155.277134256917
 30
0.0
 11
75.55517878478
 21
153.545082407551
 31
0.0
  0
LINE
  5
3D4
330
1F
100
AcDbEntity
  8
99
  6
AUSGEZOGEN
 62
     9
370
    18
100
AcDbLine
 10
75.55517878478
 20
153.545082407551
 30
0.0
 11
74.05517878478
 21
152.679056482869
 31
0.0
  0
LINE
  5
3D5
330
1F
100
AcDbEntity
  8
99
  6
AUSGEZOGEN
 62
     9
370
    18
100
AcDbLine
 10
74.05517878478
 20
152.679056482869
 30
0.0
 11
72.55517878478
 21
153.545082407551
 31
0.0
  0
LINE
  5
3D6
330
1F
100
AcDbEntity
  8
99
  6
AUSGEZOGEN
 62
     9
370
    18
100
AcDbLine
 10
72.55517878478
 20
153.545082407551
 30
0.0
 11
72.55517878478
 21
155.277134256917
 31
0.0
  0
LINE
  5
3D7
330
1F
100
AcDbEntity
  8
99
  6
AUSGEZOGEN
 62
     9
370
    18
100
AcDbLine
 10
74.05517878478
 20
157.875212030965
 30
0.0
 11
75.55517878478
 21
158.741237955647
 31
0.0
  0
LINE
  5
3D8
330
1F
100
AcDbEntity
  8
99
  6
AUSGEZOGEN
 62
     9
370
    18
100
AcDbLine
 10
75.55517878478
 20
158.741237955647
 30
0.0
 11
77.05517878478
 21
157.875212030965
 31
0.0
  0
LINE
  5
3D9
330
1F
100
AcDbEntity
  8
99
  6
AUSGEZOGEN
 62
     9
370
    18
100
AcDbLine
 10
77.05517878478
 20
157.875212030965
 30
0.0
 11
77.05517878478
 21
156.143160181599
 31
0.0
  0
LINE
  5
3DA
330
1F
100
AcDbEntity
  8
99
  6
AUSGEZOGEN
 62
     9
370
    18
100
AcDbLine
 10
77.05517878478
 20
156.143160181599
 30
0.0
 11
75.55517878478
 21
155.277134256917
 31
0.0
  0
LINE
  5
3DB
330
1F
100
AcDbEntity
  8
99
  6
AUSGEZOGEN
 62
     9
370
    18
100
AcDbLine
 10
75.55517878478
 20
155.277134256917
 30
0.0
 11
74.05517878478
 21
156.143160181599
 31
0.0
  0
LINE
  5
3DC
330
1F
100
AcDbEntity
  8
99
  6
AUSGEZOGEN
 62
     9
370
    18
100
AcDbLine
 10
74.05517878478
 20
156.143160181599
 30
0.0
 11
74.05517878478
 21
157.875212030965
 31
0.0
  0
LINE
  5
3DD
330
1F
100
AcDbEntity
  8
70
  6
AUSGEZOGEN
 62
    56
370
    18
100
AcDbLine
 10
74.05517878478
 20
157.875212030965
 30
0.0
 11
75.55517878478
 21
157.009186106282
 31
0.0
  0
LINE
  5
3DE
330
1F
100
AcDbEntity
  8
70
  6
AUSGEZOGEN
 62
    56
370
    18
100
AcDbLine
 10
75.55517878478
 20
157.009186106282
 30
0.0
 11
75.55517878478
 21
155.277134256917
 31
0.0
  0
LINE
  5
3DF
330
1F
100
AcDbEntity
  8
70
  6
AUSGEZOGEN
 62
    56
370
    18
100
AcDbLine
 10
75.55517878478
 20
157.009186106282
 30
0.0
 11
77.05517878478
 21
157.875212030965
 31
0.0
  0
LINE
  5
3E0
330
1F
100
AcDbEntity
  8
70
  6
AUSGEZOGEN
 62
    56
370
    18
100
AcDbLine
 10
72.55517878478
 20
157.009186106282
 30
0.0
 11
74.05517878478
 21
157.875212030965
 31
0.0
  0
LINE
  5
3E1
330
1F
100
AcDbEntity
  8
70
  6
AUSGEZOGEN
 62
    56
370
    18
100
AcDbLine
 10
72.55517878478
 20
157.009186106282
 30
0.0
 11
72.55517878478
 21
155.277134256917
 31
0.0
  0
LINE
  5
3E2
330
1F
100
AcDbEntity
  8
70
  6
AUSGEZOGEN
 62
    56
370
    18
100
AcDbLine
 10
71.05517878478
 20
157.875212030965
 30
0.0
 11
72.55517878478
 21
157.009186106282
 31
0.0
  0
LINE
  5
3E3
330
1F
100
AcDbEntity
  8
99
  6
AUSGEZOGEN
 62
     9
370
    18
100
AcDbLine
 10
71.05517878478
 20
157.875212030965
 30
0.0
 11
72.55517878478
 21
158.741237955647
 31
0.0
  0
LINE
  5
3E4
330
1F
100
AcDbEntity
  8
99
  6
AUSGEZOGEN
 62
     9
370
    18
100
AcDbLine
 10
72.55517878478
 20
158.741237955647
 30
0.0
 11
74.05517878478
 21
157.875212030965
 31
0.0
  0
LINE
  5
3E5
330
1F
100
AcDbEntity
  8
99
  6
AUSGEZOGEN
 62
     9
370
    18
100
AcDbLine
 10
74.05517878478
 20
157.875212030965
 30
0.0
 11
74.05517878478
 21
156.143160181599
 31
0.0
  0
LINE
  5
3E6
330
1F
100
AcDbEntity
  8
99
  6
AUSGEZOGEN
 62
     9
370
    18
100
AcDbLine
 10
74.05517878478
 20
156.143160181599
 30
0.0
 11
72.55517878478
 21
155.277134256917
 31
0.0
  0
LINE
  5
3E7
330
1F
100
AcDbEntity
  8
99
  6
AUSGEZOGEN
 62
     9
370
    18
100
AcDbLine
 10
72.55517878478
 20
155.277134256917
 30
0.0
 11
71.05517878478
 21
156.143160181599
 31
0.0
  0
LINE
  5
3E8
330
1F
100
AcDbEntity
  8
99
  6
AUSGEZOGEN
 62
     9
370
    18
100
AcDbLine
 10
77.05517878478
 20
157.875212030965
 30
0.0
 11
78.55517878478
 21
158.741237955647
 31
0.0
  0
LINE
  5
3E9
330
1F
100
AcDbEntity
  8
99
  6
AUSGEZOGEN
 62
     9
370
    18
100
AcDbLine
 10
78.55517878478
 20
158.741237955647
 30
0.0
 11
80.05517878478
 21
157.875212030965
 31
0.0
  0
LINE
  5
3EA
330
1F
100
AcDbEntity
  8
99
  6
AUSGEZOGEN
 62
     9
370
    18
100
AcDbLine
 10
80.05517878478
 20
157.875212030965
 30
0.0
 11
80.05517878478
 21
156.143160181599
 31
0.0
  0
LINE
  5
3EB
330
1F
100
AcDbEntity
  8
99
  6
AUSGEZOGEN
 62
     9
370
    18
100
AcDbLine
 10
80.05517878478
 20
156.143160181599
 30
0.0
 11
78.55517878478
 21
155.277134256917
 31
0.0
  0
LINE
  5
3EC
330
1F
100
AcDbEntity
  8
99
  6
AUSGEZOGEN
 62
     9
370
    18
100
AcDbLine
 10
78.55517878478
 20
155.277134256917
 30
0.0
 11
77.05517878478
 21
156.143160181599
 31
0.0
  0
LINE
  5
3ED
330
1F
100
AcDbEntity
  8
99
  6
AUSGEZOGEN
 62
     9
370
    18
100
AcDbLine
 10
77.05517878478
 20
156.143160181599
 30
0.0
 11
77.05517878478
 21
157.875212030965
 31
0.0
  0
LINE
  5
3EE
330
1F
100
AcDbEntity
  8
70
  6
AUSGEZOGEN
 62
    56
370
    18
100
AcDbLine
 10
77.05517878478
 20
157.875212030965
 30
0.0
 11
78.55517878478
 21
157.009186106282
 31
0.0
  0
LINE
  5
3EF
330
1F
100
AcDbEntity
  8
70
  6
AUSGEZOGEN
 62
    56
370
    18
100
AcDbLine
 10
78.55517878478
 20
157.009186106282
 30
0.0
 11
78.55517878478
 21
155.277134256917
 31
0.0
  0
LINE
  5
3F0
330
1F
100
AcDbEntity
  8
70
  6
AUSGEZOGEN
 62
    56
370
    18
100
AcDbLine
 10
78.55517878478
 20
157.009186106282
 30
0.0
 11
80.05517878478
 21
157.875212030965
 31
0.0
  0
LINE
  5
3F1
330
1F
100
AcDbEntity
  8
70
  6
AUSGEZOGEN
 62
    56
370
    18
100
AcDbLine
 10
81.55517878478
 20
157.009186106282
 30
0.0
 11
83.05517878478
 21
157.875212030965
 31
0.0
  0
LINE
  5
3F2
330
1F
100
AcDbEntity
  8
70
  6
AUSGEZOGEN
 62
    56
370
    18
100
AcDbLine
 10
81.55517878478
 20
157.009186106282
 30
0.0
 11
81.55517878478
 21
155.277134256917
 31
0.0
  0
LINE
  5
3F3
330
1F
100
AcDbEntity
  8
70
  6
AUSGEZOGEN
 62
    56
370
    18
100
AcDbLine
 10
80.05517878478
 20
157.875212030965
 30
0.0
 11
81.55517878478
 21
157.009186106282
 31
0.0
  0
LINE
  5
3F4
330
1F
100
AcDbEntity
  8
99
  6
AUSGEZOGEN
 62
     9
370
    18
100
AcDbLine
 10
80.05517878478
 20
157.875212030965
 30
0.0
 11
81.55517878478
 21
158.741237955647
 31
0.0
  0
LINE
  5
3F5
330
1F
100
AcDbEntity
  8
99
  6
AUSGEZOGEN
 62
     9
370
    18
100
AcDbLine
 10
81.55517878478
 20
158.741237955647
 30
0.0
 11
83.05517878478
 21
157.875212030965
 31
0.0
  0
LINE
  5
3F6
330
1F
100
AcDbEntity
  8
99
  6
AUSGEZOGEN
 62
     9
370
    18
100
AcDbLine
 10
83.05517878478
 20
156.143160181599
 30
0.0
 11
81.55517878478
 21
155.277134256917
 31
0.0
  0
LINE
  5
3F7
330
1F
100
AcDbEntity
  8
99
  6
AUSGEZOGEN
 62
     9
370
    18
100
AcDbLine
 10
81.55517878478
 20
155.277134256917
 30
0.0
 11
80.05517878478
 21
156.143160181599
 31
0.0
  0
LINE
  5
3F8
330
1F
100
AcDbEntity
  8
99
  6
AUSGEZOGEN
 62
     9
370
    18
100
AcDbLine
 10
80.05517878478
 20
156.143160181599
 30
0.0
 11
80.05517878478
 21
157.875212030965
 31
0.0
  0
LINE
  5
3F9
330
1F
100
AcDbEntity
  8
99
  6
AUSGEZOGEN
 62
     9
370
    18
100
AcDbLine
 10
81.55517878478
 20
150.080984430867
 30
0.0
 11
83.05517878478
 21
150.947010355549
 31
0.0
  0
LINE
  5
3FA
330
1F
100
AcDbEntity
  8
99
  6
AUSGEZOGEN
 62
     9
370
    18
100
AcDbLine
 10
81.55517878478
 20
149.214955645161
 30
0.0
 11
81.55517878478
 21
150.080984430867
 31
0.0
  0
LINE
  5
3FB
330
1F
100
AcDbEntity
  8
70
  6
AUSGEZOGEN
 62
    56
370
    18
100
AcDbLine
 10
81.55517878478
 20
150.080984430867
 30
0.0
 11
83.05517878478
 21
149.214958506184
 31
0.0
  0
LINE
  5
3FC
330
1F
100
AcDbEntity
  8
99
  6
AUSGEZOGEN
 62
     9
370
    18
100
AcDbLine
 10
78.55517878478
 20
150.080984430867
 30
0.0
 11
80.05517878478
 21
150.947010355549
 31
0.0
  0
LINE
  5
3FD
330
1F
100
AcDbEntity
  8
99
  6
AUSGEZOGEN
 62
     9
370
    18
100
AcDbLine
 10
80.05517878478
 20
150.947010355549
 30
0.0
 11
81.55517878478
 21
150.080984430867
 31
0.0
  0
LINE
  5
3FE
330
1F
100
AcDbEntity
  8
99
  6
AUSGEZOGEN
 62
     9
370
    18
100
AcDbLine
 10
78.55517878478
 20
149.214955645161
 30
0.0
 11
78.55517878478
 21
150.080984430867
 31
0.0
  0
LINE
  5
3FF
330
1F
100
AcDbEntity
  8
70
  6
AUSGEZOGEN
 62
    56
370
    18
100
AcDbLine
 10
78.55517878478
 20
150.080984430867
 30
0.0
 11
80.05517878478
 21
149.214958506184
 31
0.0
  0
LINE
  5
400
330
1F
100
AcDbEntity
  8
70
  6
AUSGEZOGEN
 62
    56
370
    18
100
AcDbLine
 10
80.05517878478
 20
149.214958506184
 30
0.0
 11
81.55517878478
 21
150.080984430867
 31
0.0
  0
LINE
  5
401
330
1F
100
AcDbEntity
  8
70
  6
AUSGEZOGEN
 62
    56
370
    18
100
AcDbLine
 10
77.05517878478
 20
149.214958506184
 30
0.0
 11
78.55517878478
 21
150.080984430867
 31
0.0
  0
LINE
  5
402
330
1F
100
AcDbEntity
  8
70
  6
AUSGEZOGEN
 62
    56
370
    18
100
AcDbLine
 10
75.55517878478
 20
150.080984430867
 30
0.0
 11
77.05517878478
 21
149.214958506184
 31
0.0
  0
LINE
  5
403
330
1F
100
AcDbEntity
  8
99
  6
AUSGEZOGEN
 62
     9
370
    18
100
AcDbLine
 10
75.55517878478
 20
150.080984430867
 30
0.0
 11
77.05517878478
 21
150.947010355549
 31
0.0
  0
LINE
  5
404
330
1F
100
AcDbEntity
  8
99
  6
AUSGEZOGEN
 62
     9
370
    18
100
AcDbLine
 10
77.05517878478
 20
150.947010355549
 30
0.0
 11
78.55517878478
 21
150.080984430867
 31
0.0
  0
LINE
  5
405
330
1F
100
AcDbEntity
  8
99
  6
AUSGEZOGEN
 62
     9
370
    18
100
AcDbLine
 10
75.55517878478
 20
149.214955645161
 30
0.0
 11
75.55517878478
 21
150.080984430867
 31
0.0
  0
LINE
  5
406
330
1F
100
AcDbEntity
  8
99
  6
AUSGEZOGEN
 62
     9
370
    18
100
AcDbLine
 10
71.05517878478
 20
150.947010355549
 30
0.0
 11
72.55517878478
 21
150.080984430867
 31
0.0
  0
LINE
  5
407
330
1F
100
AcDbEntity
  8
99
  6
AUSGEZOGEN
 62
     9
370
    18
100
AcDbLine
 10
72.55517878478
 20
150.080984430867
 30
0.0
 11
72.55517878478
 21
149.214955645161
 31
0.0
  0
LINE
  5
408
330
1F
100
AcDbEntity
  8
70
  6
AUSGEZOGEN
 62
    56
370
    18
100
AcDbLine
 10
71.05517878478
 20
149.214958506184
 30
0.0
 11
72.55517878478
 21
150.080984430867
 31
0.0
  0
LINE
  5
409
330
1F
100
AcDbEntity
  8
70
  6
AUSGEZOGEN
 62
    56
370
    18
100
AcDbLine
 10
74.05517878478
 20
149.214958506184
 30
0.0
 11
75.55517878478
 21
150.080984430867
 31
0.0
  0
LINE
  5
40A
330
1F
100
AcDbEntity
  8
70
  6
AUSGEZOGEN
 62
    56
370
    18
100
AcDbLine
 10
72.55517878478
 20
150.080984430867
 30
0.0
 11
74.05517878478
 21
149.214958506184
 31
0.0
  0
LINE
  5
40B
330
1F
100
AcDbEntity
  8
99
  6
AUSGEZOGEN
 62
     9
370
    18
100
AcDbLine
 10
72.55517878478
 20
150.080984430867
 30
0.0
 11
74.05517878478
 21
150.947010355549
 31
0.0
  0
LINE
  5
40C
330
1F
100
AcDbEntity
  8
99
  6
AUSGEZOGEN
 62
     9
370
    18
100
AcDbLine
 10
74.05517878478
 20
150.947010355549
 30
0.0
 11
75.55517878478
 21
150.080984430867
 31
0.0
  0
LINE
  5
40D
330
1F
100
AcDbEntity
  8
99
  6
AUSGEZOGEN
 62
     9
370
    18
100
AcDbLine
 10
74.05517878478
 20
152.679056482869
 30
0.0
 11
75.55517878478
 21
153.545082407551
 31
0.0
  0
LINE
  5
40E
330
1F
100
AcDbEntity
  8
99
  6
AUSGEZOGEN
 62
     9
370
    18
100
AcDbLine
 10
75.55517878478
 20
153.545082407551
 30
0.0
 11
77.05517878478
 21
152.679056482869
 31
0.0
  0
LINE
  5
40F
330
1F
100
AcDbEntity
  8
99
  6
AUSGEZOGEN
 62
     9
370
    18
100
AcDbLine
 10
77.05517878478
 20
152.679056482869
 30
0.0
 11
77.05517878478
 21
150.947010355549
 31
0.0
  0
LINE
  5
410
330
1F
100
AcDbEntity
  8
99
  6
AUSGEZOGEN
 62
     9
370
    18
100
AcDbLine
 10
77.05517878478
 20
150.947010355549
 30
0.0
 11
75.55517878478
 21
150.080984430867
 31
0.0
  0
LINE
  5
411
330
1F
100
AcDbEntity
  8
99
  6
AUSGEZOGEN
 62
     9
370
    18
100
AcDbLine
 10
75.55517878478
 20
150.080984430867
 30
0.0
 11
74.05517878478
 21
150.947010355549
 31
0.0
  0
LINE
  5
412
330
1F
100
AcDbEntity
  8
99
  6
AUSGEZOGEN
 62
     9
370
    18
100
AcDbLine
 10
74.05517878478
 20
150.947010355549
 30
0.0
 11
74.05517878478
 21
152.679056482869
 31
0.0
  0
LINE
  5
413
330
1F
100
AcDbEntity
  8
70
  6
AUSGEZOGEN
 62
    56
370
    18
100
AcDbLine
 10
74.05517878478
 20
152.679056482869
 30
0.0
 11
75.55517878478
 21
151.813036280232
 31
0.0
  0
LINE
  5
414
330
1F
100
AcDbEntity
  8
70
  6
AUSGEZOGEN
 62
    56
370
    18
100
AcDbLine
 10
75.55517878478
 20
151.813036280232
 30
0.0
 11
75.55517878478
 21
150.080984430867
 31
0.0
  0
LINE
  5
415
330
1F
100
AcDbEntity
  8
70
  6
AUSGEZOGEN
 62
    56
370
    18
100
AcDbLine
 10
75.55517878478
 20
151.813036280232
 30
0.0
 11
77.05517878478
 21
152.679056482869
 31
0.0
  0
LINE
  5
416
330
1F
100
AcDbEntity
  8
70
  6
AUSGEZOGEN
 62
    56
370
    18
100
AcDbLine
 10
72.55517878478
 20
151.813036280232
 30
0.0
 11
74.05517878478
 21
152.679056482869
 31
0.0
  0
LINE
  5
417
330
1F
100
AcDbEntity
  8
70
  6
AUSGEZOGEN
 62
    56
370
    18
100
AcDbLine
 10
72.55517878478
 20
151.813036280232
 30
0.0
 11
72.55517878478
 21
150.080984430867
 31
0.0
  0
LINE
  5
418
330
1F
100
AcDbEntity
  8
70
  6
AUSGEZOGEN
 62
    56
370
    18
100
AcDbLine
 10
71.05517878478
 20
152.679056482869
 30
0.0
 11
72.55517878478
 21
151.813036280232
 31
0.0
  0
LINE
  5
419
330
1F
100
AcDbEntity
  8
99
  6
AUSGEZOGEN
 62
     9
370
    18
100
AcDbLine
 10
71.05517878478
 20
152.679056482869
 30
0.0
 11
72.55517878478
 21
153.545082407551
 31
0.0
  0
LINE
  5
41A
330
1F
100
AcDbEntity
  8
99
  6
AUSGEZOGEN
 62
     9
370
    18
100
AcDbLine
 10
72.55517878478
 20
153.545082407551
 30
0.0
 11
74.05517878478
 21
152.679056482869
 31
0.0
  0
LINE
  5
41B
330
1F
100
AcDbEntity
  8
99
  6
AUSGEZOGEN
 62
     9
370
    18
100
AcDbLine
 10
74.05517878478
 20
152.679056482869
 30
0.0
 11
74.05517878478
 21
150.947010355549
 31
0.0
  0
LINE
  5
41C
330
1F
100
AcDbEntity
  8
99
  6
AUSGEZOGEN
 62
     9
370
    18
100
AcDbLine
 10
74.05517878478
 20
150.947010355549
 30
0.0
 11
72.55517878478
 21
150.080984430867
 31
0.0
  0
LINE
  5
41D
330
1F
100
AcDbEntity
  8
99
  6
AUSGEZOGEN
 62
     9
370
    18
100
AcDbLine
 10
72.55517878478
 20
150.080984430867
 30
0.0
 11
71.05517878478
 21
150.947010355549
 31
0.0
  0
LINE
  5
41E
330
1F
100
AcDbEntity
  8
99
  6
AUSGEZOGEN
 62
     9
370
    18
100
AcDbLine
 10
77.05517878478
 20
152.679056482869
 30
0.0
 11
78.55517878478
 21
153.545082407551
 31
0.0
  0
LINE
  5
41F
330
1F
100
AcDbEntity
  8
99
  6
AUSGEZOGEN
 62
     9
370
    18
100
AcDbLine
 10
78.55517878478
 20
153.545082407551
 30
0.0
 11
80.05517878478
 21
152.679056482869
 31
0.0
  0
LINE
  5
420
330
1F
100
AcDbEntity
  8
99
  6
AUSGEZOGEN
 62
     9
370
    18
100
AcDbLine
 10
80.05517878478
 20
152.679056482869
 30
0.0
 11
80.05517878478
 21
150.947010355549
 31
0.0
  0
LINE
  5
421
330
1F
100
AcDbEntity
  8
99
  6
AUSGEZOGEN
 62
     9
370
    18
100
AcDbLine
 10
80.05517878478
 20
150.947010355549
 30
0.0
 11
78.55517878478
 21
150.080984430867
 31
0.0
  0
LINE
  5
422
330
1F
100
AcDbEntity
  8
99
  6
AUSGEZOGEN
 62
     9
370
    18
100
AcDbLine
 10
78.55517878478
 20
150.080984430867
 30
0.0
 11
77.05517878478
 21
150.947010355549
 31
0.0
  0
LINE
  5
423
330
1F
100
AcDbEntity
  8
99
  6
AUSGEZOGEN
 62
     9
370
    18
100
AcDbLine
 10
77.05517878478
 20
150.947010355549
 30
0.0
 11
77.05517878478
 21
152.679056482869
 31
0.0
  0
LINE
  5
424
330
1F
100
AcDbEntity
  8
70
  6
AUSGEZOGEN
 62
    56
370
    18
100
AcDbLine
 10
77.05517878478
 20
152.679056482869
 30
0.0
 11
78.55517878478
 21
151.813036280232
 31
0.0
  0
LINE
  5
425
330
1F
100
AcDbEntity
  8
70
  6
AUSGEZOGEN
 62
    56
370
    18
100
AcDbLine
 10
78.55517878478
 20
151.813036280232
 30
0.0
 11
78.55517878478
 21
150.080984430867
 31
0.0
  0
LINE
  5
426
330
1F
100
AcDbEntity
  8
70
  6
AUSGEZOGEN
 62
    56
370
    18
100
AcDbLine
 10
78.55517878478
 20
151.813036280232
 30
0.0
 11
80.05517878478
 21
152.679056482869
 31
0.0
  0
LINE
  5
427
330
1F
100
AcDbEntity
  8
70
  6
AUSGEZOGEN
 62
    56
370
    18
100
AcDbLine
 10
81.55517878478
 20
151.813036280232
 30
0.0
 11
83.05517878478
 21
152.679056482869
 31
0.0
  0
LINE
  5
428
330
1F
100
AcDbEntity
  8
70
  6
AUSGEZOGEN
 62
    56
370
    18
100
AcDbLine
 10
81.55517878478
 20
151.813036280232
 30
0.0
 11
81.55517878478
 21
150.080984430867
 31
0.0
  0
LINE
  5
429
330
1F
100
AcDbEntity
  8
70
  6
AUSGEZOGEN
 62
    56
370
    18
100
AcDbLine
 10
80.05517878478
 20
152.679056482869
 30
0.0
 11
81.55517878478
 21
151.813036280232
 31
0.0
  0
LINE
  5
42A
330
1F
100
AcDbEntity
  8
99
  6
AUSGEZOGEN
 62
     9
370
    18
100
AcDbLine
 10
80.05517878478
 20
152.679056482869
 30
0.0
 11
81.55517878478
 21
153.545082407551
 31
0.0
  0
LINE
  5
42B
330
1F
100
AcDbEntity
  8
99
  6
AUSGEZOGEN
 62
     9
370
    18
100
AcDbLine
 10
81.55517878478
 20
153.545082407551
 30
0.0
 11
83.05517878478
 21
152.679056482869
 31
0.0
  0
LINE
  5
42C
330
1F
100
AcDbEntity
  8
99
  6
AUSGEZOGEN
 62
     9
370
    18
100
AcDbLine
 10
83.05517878478
 20
150.947010355549
 30
0.0
 11
81.55517878478
 21
150.080984430867
 31
0.0
  0
LINE
  5
42D
330
1F
100
AcDbEntity
  8
99
  6
AUSGEZOGEN
 62
     9
370
    18
100
AcDbLine
 10
81.55517878478
 20
150.080984430867
 30
0.0
 11
80.05517878478
 21
150.947010355549
 31
0.0
  0
LINE
  5
42E
330
1F
100
AcDbEntity
  8
99
  6
AUSGEZOGEN
 62
     9
370
    18
100
AcDbLine
 10
80.05517878478
 20
150.947010355549
 30
0.0
 11
80.05517878478
 21
152.679056482869
 31
0.0
  0
DIMENSION
  5
43C
330
1F
100
AcDbEntity
  8
Layer70
  6
AUSGEZOGEN
 62
   136
370
    18
100
AcDbDimension
  2
*D7
 10
83.05517878478
 20
107.998485023041
 30
0.0
 11
76.84262468586
 21
109.123485023041
 31
0.0
 70
   160
 71
     5
 42
-1.0
  3
ISO-25
100
AcDbAlignedDimension
 13
71.05517878478
 23
126.698295908528
 33
0.0
 14
83.05517878478
 24
126.698295908528
 34
0.0
100
AcDbRotatedDimension
1001
ACAD
1000
DSTYLE
1002
{
1070
     3
1000
<>
1070
    44
1040
0.892857142857
1070
   280
1070
     0
1070
    77
1070
     1
1070
    78
1070
     8
1070
   179
1070
     2
1070
   271
1070
     2
1070
   344
1005
43D
1070
   343
1005
43D
1070
   173
1070
     1
1070
    41
1040
1.25
1070
   147
1040
0.178571428571
1070
   140
1040
1.25
1070
   178
1070
   136
1070
   177
1070
   136
1070
   176
1070
   136
1002
}
  0
DIMENSION
  5
451
330
1F
100
AcDbEntity
  8
Layer70
  6
AUSGEZOGEN
 62
   136
370
    18
100
AcDbDimension
  2
*D9
 10
85.955173829346
 20
103.998485023041
 30
0.0
 11
77.799410442508
 21
105.123485023041
 31
0.0
 70
   160
 71
     5
 42
-1.0
  3
ISO-25
100
AcDbAlignedDimension
 13
68.155173829346
 23
116.214955645161
 33
0.0
 14
85.955173829346
 24
116.214955645161
 34
0.0
100
AcDbRotatedDimension
1001
ACAD
1000
DSTYLE
1002
{
1070
     3
1000
<>
1070
    44
1040
0.892857142857
1070
   280
1070
     0
1070
    77
1070
     1
1070
    78
1070
     8
1070
   179
1070
     2
1070
   271
1070
     2
1070
   344
1005
43D
1070
   343
1005
43D
1070
   173
1070
     1
1070
    41
1040
1.25
1070
   147
1040
0.178571428571
1070
   140
1040
1.25
1070
   178
1070
   136
1070
   177
1070
   136
1070
   176
1070
   136
1002
}
  0
DIMENSION
  5
45F
330
1F
100
AcDbEntity
  8
Layer70
  6
AUSGEZOGEN
 62
   136
370
    18
100
AcDbDimension
  2
*D10
 10
64.245481774009
 20
171.731615381795
 30
0.0
 11
63.120481774009
 21
149.15455657657
 31
0.0
 70
   160
 71
     5
 42
-1.0
 53
90.0
  3
ISO-25
100
AcDbAlignedDimension
 13
71.05517878478
 23
126.698295908528
 33
0.0
 14
71.05517878478
 24
171.731615381795
 34
0.0
 50
90.0
100
AcDbRotatedDimension
1001
ACAD
1000
DSTYLE
1002
{
1070
     3
1000
<>
1070
    44
1040
0.892857142857
1070
   280
1070
     0
1070
    77
1070
     1
1070
    78
1070
     8
1070
   179
1070
     2
1070
   271
1070
     2
1070
   344
1005
43D
1070
   343
1005
43D
1070
   173
1070
     1
1070
    41
1040
1.25
1070
   147
1040
0.178571428571
1070
   140
1040
1.25
1070
   178
1070
   136
1070
   177
1070
   136
1070
   176
1070
   136
1002
}
  0
DIMENSION
  5
46D
330
1F
100
AcDbEntity
  8
Layer70
  6
AUSGEZOGEN
 62
   136
370
    18
100
AcDbDimension
  2
*D11
 10
60.745481774009
 20
180.714955645161
 30
0.0
 11
59.620481774009
 21
149.095627934893
 31
0.0
 70
   160
 71
     5
 42
-1.0
 53
90.0
  3
ISO-25
100
AcDbAlignedDimension
 13
73.093953142893
 23
117.714955645161
 33
0.0
 14
73.471212255888
 24
180.714955645161
 34
0.0
 50
90.0
100
AcDbRotatedDimension
1001
ACAD
1000
DSTYLE
1002
{
1070
     3
1000
<>
1070
    44
1040
0.892857142857
1070
   280
1070
     0
1070
    77
1070
     1
1070
    78
1070
     8
1070
   179
1070
     2
1070
   271
1070
     2
1070
   344
1005
43D
1070
   343
1005
43D
1070
   173
1070
     1
1070
    41
1040
1.25
1070
   147
1040
0.178571428571
1070
   140
1040
1.25
1070
   178
1070
   136
1070
   177
1070
   136
1070
   176
1070
   136
1002
}
  0
DIMENSION
  5
47B
330
1F
100
AcDbEntity
  8
Layer70
  6
AUSGEZOGEN
 62
   136
370
    18
100
AcDbDimension
  2
*D12
 10
57.245481774009
 20
185.214955645161
 30
0.0
 11
56.120481774009
 21
149.095627934893
 31
0.0
 70
   160
 71
     5
 42
-1.0
 53
90.0
  3
ISO-25
100
AcDbAlignedDimension
 13
71.155173829346
 23
113.214955645161
 33
0.0
 14
71.155173829346
 24
185.214955645161
 34
0.0
 50
90.0
100
AcDbRotatedDimension
1001
ACAD
1000
DSTYLE
1002
{
1070
     3
1000
<>
1070
    44
1040
0.892857142857
1070
   280
1070
     0
1070
    77
1070
     1
1070
    78
1070
     8
1070
   179
1070
     2
1070
   271
1070
     2
1070
   344
1005
43D
1070
   343
1005
43D
1070
   173
1070
     1
1070
    41
1040
1.25
1070
   147
1040
0.178571428571
1070
   140
1040
1.25
1070
   178
1070
   136
1070
   177
1070
   136
1070
   176
1070
   136
1002
}
  0
DIMENSION
  5
48B
330
1F
100
AcDbEntity
  8
Layer70
  6
AUSGEZOGEN
 62
   136
370
    18
100
AcDbDimension
  2
*D13
 10
91.806893601338
 20
164.660064704578
 30
0.0
 11
91.96726040153
 21
166.632302106729
 31
0.0
 70
   160
 71
     5
 42
-1.0
 53
-60.000014922627
  3
ISO-25
100
AcDbAlignedDimension
 13
80.05517878478
 23
161.339315729695
 33
0.0
 14
81.55517878478
 24
158.741237955647
 34
0.0
 50
-60.000014922627
100
AcDbRotatedDimension
1001
ACAD
1000
DSTYLE
1002
{
1070
     3
1000
<>
1070
    44
1040
0.892857142857
1070
   280
1070
     0
1070
    77
1070
     1
1070
    78
1070
     8
1070
   179
1070
     2
1070
   271
1070
     2
1070
   344
1005
43D
1070
   343
1005
43D
1070
   173
1070
     1
1070
    41
1040
1.25
1070
   147
1040
0.178571428571
1070
   140
1040
1.25
1070
   178
1070
   136
1070
   177
1070
   136
1070
   176
1070
   136
1002
}
  0
LINE
  5
48C
330
1F
100
AcDbEntity
  8
99
  6
DASHDOT
 62
    56
370
    18
100
AcDbLine
 10
104.406459521525
 20
149.214955645161
 30
0.0
 11
115.506459521525
 21
149.214955645161
 31
0.0
  0
LINE
  5
48D
330
1F
100
AcDbEntity
  8
99
  6
AUSGEZOGEN
 62
     9
370
    18
100
AcDbLine
 10
106.175777703343
 20
185.214955645161
 30
0.0
 11
106.175777703343
 21
113.214955645161
 31
0.0
  0
LINE
  5
48E
330
1F
100
AcDbEntity
  8
99
  6
AUSGEZOGEN
 62
     9
370
    18
100
AcDbLine
 10
107.675777703343
 20
174.864955645161
 30
0.0
 11
107.675777703343
 21
123.564955645161
 31
0.0
  0
LINE
  5
48F
330
1F
100
AcDbEntity
  8
99
  6
AUSGEZOGEN
 62
     9
370
    18
100
AcDbLine
 10
107.675777703343
 20
123.564955645161
 30
0.0
 11
109.775777703343
 21
123.491622029229
 31
0.0
  0
LINE
  5
490
330
1F
100
AcDbEntity
  8
99
  6
AUSGEZOGEN
 62
     9
370
    18
100
AcDbLine
 10
106.175777703343
 20
113.214955645161
 30
0.0
 11
109.775777703343
 21
113.340670415332
 31
0.0
  0
LINE
  5
491
330
1F
100
AcDbEntity
  8
99
  6
AUSGEZOGEN
 62
     9
370
    18
100
AcDbLine
 10
107.675777703343
 20
174.714955645161
 30
0.0
 11
112.175777703343
 21
174.557812182448
 31
0.0
  0
LINE
  5
492
330
1F
100
AcDbEntity
  8
99
  6
AUSGEZOGEN
 62
     9
370
    18
100
AcDbLine
 10
107.675777703343
 20
123.714955645161
 30
0.0
 11
112.175777703343
 21
123.872099107874
 31
0.0
  0
LINE
  5
493
330
1F
100
AcDbEntity
  8
99
  6
AUSGEZOGEN
 62
     9
370
    18
100
AcDbLine
 10
107.675777703343
 20
172.364955645161
 30
0.0
 11
109.659111036677
 21
172.364955645161
 31
0.0
  0
LINE
  5
494
330
1F
100
AcDbEntity
  8
99
  6
AUSGEZOGEN
 62
     9
370
    18
100
AcDbLine
 10
108.675777703343
 20
149.214955645161
 30
0.0
 11
111.175777703343
 21
150.714955645161
 31
0.0
  0
LINE
  5
495
330
1F
100
AcDbEntity
  8
99
  6
AUSGEZOGEN
 62
     9
370
    18
100
AcDbLine
 10
111.175777703343
 20
150.714955645161
 30
0.0
 11
108.675777703343
 21
152.214955645161
 31
0.0
  0
LINE
  5
496
330
1F
100
AcDbEntity
  8
99
  6
AUSGEZOGEN
 62
     9
370
    18
100
AcDbLine
 10
108.675777703343
 20
152.214955645161
 30
0.0
 11
111.175777703343
 21
153.714955645161
 31
0.0
  0
LINE
  5
497
330
1F
100
AcDbEntity
  8
99
  6
AUSGEZOGEN
 62
     9
370
    18
100
AcDbLine
 10
111.175777703343
 20
153.714955645161
 30
0.0
 11
108.675777703343
 21
155.214955645161
 31
0.0
  0
LINE
  5
498
330
1F
100
AcDbEntity
  8
99
  6
AUSGEZOGEN
 62
     9
370
    18
100
AcDbLine
 10
108.675777703343
 20
155.214955645161
 30
0.0
 11
111.175777703343
 21
156.714955645161
 31
0.0
  0
LINE
  5
499
330
1F
100
AcDbEntity
  8
99
  6
AUSGEZOGEN
 62
     9
370
    18
100
AcDbLine
 10
111.175777703343
 20
156.714955645161
 30
0.0
 11
108.675777703343
 21
158.214955645161
 31
0.0
  0
LINE
  5
49A
330
1F
100
AcDbEntity
  8
99
  6
AUSGEZOGEN
 62
     9
370
    18
100
AcDbLine
 10
108.675777703343
 20
158.214955645161
 30
0.0
 11
111.175777703343
 21
159.714955645161
 31
0.0
  0
LINE
  5
49B
330
1F
100
AcDbEntity
  8
99
  6
AUSGEZOGEN
 62
     9
370
    18
100
AcDbLine
 10
111.175777703343
 20
159.714955645161
 30
0.0
 11
108.675777703343
 21
161.214955645161
 31
0.0
  0
LINE
  5
49C
330
1F
100
AcDbEntity
  8
99
  6
AUSGEZOGEN
 62
     9
370
    18
100
AcDbLine
 10
108.675777703343
 20
161.214955645161
 30
0.0
 11
111.175777703343
 21
162.714955645161
 31
0.0
  0
LINE
  5
49D
330
1F
100
AcDbEntity
  8
99
  6
AUSGEZOGEN
 62
     9
370
    18
100
AcDbLine
 10
111.175777703343
 20
162.714955645161
 30
0.0
 11
108.675777703343
 21
164.214955645161
 31
0.0
  0
LINE
  5
49E
330
1F
100
AcDbEntity
  8
99
  6
AUSGEZOGEN
 62
     9
370
    18
100
AcDbLine
 10
108.675777703343
 20
164.214955645161
 30
0.0
 11
111.175777703343
 21
165.714955645161
 31
0.0
  0
LINE
  5
49F
330
1F
100
AcDbEntity
  8
99
  6
AUSGEZOGEN
 62
     9
370
    18
100
AcDbLine
 10
111.175777703343
 20
165.714955645161
 30
0.0
 11
108.675777703343
 21
167.214955645161
 31
0.0
  0
LINE
  5
4A0
330
1F
100
AcDbEntity
  8
99
  6
AUSGEZOGEN
 62
     9
370
    18
100
AcDbLine
 10
108.675777703343
 20
167.214955645161
 30
0.0
 11
111.175777703343
 21
168.714955645161
 31
0.0
  0
LINE
  5
4A1
330
1F
100
AcDbEntity
  8
99
  6
AUSGEZOGEN
 62
     9
370
    18
100
AcDbLine
 10
111.175777703343
 20
168.714955645161
 30
0.0
 11
108.675777703343
 21
170.214955645161
 31
0.0
  0
LINE
  5
4A2
330
1F
100
AcDbEntity
  8
99
  6
AUSGEZOGEN
 62
     9
370
    18
100
AcDbLine
 10
108.675777703343
 20
170.214955645161
 30
0.0
 11
111.175777703343
 21
171.714955645161
 31
0.0
  0
LINE
  5
4A3
330
1F
100
AcDbEntity
  8
99
  6
AUSGEZOGEN
 62
     9
370
    18
100
AcDbLine
 10
111.175777703343
 20
171.714955645161
 30
0.0
 11
109.659111036677
 21
172.364955645161
 31
0.0
  0
LINE
  5
4A4
330
1F
100
AcDbEntity
  8
99
  6
AUSGEZOGEN
 62
     9
370
    18
100
AcDbLine
 10
107.675777703343
 20
126.064955645161
 30
0.0
 11
109.659111036677
 21
126.064955645161
 31
0.0
  0
LINE
  5
4A5
330
1F
100
AcDbEntity
  8
99
  6
AUSGEZOGEN
 62
     9
370
    18
100
AcDbLine
 10
108.675777703343
 20
149.214955645161
 30
0.0
 11
111.175777703343
 21
147.714955645161
 31
0.0
  0
LINE
  5
4A6
330
1F
100
AcDbEntity
  8
99
  6
AUSGEZOGEN
 62
     9
370
    18
100
AcDbLine
 10
111.175777703343
 20
147.714955645161
 30
0.0
 11
108.675777703343
 21
146.214955645161
 31
0.0
  0
LINE
  5
4A7
330
1F
100
AcDbEntity
  8
99
  6
AUSGEZOGEN
 62
     9
370
    18
100
AcDbLine
 10
108.675777703343
 20
146.214955645161
 30
0.0
 11
111.175777703343
 21
144.714955645161
 31
0.0
  0
LINE
  5
4A8
330
1F
100
AcDbEntity
  8
99
  6
AUSGEZOGEN
 62
     9
370
    18
100
AcDbLine
 10
111.175777703343
 20
144.714955645161
 30
0.0
 11
108.675777703343
 21
143.214955645161
 31
0.0
  0
LINE
  5
4A9
330
1F
100
AcDbEntity
  8
99
  6
AUSGEZOGEN
 62
     9
370
    18
100
AcDbLine
 10
108.675777703343
 20
143.214955645161
 30
0.0
 11
111.175777703343
 21
141.714955645161
 31
0.0
  0
LINE
  5
4AA
330
1F
100
AcDbEntity
  8
99
  6
AUSGEZOGEN
 62
     9
370
    18
100
AcDbLine
 10
111.175777703343
 20
141.714955645161
 30
0.0
 11
108.675777703343
 21
140.214955645161
 31
0.0
  0
LINE
  5
4AB
330
1F
100
AcDbEntity
  8
99
  6
AUSGEZOGEN
 62
     9
370
    18
100
AcDbLine
 10
108.675777703343
 20
140.214955645161
 30
0.0
 11
111.175777703343
 21
138.714955645161
 31
0.0
  0
LINE
  5
4AC
330
1F
100
AcDbEntity
  8
99
  6
AUSGEZOGEN
 62
     9
370
    18
100
AcDbLine
 10
111.175777703343
 20
138.714955645161
 30
0.0
 11
108.675777703343
 21
137.214955645161
 31
0.0
  0
LINE
  5
4AD
330
1F
100
AcDbEntity
  8
99
  6
AUSGEZOGEN
 62
     9
370
    18
100
AcDbLine
 10
108.675777703343
 20
137.214955645161
 30
0.0
 11
111.175777703343
 21
135.714955645161
 31
0.0
  0
LINE
  5
4AE
330
1F
100
AcDbEntity
  8
99
  6
AUSGEZOGEN
 62
     9
370
    18
100
AcDbLine
 10
111.175777703343
 20
135.714955645161
 30
0.0
 11
108.675777703343
 21
134.214955645161
 31
0.0
  0
LINE
  5
4AF
330
1F
100
AcDbEntity
  8
99
  6
AUSGEZOGEN
 62
     9
370
    18
100
AcDbLine
 10
108.675777703343
 20
134.214955645161
 30
0.0
 11
111.175777703343
 21
132.714955645161
 31
0.0
  0
LINE
  5
4B0
330
1F
100
AcDbEntity
  8
99
  6
AUSGEZOGEN
 62
     9
370
    18
100
AcDbLine
 10
111.175777703343
 20
132.714955645161
 30
0.0
 11
108.675777703343
 21
131.214955645161
 31
0.0
  0
LINE
  5
4B1
330
1F
100
AcDbEntity
  8
99
  6
AUSGEZOGEN
 62
     9
370
    18
100
AcDbLine
 10
108.675777703343
 20
131.214955645161
 30
0.0
 11
111.175777703343
 21
129.714955645161
 31
0.0
  0
LINE
  5
4B2
330
1F
100
AcDbEntity
  8
99
  6
AUSGEZOGEN
 62
     9
370
    18
100
AcDbLine
 10
111.175777703343
 20
129.714955645161
 30
0.0
 11
108.675777703343
 21
128.214955645161
 31
0.0
  0
LINE
  5
4B3
330
1F
100
AcDbEntity
  8
99
  6
AUSGEZOGEN
 62
     9
370
    18
100
AcDbLine
 10
108.675777703343
 20
128.214955645161
 30
0.0
 11
111.175777703343
 21
126.714955645161
 31
0.0
  0
LINE
  5
4B4
330
1F
100
AcDbEntity
  8
99
  6
AUSGEZOGEN
 62
     9
370
    18
100
AcDbLine
 10
111.175777703343
 20
126.714955645161
 30
0.0
 11
109.659111036677
 21
126.064955645161
 31
0.0
  0
LINE
  5
4B5
330
1F
100
AcDbEntity
  8
99
  6
DASHDOT
 62
    56
370
    18
100
AcDbLine
 10
103.131459521525
 20
117.714955645161
 30
0.0
 11
110.781459521525
 21
117.714955645161
 31
0.0
  0
LINE
  5
4B6
330
1F
100
AcDbEntity
  8
99
  6
AUSGEZOGEN
 62
     9
370
    18
100
AcDbLine
 10
112.175777703343
 20
174.557812182448
 30
0.0
 11
112.175777703343
 21
123.872099107874
 31
0.0
  0
DIMENSION
  5
4C5
330
1F
100
AcDbEntity
  8
Layer70
  6
AUSGEZOGEN
 62
   136
370
    18
100
AcDbDimension
  2
*D14
 10
112.175777703343
 20
105.573700967848
 30
0.0
 11
109.360639569656
 21
106.698700967848
 31
0.0
 70
   160
 71
     5
 42
-1.0
  3
ISO-25
100
AcDbAlignedDimension
 13
106.175777703343
 23
113.214955645161
 33
0.0
 14
112.175777703343
 24
123.872099107874
 34
0.0
100
AcDbRotatedDimension
1001
ACAD
1000
DSTYLE
1002
{
1070
     3
1000
<>\S%%p0.3
1070
    44
1040
0.892857142857
1070
   280
1070
     0
1070
    77
1070
     1
1070
    78
1070
     8
1070
   179
1070
     2
1070
   271
1070
     2
1070
   344
1005
43D
1070
   343
1005
43D
1070
   173
1070
     1
1070
    41
1040
1.25
1070
   147
1040
0.178571428571
1070
   140
1040
1.25
1070
   178
1070
   136
1070
   177
1070
   136
1070
   176
1070
   136
1002
}
  0
HATCH
  5
4C6
330
1F
100
AcDbEntity
  8
Layer60
  6
AUSGEZOGEN
 62
    56
370
    18
100
AcDbHatch
 10
0.0
 20
0.0
 30
0.0
210
0.0
220
0.0
230
1.0
  2
MegaCAD_TYP1
 70
     0
 71
     0
 91
        2
 92
        2
 72
     0
 73
     1
 93
       21
 10
107.6757777033434
 20
174.7149556451613
 10
107.6757777033434
 20
172.3649556451613
 10
109.6591110366767
 20
172.3649556451613
 10
111.1757777033434
 20
171.7149556451613
 10
108.6757777033434
 20
170.2149556451613
 10
111.1757777033434
 20
168.7149556451613
 10
108.6757777033434
 20
167.2149556451613
 10
111.1757777033434
 20
165.7149556451613
 10
108.6757777033434
 20
164.2149556451613
 10
111.1757777033434
 20
162.7149556451613
 10
108.6757777033434
 20
161.2149556451614
 10
111.1757777033434
 20
159.7149556451614
 10
108.6757777033434
 20
158.2149556451613
 10
111.1757777033434
 20
156.7149556451613
 10
108.6757777033434
 20
155.2149556451613
 10
111.1757777033434
 20
153.7149556451613
 10
108.6757777033434
 20
152.2149556451613
 10
111.1757777033434
 20
150.7149556451614
 10
108.6757777033434
 20
149.2149556451613
 10
112.1757777033434
 20
149.2149556451613
 10
112.1757777033434
 20
174.5578121824484
 97
        0
 92
        2
 72
     0
 73
     1
 93
       21
 10
112.1757777033434
 20
123.8720991078742
 10
112.1757777033434
 20
149.2149556451613
 10
108.6757777033434
 20
149.2149556451613
 10
111.1757777033434
 20
147.7149556451613
 10
108.6757777033434
 20
146.2149556451613
 10
111.1757777033434
 20
144.7149556451613
 10
108.6757777033434
 20
143.2149556451614
 10
111.1757777033434
 20
141.7149556451613
 10
108.6757777033434
 20
140.2149556451613
 10
111.1757777033434
 20
138.7149556451613
 10
108.6757777033434
 20
137.2149556451613
 10
111.1757777033434
 20
135.7149556451613
 10
108.6757777033434
 20
134.2149556451613
 10
111.1757777033434
 20
132.7149556451613
 10
108.6757777033434
 20
131.2149556451613
 10
111.1757777033434
 20
129.7149556451613
 10
108.6757777033434
 20
128.2149556451613
 10
111.1757777033434
 20
126.7149556451613
 10
109.6591110366767
 20
126.0649556451613
 10
107.6757777033434
 20
126.0649556451613
 10
107.6757777033434
 20
123.7149556451613
 97
        0
 75
     0
 76
     1
 52
90.0
 41
0.25
 77
     0
 78
     1
 53
135.0
 43
0.0
 44
0.0
 45
-0.5303300858899107
 46
-0.5303300858899106
 79
     0
 98
        0
  0
DIMENSION
  5
4D7
330
1F
100
AcDbEntity
  8
Layer70
  6
AUSGEZOGEN
 62
   136
370
    18
100
AcDbDimension
  2
*D15
 10
117.245481774009
 20
182.460211803359
 30
0.0
 11
116.120481774009
 21
186.696699436267
 31
0.0
 70
   160
 71
     5
 42
-1.0
 53
90.0
  3
ISO-25
100
AcDbAlignedDimension
 13
106.175777703343
 23
178.959699486964
 33
0.0
 14
106.175777703343
 24
182.460211803359
 34
0.0
 50
90.0
100
AcDbRotatedDimension
1001
ACAD
1000
DSTYLE
1002
{
1070
     3
1000
%%c<>
1070
    44
1040
0.892857142857
1070
   280
1070
     0
1070
    77
1070
     1
1070
    78
1070
     8
1070
   179
1070
     2
1070
   271
1070
     2
1070
   344
1005
43D
1070
   343
1005
43D
1070
   173
1070
     1
1070
    41
1040
1.25
1070
   147
1040
0.178571428571
1070
   140
1040
1.25
1070
   178
1070
   136
1070
   177
1070
   136
1070
   176
1070
   136
1002
}
  0
INSERT
  5
4DE
330
1F
100
AcDbEntity
  8
0
100
AcDbBlockReference
  2
QS_nNn014
 10
0.0
 20
0.0
 30
0.0
  0
INSERT
  5
4E3
330
1F
100
AcDbEntity
  8
0
100
AcDbBlockReference
  2
Reflexwerte_nNn015
 10
0.0
 20
0.0
 30
0.0
  0
LINE
  5
4E4
330
1F
100
AcDbEntity
  8
70
  6
AUSGEZOGEN
 62
     9
370
    18
100
AcDbLine
 10
109.775777703343
 20
113.319717953637
 30
0.0
 11
109.775777703343
 21
123.512574490924
 31
0.0
  0
LINE
  5
4E5
330
1F
100
AcDbEntity
  8
70
  6
AUSGEZOGEN
 62
     9
370
    18
100
AcDbLine
 10
106.175777703343
 20
119.470211803359
 30
0.0
 11
109.775777703343
 21
119.67999223919
 31
0.0
  0
LINE
  5
4E6
330
1F
100
AcDbEntity
  8
70
  6
AUSGEZOGEN
 62
     9
370
    18
100
AcDbLine
 10
106.175777703343
 20
115.959699486964
 30
0.0
 11
109.775777703343
 21
115.749919051133
 31
0.0
  0
LINE
  5
4E7
330
1F
100
AcDbEntity
  8
99
  6
AUSGEZOGEN
 62
     9
370
    18
100
AcDbLine
 10
107.675777703343
 20
174.864955645161
 30
0.0
 11
109.775777703343
 21
174.938289261094
 31
0.0
  0
LINE
  5
4E8
330
1F
100
AcDbEntity
  8
99
  6
AUSGEZOGEN
 62
     9
370
    18
100
AcDbLine
 10
106.175777703343
 20
185.214955645161
 30
0.0
 11
109.775777703343
 21
185.089240874991
 31
0.0
  0
LINE
  5
4E9
330
1F
100
AcDbEntity
  8
99
  6
DASHDOT
 62
    56
370
    18
100
AcDbLine
 10
103.131459521525
 20
180.714955645161
 30
0.0
 11
110.781459521525
 21
180.714955645161
 31
0.0
  0
LINE
  5
4EA
330
1F
100
AcDbEntity
  8
70
  6
AUSGEZOGEN
 62
     9
370
    18
100
AcDbLine
 10
109.775777703343
 20
185.110193336686
 30
0.0
 11
109.775777703343
 21
174.917336799399
 31
0.0
  0
LINE
  5
4EB
330
1F
100
AcDbEntity
  8
70
  6
AUSGEZOGEN
 62
     9
370
    18
100
AcDbLine
 10
106.175777703343
 20
178.959699486964
 30
0.0
 11
109.775777703343
 21
178.749919051133
 31
0.0
  0
LINE
  5
4EC
330
1F
100
AcDbEntity
  8
70
  6
AUSGEZOGEN
 62
     9
370
    18
100
AcDbLine
 10
106.175777703343
 20
182.470211803359
 30
0.0
 11
109.775777703343
 21
182.67999223919
 31
0.0
  0
HATCH
  5
4ED
330
1F
100
AcDbEntity
  8
Layer60
  6
AUSGEZOGEN
 62
    56
370
    18
100
AcDbHatch
 10
0.0
 20
0.0
 30
0.0
210
0.0
220
0.0
230
1.0
  2
MegaCAD_TYP1
 70
     0
 71
     0
 91
        4
 92
        2
 72
     0
 73
     1
 93
        4
 10
106.1757777033434
 20
185.2149556451612
 10
106.1757777033434
 20
182.470211803359
 10
109.7757777033434
 20
182.6799922391895
 10
109.7757777033434
 20
185.0892408749909
 97
        0
 92
        2
 72
     0
 73
     1
 93
        6
 10
107.6757777033434
 20
149.2149556451613
 10
107.6757777033434
 20
174.8649556451612
 10
109.7757777033434
 20
174.9382892610939
 10
109.7757777033434
 20
178.749919051133
 10
106.1757777033434
 20
178.9596994869635
 10
106.1757777033434
 20
149.2149556451613
 97
        0
 92
        2
 72
     0
 73
     1
 93
        6
 10
107.6757777033434
 20
149.2149556451613
 10
106.1757777033434
 20
149.2149556451613
 10
106.1757777033434
 20
119.470211803359
 10
109.7757777033434
 20
119.6799922391896
 10
109.7757777033434
 20
123.4916220292286
 10
107.6757777033434
 20
123.5649556451613
 97
        0
 92
        2
 72
     0
 73
     1
 93
        4
 10
106.1757777033434
 20
115.9596994869635
 10
106.1757777033434
 20
113.2149556451613
 10
109.7757777033434
 20
113.3406704153316
 10
109.7757777033434
 20
115.749919051133
 97
        0
 75
     0
 76
     1
 52
0.0
 41
0.25
 77
     0
 78
     1
 53
45.0
 43
0.0
 44
0.0
 45
-0.5303300858899106
 46
0.5303300858899107
 79
     0
 98
        0
  0
DIMENSION
  5
4FF
330
1F
100
AcDbEntity
  8
Layer70
  6
AUSGEZOGEN
 62
   136
370
    18
100
AcDbDimension
  2
*D18
 10
109.775777703343
 20
109.5
 30
0.0
 11
103.058928641677
 21
110.625
 31
0.0
 70
   160
 71
     5
 42
-1.0
  3
ISO-25
100
AcDbAlignedDimension
 13
106.175777703343
 23
113.214955645161
 33
0.0
 14
109.775777703343
 24
113.340670415332
 34
0.0
100
AcDbRotatedDimension
1001
ACAD
1000
DSTYLE
1002
{
1070
     3
1000
<>
1070
    44
1040
0.892857142857
1070
   280
1070
     0
1070
    77
1070
     1
1070
    78
1070
     8
1070
   179
1070
     2
1070
   271
1070
     2
1070
   344
1005
43D
1070
   343
1005
43D
1070
   173
1070
     1
1070
    41
1040
1.25
1070
   147
1040
0.178571428571
1070
   140
1040
1.25
1070
   178
1070
   136
1070
   177
1070
   136
1070
   176
1070
   136
1002
}
  0
INSERT
  5
505
330
1F
100
AcDbEntity
  8
0
100
AcDbBlockReference
  2
AENINDEX_nNn017
 10
0.0
 20
0.0
 30
0.0
  0
ENDSEC
  0
SECTION
  2
OBJECTS
  0
DICTIONARY
  5
C
330
0
100
AcDbDictionary
281
     1
  3
ACAD_GROUP
350
D
  3
ACAD_LAYOUT
350
1A
  3
ACAD_MATERIAL
350
3B
  3
ACAD_MLEADERSTYLE
350
52D
  3
ACAD_MLINESTYLE
350
17
  3
ACAD_PLOTSETTINGS
350
19
  3
ACAD_PLOTSTYLENAME
350
E
  3
ACAD_TABLESTYLE
350
52C
  3
ACAD_VISUALSTYLE
350
2A
  3
ACAD_WIPEOUT_VARS
350
3F
  0
DICTIONARY
  5
D
102
{ACAD_REACTORS
330
C
102
}
330
C
100
AcDbDictionary
281
     1
  0
DICTIONARY
  5
1A
102
{ACAD_REACTORS
330
C
102
}
330
C
100
AcDbDictionary
281
     1
  3
Layout1
350
1E
  3
Layout2
350
26
  3
Model
350
22
  0
DICTIONARY
  5
3B
102
{ACAD_REACTORS
330
C
102
}
330
C
100
AcDbDictionary
281
     1
  3
ByBlock
350
3D
  3
ByLayer
350
3C
  3
Global
350
3E
  0
DICTIONARY
  5
52D
102
{ACAD_REACTORS
330
C
102
}
330
C
100
AcDbDictionary
281
     1
  0
DICTIONARY
  5
17
102
{ACAD_REACTORS
330
C
102
}
330
C
100
AcDbDictionary
281
     1
  3
Standard
350
18
  0
DICTIONARY
  5
19
102
{ACAD_REACTORS
330
C
102
}
330
C
100
AcDbDictionary
281
     1
  0
ACDBDICTIONARYWDFLT
  5
E
102
{ACAD_REACTORS
330
C
102
}
330
C
100
AcDbDictionary
281
     1
  3
Normal
350
F
100
AcDbDictionaryWithDefault
340
F
  0
DICTIONARY
  5
52C
102
{ACAD_REACTORS
330
C
102
}
330
C
100
AcDbDictionary
281
     1
  0
DICTIONARY
  5
2A
102
{ACAD_REACTORS
330
C
102
}
330
C
100
AcDbDictionary
281
     1
  3
2dWireframe
350
2F
  3
3D Hidden
350
31
  3
3dWireframe
350
30
  3
Basic
350
32
  3
Brighten
350
36
  3
ColorChange
350
3A
  3
Conceptual
350
34
  3
Dim
350
35
  3
Facepattern
350
39
  3
Flat
350
2B
  3
FlatWithEdges
350
2C
  3
Gouraud
350
2D
  3
GouraudWithEdges
350
2E
  3
Linepattern
350
38
  3
Realistic
350
33
  3
Thicken
350
37
  0
WIPEOUTVARIABLES
  5
3F
102
{ACAD_REACTORS
330
C
102
}
330
C
100
AcDbWipeoutVariables
 70
     0
  0
LAYOUT
  5
1E
102
{ACAD_REACTORS
330
1A
102
}
330
1A
100
AcDbPlotSettings
  1

  2
none_device
  4

  6

 40
0.0
 41
0.0
 42
0.0
 43
0.0
 44
0.0
 45
0.0
 46
0.0
 47
0.0
 48
0.0
 49
0.0
140
0.0
141
0.0
142
1.0
143
1.0
 70
   688
 72
     0
 73
     0
 74
     5
  7

 75
    16
 76
     0
 77
     2
 78
   300
147
1.0
148
0.0
149
0.0
100
AcDbLayout
  1
Layout1
 70
     1
 71
     1
 10
0.0
 20
0.0
 11
420.0
 21
297.0
 12
0.0
 22
0.0
 32
0.0
 14
1.000000000000E+20
 24
1.000000000000E+20
 34
1.000000000000E+20
 15
-1.000000000000E+20
 25
-1.000000000000E+20
 35
-1.000000000000E+20
146
0.0
 13
0.0
 23
0.0
 33
0.0
 16
1.0
 26
0.0
 36
0.0
 17
0.0
 27
1.0
 37
0.0
 76
     0
330
1B
  0
LAYOUT
  5
26
102
{ACAD_REACTORS
330
1A
102
}
330
1A
100
AcDbPlotSettings
  1

  2
none_device
  4

  6

 40
0.0
 41
0.0
 42
0.0
 43
0.0
 44
0.0
 45
0.0
 46
0.0
 47
0.0
 48
0.0
 49
0.0
140
0.0
141
0.0
142
1.0
143
1.0
 70
   688
 72
     0
 73
     0
 74
     5
  7

 75
    16
 76
     0
 77
     2
 78
   300
147
1.0
148
0.0
149
0.0
100
AcDbLayout
  1
Layout2
 70
     1
 71
     2
 10
0.0
 20
0.0
 11
0.0
 21
0.0
 12
0.0
 22
0.0
 32
0.0
 14
0.0
 24
0.0
 34
0.0
 15
0.0
 25
0.0
 35
0.0
146
0.0
 13
0.0
 23
0.0
 33
0.0
 16
1.0
 26
0.0
 36
0.0
 17
0.0
 27
1.0
 37
0.0
 76
     0
330
23
  0
LAYOUT
  5
22
102
{ACAD_REACTORS
330
1A
102
}
330
1A
100
AcDbPlotSettings
  1

  2
none_device
  4

  6

 40
0.0
 41
0.0
 42
0.0
 43
0.0
 44
0.0
 45
0.0
 46
0.0
 47
0.0
 48
0.0
 49
0.0
140
0.0
141
0.0
142
1.0
143
1.0
 70
  1712
 72
     0
 73
     0
 74
     0
  7

 75
     0
 76
     0
 77
     2
 78
   300
147
1.0
148
0.0
149
0.0
100
AcDbLayout
  1
Model
 70
     1
 71
     0
 10
0.0
 20
0.0
 11
420.0
 21
297.0
 12
0.0
 22
0.0
 32
0.0
 14
-99.917509899227
 24
49.946497983871
 34
0.0
 15
278.792726499009
 25
203.495497983871
 35
0.0
146
0.0
 13
0.0
 23
0.0
 33
0.0
 16
1.0
 26
0.0
 36
0.0
 17
0.0
 27
1.0
 37
0.0
 76
     0
330
1F
331
29
  0
MATERIAL
  5
3D
102
{ACAD_REACTORS
330
3B
102
}
102
{ACAD_XDICTIONARY
360
528
102
}
330
3B
100
AcDbMaterial
  1
ByBlock
  0
MATERIAL
  5
3C
102
{ACAD_REACTORS
330
3B
102
}
102
{ACAD_XDICTIONARY
360
526
102
}
330
3B
100
AcDbMaterial
  1
ByLayer
  0
MATERIAL
  5
3E
102
{ACAD_REACTORS
330
3B
102
}
102
{ACAD_XDICTIONARY
360
52A
102
}
330
3B
100
AcDbMaterial
  1
Global
  0
MLINESTYLE
  5
18
102
{ACAD_REACTORS
330
17
102
}
330
17
100
AcDbMlineStyle
  2
Standard
 70
     0
  3

 62
   256
 51
90.0
 52
90.0
 71
     2
 49
0.5
 62
   256
  6
BYLAYER
 49
-0.5
 62
   256
  6
BYLAYER
  0
ACDBPLACEHOLDER
  5
F
102
{ACAD_REACTORS
330
E
102
}
330
E
  0
VISUALSTYLE
  5
2F
102
{ACAD_REACTORS
330
2A
102
}
102
{ACAD_XDICTIONARY
360
50E
102
}
330
2A
100
AcDbVisualStyle
  2
2dWireframe
 70
     4
 71
     0
 72
     2
 73
     0
 90
        0
 40
-0.6
 41
-30.0
 62
     5
 63
     7
421
 16777215
 74
     1
 91
        4
 64
     7
 65
   257
 75
     1
175
     1
 42
1.0
 92
        0
 66
   257
 43
1.0
 76
     1
 77
     6
 78
     2
 67
     7
 79
     5
170
     0
171
     0
290
     0
174
     0
 93
        1
 44
0.0
173
     0
291
     0
 45
0.0
1001
ACAD
1000
AcDbSavedByObjectVersion
1070
     0
  0
VISUALSTYLE
  5
31
102
{ACAD_REACTORS
330
2A
102
}
102
{ACAD_XDICTIONARY
360
512
102
}
330
2A
100
AcDbVisualStyle
  2
3D Hidden
 70
     6
 71
     1
 72
     2
 73
     2
 90
        0
 40
-0.6
 41
-30.0
 62
     5
 63
     7
421
 16777215
 74
     2
 91
        2
 64
     7
 65
   257
 75
     2
175
     1
 42
40.0
 92
        0
 66
   257
 43
1.0
 76
     1
 77
     6
 78
     2
 67
     7
 79
     3
170
     0
171
     0
290
     0
174
     0
 93
        1
 44
0.0
173
     0
291
     0
 45
0.0
1001
ACAD
1000
AcDbSavedByObjectVersion
1070
     0
  0
VISUALSTYLE
  5
30
102
{ACAD_REACTORS
330
2A
102
}
102
{ACAD_XDICTIONARY
360
510
102
}
330
2A
100
AcDbVisualStyle
  2
3dWireframe
 70
     5
 71
     0
 72
     2
 73
     0
 90
        0
 40
-0.6
 41
-30.0
 62
     5
 63
     7
421
 16777215
 74
     1
 91
        4
 64
     7
 65
   257
 75
     1
175
     1
 42
1.0
 92
        0
 66
   257
 43
1.0
 76
     1
 77
     6
 78
     2
 67
     7
 79
     5
170
     0
171
     0
290
     0
174
     0
 93
        1
 44
0.0
173
     0
291
     0
 45
0.0
1001
ACAD
1000
AcDbSavedByObjectVersion
1070
     0
  0
VISUALSTYLE
  5
32
102
{ACAD_REACTORS
330
2A
102
}
102
{ACAD_XDICTIONARY
360
514
102
}
330
2A
100
AcDbVisualStyle
  2
Basic
 70
     7
 71
     1
 72
     0
 73
     1
 90
        0
 40
-0.6
 41
-30.0
 62
     5
 63
     7
421
 16777215
 74
     0
 91
        4
 64
     7
 65
   257
 75
     1
175
     1
 42
1.0
 92
        8
 66
     7
 43
1.0
 76
     1
 77
     6
 78
     2
 67
     7
 79
     5
170
     0
171
     0
290
     0
174
     0
 93
        1
 44
0.0
173
     0
291
     1
 45
0.0
1001
ACAD
1000
AcDbSavedByObjectVersion
1070
     0
  0
VISUALSTYLE
  5
36
102
{ACAD_REACTORS
330
2A
102
}
102
{ACAD_XDICTIONARY
360
51C
102
}
330
2A
100
AcDbVisualStyle
  2
Brighten
 70
    12
 71
     2
 72
     2
 73
     0
 90
        0
 40
-0.6
 41
-30.0
 62
     5
 63
     7
421
 16777215
 74
     1
 91
        4
 64
     7
 65
   257
 75
     1
175
     1
 42
1.0
 92
        8
 66
     7
 43
1.0
 76
     1
 77
     6
 78
     2
 67
     7
 79
     5
170
     0
171
     0
290
     0
174
     0
 93
        1
 44
50.0
173
     0
291
     1
 45
0.0
1001
ACAD
1000
AcDbSavedByObjectVersion
1070
     0
  0
VISUALSTYLE
  5
3A
102
{ACAD_REACTORS
330
2A
102
}
102
{ACAD_XDICTIONARY
360
524
102
}
330
2A
100
AcDbVisualStyle
  2
ColorChange
 70
    16
 71
     2
 72
     2
 73
     3
 90
        0
 40
-0.6
 41
-30.0
 62
     5
 63
     8
421
  8421504
 74
     1
 91
        4
 64
     7
 65
   257
 75
     1
175
     1
 42
1.0
 92
        8
 66
     8
424
  8421504
 43
1.0
 76
     1
 77
     6
 78
     2
 67
     7
 79
     5
170
     0
171
     0
290
     0
174
     0
 93
        1
 44
0.0
173
     0
291
     1
 45
0.0
1001
ACAD
1000
AcDbSavedByObjectVersion
1070
     0
  0
VISUALSTYLE
  5
34
102
{ACAD_REACTORS
330
2A
102
}
102
{ACAD_XDICTIONARY
360
518
102
}
330
2A
100
AcDbVisualStyle
  2
Conceptual
 70
     9
 71
     3
 72
     2
 73
     0
 90
        0
 40
-0.6
 41
-30.0
 62
     5
 63
     7
421
 16777215
 74
     2
 91
        2
 64
     7
 65
   257
 75
     1
175
     1
 42
40.0
 92
        8
 66
     7
 43
1.0
 76
     1
 77
     6
 78
     2
 67
     7
 79
     3
170
     0
171
     0
290
     0
174
     0
 93
        1
 44
0.0
173
     0
291
     0
 45
0.0
1001
ACAD
1000
AcDbSavedByObjectVersion
1070
     0
  0
VISUALSTYLE
  5
35
102
{ACAD_REACTORS
330
2A
102
}
102
{ACAD_XDICTIONARY
360
51A
102
}
330
2A
100
AcDbVisualStyle
  2
Dim
 70
    11
 71
     2
 72
     2
 73
     0
 90
        0
 40
-0.6
 41
-30.0
 62
     5
 63
     7
421
 16777215
 74
     1
 91
        4
 64
     7
 65
   257
 75
     1
175
     1
 42
1.0
 92
        8
 66
     7
 43
1.0
 76
     1
 77
     6
 78
     2
 67
     7
 79
     5
170
     0
171
     0
290
     0
174
     0
 93
        1
 44
-50.0
173
     0
291
     1
 45
0.0
1001
ACAD
1000
AcDbSavedByObjectVersion
1070
     0
  0
VISUALSTYLE
  5
39
102
{ACAD_REACTORS
330
2A
102
}
102
{ACAD_XDICTIONARY
360
522
102
}
330
2A
100
AcDbVisualStyle
  2
Facepattern
 70
    15
 71
     2
 72
     2
 73
     0
 90
        0
 40
-0.6
 41
-30.0
 62
     5
 63
     7
421
 16777215
 74
     1
 91
        4
 64
     7
 65
   257
 75
     1
175
     1
 42
1.0
 92
        8
 66
     7
 43
1.0
 76
     1
 77
     6
 78
     2
 67
     7
 79
     5
170
     0
171
     0
290
     0
174
     0
 93
        1
 44
0.0
173
     0
291
     1
 45
0.0
1001
ACAD
1000
AcDbSavedByObjectVersion
1070
     0
  0
VISUALSTYLE
  5
2B
102
{ACAD_REACTORS
330
2A
102
}
102
{ACAD_XDICTIONARY
360
506
102
}
330
2A
100
AcDbVisualStyle
  2
Flat
 70
     0
 71
     2
 72
     1
 73
     1
 90
        2
 40
-0.6
 41
30.0
 62
     5
 63
     7
421
 16777215
 74
     0
 91
        4
 64
     7
 65
   257
 75
     1
175
     1
 42
1.0
 92
        8
 66
     7
 43
1.0
 76
     1
 77
     6
 78
     2
 67
     7
 79
     5
170
     0
171
     0
290
     0
174
     0
 93
       13
 44
0.0
173
     0
291
     1
 45
0.0
1001
ACAD
1000
AcDbSavedByObjectVersion
1070
     0
  0
VISUALSTYLE
  5
2C
102
{ACAD_REACTORS
330
2A
102
}
102
{ACAD_XDICTIONARY
360
508
102
}
330
2A
100
AcDbVisualStyle
  2
FlatWithEdges
 70
     1
 71
     2
 72
     1
 73
     1
 90
        2
 40
-0.6
 41
30.0
 62
     5
 63
     7
421
 16777215
 74
     1
 91
        4
 64
     7
 65
   257
 75
     1
175
     1
 42
1.0
 92
        0
 66
   257
 43
1.0
 76
     1
 77
     6
 78
     2
 67
     7
 79
     5
170
     0
171
     0
290
     0
174
     0
 93
       13
 44
0.0
173
     0
291
     1
 45
0.0
1001
ACAD
1000
AcDbSavedByObjectVersion
1070
     0
  0
VISUALSTYLE
  5
2D
102
{ACAD_REACTORS
330
2A
102
}
102
{ACAD_XDICTIONARY
360
50A
102
}
330
2A
100
AcDbVisualStyle
  2
Gouraud
 70
     2
 71
     2
 72
     2
 73
     1
 90
        2
 40
-0.6
 41
30.0
 62
     5
 63
     7
421
 16777215
 74
     0
 91
        4
 64
     7
 65
   257
 75
     1
175
     1
 42
1.0
 92
        0
 66
     7
 43
1.0
 76
     1
 77
     6
 78
     2
 67
     7
 79
     5
170
     0
171
     0
290
     0
174
     0
 93
       13
 44
0.0
173
     0
291
     1
 45
0.0
1001
ACAD
1000
AcDbSavedByObjectVersion
1070
     0
  0
VISUALSTYLE
  5
2E
102
{ACAD_REACTORS
330
2A
102
}
102
{ACAD_XDICTIONARY
360
50C
102
}
330
2A
100
AcDbVisualStyle
  2
GouraudWithEdges
 70
     3
 71
     2
 72
     2
 73
     1
 90
        2
 40
-0.6
 41
30.0
 62
     5
 63
     7
421
 16777215
 74
     1
 91
        4
 64
     7
 65
   257
 75
     1
175
     1
 42
1.0
 92
        0
 66
   257
 43
1.0
 76
     1
 77
     6
 78
     2
 67
     7
 79
     5
170
     0
171
     0
290
     0
174
     0
 93
       13
 44
0.0
173
     0
291
     1
 45
0.0
1001
ACAD
1000
AcDbSavedByObjectVersion
1070
     0
  0
VISUALSTYLE
  5
38
102
{ACAD_REACTORS
330
2A
102
}
102
{ACAD_XDICTIONARY
360
520
102
}
330
2A
100
AcDbVisualStyle
  2
Linepattern
 70
    14
 71
     2
 72
     2
 73
     0
 90
        0
 40
-0.6
 41
-30.0
 62
     5
 63
     7
421
 16777215
 74
     1
 91
        4
 64
     7
 65
   257
 75
     7
175
     7
 42
1.0
 92
        8
 66
     7
 43
1.0
 76
     1
 77
     6
 78
     2
 67
     7
 79
     5
170
     0
171
     0
290
     0
174
     0
 93
        1
 44
0.0
173
     0
291
     1
 45
0.0
1001
ACAD
1000
AcDbSavedByObjectVersion
1070
     0
  0
VISUALSTYLE
  5
33
102
{ACAD_REACTORS
330
2A
102
}
102
{ACAD_XDICTIONARY
360
516
102
}
330
2A
100
AcDbVisualStyle
  2
Realistic
 70
     8
 71
     2
 72
     2
 73
     0
 90
        0
 40
-0.6
 41
-30.0
 62
     5
 63
     7
421
 16777215
 74
     1
 91
        0
 64
     7
 65
   257
 75
     1
175
     1
 42
1.0
 92
        8
 66
     8
424
  7895160
 43
1.0
 76
     1
 77
     6
 78
     2
 67
     7
 79
     5
170
     0
171
     0
290
     0
174
     0
 93
       13
 44
0.0
173
     0
291
     0
 45
0.0
1001
ACAD
1000
AcDbSavedByObjectVersion
1070
     0
  0
VISUALSTYLE
  5
37
102
{ACAD_REACTORS
330
2A
102
}
102
{ACAD_XDICTIONARY
360
51E
102
}
330
2A
100
AcDbVisualStyle
  2
Thicken
 70
    13
 71
     2
 72
     2
 73
     0
 90
        0
 40
-0.6
 41
-30.0
 62
     5
 63
     7
421
 16777215
 74
     1
 91
        4
 64
     7
 65
   257
 75
     1
175
     1
 42
1.0
 92
       12
 66
     7
 43
1.0
 76
     1
 77
     6
 78
     2
 67
     7
 79
     5
170
     0
171
     0
290
     0
174
     0
 93
        1
 44
0.0
173
     0
291
     1
 45
0.0
1001
ACAD
1000
AcDbSavedByObjectVersion
1070
     0
  0
DICTIONARY
  5
528
330
3D
100
AcDbDictionary
280
     1
281
     1
  3
ACAD_XREC_ROUNDTRIP
360
529
  0
DICTIONARY
  5
526
330
3C
100
AcDbDictionary
280
     1
281
     1
  3
ACAD_XREC_ROUNDTRIP
360
527
  0
DICTIONARY
  5
52A
330
3E
100
AcDbDictionary
280
     1
281
     1
  3
ACAD_XREC_ROUNDTRIP
360
52B
  0
DICTIONARY
  5
50E
330
2F
100
AcDbDictionary
280
     1
281
     1
  3
ACAD_XREC_ROUNDTRIP
360
50F
  0
DICTIONARY
  5
512
330
31
100
AcDbDictionary
280
     1
281
     1
  3
ACAD_XREC_ROUNDTRIP
360
513
  0
DICTIONARY
  5
510
330
30
100
AcDbDictionary
280
     1
281
     1
  3
ACAD_XREC_ROUNDTRIP
360
511
  0
DICTIONARY
  5
514
330
32
100
AcDbDictionary
280
     1
281
     1
  3
ACAD_XREC_ROUNDTRIP
360
515
  0
DICTIONARY
  5
51C
330
36
100
AcDbDictionary
280
     1
281
     1
  3
ACAD_XREC_ROUNDTRIP
360
51D
  0
DICTIONARY
  5
524
330
3A
100
AcDbDictionary
280
     1
281
     1
  3
ACAD_XREC_ROUNDTRIP
360
525
  0
DICTIONARY
  5
518
330
34
100
AcDbDictionary
280
     1
281
     1
  3
ACAD_XREC_ROUNDTRIP
360
519
  0
DICTIONARY
  5
51A
330
35
100
AcDbDictionary
280
     1
281
     1
  3
ACAD_XREC_ROUNDTRIP
360
51B
  0
DICTIONARY
  5
522
330
39
100
AcDbDictionary
280
     1
281
     1
  3
ACAD_XREC_ROUNDTRIP
360
523
  0
DICTIONARY
  5
506
330
2B
100
AcDbDictionary
280
     1
281
     1
  3
ACAD_XREC_ROUNDTRIP
360
507
  0
DICTIONARY
  5
508
330
2C
100
AcDbDictionary
280
     1
281
     1
  3
ACAD_XREC_ROUNDTRIP
360
509
  0
DICTIONARY
  5
50A
330
2D
100
AcDbDictionary
280
     1
281
     1
  3
ACAD_XREC_ROUNDTRIP
360
50B
  0
DICTIONARY
  5
50C
330
2E
100
AcDbDictionary
280
     1
281
     1
  3
ACAD_XREC_ROUNDTRIP
360
50D
  0
DICTIONARY
  5
520
330
38
100
AcDbDictionary
280
     1
281
     1
  3
ACAD_XREC_ROUNDTRIP
360
521
  0
DICTIONARY
  5
516
330
33
100
AcDbDictionary
280
     1
281
     1
  3
ACAD_XREC_ROUNDTRIP
360
517
  0
DICTIONARY
  5
51E
330
37
100
AcDbDictionary
280
     1
281
     1
  3
ACAD_XREC_ROUNDTRIP
360
51F
  0
XRECORD
  5
529
102
{ACAD_REACTORS
330
528
102
}
330
528
100
AcDbXrecord
280
     1
102
MATERIAL
148
0.0
149
0.0
149
0.0
 93
        0
 94
      127
282
     0
 72
     1
 77
     1
171
     1
175
     1
179
     1
273
     0
  0
XRECORD
  5
527
102
{ACAD_REACTORS
330
526
102
}
330
526
100
AcDbXrecord
280
     1
102
MATERIAL
148
0.0
149
0.0
149
0.0
 93
        0
 94
      127
282
     0
 72
     1
 77
     1
171
     1
175
     1
179
     1
273
     0
  0
XRECORD
  5
52B
102
{ACAD_REACTORS
330
52A
102
}
330
52A
100
AcDbXrecord
280
     1
102
MATERIAL
148
0.0
149
0.0
149
0.0
 93
        0
 94
      127
282
     0
 72
     1
 77
     1
171
     1
175
     1
179
     1
273
     0
  0
XRECORD
  5
50F
102
{ACAD_REACTORS
330
50E
102
}
330
50E
100
AcDbXrecord
280
     1
102
RTVSPropertyOp0
 70
     1
102
RTVSPropertyOp1
 70
     1
102
RTVSPropertyOp2
 70
     1
102
RTVSPropertyOp3
 70
     1
102
RTVSPropertyOp4
 70
     1
102
RTVSPropertyOp5
 70
     1
102
RTVSPropertyOp6
 70
     1
102
RTVSPropertyOp7
 70
     1
102
RTVSPropertyOp8
 70
     1
102
RTVSPropertyOp9
 70
     1
102
RTVSPropertyOp10
 70
     1
102
RTVSPropertyOp11
 70
     1
102
RTVSPropertyOp12
 70
     1
102
RTVSPropertyOp13
 70
     1
102
RTVSPropertyOp14
 70
     1
102
RTVSPropertyOp15
 70
     1
102
RTVSPropertyOp16
 70
     1
102
RTVSPropertyOp17
 70
     1
102
RTVSPropertyOp18
 70
     1
102
RTVSPropertyOp19
 70
     1
102
RTVSPropertyOp20
 70
     1
102
RTVSPropertyOp21
 70
     1
102
RTVSPropertyOp22
 70
     1
102
RTVSPropertyOp23
 70
     1
102
RTVSPropertyOp24
 70
     1
102
RTVSPropertyOp25
 70
     1
102
RTVSPropertyOp26
 70
     1
102
RTVSPropertyOp27
 70
     1
102
RTVSPropertyOp28
 70
     1
102
RTVSPropertyOp29
 70
     1
102
RTVSPropertyOp30
 70
     1
102
RTVSPropertyOp31
 70
     1
102
RTVSPropertyOp32
 70
     1
  0
XRECORD
  5
513
102
{ACAD_REACTORS
330
512
102
}
330
512
100
AcDbXrecord
280
     1
102
RTVSPropertyOp0
 70
     1
102
RTVSPropertyOp1
 70
     1
102
RTVSPropertyOp2
 70
     1
102
RTVSPropertyOp3
 70
     1
102
RTVSPropertyOp4
 70
     1
102
RTVSPropertyOp5
 70
     1
102
RTVSPropertyOp6
 70
     1
102
RTVSPropertyOp7
 70
     1
102
RTVSPropertyOp8
 70
     1
102
RTVSPropertyOp9
 70
     1
102
RTVSPropertyOp10
 70
     1
102
RTVSPropertyOp11
 70
     1
102
RTVSPropertyOp12
 70
     1
102
RTVSPropertyOp13
 70
     1
102
RTVSPropertyOp14
 70
     1
102
RTVSPropertyOp15
 70
     1
102
RTVSPropertyOp16
 70
     1
102
RTVSPropertyOp17
 70
     1
102
RTVSPropertyOp18
 70
     1
102
RTVSPropertyOp19
 70
     1
102
RTVSPropertyOp20
 70
     1
102
RTVSPropertyOp21
 70
     1
102
RTVSPropertyOp22
 70
     1
102
RTVSPropertyOp23
 70
     1
102
RTVSPropertyOp24
 70
     1
102
RTVSPropertyOp25
 70
     1
102
RTVSPropertyOp26
 70
     1
102
RTVSPropertyOp27
 70
     1
102
RTVSPropertyOp28
 70
     1
102
RTVSPropertyOp29
 70
     1
102
RTVSPropertyOp30
 70
     1
102
RTVSPropertyOp31
 70
     1
102
RTVSPropertyOp32
 70
     1
  0
XRECORD
  5
511
102
{ACAD_REACTORS
330
510
102
}
330
510
100
AcDbXrecord
280
     1
102
RTVSPropertyOp0
 70
     1
102
RTVSPropertyOp1
 70
     1
102
RTVSPropertyOp2
 70
     1
102
RTVSPropertyOp3
 70
     1
102
RTVSPropertyOp4
 70
     1
102
RTVSPropertyOp5
 70
     1
102
RTVSPropertyOp6
 70
     1
102
RTVSPropertyOp7
 70
     1
102
RTVSPropertyOp8
 70
     1
102
RTVSPropertyOp9
 70
     1
102
RTVSPropertyOp10
 70
     1
102
RTVSPropertyOp11
 70
     1
102
RTVSPropertyOp12
 70
     1
102
RTVSPropertyOp13
 70
     1
102
RTVSPropertyOp14
 70
     1
102
RTVSPropertyOp15
 70
     1
102
RTVSPropertyOp16
 70
     1
102
RTVSPropertyOp17
 70
     1
102
RTVSPropertyOp18
 70
     1
102
RTVSPropertyOp19
 70
     1
102
RTVSPropertyOp20
 70
     1
102
RTVSPropertyOp21
 70
     1
102
RTVSPropertyOp22
 70
     1
102
RTVSPropertyOp23
 70
     1
102
RTVSPropertyOp24
 70
     1
102
RTVSPropertyOp25
 70
     1
102
RTVSPropertyOp26
 70
     1
102
RTVSPropertyOp27
 70
     1
102
RTVSPropertyOp28
 70
     1
102
RTVSPropertyOp29
 70
     1
102
RTVSPropertyOp30
 70
     1
102
RTVSPropertyOp31
 70
     1
102
RTVSPropertyOp32
 70
     1
  0
XRECORD
  5
515
102
{ACAD_REACTORS
330
514
102
}
330
514
100
AcDbXrecord
280
     1
102
RTVSPropertyOp0
 70
     1
102
RTVSPropertyOp1
 70
     1
102
RTVSPropertyOp2
 70
     1
102
RTVSPropertyOp3
 70
     1
102
RTVSPropertyOp4
 70
     1
102
RTVSPropertyOp5
 70
     1
102
RTVSPropertyOp6
 70
     1
102
RTVSPropertyOp7
 70
     1
102
RTVSPropertyOp8
 70
     1
102
RTVSPropertyOp9
 70
     1
102
RTVSPropertyOp10
 70
     1
102
RTVSPropertyOp11
 70
     1
102
RTVSPropertyOp12
 70
     1
102
RTVSPropertyOp13
 70
     1
102
RTVSPropertyOp14
 70
     1
102
RTVSPropertyOp15
 70
     1
102
RTVSPropertyOp16
 70
     1
102
RTVSPropertyOp17
 70
     1
102
RTVSPropertyOp18
 70
     1
102
RTVSPropertyOp19
 70
     1
102
RTVSPropertyOp20
 70
     1
102
RTVSPropertyOp21
 70
     1
102
RTVSPropertyOp22
 70
     1
102
RTVSPropertyOp23
 70
     1
102
RTVSPropertyOp24
 70
     1
102
RTVSPropertyOp25
 70
     1
102
RTVSPropertyOp26
 70
     1
102
RTVSPropertyOp27
 70
     1
102
RTVSPropertyOp28
 70
     1
102
RTVSPropertyOp29
 70
     1
102
RTVSPropertyOp30
 70
     1
102
RTVSPropertyOp31
 70
     1
102
RTVSPropertyOp32
 70
     1
  0
XRECORD
  5
51D
102
{ACAD_REACTORS
330
51C
102
}
330
51C
100
AcDbXrecord
280
     1
102
RTVSPropertyOp0
 70
     1
102
RTVSPropertyOp1
 70
     1
102
RTVSPropertyOp2
 70
     1
102
RTVSPropertyOp3
 70
     1
102
RTVSPropertyOp4
 70
     1
102
RTVSPropertyOp5
 70
     1
102
RTVSPropertyOp6
 70
     1
102
RTVSPropertyOp7
 70
     1
102
RTVSPropertyOp8
 70
     1
102
RTVSPropertyOp9
 70
     1
102
RTVSPropertyOp10
 70
     1
102
RTVSPropertyOp11
 70
     1
102
RTVSPropertyOp12
 70
     1
102
RTVSPropertyOp13
 70
     1
102
RTVSPropertyOp14
 70
     1
102
RTVSPropertyOp15
 70
     1
102
RTVSPropertyOp16
 70
     1
102
RTVSPropertyOp17
 70
     1
102
RTVSPropertyOp18
 70
     1
102
RTVSPropertyOp19
 70
     1
102
RTVSPropertyOp20
 70
     1
102
RTVSPropertyOp21
 70
     1
102
RTVSPropertyOp22
 70
     1
102
RTVSPropertyOp23
 70
     1
102
RTVSPropertyOp24
 70
     1
102
RTVSPropertyOp25
 70
     1
102
RTVSPropertyOp26
 70
     1
102
RTVSPropertyOp27
 70
     1
102
RTVSPropertyOp28
 70
     1
102
RTVSPropertyOp29
 70
     1
102
RTVSPropertyOp30
 70
     1
102
RTVSPropertyOp31
 70
     1
102
RTVSPropertyOp32
 70
     1
  0
XRECORD
  5
525
102
{ACAD_REACTORS
330
524
102
}
330
524
100
AcDbXrecord
280
     1
102
RTVSPropertyOp0
 70
     1
102
RTVSPropertyOp1
 70
     1
102
RTVSPropertyOp2
 70
     1
102
RTVSPropertyOp3
 70
     1
102
RTVSPropertyOp4
 70
     1
102
RTVSPropertyOp5
 70
     1
102
RTVSPropertyOp6
 70
     1
102
RTVSPropertyOp7
 70
     1
102
RTVSPropertyOp8
 70
     1
102
RTVSPropertyOp9
 70
     1
102
RTVSPropertyOp10
 70
     1
102
RTVSPropertyOp11
 70
     1
102
RTVSPropertyOp12
 70
     1
102
RTVSPropertyOp13
 70
     1
102
RTVSPropertyOp14
 70
     1
102
RTVSPropertyOp15
 70
     1
102
RTVSPropertyOp16
 70
     1
102
RTVSPropertyOp17
 70
     1
102
RTVSPropertyOp18
 70
     1
102
RTVSPropertyOp19
 70
     1
102
RTVSPropertyOp20
 70
     1
102
RTVSPropertyOp21
 70
     1
102
RTVSPropertyOp22
 70
     1
102
RTVSPropertyOp23
 70
     1
102
RTVSPropertyOp24
 70
     1
102
RTVSPropertyOp25
 70
     1
102
RTVSPropertyOp26
 70
     1
102
RTVSPropertyOp27
 70
     1
102
RTVSPropertyOp28
 70
     1
102
RTVSPropertyOp29
 70
     1
102
RTVSPropertyOp30
 70
     1
102
RTVSPropertyOp31
 70
     1
102
RTVSPropertyOp32
 70
     1
  0
XRECORD
  5
519
102
{ACAD_REACTORS
330
518
102
}
330
518
100
AcDbXrecord
280
     1
102
RTVSPropertyOp0
 70
     1
102
RTVSPropertyOp1
 70
     1
102
RTVSPropertyOp2
 70
     1
102
RTVSPropertyOp3
 70
     1
102
RTVSPropertyOp4
 70
     1
102
RTVSPropertyOp5
 70
     1
102
RTVSPropertyOp6
 70
     1
102
RTVSPropertyOp7
 70
     1
102
RTVSPropertyOp8
 70
     1
102
RTVSPropertyOp9
 70
     1
102
RTVSPropertyOp10
 70
     1
102
RTVSPropertyOp11
 70
     1
102
RTVSPropertyOp12
 70
     1
102
RTVSPropertyOp13
 70
     1
102
RTVSPropertyOp14
 70
     1
102
RTVSPropertyOp15
 70
     1
102
RTVSPropertyOp16
 70
     1
102
RTVSPropertyOp17
 70
     1
102
RTVSPropertyOp18
 70
     1
102
RTVSPropertyOp19
 70
     1
102
RTVSPropertyOp20
 70
     1
102
RTVSPropertyOp21
 70
     1
102
RTVSPropertyOp22
 70
     1
102
RTVSPropertyOp23
 70
     1
102
RTVSPropertyOp24
 70
     1
102
RTVSPropertyOp25
 70
     1
102
RTVSPropertyOp26
 70
     1
102
RTVSPropertyOp27
 70
     1
102
RTVSPropertyOp28
 70
     1
102
RTVSPropertyOp29
 70
     1
102
RTVSPropertyOp30
 70
     1
102
RTVSPropertyOp31
 70
     1
102
RTVSPropertyOp32
 70
     1
  0
XRECORD
  5
51B
102
{ACAD_REACTORS
330
51A
102
}
330
51A
100
AcDbXrecord
280
     1
102
RTVSPropertyOp0
 70
     1
102
RTVSPropertyOp1
 70
     1
102
RTVSPropertyOp2
 70
     1
102
RTVSPropertyOp3
 70
     1
102
RTVSPropertyOp4
 70
     1
102
RTVSPropertyOp5
 70
     1
102
RTVSPropertyOp6
 70
     1
102
RTVSPropertyOp7
 70
     1
102
RTVSPropertyOp8
 70
     1
102
RTVSPropertyOp9
 70
     1
102
RTVSPropertyOp10
 70
     1
102
RTVSPropertyOp11
 70
     1
102
RTVSPropertyOp12
 70
     1
102
RTVSPropertyOp13
 70
     1
102
RTVSPropertyOp14
 70
     1
102
RTVSPropertyOp15
 70
     1
102
RTVSPropertyOp16
 70
     1
102
RTVSPropertyOp17
 70
     1
102
RTVSPropertyOp18
 70
     1
102
RTVSPropertyOp19
 70
     1
102
RTVSPropertyOp20
 70
     1
102
RTVSPropertyOp21
 70
     1
102
RTVSPropertyOp22
 70
     1
102
RTVSPropertyOp23
 70
     1
102
RTVSPropertyOp24
 70
     1
102
RTVSPropertyOp25
 70
     1
102
RTVSPropertyOp26
 70
     1
102
RTVSPropertyOp27
 70
     1
102
RTVSPropertyOp28
 70
     1
102
RTVSPropertyOp29
 70
     1
102
RTVSPropertyOp30
 70
     1
102
RTVSPropertyOp31
 70
     1
102
RTVSPropertyOp32
 70
     1
  0
XRECORD
  5
523
102
{ACAD_REACTORS
330
522
102
}
330
522
100
AcDbXrecord
280
     1
102
RTVSPropertyOp0
 70
     1
102
RTVSPropertyOp1
 70
     1
102
RTVSPropertyOp2
 70
     1
102
RTVSPropertyOp3
 70
     1
102
RTVSPropertyOp4
 70
     1
102
RTVSPropertyOp5
 70
     1
102
RTVSPropertyOp6
 70
     1
102
RTVSPropertyOp7
 70
     1
102
RTVSPropertyOp8
 70
     1
102
RTVSPropertyOp9
 70
     1
102
RTVSPropertyOp10
 70
     1
102
RTVSPropertyOp11
 70
     1
102
RTVSPropertyOp12
 70
     1
102
RTVSPropertyOp13
 70
     1
102
RTVSPropertyOp14
 70
     1
102
RTVSPropertyOp15
 70
     1
102
RTVSPropertyOp16
 70
     1
102
RTVSPropertyOp17
 70
     1
102
RTVSPropertyOp18
 70
     1
102
RTVSPropertyOp19
 70
     1
102
RTVSPropertyOp20
 70
     1
102
RTVSPropertyOp21
 70
     1
102
RTVSPropertyOp22
 70
     1
102
RTVSPropertyOp23
 70
     1
102
RTVSPropertyOp24
 70
     1
102
RTVSPropertyOp25
 70
     1
102
RTVSPropertyOp26
 70
     1
102
RTVSPropertyOp27
 70
     1
102
RTVSPropertyOp28
 70
     1
102
RTVSPropertyOp29
 70
     1
102
RTVSPropertyOp30
 70
     1
102
RTVSPropertyOp31
 70
     1
102
RTVSPropertyOp32
 70
     1
  0
XRECORD
  5
507
102
{ACAD_REACTORS
330
506
102
}
330
506
100
AcDbXrecord
280
     1
102
RTVSPropertyOp0
 70
     1
102
RTVSPropertyOp1
 70
     1
102
RTVSPropertyOp2
 70
     1
102
RTVSPropertyOp3
 70
     1
102
RTVSPropertyOp4
 70
     1
102
RTVSPropertyOp5
 70
     1
102
RTVSPropertyOp6
 70
     1
102
RTVSPropertyOp7
 70
     1
102
RTVSPropertyOp8
 70
     1
102
RTVSPropertyOp9
 70
     1
102
RTVSPropertyOp10
 70
     1
102
RTVSPropertyOp11
 70
     1
102
RTVSPropertyOp12
 70
     1
102
RTVSPropertyOp13
 70
     1
102
RTVSPropertyOp14
 70
     1
102
RTVSPropertyOp15
 70
     1
102
RTVSPropertyOp16
 70
     1
102
RTVSPropertyOp17
 70
     1
102
RTVSPropertyOp18
 70
     1
102
RTVSPropertyOp19
 70
     1
102
RTVSPropertyOp20
 70
     1
102
RTVSPropertyOp21
 70
     1
102
RTVSPropertyOp22
 70
     1
102
RTVSPropertyOp23
 70
     1
102
RTVSPropertyOp24
 70
     1
102
RTVSPropertyOp25
 70
     1
102
RTVSPropertyOp26
 70
     1
102
RTVSPropertyOp27
 70
     1
102
RTVSPropertyOp28
 70
     1
102
RTVSPropertyOp29
 70
     1
102
RTVSPropertyOp30
 70
     1
102
RTVSPropertyOp31
 70
     1
102
RTVSPropertyOp32
 70
     1
  0
XRECORD
  5
509
102
{ACAD_REACTORS
330
508
102
}
330
508
100
AcDbXrecord
280
     1
102
RTVSPropertyOp0
 70
     1
102
RTVSPropertyOp1
 70
     1
102
RTVSPropertyOp2
 70
     1
102
RTVSPropertyOp3
 70
     1
102
RTVSPropertyOp4
 70
     1
102
RTVSPropertyOp5
 70
     1
102
RTVSPropertyOp6
 70
     1
102
RTVSPropertyOp7
 70
     1
102
RTVSPropertyOp8
 70
     1
102
RTVSPropertyOp9
 70
     1
102
RTVSPropertyOp10
 70
     1
102
RTVSPropertyOp11
 70
     1
102
RTVSPropertyOp12
 70
     1
102
RTVSPropertyOp13
 70
     1
102
RTVSPropertyOp14
 70
     1
102
RTVSPropertyOp15
 70
     1
102
RTVSPropertyOp16
 70
     1
102
RTVSPropertyOp17
 70
     1
102
RTVSPropertyOp18
 70
     1
102
RTVSPropertyOp19
 70
     1
102
RTVSPropertyOp20
 70
     1
102
RTVSPropertyOp21
 70
     1
102
RTVSPropertyOp22
 70
     1
102
RTVSPropertyOp23
 70
     1
102
RTVSPropertyOp24
 70
     1
102
RTVSPropertyOp25
 70
     1
102
RTVSPropertyOp26
 70
     1
102
RTVSPropertyOp27
 70
     1
102
RTVSPropertyOp28
 70
     1
102
RTVSPropertyOp29
 70
     1
102
RTVSPropertyOp30
 70
     1
102
RTVSPropertyOp31
 70
     1
102
RTVSPropertyOp32
 70
     1
  0
XRECORD
  5
50B
102
{ACAD_REACTORS
330
50A
102
}
330
50A
100
AcDbXrecord
280
     1
102
RTVSPropertyOp0
 70
     1
102
RTVSPropertyOp1
 70
     1
102
RTVSPropertyOp2
 70
     1
102
RTVSPropertyOp3
 70
     1
102
RTVSPropertyOp4
 70
     1
102
RTVSPropertyOp5
 70
     1
102
RTVSPropertyOp6
 70
     1
102
RTVSPropertyOp7
 70
     1
102
RTVSPropertyOp8
 70
     1
102
RTVSPropertyOp9
 70
     1
102
RTVSPropertyOp10
 70
     1
102
RTVSPropertyOp11
 70
     1
102
RTVSPropertyOp12
 70
     1
102
RTVSPropertyOp13
 70
     1
102
RTVSPropertyOp14
 70
     1
102
RTVSPropertyOp15
 70
     1
102
RTVSPropertyOp16
 70
     1
102
RTVSPropertyOp17
 70
     1
102
RTVSPropertyOp18
 70
     1
102
RTVSPropertyOp19
 70
     1
102
RTVSPropertyOp20
 70
     1
102
RTVSPropertyOp21
 70
     1
102
RTVSPropertyOp22
 70
     1
102
RTVSPropertyOp23
 70
     1
102
RTVSPropertyOp24
 70
     1
102
RTVSPropertyOp25
 70
     1
102
RTVSPropertyOp26
 70
     1
102
RTVSPropertyOp27
 70
     1
102
RTVSPropertyOp28
 70
     1
102
RTVSPropertyOp29
 70
     1
102
RTVSPropertyOp30
 70
     1
102
RTVSPropertyOp31
 70
     1
102
RTVSPropertyOp32
 70
     1
  0
XRECORD
  5
50D
102
{ACAD_REACTORS
330
50C
102
}
330
50C
100
AcDbXrecord
280
     1
102
RTVSPropertyOp0
 70
     1
102
RTVSPropertyOp1
 70
     1
102
RTVSPropertyOp2
 70
     1
102
RTVSPropertyOp3
 70
     1
102
RTVSPropertyOp4
 70
     1
102
RTVSPropertyOp5
 70
     1
102
RTVSPropertyOp6
 70
     1
102
RTVSPropertyOp7
 70
     1
102
RTVSPropertyOp8
 70
     1
102
RTVSPropertyOp9
 70
     1
102
RTVSPropertyOp10
 70
     1
102
RTVSPropertyOp11
 70
     1
102
RTVSPropertyOp12
 70
     1
102
RTVSPropertyOp13
 70
     1
102
RTVSPropertyOp14
 70
     1
102
RTVSPropertyOp15
 70
     1
102
RTVSPropertyOp16
 70
     1
102
RTVSPropertyOp17
 70
     1
102
RTVSPropertyOp18
 70
     1
102
RTVSPropertyOp19
 70
     1
102
RTVSPropertyOp20
 70
     1
102
RTVSPropertyOp21
 70
     1
102
RTVSPropertyOp22
 70
     1
102
RTVSPropertyOp23
 70
     1
102
RTVSPropertyOp24
 70
     1
102
RTVSPropertyOp25
 70
     1
102
RTVSPropertyOp26
 70
     1
102
RTVSPropertyOp27
 70
     1
102
RTVSPropertyOp28
 70
     1
102
RTVSPropertyOp29
 70
     1
102
RTVSPropertyOp30
 70
     1
102
RTVSPropertyOp31
 70
     1
102
RTVSPropertyOp32
 70
     1
  0
XRECORD
  5
521
102
{ACAD_REACTORS
330
520
102
}
330
520
100
AcDbXrecord
280
     1
102
RTVSPropertyOp0
 70
     1
102
RTVSPropertyOp1
 70
     1
102
RTVSPropertyOp2
 70
     1
102
RTVSPropertyOp3
 70
     1
102
RTVSPropertyOp4
 70
     1
102
RTVSPropertyOp5
 70
     1
102
RTVSPropertyOp6
 70
     1
102
RTVSPropertyOp7
 70
     1
102
RTVSPropertyOp8
 70
     1
102
RTVSPropertyOp9
 70
     1
102
RTVSPropertyOp10
 70
     1
102
RTVSPropertyOp11
 70
     1
102
RTVSPropertyOp12
 70
     1
102
RTVSPropertyOp13
 70
     1
102
RTVSPropertyOp14
 70
     1
102
RTVSPropertyOp15
 70
     1
102
RTVSPropertyOp16
 70
     1
102
RTVSPropertyOp17
 70
     1
102
RTVSPropertyOp18
 70
     1
102
RTVSPropertyOp19
 70
     1
102
RTVSPropertyOp20
 70
     1
102
RTVSPropertyOp21
 70
     1
102
RTVSPropertyOp22
 70
     1
102
RTVSPropertyOp23
 70
     1
102
RTVSPropertyOp24
 70
     1
102
RTVSPropertyOp25
 70
     1
102
RTVSPropertyOp26
 70
     1
102
RTVSPropertyOp27
 70
     1
102
RTVSPropertyOp28
 70
     1
102
RTVSPropertyOp29
 70
     1
102
RTVSPropertyOp30
 70
     1
102
RTVSPropertyOp31
 70
     1
102
RTVSPropertyOp32
 70
     1
  0
XRECORD
  5
517
102
{ACAD_REACTORS
330
516
102
}
330
516
100
AcDbXrecord
280
     1
102
RTVSPropertyOp0
 70
     1
102
RTVSPropertyOp1
 70
     1
102
RTVSPropertyOp2
 70
     1
102
RTVSPropertyOp3
 70
     1
102
RTVSPropertyOp4
 70
     1
102
RTVSPropertyOp5
 70
     1
102
RTVSPropertyOp6
 70
     1
102
RTVSPropertyOp7
 70
     1
102
RTVSPropertyOp8
 70
     1
102
RTVSPropertyOp9
 70
     1
102
RTVSPropertyOp10
 70
     1
102
RTVSPropertyOp11
 70
     1
102
RTVSPropertyOp12
 70
     1
102
RTVSPropertyOp13
 70
     1
102
RTVSPropertyOp14
 70
     1
102
RTVSPropertyOp15
 70
     1
102
RTVSPropertyOp16
 70
     1
102
RTVSPropertyOp17
 70
     1
102
RTVSPropertyOp18
 70
     1
102
RTVSPropertyOp19
 70
     1
102
RTVSPropertyOp20
 70
     1
102
RTVSPropertyOp21
 70
     1
102
RTVSPropertyOp22
 70
     1
102
RTVSPropertyOp23
 70
     1
102
RTVSPropertyOp24
 70
     1
102
RTVSPropertyOp25
 70
     1
102
RTVSPropertyOp26
 70
     1
102
RTVSPropertyOp27
 70
     1
102
RTVSPropertyOp28
 70
     1
102
RTVSPropertyOp29
 70
     1
102
RTVSPropertyOp30
 70
     1
102
RTVSPropertyOp31
 70
     1
102
RTVSPropertyOp32
 70
     1
  0
XRECORD
  5
51F
102
{ACAD_REACTORS
330
51E
102
}
330
51E
100
AcDbXrecord
280
     1
102
RTVSPropertyOp0
 70
     1
102
RTVSPropertyOp1
 70
     1
102
RTVSPropertyOp2
 70
     1
102
RTVSPropertyOp3
 70
     1
102
RTVSPropertyOp4
 70
     1
102
RTVSPropertyOp5
 70
     1
102
RTVSPropertyOp6
 70
     1
102
RTVSPropertyOp7
 70
     1
102
RTVSPropertyOp8
 70
     1
102
RTVSPropertyOp9
 70
     1
102
RTVSPropertyOp10
 70
     1
102
RTVSPropertyOp11
 70
     1
102
RTVSPropertyOp12
 70
     1
102
RTVSPropertyOp13
 70
     1
102
RTVSPropertyOp14
 70
     1
102
RTVSPropertyOp15
 70
     1
102
RTVSPropertyOp16
 70
     1
102
RTVSPropertyOp17
 70
     1
102
RTVSPropertyOp18
 70
     1
102
RTVSPropertyOp19
 70
     1
102
RTVSPropertyOp20
 70
     1
102
RTVSPropertyOp21
 70
     1
102
RTVSPropertyOp22
 70
     1
102
RTVSPropertyOp23
 70
     1
102
RTVSPropertyOp24
 70
     1
102
RTVSPropertyOp25
 70
     1
102
RTVSPropertyOp26
 70
     1
102
RTVSPropertyOp27
 70
     1
102
RTVSPropertyOp28
 70
     1
102
RTVSPropertyOp29
 70
     1
102
RTVSPropertyOp30
 70
     1
102
RTVSPropertyOp31
 70
     1
102
RTVSPropertyOp32
 70
     1
  0
ENDSEC
  0
EOF
