  0
SECTION
  2
HEADER
  9
$ACADVER
  1
AC1018
  9
$ACADMAINTVER
 70
     0
  9
$DWGCODEPAGE
  3
ANSI_1252
  9
$INSBASE
 10
0.0
 20
0.0
 30
0.0
  9
$EXTMIN
 10
300.284221921034
 20
57.755471486175
 30
0.0
  9
$EXTMAX
 10
678.99445831927
 20
211.304471486175
 30
0.0
  9
$LIMMIN
 10
0.0
 20
0.0
  9
$LIMMAX
 10
420.0
 20
297.0
  9
$ORTHOMODE
 70
     0
  9
$REGENMODE
 70
     1
  9
$FILLMODE
 70
     1
  9
$QTEXTMODE
 70
     0
  9
$MIRRTEXT
 70
     1
  9
$LTSCALE
 40
5.0
  9
$ATTMODE
 70
     1
  9
$TEXTSIZE
 40
2.5
  9
$TRACEWID
 40
1.0
  9
$TEXTSTYLE
  7
Standard
  9
$CLAYER
  8
0
  9
$CELTYPE
  6
ByLayer
  9
$CECOLOR
 62
   256
  9
$CELTSCALE
 40
1.0
  9
$DISPSILH
 70
     0
  9
$DIMSCALE
 40
1.0
  9
$DIMASZ
 40
2.5
  9
$DIMEXO
 40
0.625
  9
$DIMDLI
 40
3.75
  9
$DIMRND
 40
0.0
  9
$DIMDLE
 40
0.0
  9
$DIMEXE
 40
1.25
  9
$DIMTP
 40
0.0
  9
$DIMTM
 40
0.0
  9
$DIMTXT
 40
2.5
  9
$DIMCEN
 40
2.5
  9
$DIMTSZ
 40
0.0
  9
$DIMTOL
 70
     0
  9
$DIMLIM
 70
     0
  9
$DIMTIH
 70
     0
  9
$DIMTOH
 70
     0
  9
$DIMSE1
 70
     0
  9
$DIMSE2
 70
     0
  9
$DIMTAD
 70
     1
  9
$DIMZIN
 70
     8
  9
$DIMBLK
  1

  9
$DIMASO
 70
     1
  9
$DIMSHO
 70
     1
  9
$DIMPOST
  1

  9
$DIMAPOST
  1

  9
$DIMALT
 70
     0
  9
$DIMALTD
 70
     3
  9
$DIMALTF
 40
0.03937007874
  9
$DIMLFAC
 40
1.0
  9
$DIMTOFL
 70
     1
  9
$DIMTVP
 40
0.0
  9
$DIMTIX
 70
     0
  9
$DIMSOXD
 70
     0
  9
$DIMSAH
 70
     0
  9
$DIMBLK1
  1

  9
$DIMBLK2
  1

  9
$DIMSTYLE
  2
ISO-25
  9
$DIMCLRD
 70
     0
  9
$DIMCLRE
 70
     0
  9
$DIMCLRT
 70
     0
  9
$DIMTFAC
 40
1.0
  9
$DIMGAP
 40
0.625
  9
$DIMJUST
 70
     0
  9
$DIMSD1
 70
     0
  9
$DIMSD2
 70
     0
  9
$DIMTOLJ
 70
     0
  9
$DIMTZIN
 70
     8
  9
$DIMALTZ
 70
     0
  9
$DIMALTTZ
 70
     0
  9
$DIMUPT
 70
     0
  9
$DIMDEC
 70
     2
  9
$DIMTDEC
 70
     2
  9
$DIMALTU
 70
     2
  9
$DIMALTTD
 70
     3
  9
$DIMTXSTY
  7
Standard
  9
$DIMAUNIT
 70
     0
  9
$DIMADEC
 70
     0
  9
$DIMALTRND
 40
0.0
  9
$DIMAZIN
 70
     0
  9
$DIMDSEP
 70
    44
  9
$DIMATFIT
 70
     3
  9
$DIMFRAC
 70
     0
  9
$DIMLDRBLK
  1

  9
$DIMLUNIT
 70
     2
  9
$DIMLWD
 70
    -2
  9
$DIMLWE
 70
    -2
  9
$DIMTMOVE
 70
     0
  9
$LUNITS
 70
     2
  9
$LUPREC
 70
     4
  9
$SKETCHINC
 40
1.0
  9
$FILLETRAD
 40
10.0
  9
$AUNITS
 70
     0
  9
$AUPREC
 70
     0
  9
$MENU
  1
.
  9
$ELEVATION
 40
0.0
  9
$PELEVATION
 40
0.0
  9
$THICKNESS
 40
0.0
  9
$LIMCHECK
 70
     0
  9
$CHAMFERA
 40
10.0
  9
$CHAMFERB
 40
10.0
  9
$CHAMFERC
 40
20.0
  9
$CHAMFERD
 40
0.0
  9
$SKPOLY
 70
     0
  9
$TDCREATE
 40
2458746.469653669
  9
$TDUCREATE
 40
2458746.386320336
  9
$TDUPDATE
 40
2458746.46967353
  9
$TDUUPDATE
 40
2458746.386340197
  9
$TDINDWG
 40
0.0000000116
  9
$TDUSRTIMER
 40
0.0000000116
  9
$USRTIMER
 70
     1
  9
$ANGBASE
 50
0.0
  9
$ANGDIR
 70
     0
  9
$PDMODE
 70
     2
  9
$PDSIZE
 40
1.0
  9
$PLINEWID
 40
0.0
  9
$SPLFRAME
 70
     0
  9
$SPLINETYPE
 70
     6
  9
$SPLINESEGS
 70
     8
  9
$HANDSEED
  5
612
  9
$SURFTAB1
 70
     6
  9
$SURFTAB2
 70
     6
  9
$SURFTYPE
 70
     6
  9
$SURFU
 70
     6
  9
$SURFV
 70
     6
  9
$UCSBASE
  2

  9
$UCSNAME
  2

  9
$UCSORG
 10
0.0
 20
0.0
 30
0.0
  9
$UCSXDIR
 10
1.0
 20
0.0
 30
0.0
  9
$UCSYDIR
 10
0.0
 20
1.0
 30
0.0
  9
$UCSORTHOREF
  2

  9
$UCSORTHOVIEW
 70
     0
  9
$UCSORGTOP
 10
0.0
 20
0.0
 30
0.0
  9
$UCSORGBOTTOM
 10
0.0
 20
0.0
 30
0.0
  9
$UCSORGLEFT
 10
0.0
 20
0.0
 30
0.0
  9
$UCSORGRIGHT
 10
0.0
 20
0.0
 30
0.0
  9
$UCSORGFRONT
 10
0.0
 20
0.0
 30
0.0
  9
$UCSORGBACK
 10
0.0
 20
0.0
 30
0.0
  9
$PUCSBASE
  2

  9
$PUCSNAME
  2

  9
$PUCSORG
 10
0.0
 20
0.0
 30
0.0
  9
$PUCSXDIR
 10
1.0
 20
0.0
 30
0.0
  9
$PUCSYDIR
 10
0.0
 20
1.0
 30
0.0
  9
$PUCSORTHOREF
  2

  9
$PUCSORTHOVIEW
 70
     0
  9
$PUCSORGTOP
 10
0.0
 20
0.0
 30
0.0
  9
$PUCSORGBOTTOM
 10
0.0
 20
0.0
 30
0.0
  9
$PUCSORGLEFT
 10
0.0
 20
0.0
 30
0.0
  9
$PUCSORGRIGHT
 10
0.0
 20
0.0
 30
0.0
  9
$PUCSORGFRONT
 10
0.0
 20
0.0
 30
0.0
  9
$PUCSORGBACK
 10
0.0
 20
0.0
 30
0.0
  9
$USERI1
 70
     0
  9
$USERI2
 70
     0
  9
$USERI3
 70
     0
  9
$USERI4
 70
     0
  9
$USERI5
 70
     0
  9
$USERR1
 40
0.0
  9
$USERR2
 40
0.0
  9
$USERR3
 40
0.0
  9
$USERR4
 40
0.0
  9
$USERR5
 40
0.0
  9
$WORLDVIEW
 70
     1
  9
$SHADEDGE
 70
     3
  9
$SHADEDIF
 70
    70
  9
$TILEMODE
 70
     1
  9
$MAXACTVP
 70
    64
  9
$PINSBASE
 10
0.0
 20
0.0
 30
0.0
  9
$PLIMCHECK
 70
     0
  9
$PEXTMIN
 10
1.000000000000E+20
 20
1.000000000000E+20
 30
1.000000000000E+20
  9
$PEXTMAX
 10
-1.000000000000E+20
 20
-1.000000000000E+20
 30
-1.000000000000E+20
  9
$PLIMMIN
 10
0.0
 20
0.0
  9
$PLIMMAX
 10
420.0
 20
297.0
  9
$UNITMODE
 70
     0
  9
$VISRETAIN
 70
     1
  9
$PLINEGEN
 70
     0
  9
$PSLTSCALE
 70
     1
  9
$TREEDEPTH
 70
  3020
  9
$CMLSTYLE
  2
Standard
  9
$CMLJUST
 70
     0
  9
$CMLSCALE
 40
20.0
  9
$PROXYGRAPHICS
 70
     1
  9
$MEASUREMENT
 70
     1
  9
$CELWEIGHT
370
    -1
  9
$ENDCAPS
280
     0
  9
$JOINSTYLE
280
     0
  9
$LWDISPLAY
290
     0
  9
$INSUNITS
 70
     4
  9
$HYPERLINKBASE
  1

  9
$STYLESHEET
  1

  9
$XEDIT
290
     1
  9
$CEPSNTYPE
380
     0
  9
$PSTYLEMODE
290
     1
  9
$FINGERPRINTGUID
  2
{647A616B-0D7B-4E24-8AB5-C84AEC69A0EE}
  9
$VERSIONGUID
  2
{FAEB1C32-E019-11D5-929B-00C0DF256EC4}
  9
$EXTNAMES
290
     1
  9
$PSVPSCALE
 40
0.0
  9
$OLESTARTUP
290
     0
  9
$SORTENTS
280
   127
  9
$INDEXCTL
280
     0
  9
$HIDETEXT
280
     1
  9
$XCLIPFRAME
290
     0
  9
$HALOGAP
280
     0
  9
$OBSCOLOR
 70
   257
  9
$OBSLTYPE
280
     0
  9
$INTERSECTIONDISPLAY
280
     0
  9
$INTERSECTIONCOLOR
 70
   257
  9
$DIMASSOC
280
     2
  9
$PROJECTNAME
  1

  0
ENDSEC
  0
SECTION
  2
CLASSES
  0
CLASS
  1
ACDBDICTIONARYWDFLT
  2
AcDbDictionaryWithDefault
  3
ObjectDBX Classes
 90
        0
 91
        4
280
     0
281
     0
  0
CLASS
  1
VISUALSTYLE
  2
AcDbVisualStyle
  3
ObjectDBX Classes
 90
     4095
 91
        4
280
     0
281
     0
  0
CLASS
  1
MATERIAL
  2
AcDbMaterial
  3
ObjectDBX Classes
 90
     1153
 91
        4
280
     0
281
     0
  0
CLASS
  1
WIPEOUTVARIABLES
  2
AcDbWipeoutVariables
  3
WipeOut|AutoCAD Express Tool|expresstools@autodesk.com
 90
        0
 91
        4
280
     0
281
     0
  0
ENDSEC
  0
SECTION
  2
TABLES
  0
TABLE
  2
VPORT
  5
8
330
0
100
AcDbSymbolTable
 70
     1
  0
VPORT
  5
29
330
8
100
AcDbSymbolTableRecord
100
AcDbViewportTableRecord
  2
*Active
 70
     0
 10
0.0
 20
0.0
 11
1.0
 21
1.0
 12
489.639340120152
 22
134.529971486175
 13
0.0
 23
0.0
 14
10.0
 24
10.0
 15
10.0
 25
10.0
 16
0.0
 26
0.0
 36
1.0
 17
0.0
 27
0.0
 37
0.0
 40
153.549
 41
2.466380350235
 42
50.0
 43
0.0
 44
0.0
 50
0.0
 51
0.0
 71
     0
 72
   100
 73
     1
 74
     3
 75
     0
 76
     0
 77
     0
 78
     0
281
     0
 65
     1
110
0.0
120
0.0
130
0.0
111
1.0
121
0.0
131
0.0
112
0.0
122
1.0
132
0.0
 79
     0
146
0.0
  0
ENDTAB
  0
TABLE
  2
LTYPE
  5
5
330
0
100
AcDbSymbolTable
 70
     3
  0
LTYPE
  5
14
330
5
100
AcDbSymbolTableRecord
100
AcDbLinetypeTableRecord
  2
ByBlock
 70
     0
  3

 72
    65
 73
     0
 40
0.0
  0
LTYPE
  5
15
330
5
100
AcDbSymbolTableRecord
100
AcDbLinetypeTableRecord
  2
ByLayer
 70
     0
  3

 72
    65
 73
     0
 40
0.0
  0
LTYPE
  5
16
330
5
100
AcDbSymbolTableRecord
100
AcDbLinetypeTableRecord
  2
Continuous
 70
     0
  3
Solid line
 72
    65
 73
     0
 40
0.0
  0
LTYPE
  5
40
330
5
100
AcDbSymbolTableRecord
100
AcDbLinetypeTableRecord
  2
AUSGEZOGEN
 70
     0
  3

 72
    65
 73
     0
 40
0.0
  0
LTYPE
  5
43
330
5
100
AcDbSymbolTableRecord
100
AcDbLinetypeTableRecord
  2
DASHDOT
 70
     0
  3

 72
    65
 73
     4
 40
1.0
 49
0.5
 74
     0
 49
-0.25
 74
     0
 49
0.0
 74
     0
 49
-0.25
 74
     0
  0
ENDTAB
  0
TABLE
  2
LAYER
  5
2
330
0
100
AcDbSymbolTable
 70
   257
  0
LAYER
  5
10
330
2
100
AcDbSymbolTableRecord
100
AcDbLayerTableRecord
  2
0
 70
     0
 62
     7
  6
Continuous
370
    -3
390
F
  0
LAYER
  5
45
330
2
100
AcDbSymbolTableRecord
100
AcDbLayerTableRecord
  2
Layer0
 70
     0
 62
     7
  6
Continuous
370
    -3
390
F
  0
LAYER
  5
46
330
2
100
AcDbSymbolTableRecord
100
AcDbLayerTableRecord
  2
Stammform
 70
     0
 62
     7
  6
Continuous
370
    -3
390
F
  0
LAYER
  5
47
330
2
100
AcDbSymbolTableRecord
100
AcDbLayerTableRecord
  2
Formteil
 70
     0
 62
     7
  6
Continuous
370
    -3
390
F
  0
LAYER
  5
48
330
2
100
AcDbSymbolTableRecord
100
AcDbLayerTableRecord
  2
Kühlsystem
 70
     0
 62
     7
  6
Continuous
370
    -3
390
F
  0
LAYER
  5
49
330
2
100
AcDbSymbolTableRecord
100
AcDbLayerTableRecord
  2
Auswerfsystem
 70
     0
 62
     7
  6
Continuous
370
    -3
390
F
  0
LAYER
  5
4A
330
2
100
AcDbSymbolTableRecord
100
AcDbLayerTableRecord
  2
Text
 70
     0
 62
     7
  6
Continuous
370
    -3
390
F
  0
LAYER
  5
4B
330
2
100
AcDbSymbolTableRecord
100
AcDbLayerTableRecord
  2
Schraffur
 70
     0
 62
     7
  6
Continuous
370
    -3
390
F
  0
LAYER
  5
4C
330
2
100
AcDbSymbolTableRecord
100
AcDbLayerTableRecord
  2
Bemaßung
 70
     0
 62
     7
  6
Continuous
370
    -3
390
F
  0
LAYER
  5
4D
330
2
100
AcDbSymbolTableRecord
100
AcDbLayerTableRecord
  2
Heißkanal
 70
     0
 62
     7
  6
Continuous
370
    -3
390
F
  0
LAYER
  5
4E
330
2
100
AcDbSymbolTableRecord
100
AcDbLayerTableRecord
  2
Layer9
 70
     0
 62
     7
  6
Continuous
370
    -3
390
F
  0
LAYER
  5
4F
330
2
100
AcDbSymbolTableRecord
100
AcDbLayerTableRecord
  2
Hilsgeometrie
 70
     0
 62
     7
  6
Continuous
370
    -3
390
F
  0
LAYER
  5
50
330
2
100
AcDbSymbolTableRecord
100
AcDbLayerTableRecord
  2
Layer11
 70
     0
 62
     7
  6
Continuous
370
    -3
390
F
  0
LAYER
  5
51
330
2
100
AcDbSymbolTableRecord
100
AcDbLayerTableRecord
  2
Layer12
 70
     0
 62
     7
  6
Continuous
370
    -3
390
F
  0
LAYER
  5
52
330
2
100
AcDbSymbolTableRecord
100
AcDbLayerTableRecord
  2
Layer13
 70
     0
 62
     7
  6
Continuous
370
    -3
390
F
  0
LAYER
  5
53
330
2
100
AcDbSymbolTableRecord
100
AcDbLayerTableRecord
  2
Layer14
 70
     0
 62
     7
  6
Continuous
370
    -3
390
F
  0
LAYER
  5
54
330
2
100
AcDbSymbolTableRecord
100
AcDbLayerTableRecord
  2
Layer15
 70
     0
 62
     7
  6
Continuous
370
    -3
390
F
  0
LAYER
  5
55
330
2
100
AcDbSymbolTableRecord
100
AcDbLayerTableRecord
  2
Layer16
 70
     0
 62
     7
  6
Continuous
370
    -3
390
F
  0
LAYER
  5
56
330
2
100
AcDbSymbolTableRecord
100
AcDbLayerTableRecord
  2
Layer17
 70
     0
 62
     7
  6
Continuous
370
    -3
390
F
  0
LAYER
  5
57
330
2
100
AcDbSymbolTableRecord
100
AcDbLayerTableRecord
  2
Layer18
 70
     0
 62
     7
  6
Continuous
370
    -3
390
F
  0
LAYER
  5
58
330
2
100
AcDbSymbolTableRecord
100
AcDbLayerTableRecord
  2
Layer19
 70
     0
 62
     7
  6
Continuous
370
    -3
390
F
  0
LAYER
  5
59
330
2
100
AcDbSymbolTableRecord
100
AcDbLayerTableRecord
  2
Layer20
 70
     0
 62
     7
  6
Continuous
370
    -3
390
F
  0
LAYER
  5
5A
330
2
100
AcDbSymbolTableRecord
100
AcDbLayerTableRecord
  2
Layer21
 70
     0
 62
     7
  6
Continuous
370
    -3
390
F
  0
LAYER
  5
5B
330
2
100
AcDbSymbolTableRecord
100
AcDbLayerTableRecord
  2
Layer22
 70
     0
 62
     7
  6
Continuous
370
    -3
390
F
  0
LAYER
  5
5C
330
2
100
AcDbSymbolTableRecord
100
AcDbLayerTableRecord
  2
Layer23
 70
     0
 62
     7
  6
Continuous
370
    -3
390
F
  0
LAYER
  5
5D
330
2
100
AcDbSymbolTableRecord
100
AcDbLayerTableRecord
  2
Layer24
 70
     0
 62
     7
  6
Continuous
370
    -3
390
F
  0
LAYER
  5
5E
330
2
100
AcDbSymbolTableRecord
100
AcDbLayerTableRecord
  2
Layer25
 70
     0
 62
     7
  6
Continuous
370
    -3
390
F
  0
LAYER
  5
5F
330
2
100
AcDbSymbolTableRecord
100
AcDbLayerTableRecord
  2
Layer26
 70
     0
 62
     7
  6
Continuous
370
    -3
390
F
  0
LAYER
  5
60
330
2
100
AcDbSymbolTableRecord
100
AcDbLayerTableRecord
  2
Layer27
 70
     0
 62
     7
  6
Continuous
370
    -3
390
F
  0
LAYER
  5
61
330
2
100
AcDbSymbolTableRecord
100
AcDbLayerTableRecord
  2
Layer28
 70
     0
 62
     7
  6
Continuous
370
    -3
390
F
  0
LAYER
  5
62
330
2
100
AcDbSymbolTableRecord
100
AcDbLayerTableRecord
  2
Layer29
 70
     0
 62
     7
  6
Continuous
370
    -3
390
F
  0
LAYER
  5
63
330
2
100
AcDbSymbolTableRecord
100
AcDbLayerTableRecord
  2
Layer30
 70
     0
 62
     7
  6
Continuous
370
    -3
390
F
  0
LAYER
  5
64
330
2
100
AcDbSymbolTableRecord
100
AcDbLayerTableRecord
  2
Layer31
 70
     0
 62
     7
  6
Continuous
370
    -3
390
F
  0
LAYER
  5
65
330
2
100
AcDbSymbolTableRecord
100
AcDbLayerTableRecord
  2
Layer32
 70
     0
 62
     7
  6
Continuous
370
    -3
390
F
  0
LAYER
  5
66
330
2
100
AcDbSymbolTableRecord
100
AcDbLayerTableRecord
  2
Layer33
 70
     0
 62
     7
  6
Continuous
370
    -3
390
F
  0
LAYER
  5
67
330
2
100
AcDbSymbolTableRecord
100
AcDbLayerTableRecord
  2
Layer34
 70
     0
 62
     7
  6
Continuous
370
    -3
390
F
  0
LAYER
  5
68
330
2
100
AcDbSymbolTableRecord
100
AcDbLayerTableRecord
  2
Layer35
 70
     0
 62
     7
  6
Continuous
370
    -3
390
F
  0
LAYER
  5
69
330
2
100
AcDbSymbolTableRecord
100
AcDbLayerTableRecord
  2
Layer36
 70
     0
 62
     7
  6
Continuous
370
    -3
390
F
  0
LAYER
  5
6A
330
2
100
AcDbSymbolTableRecord
100
AcDbLayerTableRecord
  2
Layer37
 70
     0
 62
     7
  6
Continuous
370
    -3
390
F
  0
LAYER
  5
6B
330
2
100
AcDbSymbolTableRecord
100
AcDbLayerTableRecord
  2
Layer38
 70
     0
 62
     7
  6
Continuous
370
    -3
390
F
  0
LAYER
  5
6C
330
2
100
AcDbSymbolTableRecord
100
AcDbLayerTableRecord
  2
Layer39
 70
     0
 62
     7
  6
Continuous
370
    -3
390
F
  0
LAYER
  5
6D
330
2
100
AcDbSymbolTableRecord
100
AcDbLayerTableRecord
  2
Layer40
 70
     0
 62
     7
  6
Continuous
370
    -3
390
F
  0
LAYER
  5
6E
330
2
100
AcDbSymbolTableRecord
100
AcDbLayerTableRecord
  2
Layer41
 70
     0
 62
     7
  6
Continuous
370
    -3
390
F
  0
LAYER
  5
6F
330
2
100
AcDbSymbolTableRecord
100
AcDbLayerTableRecord
  2
Layer42
 70
     0
 62
     7
  6
Continuous
370
    -3
390
F
  0
LAYER
  5
70
330
2
100
AcDbSymbolTableRecord
100
AcDbLayerTableRecord
  2
Layer43
 70
     0
 62
     7
  6
Continuous
370
    -3
390
F
  0
LAYER
  5
71
330
2
100
AcDbSymbolTableRecord
100
AcDbLayerTableRecord
  2
Layer44
 70
     0
 62
     7
  6
Continuous
370
    -3
390
F
  0
LAYER
  5
72
330
2
100
AcDbSymbolTableRecord
100
AcDbLayerTableRecord
  2
Layer45
 70
     0
 62
     7
  6
Continuous
370
    -3
390
F
  0
LAYER
  5
73
330
2
100
AcDbSymbolTableRecord
100
AcDbLayerTableRecord
  2
Layer46
 70
     0
 62
     7
  6
Continuous
370
    -3
390
F
  0
LAYER
  5
74
330
2
100
AcDbSymbolTableRecord
100
AcDbLayerTableRecord
  2
Layer47
 70
     0
 62
     7
  6
Continuous
370
    -3
390
F
  0
LAYER
  5
75
330
2
100
AcDbSymbolTableRecord
100
AcDbLayerTableRecord
  2
Layer48
 70
     0
 62
     7
  6
Continuous
370
    -3
390
F
  0
LAYER
  5
76
330
2
100
AcDbSymbolTableRecord
100
AcDbLayerTableRecord
  2
Layer49
 70
     0
 62
     7
  6
Continuous
370
    -3
390
F
  0
LAYER
  5
77
330
2
100
AcDbSymbolTableRecord
100
AcDbLayerTableRecord
  2
Layer50
 70
     0
 62
     7
  6
Continuous
370
    -3
390
F
  0
LAYER
  5
78
330
2
100
AcDbSymbolTableRecord
100
AcDbLayerTableRecord
  2
Layer51
 70
     0
 62
     7
  6
Continuous
370
    -3
390
F
  0
LAYER
  5
79
330
2
100
AcDbSymbolTableRecord
100
AcDbLayerTableRecord
  2
Layer52
 70
     0
 62
     7
  6
Continuous
370
    -3
390
F
  0
LAYER
  5
7A
330
2
100
AcDbSymbolTableRecord
100
AcDbLayerTableRecord
  2
Layer53
 70
     0
 62
     7
  6
Continuous
370
    -3
390
F
  0
LAYER
  5
7B
330
2
100
AcDbSymbolTableRecord
100
AcDbLayerTableRecord
  2
Layer54
 70
     0
 62
     7
  6
Continuous
370
    -3
390
F
  0
LAYER
  5
7C
330
2
100
AcDbSymbolTableRecord
100
AcDbLayerTableRecord
  2
Layer55
 70
     0
 62
     7
  6
Continuous
370
    -3
390
F
  0
LAYER
  5
7D
330
2
100
AcDbSymbolTableRecord
100
AcDbLayerTableRecord
  2
Layer56
 70
     0
 62
     7
  6
Continuous
370
    -3
390
F
  0
LAYER
  5
7E
330
2
100
AcDbSymbolTableRecord
100
AcDbLayerTableRecord
  2
Layer57
 70
     0
 62
     7
  6
Continuous
370
    -3
390
F
  0
LAYER
  5
7F
330
2
100
AcDbSymbolTableRecord
100
AcDbLayerTableRecord
  2
Layer58
 70
     0
 62
     7
  6
Continuous
370
    -3
390
F
  0
LAYER
  5
80
330
2
100
AcDbSymbolTableRecord
100
AcDbLayerTableRecord
  2
Layer59
 70
     0
 62
     7
  6
Continuous
370
    -3
390
F
  0
LAYER
  5
81
330
2
100
AcDbSymbolTableRecord
100
AcDbLayerTableRecord
  2
Layer60
 70
     0
 62
     7
  6
Continuous
370
    -3
390
F
  0
LAYER
  5
82
330
2
100
AcDbSymbolTableRecord
100
AcDbLayerTableRecord
  2
Layer61
 70
     0
 62
     7
  6
Continuous
370
    -3
390
F
  0
LAYER
  5
83
330
2
100
AcDbSymbolTableRecord
100
AcDbLayerTableRecord
  2
Layer62
 70
     0
 62
     7
  6
Continuous
370
    -3
390
F
  0
LAYER
  5
84
330
2
100
AcDbSymbolTableRecord
100
AcDbLayerTableRecord
  2
Layer63
 70
     0
 62
     7
  6
Continuous
370
    -3
390
F
  0
LAYER
  5
85
330
2
100
AcDbSymbolTableRecord
100
AcDbLayerTableRecord
  2
Layer64
 70
     0
 62
     7
  6
Continuous
370
    -3
390
F
  0
LAYER
  5
86
330
2
100
AcDbSymbolTableRecord
100
AcDbLayerTableRecord
  2
Layer65
 70
     0
 62
     7
  6
Continuous
370
    -3
390
F
  0
LAYER
  5
87
330
2
100
AcDbSymbolTableRecord
100
AcDbLayerTableRecord
  2
Layer66
 70
     0
 62
     7
  6
Continuous
370
    -3
390
F
  0
LAYER
  5
88
330
2
100
AcDbSymbolTableRecord
100
AcDbLayerTableRecord
  2
Layer67
 70
     0
 62
     7
  6
Continuous
370
    -3
390
F
  0
LAYER
  5
89
330
2
100
AcDbSymbolTableRecord
100
AcDbLayerTableRecord
  2
Layer68
 70
     0
 62
     7
  6
Continuous
370
    -3
390
F
  0
LAYER
  5
8A
330
2
100
AcDbSymbolTableRecord
100
AcDbLayerTableRecord
  2
Layer69
 70
     0
 62
     7
  6
Continuous
370
    -3
390
F
  0
LAYER
  5
8B
330
2
100
AcDbSymbolTableRecord
100
AcDbLayerTableRecord
  2
Layer70
 70
     0
 62
     7
  6
Continuous
370
    -3
390
F
  0
LAYER
  5
8C
330
2
100
AcDbSymbolTableRecord
100
AcDbLayerTableRecord
  2
Layer71
 70
     0
 62
     7
  6
Continuous
370
    -3
390
F
  0
LAYER
  5
8D
330
2
100
AcDbSymbolTableRecord
100
AcDbLayerTableRecord
  2
Layer72
 70
     0
 62
     7
  6
Continuous
370
    -3
390
F
  0
LAYER
  5
8E
330
2
100
AcDbSymbolTableRecord
100
AcDbLayerTableRecord
  2
Layer73
 70
     0
 62
     7
  6
Continuous
370
    -3
390
F
  0
LAYER
  5
8F
330
2
100
AcDbSymbolTableRecord
100
AcDbLayerTableRecord
  2
Layer74
 70
     0
 62
     7
  6
Continuous
370
    -3
390
F
  0
LAYER
  5
90
330
2
100
AcDbSymbolTableRecord
100
AcDbLayerTableRecord
  2
Layer75
 70
     0
 62
     7
  6
Continuous
370
    -3
390
F
  0
LAYER
  5
91
330
2
100
AcDbSymbolTableRecord
100
AcDbLayerTableRecord
  2
Layer76
 70
     0
 62
     7
  6
Continuous
370
    -3
390
F
  0
LAYER
  5
92
330
2
100
AcDbSymbolTableRecord
100
AcDbLayerTableRecord
  2
Layer77
 70
     0
 62
     7
  6
Continuous
370
    -3
390
F
  0
LAYER
  5
93
330
2
100
AcDbSymbolTableRecord
100
AcDbLayerTableRecord
  2
Layer78
 70
     0
 62
     7
  6
Continuous
370
    -3
390
F
  0
LAYER
  5
94
330
2
100
AcDbSymbolTableRecord
100
AcDbLayerTableRecord
  2
Layer79
 70
     0
 62
     7
  6
Continuous
370
    -3
390
F
  0
LAYER
  5
95
330
2
100
AcDbSymbolTableRecord
100
AcDbLayerTableRecord
  2
Layer80
 70
     0
 62
     7
  6
Continuous
370
    -3
390
F
  0
LAYER
  5
96
330
2
100
AcDbSymbolTableRecord
100
AcDbLayerTableRecord
  2
Layer81
 70
     0
 62
     7
  6
Continuous
370
    -3
390
F
  0
LAYER
  5
97
330
2
100
AcDbSymbolTableRecord
100
AcDbLayerTableRecord
  2
Layer82
 70
     0
 62
     7
  6
Continuous
370
    -3
390
F
  0
LAYER
  5
98
330
2
100
AcDbSymbolTableRecord
100
AcDbLayerTableRecord
  2
Layer83
 70
     0
 62
     7
  6
Continuous
370
    -3
390
F
  0
LAYER
  5
99
330
2
100
AcDbSymbolTableRecord
100
AcDbLayerTableRecord
  2
Layer84
 70
     0
 62
     7
  6
Continuous
370
    -3
390
F
  0
LAYER
  5
9A
330
2
100
AcDbSymbolTableRecord
100
AcDbLayerTableRecord
  2
Layer85
 70
     0
 62
     7
  6
Continuous
370
    -3
390
F
  0
LAYER
  5
9B
330
2
100
AcDbSymbolTableRecord
100
AcDbLayerTableRecord
  2
Layer86
 70
     0
 62
     7
  6
Continuous
370
    -3
390
F
  0
LAYER
  5
9C
330
2
100
AcDbSymbolTableRecord
100
AcDbLayerTableRecord
  2
Layer87
 70
     0
 62
     7
  6
Continuous
370
    -3
390
F
  0
LAYER
  5
9D
330
2
100
AcDbSymbolTableRecord
100
AcDbLayerTableRecord
  2
Layer88
 70
     0
 62
     7
  6
Continuous
370
    -3
390
F
  0
LAYER
  5
9E
330
2
100
AcDbSymbolTableRecord
100
AcDbLayerTableRecord
  2
Layer89
 70
     0
 62
     7
  6
Continuous
370
    -3
390
F
  0
LAYER
  5
9F
330
2
100
AcDbSymbolTableRecord
100
AcDbLayerTableRecord
  2
Layer90
 70
     0
 62
     7
  6
Continuous
370
    -3
390
F
  0
LAYER
  5
A0
330
2
100
AcDbSymbolTableRecord
100
AcDbLayerTableRecord
  2
Layer91
 70
     0
 62
     7
  6
Continuous
370
    -3
390
F
  0
LAYER
  5
A1
330
2
100
AcDbSymbolTableRecord
100
AcDbLayerTableRecord
  2
Layer92
 70
     0
 62
     7
  6
Continuous
370
    -3
390
F
  0
LAYER
  5
A2
330
2
100
AcDbSymbolTableRecord
100
AcDbLayerTableRecord
  2
Layer93
 70
     0
 62
     7
  6
Continuous
370
    -3
390
F
  0
LAYER
  5
A3
330
2
100
AcDbSymbolTableRecord
100
AcDbLayerTableRecord
  2
Layer94
 70
     0
 62
     7
  6
Continuous
370
    -3
390
F
  0
LAYER
  5
A4
330
2
100
AcDbSymbolTableRecord
100
AcDbLayerTableRecord
  2
Layer95
 70
     0
 62
     7
  6
Continuous
370
    -3
390
F
  0
LAYER
  5
A5
330
2
100
AcDbSymbolTableRecord
100
AcDbLayerTableRecord
  2
Layer96
 70
     0
 62
     7
  6
Continuous
370
    -3
390
F
  0
LAYER
  5
A6
330
2
100
AcDbSymbolTableRecord
100
AcDbLayerTableRecord
  2
Layer97
 70
     0
 62
     7
  6
Continuous
370
    -3
390
F
  0
LAYER
  5
A7
330
2
100
AcDbSymbolTableRecord
100
AcDbLayerTableRecord
  2
Layer98
 70
     0
 62
     7
  6
Continuous
370
    -3
390
F
  0
LAYER
  5
A8
330
2
100
AcDbSymbolTableRecord
100
AcDbLayerTableRecord
  2
Layer99
 70
     0
 62
     7
  6
Continuous
370
    -3
390
F
  0
LAYER
  5
A9
330
2
100
AcDbSymbolTableRecord
100
AcDbLayerTableRecord
  2
Layer100
 70
     0
 62
     7
  6
Continuous
370
    -3
390
F
  0
LAYER
  5
AA
330
2
100
AcDbSymbolTableRecord
100
AcDbLayerTableRecord
  2
Layer101
 70
     0
 62
     7
  6
Continuous
370
    -3
390
F
  0
LAYER
  5
AB
330
2
100
AcDbSymbolTableRecord
100
AcDbLayerTableRecord
  2
Layer102
 70
     0
 62
     7
  6
Continuous
370
    -3
390
F
  0
LAYER
  5
AC
330
2
100
AcDbSymbolTableRecord
100
AcDbLayerTableRecord
  2
Layer103
 70
     0
 62
     7
  6
Continuous
370
    -3
390
F
  0
LAYER
  5
AD
330
2
100
AcDbSymbolTableRecord
100
AcDbLayerTableRecord
  2
Layer104
 70
     0
 62
     7
  6
Continuous
370
    -3
390
F
  0
LAYER
  5
AE
330
2
100
AcDbSymbolTableRecord
100
AcDbLayerTableRecord
  2
Layer105
 70
     0
 62
     7
  6
Continuous
370
    -3
390
F
  0
LAYER
  5
AF
330
2
100
AcDbSymbolTableRecord
100
AcDbLayerTableRecord
  2
Layer106
 70
     0
 62
     7
  6
Continuous
370
    -3
390
F
  0
LAYER
  5
B0
330
2
100
AcDbSymbolTableRecord
100
AcDbLayerTableRecord
  2
Layer107
 70
     0
 62
     7
  6
Continuous
370
    -3
390
F
  0
LAYER
  5
B1
330
2
100
AcDbSymbolTableRecord
100
AcDbLayerTableRecord
  2
Layer108
 70
     0
 62
     7
  6
Continuous
370
    -3
390
F
  0
LAYER
  5
B2
330
2
100
AcDbSymbolTableRecord
100
AcDbLayerTableRecord
  2
Layer109
 70
     0
 62
     7
  6
Continuous
370
    -3
390
F
  0
LAYER
  5
B3
330
2
100
AcDbSymbolTableRecord
100
AcDbLayerTableRecord
  2
Layer110
 70
     0
 62
     7
  6
Continuous
370
    -3
390
F
  0
LAYER
  5
B4
330
2
100
AcDbSymbolTableRecord
100
AcDbLayerTableRecord
  2
Layer111
 70
     0
 62
     7
  6
Continuous
370
    -3
390
F
  0
LAYER
  5
B5
330
2
100
AcDbSymbolTableRecord
100
AcDbLayerTableRecord
  2
Layer112
 70
     0
 62
     7
  6
Continuous
370
    -3
390
F
  0
LAYER
  5
B6
330
2
100
AcDbSymbolTableRecord
100
AcDbLayerTableRecord
  2
Layer113
 70
     0
 62
     7
  6
Continuous
370
    -3
390
F
  0
LAYER
  5
B7
330
2
100
AcDbSymbolTableRecord
100
AcDbLayerTableRecord
  2
Layer114
 70
     0
 62
     7
  6
Continuous
370
    -3
390
F
  0
LAYER
  5
B8
330
2
100
AcDbSymbolTableRecord
100
AcDbLayerTableRecord
  2
Layer115
 70
     0
 62
     7
  6
Continuous
370
    -3
390
F
  0
LAYER
  5
B9
330
2
100
AcDbSymbolTableRecord
100
AcDbLayerTableRecord
  2
Layer116
 70
     0
 62
     7
  6
Continuous
370
    -3
390
F
  0
LAYER
  5
BA
330
2
100
AcDbSymbolTableRecord
100
AcDbLayerTableRecord
  2
Layer117
 70
     0
 62
     7
  6
Continuous
370
    -3
390
F
  0
LAYER
  5
BB
330
2
100
AcDbSymbolTableRecord
100
AcDbLayerTableRecord
  2
Layer118
 70
     0
 62
     7
  6
Continuous
370
    -3
390
F
  0
LAYER
  5
BC
330
2
100
AcDbSymbolTableRecord
100
AcDbLayerTableRecord
  2
Layer119
 70
     0
 62
     7
  6
Continuous
370
    -3
390
F
  0
LAYER
  5
BD
330
2
100
AcDbSymbolTableRecord
100
AcDbLayerTableRecord
  2
Layer120
 70
     0
 62
     7
  6
Continuous
370
    -3
390
F
  0
LAYER
  5
BE
330
2
100
AcDbSymbolTableRecord
100
AcDbLayerTableRecord
  2
Layer121
 70
     0
 62
     7
  6
Continuous
370
    -3
390
F
  0
LAYER
  5
BF
330
2
100
AcDbSymbolTableRecord
100
AcDbLayerTableRecord
  2
Layer122
 70
     0
 62
     7
  6
Continuous
370
    -3
390
F
  0
LAYER
  5
C0
330
2
100
AcDbSymbolTableRecord
100
AcDbLayerTableRecord
  2
Layer123
 70
     0
 62
     7
  6
Continuous
370
    -3
390
F
  0
LAYER
  5
C1
330
2
100
AcDbSymbolTableRecord
100
AcDbLayerTableRecord
  2
Layer124
 70
     0
 62
     7
  6
Continuous
370
    -3
390
F
  0
LAYER
  5
C2
330
2
100
AcDbSymbolTableRecord
100
AcDbLayerTableRecord
  2
Layer125
 70
     0
 62
     7
  6
Continuous
370
    -3
390
F
  0
LAYER
  5
C3
330
2
100
AcDbSymbolTableRecord
100
AcDbLayerTableRecord
  2
Layer126
 70
     0
 62
     7
  6
Continuous
370
    -3
390
F
  0
LAYER
  5
C4
330
2
100
AcDbSymbolTableRecord
100
AcDbLayerTableRecord
  2
Layer127
 70
     0
 62
     7
  6
Continuous
370
    -3
390
F
  0
LAYER
  5
C5
330
2
100
AcDbSymbolTableRecord
100
AcDbLayerTableRecord
  2
Layer128
 70
     0
 62
     7
  6
Continuous
370
    -3
390
F
  0
LAYER
  5
C6
330
2
100
AcDbSymbolTableRecord
100
AcDbLayerTableRecord
  2
Layer129
 70
     0
 62
     7
  6
Continuous
370
    -3
390
F
  0
LAYER
  5
C7
330
2
100
AcDbSymbolTableRecord
100
AcDbLayerTableRecord
  2
Layer130
 70
     0
 62
     7
  6
Continuous
370
    -3
390
F
  0
LAYER
  5
C8
330
2
100
AcDbSymbolTableRecord
100
AcDbLayerTableRecord
  2
Layer131
 70
     0
 62
     7
  6
Continuous
370
    -3
390
F
  0
LAYER
  5
C9
330
2
100
AcDbSymbolTableRecord
100
AcDbLayerTableRecord
  2
Layer132
 70
     0
 62
     7
  6
Continuous
370
    -3
390
F
  0
LAYER
  5
CA
330
2
100
AcDbSymbolTableRecord
100
AcDbLayerTableRecord
  2
Layer133
 70
     0
 62
     7
  6
Continuous
370
    -3
390
F
  0
LAYER
  5
CB
330
2
100
AcDbSymbolTableRecord
100
AcDbLayerTableRecord
  2
Layer134
 70
     0
 62
     7
  6
Continuous
370
    -3
390
F
  0
LAYER
  5
CC
330
2
100
AcDbSymbolTableRecord
100
AcDbLayerTableRecord
  2
Layer135
 70
     0
 62
     7
  6
Continuous
370
    -3
390
F
  0
LAYER
  5
CD
330
2
100
AcDbSymbolTableRecord
100
AcDbLayerTableRecord
  2
Layer136
 70
     0
 62
     7
  6
Continuous
370
    -3
390
F
  0
LAYER
  5
CE
330
2
100
AcDbSymbolTableRecord
100
AcDbLayerTableRecord
  2
Layer137
 70
     0
 62
     7
  6
Continuous
370
    -3
390
F
  0
LAYER
  5
CF
330
2
100
AcDbSymbolTableRecord
100
AcDbLayerTableRecord
  2
Layer138
 70
     0
 62
     7
  6
Continuous
370
    -3
390
F
  0
LAYER
  5
D0
330
2
100
AcDbSymbolTableRecord
100
AcDbLayerTableRecord
  2
Layer139
 70
     0
 62
     7
  6
Continuous
370
    -3
390
F
  0
LAYER
  5
D1
330
2
100
AcDbSymbolTableRecord
100
AcDbLayerTableRecord
  2
Layer140
 70
     0
 62
     7
  6
Continuous
370
    -3
390
F
  0
LAYER
  5
D2
330
2
100
AcDbSymbolTableRecord
100
AcDbLayerTableRecord
  2
Layer141
 70
     0
 62
     7
  6
Continuous
370
    -3
390
F
  0
LAYER
  5
D3
330
2
100
AcDbSymbolTableRecord
100
AcDbLayerTableRecord
  2
Layer142
 70
     0
 62
     7
  6
Continuous
370
    -3
390
F
  0
LAYER
  5
D4
330
2
100
AcDbSymbolTableRecord
100
AcDbLayerTableRecord
  2
Layer143
 70
     0
 62
     7
  6
Continuous
370
    -3
390
F
  0
LAYER
  5
D5
330
2
100
AcDbSymbolTableRecord
100
AcDbLayerTableRecord
  2
Layer144
 70
     0
 62
     7
  6
Continuous
370
    -3
390
F
  0
LAYER
  5
D6
330
2
100
AcDbSymbolTableRecord
100
AcDbLayerTableRecord
  2
Layer145
 70
     0
 62
     7
  6
Continuous
370
    -3
390
F
  0
LAYER
  5
D7
330
2
100
AcDbSymbolTableRecord
100
AcDbLayerTableRecord
  2
Layer146
 70
     0
 62
     7
  6
Continuous
370
    -3
390
F
  0
LAYER
  5
D8
330
2
100
AcDbSymbolTableRecord
100
AcDbLayerTableRecord
  2
Layer147
 70
     0
 62
     7
  6
Continuous
370
    -3
390
F
  0
LAYER
  5
D9
330
2
100
AcDbSymbolTableRecord
100
AcDbLayerTableRecord
  2
Layer148
 70
     0
 62
     7
  6
Continuous
370
    -3
390
F
  0
LAYER
  5
DA
330
2
100
AcDbSymbolTableRecord
100
AcDbLayerTableRecord
  2
Layer149
 70
     0
 62
     7
  6
Continuous
370
    -3
390
F
  0
LAYER
  5
DB
330
2
100
AcDbSymbolTableRecord
100
AcDbLayerTableRecord
  2
Layer150
 70
     0
 62
     7
  6
Continuous
370
    -3
390
F
  0
LAYER
  5
DC
330
2
100
AcDbSymbolTableRecord
100
AcDbLayerTableRecord
  2
Layer151
 70
     0
 62
     7
  6
Continuous
370
    -3
390
F
  0
LAYER
  5
DD
330
2
100
AcDbSymbolTableRecord
100
AcDbLayerTableRecord
  2
Layer152
 70
     0
 62
     7
  6
Continuous
370
    -3
390
F
  0
LAYER
  5
DE
330
2
100
AcDbSymbolTableRecord
100
AcDbLayerTableRecord
  2
Layer153
 70
     0
 62
     7
  6
Continuous
370
    -3
390
F
  0
LAYER
  5
DF
330
2
100
AcDbSymbolTableRecord
100
AcDbLayerTableRecord
  2
Layer154
 70
     0
 62
     7
  6
Continuous
370
    -3
390
F
  0
LAYER
  5
E0
330
2
100
AcDbSymbolTableRecord
100
AcDbLayerTableRecord
  2
Layer155
 70
     0
 62
     7
  6
Continuous
370
    -3
390
F
  0
LAYER
  5
E1
330
2
100
AcDbSymbolTableRecord
100
AcDbLayerTableRecord
  2
Layer156
 70
     0
 62
     7
  6
Continuous
370
    -3
390
F
  0
LAYER
  5
E2
330
2
100
AcDbSymbolTableRecord
100
AcDbLayerTableRecord
  2
Layer157
 70
     0
 62
     7
  6
Continuous
370
    -3
390
F
  0
LAYER
  5
E3
330
2
100
AcDbSymbolTableRecord
100
AcDbLayerTableRecord
  2
Layer158
 70
     0
 62
     7
  6
Continuous
370
    -3
390
F
  0
LAYER
  5
E4
330
2
100
AcDbSymbolTableRecord
100
AcDbLayerTableRecord
  2
Layer159
 70
     0
 62
     7
  6
Continuous
370
    -3
390
F
  0
LAYER
  5
E5
330
2
100
AcDbSymbolTableRecord
100
AcDbLayerTableRecord
  2
Layer160
 70
     0
 62
     7
  6
Continuous
370
    -3
390
F
  0
LAYER
  5
E6
330
2
100
AcDbSymbolTableRecord
100
AcDbLayerTableRecord
  2
Layer161
 70
     0
 62
     7
  6
Continuous
370
    -3
390
F
  0
LAYER
  5
E7
330
2
100
AcDbSymbolTableRecord
100
AcDbLayerTableRecord
  2
Layer162
 70
     0
 62
     7
  6
Continuous
370
    -3
390
F
  0
LAYER
  5
E8
330
2
100
AcDbSymbolTableRecord
100
AcDbLayerTableRecord
  2
Layer163
 70
     0
 62
     7
  6
Continuous
370
    -3
390
F
  0
LAYER
  5
E9
330
2
100
AcDbSymbolTableRecord
100
AcDbLayerTableRecord
  2
Layer164
 70
     0
 62
     7
  6
Continuous
370
    -3
390
F
  0
LAYER
  5
EA
330
2
100
AcDbSymbolTableRecord
100
AcDbLayerTableRecord
  2
Layer165
 70
     0
 62
     7
  6
Continuous
370
    -3
390
F
  0
LAYER
  5
EB
330
2
100
AcDbSymbolTableRecord
100
AcDbLayerTableRecord
  2
Layer166
 70
     0
 62
     7
  6
Continuous
370
    -3
390
F
  0
LAYER
  5
EC
330
2
100
AcDbSymbolTableRecord
100
AcDbLayerTableRecord
  2
Layer167
 70
     0
 62
     7
  6
Continuous
370
    -3
390
F
  0
LAYER
  5
ED
330
2
100
AcDbSymbolTableRecord
100
AcDbLayerTableRecord
  2
Layer168
 70
     0
 62
     7
  6
Continuous
370
    -3
390
F
  0
LAYER
  5
EE
330
2
100
AcDbSymbolTableRecord
100
AcDbLayerTableRecord
  2
Layer169
 70
     0
 62
     7
  6
Continuous
370
    -3
390
F
  0
LAYER
  5
EF
330
2
100
AcDbSymbolTableRecord
100
AcDbLayerTableRecord
  2
Layer170
 70
     0
 62
     7
  6
Continuous
370
    -3
390
F
  0
LAYER
  5
F0
330
2
100
AcDbSymbolTableRecord
100
AcDbLayerTableRecord
  2
Layer171
 70
     0
 62
     7
  6
Continuous
370
    -3
390
F
  0
LAYER
  5
F1
330
2
100
AcDbSymbolTableRecord
100
AcDbLayerTableRecord
  2
Layer172
 70
     0
 62
     7
  6
Continuous
370
    -3
390
F
  0
LAYER
  5
F2
330
2
100
AcDbSymbolTableRecord
100
AcDbLayerTableRecord
  2
Layer173
 70
     0
 62
     7
  6
Continuous
370
    -3
390
F
  0
LAYER
  5
F3
330
2
100
AcDbSymbolTableRecord
100
AcDbLayerTableRecord
  2
Layer174
 70
     0
 62
     7
  6
Continuous
370
    -3
390
F
  0
LAYER
  5
F4
330
2
100
AcDbSymbolTableRecord
100
AcDbLayerTableRecord
  2
Layer175
 70
     0
 62
     7
  6
Continuous
370
    -3
390
F
  0
LAYER
  5
F5
330
2
100
AcDbSymbolTableRecord
100
AcDbLayerTableRecord
  2
Layer176
 70
     0
 62
     7
  6
Continuous
370
    -3
390
F
  0
LAYER
  5
F6
330
2
100
AcDbSymbolTableRecord
100
AcDbLayerTableRecord
  2
Layer177
 70
     0
 62
     7
  6
Continuous
370
    -3
390
F
  0
LAYER
  5
F7
330
2
100
AcDbSymbolTableRecord
100
AcDbLayerTableRecord
  2
Layer178
 70
     0
 62
     7
  6
Continuous
370
    -3
390
F
  0
LAYER
  5
F8
330
2
100
AcDbSymbolTableRecord
100
AcDbLayerTableRecord
  2
Layer179
 70
     0
 62
     7
  6
Continuous
370
    -3
390
F
  0
LAYER
  5
F9
330
2
100
AcDbSymbolTableRecord
100
AcDbLayerTableRecord
  2
Layer180
 70
     0
 62
     7
  6
Continuous
370
    -3
390
F
  0
LAYER
  5
FA
330
2
100
AcDbSymbolTableRecord
100
AcDbLayerTableRecord
  2
Layer181
 70
     0
 62
     7
  6
Continuous
370
    -3
390
F
  0
LAYER
  5
FB
330
2
100
AcDbSymbolTableRecord
100
AcDbLayerTableRecord
  2
Layer182
 70
     0
 62
     7
  6
Continuous
370
    -3
390
F
  0
LAYER
  5
FC
330
2
100
AcDbSymbolTableRecord
100
AcDbLayerTableRecord
  2
Layer183
 70
     0
 62
     7
  6
Continuous
370
    -3
390
F
  0
LAYER
  5
FD
330
2
100
AcDbSymbolTableRecord
100
AcDbLayerTableRecord
  2
Layer184
 70
     0
 62
     7
  6
Continuous
370
    -3
390
F
  0
LAYER
  5
FE
330
2
100
AcDbSymbolTableRecord
100
AcDbLayerTableRecord
  2
Layer185
 70
     0
 62
     7
  6
Continuous
370
    -3
390
F
  0
LAYER
  5
FF
330
2
100
AcDbSymbolTableRecord
100
AcDbLayerTableRecord
  2
Layer186
 70
     0
 62
     7
  6
Continuous
370
    -3
390
F
  0
LAYER
  5
100
330
2
100
AcDbSymbolTableRecord
100
AcDbLayerTableRecord
  2
Layer187
 70
     0
 62
     7
  6
Continuous
370
    -3
390
F
  0
LAYER
  5
101
330
2
100
AcDbSymbolTableRecord
100
AcDbLayerTableRecord
  2
Layer188
 70
     0
 62
     7
  6
Continuous
370
    -3
390
F
  0
LAYER
  5
102
330
2
100
AcDbSymbolTableRecord
100
AcDbLayerTableRecord
  2
Layer189
 70
     0
 62
     7
  6
Continuous
370
    -3
390
F
  0
LAYER
  5
103
330
2
100
AcDbSymbolTableRecord
100
AcDbLayerTableRecord
  2
Layer190
 70
     0
 62
     7
  6
Continuous
370
    -3
390
F
  0
LAYER
  5
104
330
2
100
AcDbSymbolTableRecord
100
AcDbLayerTableRecord
  2
Layer191
 70
     0
 62
     7
  6
Continuous
370
    -3
390
F
  0
LAYER
  5
105
330
2
100
AcDbSymbolTableRecord
100
AcDbLayerTableRecord
  2
Layer192
 70
     0
 62
     7
  6
Continuous
370
    -3
390
F
  0
LAYER
  5
106
330
2
100
AcDbSymbolTableRecord
100
AcDbLayerTableRecord
  2
Layer193
 70
     0
 62
     7
  6
Continuous
370
    -3
390
F
  0
LAYER
  5
107
330
2
100
AcDbSymbolTableRecord
100
AcDbLayerTableRecord
  2
Layer194
 70
     0
 62
     7
  6
Continuous
370
    -3
390
F
  0
LAYER
  5
108
330
2
100
AcDbSymbolTableRecord
100
AcDbLayerTableRecord
  2
Layer195
 70
     0
 62
     7
  6
Continuous
370
    -3
390
F
  0
LAYER
  5
109
330
2
100
AcDbSymbolTableRecord
100
AcDbLayerTableRecord
  2
Layer196
 70
     0
 62
     7
  6
Continuous
370
    -3
390
F
  0
LAYER
  5
10A
330
2
100
AcDbSymbolTableRecord
100
AcDbLayerTableRecord
  2
Layer197
 70
     0
 62
     7
  6
Continuous
370
    -3
390
F
  0
LAYER
  5
10B
330
2
100
AcDbSymbolTableRecord
100
AcDbLayerTableRecord
  2
Layer198
 70
     0
 62
     7
  6
Continuous
370
    -3
390
F
  0
LAYER
  5
10C
330
2
100
AcDbSymbolTableRecord
100
AcDbLayerTableRecord
  2
Layer199
 70
     0
 62
     7
  6
Continuous
370
    -3
390
F
  0
LAYER
  5
10D
330
2
100
AcDbSymbolTableRecord
100
AcDbLayerTableRecord
  2
Layer200
 70
     0
 62
     7
  6
Continuous
370
    -3
390
F
  0
LAYER
  5
10E
330
2
100
AcDbSymbolTableRecord
100
AcDbLayerTableRecord
  2
Layer201
 70
     0
 62
     7
  6
Continuous
370
    -3
390
F
  0
LAYER
  5
10F
330
2
100
AcDbSymbolTableRecord
100
AcDbLayerTableRecord
  2
Layer202
 70
     0
 62
     7
  6
Continuous
370
    -3
390
F
  0
LAYER
  5
110
330
2
100
AcDbSymbolTableRecord
100
AcDbLayerTableRecord
  2
Layer203
 70
     0
 62
     7
  6
Continuous
370
    -3
390
F
  0
LAYER
  5
111
330
2
100
AcDbSymbolTableRecord
100
AcDbLayerTableRecord
  2
Layer204
 70
     0
 62
     7
  6
Continuous
370
    -3
390
F
  0
LAYER
  5
112
330
2
100
AcDbSymbolTableRecord
100
AcDbLayerTableRecord
  2
Layer205
 70
     0
 62
     7
  6
Continuous
370
    -3
390
F
  0
LAYER
  5
113
330
2
100
AcDbSymbolTableRecord
100
AcDbLayerTableRecord
  2
Layer206
 70
     0
 62
     7
  6
Continuous
370
    -3
390
F
  0
LAYER
  5
114
330
2
100
AcDbSymbolTableRecord
100
AcDbLayerTableRecord
  2
Layer207
 70
     0
 62
     7
  6
Continuous
370
    -3
390
F
  0
LAYER
  5
115
330
2
100
AcDbSymbolTableRecord
100
AcDbLayerTableRecord
  2
Layer208
 70
     0
 62
     7
  6
Continuous
370
    -3
390
F
  0
LAYER
  5
116
330
2
100
AcDbSymbolTableRecord
100
AcDbLayerTableRecord
  2
Layer209
 70
     0
 62
     7
  6
Continuous
370
    -3
390
F
  0
LAYER
  5
117
330
2
100
AcDbSymbolTableRecord
100
AcDbLayerTableRecord
  2
Layer210
 70
     0
 62
     7
  6
Continuous
370
    -3
390
F
  0
LAYER
  5
118
330
2
100
AcDbSymbolTableRecord
100
AcDbLayerTableRecord
  2
Layer211
 70
     0
 62
     7
  6
Continuous
370
    -3
390
F
  0
LAYER
  5
119
330
2
100
AcDbSymbolTableRecord
100
AcDbLayerTableRecord
  2
Layer212
 70
     0
 62
     7
  6
Continuous
370
    -3
390
F
  0
LAYER
  5
11A
330
2
100
AcDbSymbolTableRecord
100
AcDbLayerTableRecord
  2
Layer213
 70
     0
 62
     7
  6
Continuous
370
    -3
390
F
  0
LAYER
  5
11B
330
2
100
AcDbSymbolTableRecord
100
AcDbLayerTableRecord
  2
Layer214
 70
     0
 62
     7
  6
Continuous
370
    -3
390
F
  0
LAYER
  5
11C
330
2
100
AcDbSymbolTableRecord
100
AcDbLayerTableRecord
  2
Layer215
 70
     0
 62
     7
  6
Continuous
370
    -3
390
F
  0
LAYER
  5
11D
330
2
100
AcDbSymbolTableRecord
100
AcDbLayerTableRecord
  2
Layer216
 70
     0
 62
     7
  6
Continuous
370
    -3
390
F
  0
LAYER
  5
11E
330
2
100
AcDbSymbolTableRecord
100
AcDbLayerTableRecord
  2
Layer217
 70
     0
 62
     7
  6
Continuous
370
    -3
390
F
  0
LAYER
  5
11F
330
2
100
AcDbSymbolTableRecord
100
AcDbLayerTableRecord
  2
Layer218
 70
     0
 62
     7
  6
Continuous
370
    -3
390
F
  0
LAYER
  5
120
330
2
100
AcDbSymbolTableRecord
100
AcDbLayerTableRecord
  2
Layer219
 70
     0
 62
     7
  6
Continuous
370
    -3
390
F
  0
LAYER
  5
121
330
2
100
AcDbSymbolTableRecord
100
AcDbLayerTableRecord
  2
Layer220
 70
     0
 62
     7
  6
Continuous
370
    -3
390
F
  0
LAYER
  5
122
330
2
100
AcDbSymbolTableRecord
100
AcDbLayerTableRecord
  2
Layer221
 70
     0
 62
     7
  6
Continuous
370
    -3
390
F
  0
LAYER
  5
123
330
2
100
AcDbSymbolTableRecord
100
AcDbLayerTableRecord
  2
Layer222
 70
     0
 62
     7
  6
Continuous
370
    -3
390
F
  0
LAYER
  5
124
330
2
100
AcDbSymbolTableRecord
100
AcDbLayerTableRecord
  2
Layer223
 70
     0
 62
     7
  6
Continuous
370
    -3
390
F
  0
LAYER
  5
125
330
2
100
AcDbSymbolTableRecord
100
AcDbLayerTableRecord
  2
Layer224
 70
     0
 62
     7
  6
Continuous
370
    -3
390
F
  0
LAYER
  5
126
330
2
100
AcDbSymbolTableRecord
100
AcDbLayerTableRecord
  2
Layer225
 70
     0
 62
     7
  6
Continuous
370
    -3
390
F
  0
LAYER
  5
127
330
2
100
AcDbSymbolTableRecord
100
AcDbLayerTableRecord
  2
Layer226
 70
     0
 62
     7
  6
Continuous
370
    -3
390
F
  0
LAYER
  5
128
330
2
100
AcDbSymbolTableRecord
100
AcDbLayerTableRecord
  2
Layer227
 70
     0
 62
     7
  6
Continuous
370
    -3
390
F
  0
LAYER
  5
129
330
2
100
AcDbSymbolTableRecord
100
AcDbLayerTableRecord
  2
Layer228
 70
     0
 62
     7
  6
Continuous
370
    -3
390
F
  0
LAYER
  5
12A
330
2
100
AcDbSymbolTableRecord
100
AcDbLayerTableRecord
  2
Layer229
 70
     0
 62
     7
  6
Continuous
370
    -3
390
F
  0
LAYER
  5
12B
330
2
100
AcDbSymbolTableRecord
100
AcDbLayerTableRecord
  2
Layer230
 70
     0
 62
     7
  6
Continuous
370
    -3
390
F
  0
LAYER
  5
12C
330
2
100
AcDbSymbolTableRecord
100
AcDbLayerTableRecord
  2
Layer231
 70
     0
 62
     7
  6
Continuous
370
    -3
390
F
  0
LAYER
  5
12D
330
2
100
AcDbSymbolTableRecord
100
AcDbLayerTableRecord
  2
Layer232
 70
     0
 62
     7
  6
Continuous
370
    -3
390
F
  0
LAYER
  5
12E
330
2
100
AcDbSymbolTableRecord
100
AcDbLayerTableRecord
  2
Layer233
 70
     0
 62
     7
  6
Continuous
370
    -3
390
F
  0
LAYER
  5
12F
330
2
100
AcDbSymbolTableRecord
100
AcDbLayerTableRecord
  2
Layer234
 70
     0
 62
     7
  6
Continuous
370
    -3
390
F
  0
LAYER
  5
130
330
2
100
AcDbSymbolTableRecord
100
AcDbLayerTableRecord
  2
Layer235
 70
     0
 62
     7
  6
Continuous
370
    -3
390
F
  0
LAYER
  5
131
330
2
100
AcDbSymbolTableRecord
100
AcDbLayerTableRecord
  2
Layer236
 70
     0
 62
     7
  6
Continuous
370
    -3
390
F
  0
LAYER
  5
132
330
2
100
AcDbSymbolTableRecord
100
AcDbLayerTableRecord
  2
Layer237
 70
     0
 62
     7
  6
Continuous
370
    -3
390
F
  0
LAYER
  5
133
330
2
100
AcDbSymbolTableRecord
100
AcDbLayerTableRecord
  2
Layer238
 70
     0
 62
     7
  6
Continuous
370
    -3
390
F
  0
LAYER
  5
134
330
2
100
AcDbSymbolTableRecord
100
AcDbLayerTableRecord
  2
Layer239
 70
     0
 62
     7
  6
Continuous
370
    -3
390
F
  0
LAYER
  5
135
330
2
100
AcDbSymbolTableRecord
100
AcDbLayerTableRecord
  2
Layer240
 70
     0
 62
     7
  6
Continuous
370
    -3
390
F
  0
LAYER
  5
136
330
2
100
AcDbSymbolTableRecord
100
AcDbLayerTableRecord
  2
Layer241
 70
     0
 62
     7
  6
Continuous
370
    -3
390
F
  0
LAYER
  5
137
330
2
100
AcDbSymbolTableRecord
100
AcDbLayerTableRecord
  2
Layer242
 70
     0
 62
     7
  6
Continuous
370
    -3
390
F
  0
LAYER
  5
138
330
2
100
AcDbSymbolTableRecord
100
AcDbLayerTableRecord
  2
Layer243
 70
     0
 62
     7
  6
Continuous
370
    -3
390
F
  0
LAYER
  5
139
330
2
100
AcDbSymbolTableRecord
100
AcDbLayerTableRecord
  2
Layer244
 70
     0
 62
     7
  6
Continuous
370
    -3
390
F
  0
LAYER
  5
13A
330
2
100
AcDbSymbolTableRecord
100
AcDbLayerTableRecord
  2
Layer245
 70
     0
 62
     7
  6
Continuous
370
    -3
390
F
  0
LAYER
  5
13B
330
2
100
AcDbSymbolTableRecord
100
AcDbLayerTableRecord
  2
Layer246
 70
     0
 62
     7
  6
Continuous
370
    -3
390
F
  0
LAYER
  5
13C
330
2
100
AcDbSymbolTableRecord
100
AcDbLayerTableRecord
  2
Layer247
 70
     0
 62
     7
  6
Continuous
370
    -3
390
F
  0
LAYER
  5
13D
330
2
100
AcDbSymbolTableRecord
100
AcDbLayerTableRecord
  2
Layer248
 70
     0
 62
     7
  6
Continuous
370
    -3
390
F
  0
LAYER
  5
13E
330
2
100
AcDbSymbolTableRecord
100
AcDbLayerTableRecord
  2
Layer249
 70
     0
 62
     7
  6
Continuous
370
    -3
390
F
  0
LAYER
  5
13F
330
2
100
AcDbSymbolTableRecord
100
AcDbLayerTableRecord
  2
Layer250
 70
     0
 62
     7
  6
Continuous
370
    -3
390
F
  0
LAYER
  5
140
330
2
100
AcDbSymbolTableRecord
100
AcDbLayerTableRecord
  2
Layer251
 70
     0
 62
     7
  6
Continuous
370
    -3
390
F
  0
LAYER
  5
141
330
2
100
AcDbSymbolTableRecord
100
AcDbLayerTableRecord
  2
Layer252
 70
     0
 62
     7
  6
Continuous
370
    -3
390
F
  0
LAYER
  5
142
330
2
100
AcDbSymbolTableRecord
100
AcDbLayerTableRecord
  2
Layer253
 70
     0
 62
     7
  6
Continuous
370
    -3
390
F
  0
LAYER
  5
143
330
2
100
AcDbSymbolTableRecord
100
AcDbLayerTableRecord
  2
Layer254
 70
     0
 62
     7
  6
Continuous
370
    -3
390
F
  0
LAYER
  5
144
330
2
100
AcDbSymbolTableRecord
100
AcDbLayerTableRecord
  2
Layer255
 70
     0
 62
     7
  6
Continuous
370
    -3
390
F
  0
ENDTAB
  0
TABLE
  2
STYLE
  5
3
330
0
100
AcDbSymbolTable
 70
     4
  0
STYLE
  5
11
330
3
100
AcDbSymbolTableRecord
100
AcDbTextStyleTableRecord
  2
Standard
 70
     0
 40
0.0
 41
1.0
 50
0.0
 71
     0
 42
2.5
  3
txt
  4

  0
STYLE
  5
41
330
3
100
AcDbSymbolTableRecord
100
AcDbTextStyleTableRecord
  2
Arial
 70
     0
 40
0.0
 41
1.0
 50
0.0
 71
     0
 42
0.2
  3
arial.ttf
  4

1001
ACAD
1000
Arial
1071
       34
  0
STYLE
  5
42
330
3
100
AcDbSymbolTableRecord
100
AcDbTextStyleTableRecord
  2
Arial Black
 70
     0
 40
0.0
 41
1.0
 50
0.0
 71
     0
 42
0.2
  3
ariblk.ttf
  4

1001
ACAD
1000
Arial Black
1071
       34
  0
STYLE
  5
44
330
3
100
AcDbSymbolTableRecord
100
AcDbTextStyleTableRecord
  2
Toleranzfont
 70
     0
 40
0.0
 41
1.0
 50
0.0
 71
     0
 42
0.2
  3
IGES1003.SHX
  4

  0
ENDTAB
  0
TABLE
  2
VIEW
  5
6
330
0
100
AcDbSymbolTable
 70
     0
  0
ENDTAB
  0
TABLE
  2
UCS
  5
7
330
0
100
AcDbSymbolTable
 70
     0
  0
ENDTAB
  0
TABLE
  2
APPID
  5
9
330
0
100
AcDbSymbolTable
 70
     1
  0
APPID
  5
12
330
9
100
AcDbSymbolTableRecord
100
AcDbRegAppTableRecord
  2
ACAD
 70
     0
  0
ENDTAB
  0
TABLE
  2
DIMSTYLE
  5
A
330
0
100
AcDbSymbolTable
 70
     1
100
AcDbDimStyleTable
  0
DIMSTYLE
105
27
102
{ACAD_REACTORS
330
582
330
597
330
5A5
330
5B4
330
5CC
330
5DB
330
5E9
102
}
330
A
100
AcDbSymbolTableRecord
100
AcDbDimStyleTableRecord
  2
ISO-25
 70
     0
 41
2.5
 42
0.625
 43
3.75
 44
1.25
 73
     0
 74
     0
 77
     1
 78
     8
140
2.5
141
2.5
143
0.03937007874
147
0.625
171
     3
172
     1
178
     0
271
     2
272
     2
274
     3
278
    44
283
     0
284
     8
340
11
  0
ENDTAB
  0
TABLE
  2
BLOCK_RECORD
  5
1
330
0
100
AcDbSymbolTable
 70
    17
  0
BLOCK_RECORD
  5
1F
330
1
100
AcDbSymbolTableRecord
100
AcDbBlockTableRecord
  2
*Model_Space
340
22
  0
BLOCK_RECORD
  5
1B
330
1
100
AcDbSymbolTableRecord
100
AcDbBlockTableRecord
  2
*Paper_Space
340
1E
  0
BLOCK_RECORD
  5
23
330
1
100
AcDbSymbolTableRecord
100
AcDbBlockTableRecord
  2
*Paper_Space0
340
26
  0
BLOCK_RECORD
  5
145
330
1
100
AcDbSymbolTableRecord
100
AcDbBlockTableRecord
  2
A4_nNn00
340
0
102
{BLKREFS
331
19E
102
}
  0
BLOCK_RECORD
  5
150
330
1
100
AcDbSymbolTableRecord
100
AcDbBlockTableRecord
  2
Schriftfeld_nNn01
340
0
102
{BLKREFS
331
19D
102
}
  0
BLOCK_RECORD
  5
17E
330
1
100
AcDbSymbolTableRecord
100
AcDbBlockTableRecord
  2
ULTRAREFLEX_nNn02
340
0
102
{BLKREFS
331
196
102
}
  0
BLOCK_RECORD
  5
1A1
330
1
100
AcDbSymbolTableRecord
100
AcDbBlockTableRecord
  2
L1_nNn03
340
0
102
{BLKREFS
331
1B0
102
}
  0
BLOCK_RECORD
  5
1A4
330
1
100
AcDbSymbolTableRecord
100
AcDbBlockTableRecord
  2
QS_nNn04
340
0
102
{BLKREFS
331
1AA
102
}
  0
BLOCK_RECORD
  5
1AB
330
1
100
AcDbSymbolTableRecord
100
AcDbBlockTableRecord
  2
Reflexwerte_nNn05
340
0
102
{BLKREFS
331
1AF
102
}
  0
BLOCK_RECORD
  5
1B1
330
1
100
AcDbSymbolTableRecord
100
AcDbBlockTableRecord
  2
L1_nNn06
340
0
102
{BLKREFS
331
56E
102
}
  0
BLOCK_RECORD
  5
1B4
330
1
100
AcDbSymbolTableRecord
100
AcDbBlockTableRecord
  2
SECHSK1_nNn07
340
0
102
{BLKREFS
331
563
102
}
  0
BLOCK_RECORD
  5
575
330
1
100
AcDbSymbolTableRecord
100
AcDbBlockTableRecord
  2
*D9
340
0
  0
BLOCK_RECORD
  5
583
330
1
100
AcDbSymbolTableRecord
100
AcDbBlockTableRecord
  2
_CLOSED
340
0
  0
BLOCK_RECORD
  5
58A
330
1
100
AcDbSymbolTableRecord
100
AcDbBlockTableRecord
  2
*D11
340
0
  0
BLOCK_RECORD
  5
598
330
1
100
AcDbSymbolTableRecord
100
AcDbBlockTableRecord
  2
*D12
340
0
  0
BLOCK_RECORD
  5
5A6
330
1
100
AcDbSymbolTableRecord
100
AcDbBlockTableRecord
  2
*D13
340
0
  0
BLOCK_RECORD
  5
5BF
330
1
100
AcDbSymbolTableRecord
100
AcDbBlockTableRecord
  2
*D14
340
0
  0
BLOCK_RECORD
  5
5CD
330
1
100
AcDbSymbolTableRecord
100
AcDbBlockTableRecord
  2
*D15
340
0
  0
BLOCK_RECORD
  5
5DC
330
1
100
AcDbSymbolTableRecord
100
AcDbBlockTableRecord
  2
*D16
340
0
  0
ENDTAB
  0
ENDSEC
  0
SECTION
  2
BLOCKS
  0
BLOCK
  5
20
330
1F
100
AcDbEntity
  8
0
100
AcDbBlockBegin
  2
*Model_Space
 70
     0
 10
0.0
 20
0.0
 30
0.0
  3
*Model_Space
  1

  0
ENDBLK
  5
21
330
1F
100
AcDbEntity
  8
0
100
AcDbBlockEnd
  0
BLOCK
  5
1C
330
1B
100
AcDbEntity
 67
     1
  8
0
100
AcDbBlockBegin
  2
*Paper_Space
 70
     0
 10
0.0
 20
0.0
 30
0.0
  3
*Paper_Space
  1

  0
ENDBLK
  5
1D
330
1B
100
AcDbEntity
 67
     1
  8
0
100
AcDbBlockEnd
  0
BLOCK
  5
24
330
23
100
AcDbEntity
  8
0
100
AcDbBlockBegin
  2
*Paper_Space0
 70
     0
 10
0.0
 20
0.0
 30
0.0
  3
*Paper_Space0
  1

  0
ENDBLK
  5
25
330
23
100
AcDbEntity
  8
0
100
AcDbBlockEnd
  0
BLOCK
  5
146
330
145
100
AcDbEntity
  8
0
100
AcDbBlockBegin
  2
A4_nNn00
 70
     0
 10
0.0
 20
0.0
 30
0.0
  3
A4_nNn00
  1

  0
LINE
  5
148
330
145
100
AcDbEntity
  8
Layer99
  6
AUSGEZOGEN
 62
     9
370
    18
100
AcDbLine
 10
442.639340120152
 20
67.084971486175
 30
0.0
 11
536.639340120152
 21
67.084971486175
 31
0.0
  0
LINE
  5
149
330
145
100
AcDbEntity
  8
Layer99
  6
AUSGEZOGEN
 62
     9
370
    18
100
AcDbLine
 10
536.639340120152
 20
67.084971486175
 30
0.0
 11
536.639340120152
 21
201.974971486175
 31
0.0
  0
LINE
  5
14A
330
145
100
AcDbEntity
  8
Layer0
  6
AUSGEZOGEN
 62
     9
370
    18
100
AcDbLine
 10
442.639340120152
 20
67.084971486175
 30
0.0
 11
442.639340120152
 21
201.974971486175
 31
0.0
  0
LINE
  5
14B
330
145
100
AcDbEntity
  8
Layer0
  6
AUSGEZOGEN
 62
     9
370
    18
100
AcDbLine
 10
442.639340120152
 20
201.974971486175
 30
0.0
 11
536.639340120152
 21
201.974971486175
 31
0.0
  0
LINE
  5
14C
330
145
100
AcDbEntity
  8
Layer0
  6
AUSGEZOGEN
 62
    56
370
    18
100
AcDbLine
 10
440.289340120152
 20
204.324971486175
 30
0.0
 11
538.989340120152
 21
204.324971486175
 31
0.0
  0
LINE
  5
14D
330
145
100
AcDbEntity
  8
Layer0
  6
AUSGEZOGEN
 62
    56
370
    18
100
AcDbLine
 10
440.289340120152
 20
64.734971486175
 30
0.0
 11
440.289340120152
 21
204.324971486175
 31
0.0
  0
LINE
  5
14E
330
145
100
AcDbEntity
  8
Layer0
  6
AUSGEZOGEN
 62
    56
370
    18
100
AcDbLine
 10
440.289340120152
 20
64.734971486175
 30
0.0
 11
538.989340120152
 21
64.734971486175
 31
0.0
  0
LINE
  5
14F
330
145
100
AcDbEntity
  8
Layer0
  6
AUSGEZOGEN
 62
    56
370
    18
100
AcDbLine
 10
538.989340120152
 20
64.734971486175
 30
0.0
 11
538.989340120152
 21
204.324971486175
 31
0.0
  0
INSERT
  5
19D
330
145
100
AcDbEntity
  8
0
100
AcDbBlockReference
  2
Schriftfeld_nNn01
 10
0.0
 20
0.0
 30
0.0
  0
ENDBLK
  5
147
330
145
100
AcDbEntity
  8
0
100
AcDbBlockEnd
  0
BLOCK
  5
151
330
150
100
AcDbEntity
  8
0
100
AcDbBlockBegin
  2
Schriftfeld_nNn01
 70
     0
 10
0.0
 20
0.0
 30
0.0
  3
Schriftfeld_nNn01
  1

  0
LINE
  5
153
330
150
100
AcDbEntity
  8
Layer99
  6
AUSGEZOGEN
 62
    56
370
    18
100
AcDbLine
 10
480.239340120152
 20
85.062471486175
 30
0.0
 11
480.239340120152
 21
77.072471486175
 31
0.0
  0
LINE
  5
154
330
150
100
AcDbEntity
  8
Layer99
  6
AUSGEZOGEN
 62
    56
370
    18
100
AcDbLine
 10
453.35536306937
 20
85.062471486175
 30
0.0
 11
453.35536306937
 21
67.084971486175
 31
0.0
  0
LINE
  5
155
330
150
100
AcDbEntity
  8
Layer99
  6
AUSGEZOGEN
 62
     9
370
    18
100
AcDbLine
 10
530.529340120152
 20
75.074971486175
 30
0.0
 11
530.529340120152
 21
69.36447256192
 31
0.0
  0
LINE
  5
156
330
150
100
AcDbEntity
  8
Layer99
  6
AUSGEZOGEN
 62
    56
370
    18
100
AcDbLine
 10
475.351328645542
 20
69.082471486175
 30
0.0
 11
449.689340120152
 21
69.082471486175
 31
0.0
  0
LINE
  5
157
330
150
100
AcDbEntity
  8
Layer99
  6
AUSGEZOGEN
 62
    56
370
    18
100
AcDbLine
 10
475.351328645542
 20
71.079971486175
 30
0.0
 11
449.689340120152
 21
71.079971486175
 31
0.0
  0
LINE
  5
158
330
150
100
AcDbEntity
  8
Layer99
  6
AUSGEZOGEN
 62
    56
370
    18
100
AcDbLine
 10
475.351328645542
 20
73.077471486175
 30
0.0
 11
449.689340120152
 21
73.077471486175
 31
0.0
  0
LINE
  5
159
330
150
100
AcDbEntity
  8
Layer99
  6
AUSGEZOGEN
 62
    56
370
    18
100
AcDbLine
 10
475.351328645542
 20
75.074971486175
 30
0.0
 11
449.689340120152
 21
75.074971486175
 31
0.0
  0
LINE
  5
15A
330
150
100
AcDbEntity
  8
Layer99
  6
AUSGEZOGEN
 62
     9
370
    18
100
AcDbLine
 10
536.639340120152
 20
75.074971486175
 30
0.0
 11
475.351328645542
 21
75.074971486175
 31
0.0
  0
LINE
  5
15B
330
150
100
AcDbEntity
  8
Layer99
  6
AUSGEZOGEN
 62
    56
370
    18
100
AcDbLine
 10
496.12536306937
 20
77.072471486175
 30
0.0
 11
449.689340120152
 21
77.072471486175
 31
0.0
  0
LINE
  5
15C
330
150
100
AcDbEntity
  8
Layer99
  6
AUSGEZOGEN
 62
    56
370
    18
100
AcDbLine
 10
496.12536306937
 20
79.069971486175
 30
0.0
 11
449.689340120152
 21
79.069971486175
 31
0.0
  0
LINE
  5
15D
330
150
100
AcDbEntity
  8
Layer99
  6
AUSGEZOGEN
 62
    56
370
    18
100
AcDbLine
 10
496.12536306937
 20
81.067471486175
 30
0.0
 11
449.689340120152
 21
81.067471486175
 31
0.0
  0
LINE
  5
15E
330
150
100
AcDbEntity
  8
Layer99
  6
AUSGEZOGEN
 62
    56
370
    18
100
AcDbLine
 10
496.12536306937
 20
83.064971486175
 30
0.0
 11
449.689340120152
 21
83.064971486175
 31
0.0
  0
LINE
  5
15F
330
150
100
AcDbEntity
  8
Layer99
  6
AUSGEZOGEN
 62
     9
370
    18
100
AcDbLine
 10
536.639340120152
 20
85.062471486175
 30
0.0
 11
449.689340120152
 21
85.062471486175
 31
0.0
  0
LINE
  5
160
330
150
100
AcDbEntity
  8
Layer99
  6
AUSGEZOGEN
 62
    56
370
    18
100
AcDbLine
 10
475.351328645542
 20
90.056221486175
 30
0.0
 11
449.689340120152
 21
90.056221486175
 31
0.0
  0
LINE
  5
161
330
150
100
AcDbEntity
  8
Layer99
  6
AUSGEZOGEN
 62
    56
370
    18
100
AcDbLine
 10
536.639340120152
 20
90.056221486175
 30
0.0
 11
496.12536306937
 21
90.056221486175
 31
0.0
  0
LINE
  5
162
330
150
100
AcDbEntity
  8
Layer99
  6
AUSGEZOGEN
 62
    56
370
    18
100
AcDbLine
 10
519.531328645542
 20
93.052471486175
 30
0.0
 11
519.531328645542
 21
90.056221486175
 31
0.0
  0
LINE
  5
163
330
150
100
AcDbEntity
  8
Layer99
  6
AUSGEZOGEN
 62
     9
370
    18
100
AcDbLine
 10
496.12536306937
 20
93.052471486175
 30
0.0
 11
496.12536306937
 21
69.36447256192
 31
0.0
  0
LINE
  5
164
330
150
100
AcDbEntity
  8
Layer99
  6
AUSGEZOGEN
 62
    56
370
    18
100
AcDbLine
 10
487.571328645542
 20
85.062471486175
 30
0.0
 11
487.571328645542
 21
75.074971486175
 31
0.0
  0
LINE
  5
165
330
150
100
AcDbEntity
  8
Layer99
  6
AUSGEZOGEN
 62
     9
370
    18
100
AcDbLine
 10
475.351328645542
 20
93.052471486175
 30
0.0
 11
475.351328645542
 21
67.084971486175
 31
0.0
  0
LINE
  5
166
330
150
100
AcDbEntity
  8
Layer99
  6
AUSGEZOGEN
 62
     9
370
    18
100
AcDbLine
 10
449.689340120152
 20
93.052471486175
 30
0.0
 11
449.689340120152
 21
67.084971486175
 31
0.0
  0
LINE
  5
167
330
150
100
AcDbEntity
  8
Layer99
  6
AUSGEZOGEN
 62
     9
370
    18
100
AcDbLine
 10
536.639340120152
 20
93.052471486175
 30
0.0
 11
449.689340120152
 21
93.052471486175
 31
0.0
  0
TEXT
  5
168
330
150
100
AcDbEntity
  8
Layer99
  6
AUSGEZOGEN
 62
    56
370
    18
100
AcDbText
 10
475.679043489292
 20
81.514126751983
 30
0.0
 40
0.94
  1
Bearb. 05.02.03   MS
 41
1.267237127053
  7
Arial
 72
     5
 11
491.391009732774
 21
81.514126751983
 31
0.0
100
AcDbText
  0
TEXT
  5
169
330
150
100
AcDbEntity
  8
Layer99
  6
AUSGEZOGEN
 62
    56
370
    18
100
AcDbText
 10
475.78776541312
 20
79.555984662139
 30
0.0
 40
0.94
  1
Gepr.
 41
1.215533862924
  7
Arial
 72
     5
 11
479.77658840566
 21
79.555984662139
 31
0.0
100
AcDbText
  0
TEXT
  5
16A
330
150
100
AcDbEntity
  8
Layer99
  6
AUSGEZOGEN
 62
    56
370
    18
100
AcDbText
 10
475.78776541312
 20
77.489063275421
 30
0.0
 40
0.94
  1
Norm
 41
1.171328125812
  7
Arial
 72
     5
 11
479.544542684475
 21
77.489063275421
 31
0.0
100
AcDbText
  0
TEXT
  5
16B
330
150
100
AcDbEntity
  8
Layer99
  6
AUSGEZOGEN
 62
    56
370
    18
100
AcDbText
 10
531.441112581089
 20
73.547761937225
 30
0.0
 40
1.175
  1
Blatt
 41
1.26499927539
  7
Arial
 72
     5
 11
535.592555578083
 21
73.547761937225
 31
0.0
100
AcDbText
  0
TEXT
  5
16C
330
150
100
AcDbEntity
  8
Layer0
  6
AUSGEZOGEN
 62
   136
370
    18
100
AcDbText
 10
476.779860139683
 20
90.935915242279
 30
0.0
 40
1.175
  1
Allgemeintoleranzen
 41
1.263559891189
  7
Arial
 72
     5
 11
495.553675057978
 21
90.935915242279
 31
0.0
100
AcDbText
  0
TEXT
  5
16D
330
150
100
AcDbEntity
  8
Layer0
  6
AUSGEZOGEN
 62
   136
370
    18
100
AcDbText
 10
476.45312063773
 20
88.757044697845
 30
0.0
 40
1.175
  1
Nach: TG5
 41
1.223038375192
  7
Arial
 72
     5
 11
486.151906680882
 21
88.757044697845
 31
0.0
100
AcDbText
  0
TEXT
  5
16E
330
150
100
AcDbEntity
  8
Layer0
  6
AUSGEZOGEN
 62
   136
370
    18
100
AcDbText
 10
476.532180696324
 20
86.578166981781
 30
0.0
 40
1.175
  1
DIN: 16742
 41
1.239741037486
  7
Arial
 72
     5
 11
486.816452472791
 21
86.578166981781
 31
0.0
100
AcDbText
  0
TEXT
  5
16F
330
150
100
AcDbEntity
  8
Layer0
  6
AUSGEZOGEN
 62
    56
370
    18
100
AcDbText
 10
520.289226594761
 20
91.044859486663
 30
0.0
 40
1.175
  1
Gewicht:
 41
1.240831402125
  7
Arial
 72
     5
 11
528.206041148171
 21
91.044859486663
 31
0.0
100
AcDbText
  0
TEXT
  5
170
330
150
100
AcDbEntity
  8
Layer0
  6
AUSGEZOGEN
 62
    56
370
    18
100
AcDbText
 10
496.742639680699
 20
87.786723042572
 30
0.0
 40
1.175
  1
Werkstoff/Farbe: PMMA glasklar
 41
1.266813667067
  7
Arial
 72
     5
 11
526.646726402074
 21
87.786723042572
 31
0.0
100
AcDbText
  0
TEXT
  5
171
330
150
100
AcDbEntity
  8
Layer0
  6
AUSGEZOGEN
 62
    56
370
    18
100
AcDbText
 10
496.742639680699
 20
85.906723014557
 30
0.0
 40
1.175
  1
         Halterung: weiss
 41
1.318022451814
  7
Arial
 72
     5
 11
518.128311824292
 21
85.906723014557
 31
0.0
100
AcDbText
  0
TEXT
  5
172
330
150
100
AcDbEntity
  8
Layer0
  6
AUSGEZOGEN
 62
    56
370
    18
100
AcDbText
 10
496.742639680699
 20
91.054820881927
 30
0.0
 40
1.175
  1
Maßstab: 2:1
 41
1.251587148984
  7
Arial
 72
     5
 11
508.722268656552
 21
91.054820881927
 31
0.0
100
AcDbText
  0
TEXT
  5
173
330
150
100
AcDbEntity
  8
Layer0
  6
AUSGEZOGEN
 62
    56
370
    18
100
AcDbText
 10
450.25337454398
 20
91.054971486175
 30
0.0
 40
1.175
  1
Schwindung:
 41
1.234746274162
  7
Arial
 72
     5
 11
461.846932079256
 21
91.054971486175
 31
0.0
100
AcDbText
  0
TEXT
  5
174
330
150
100
AcDbEntity
  8
Layer0
  6
AUSGEZOGEN
 62
    56
370
    18
100
AcDbText
 10
450.310059114292
 20
88.114660206878
 30
0.0
 40
1.175
  1
Diese Zeichnung darf nur
 41
1.271210741346
  7
Arial
 72
     5
 11
473.717402759254
 21
88.114660206878
 31
0.0
100
AcDbText
  0
TEXT
  5
175
330
150
100
AcDbEntity
  8
Layer0
  6
AUSGEZOGEN
 62
    56
370
    18
100
AcDbText
 10
450.310059114292
 20
86.234660178864
 30
0.0
 40
1.175
  1
mit CAD geändert werden
 41
1.255342283876
  7
Arial
 72
     5
 11
473.996045627803
 21
86.234660178864
 31
0.0
100
AcDbText
  0
LINE
  5
176
330
150
100
AcDbEntity
  8
Layer99
  6
AUSGEZOGEN
 62
    56
370
    18
100
AcDbLine
 10
536.639340120152
 20
69.36447256192
 30
0.0
 11
496.12536306937
 21
69.36447256192
 31
0.0
  0
LINE
  5
177
330
150
100
AcDbEntity
  8
Layer99
  6
AUSGEZOGEN
 62
    56
370
    18
100
AcDbLine
 10
536.639340120152
 20
71.36197256192
 30
0.0
 11
530.529340120152
 21
71.36197256192
 31
0.0
  0
TEXT
  5
178
330
150
100
AcDbEntity
  8
Layer99
  6
AUSGEZOGEN
 62
    56
370
    18
100
AcDbText
 10
533.997368684605
 20
69.811494656646
 30
0.0
 40
1.175
  1
Bl.
 41
1.229150265254
  7
Arial
 72
     5
 11
536.350054478571
 21
69.811494656646
 31
0.0
100
AcDbText
  0
LINE
  5
179
330
150
100
AcDbEntity
  8
Layer99
  6
AUSGEZOGEN
 62
    56
370
    18
100
AcDbLine
 10
496.12536306937
 20
69.36447256192
 30
0.0
 11
475.351328645542
 21
69.36447256192
 31
0.0
  0
LINE
  5
17A
330
150
100
AcDbEntity
  8
Layer99
  6
AUSGEZOGEN
 62
    56
370
    18
100
AcDbLine
 10
467.502236848667
 20
85.062471486175
 30
0.0
 11
467.502236848667
 21
67.084971486175
 31
0.0
  0
TEXT
  5
17B
330
150
100
AcDbEntity
  8
Layer50
  6
AUSGEZOGEN
 62
   136
370
    18
100
AcDbText
 10
451.72662832816
 20
69.513787530029
 30
0.0
 40
0.94
  1
-  ---
 41
1.340992890965
  7
Arial
 72
     5
 11
455.049394153109
 21
69.513787530029
 31
0.0
100
AcDbText
  0
TEXT
  5
17C
330
150
100
AcDbEntity
  8
Layer50
  6
AUSGEZOGEN
 62
   136
370
    18
100
AcDbText
 10
467.612450471714
 20
69.628939717376
 30
0.0
 40
0.94
  1
--.--.--/--
 41
1.366444411798
  7
Arial
 72
     5
 11
473.885742108503
 21
69.628939717376
 31
0.0
100
AcDbText
  0
TEXT
  5
17D
330
150
100
AcDbEntity
  8
Layer0
  6
AUSGEZOGEN
 62
    56
370
    18
100
AcDbText
 10
475.936361604527
 20
67.599678760612
 30
0.0
 40
1.175
  1
Schutzvermerk nach DIN 34 beachten .        Copyright reserved
 41
1.286227457357
  7
Arial
 72
     5
 11
535.263120739833
 21
67.599678760612
 31
0.0
100
AcDbText
  0
INSERT
  5
196
330
150
100
AcDbEntity
  8
0
100
AcDbBlockReference
  2
ULTRAREFLEX_nNn02
 10
0.0
 20
0.0
 30
0.0
  0
TEXT
  5
197
330
150
100
AcDbEntity
  8
Layer50
  6
AUSGEZOGEN
 62
   136
370
    18
100
AcDbText
 10
497.137054268707
 20
75.683264928475
 30
0.0
 40
0.94
  1
---
 41
1.259600656861
  7
Arial
 72
     5
 11
498.788768610049
 21
75.683264928475
 31
0.0
100
AcDbText
  0
TEXT
  5
198
330
150
100
AcDbEntity
  8
Layer99
  6
AUSGEZOGEN
 62
    56
370
    18
100
AcDbText
 10
467.754277890896
 20
67.551822054608
 30
0.0
 40
0.94
  1
Dat./Nam.
 41
1.239717192527
  7
Arial
 72
     5
 11
475.076072424304
 21
67.551822054608
 31
0.0
100
AcDbText
  0
TEXT
  5
199
330
150
100
AcDbEntity
  8
Layer99
  6
AUSGEZOGEN
 62
    56
370
    18
100
AcDbText
 10
449.781857900159
 20
67.549690957206
 30
0.0
 40
0.94
  1
Zust.
 41
1.239906123597
  7
Arial
 72
     5
 11
453.398440879587
 21
67.549690957206
 31
0.0
100
AcDbText
  0
TEXT
  5
19A
330
150
100
AcDbEntity
  8
Layer0
  6
AUSGEZOGEN
 62
    56
370
    18
100
AcDbText
 10
481.015644859792
 20
83.46816774472
 30
0.0
 40
1.175
  1
Datum
 41
1.188171149402
  7
Arial
 72
     5
 11
486.755016484142
 21
83.46816774472
 31
0.0
100
AcDbText
  0
TEXT
  5
19B
330
150
100
AcDbEntity
  8
Layer0
  6
AUSGEZOGEN
 62
    56
370
    18
100
AcDbText
 10
489.318284058348
 20
83.47209540074
 30
0.0
 40
1.175
  1
Name
 41
1.15958716227
  7
Arial
 72
     5
 11
494.390927089379
 21
83.47209540074
 31
0.0
100
AcDbText
  0
TEXT
  5
19C
330
150
100
AcDbEntity
  8
Layer99
  6
AUSGEZOGEN
 62
    56
370
    18
100
AcDbText
 10
454.025620008387
 20
67.549802788084
 30
0.0
 40
0.94
  1
Änderung
 41
1.218204176926
  7
Arial
 72
     5
 11
460.95583738642
 21
67.549802788084
 31
0.0
100
AcDbText
  0
ENDBLK
  5
152
330
150
100
AcDbEntity
  8
0
100
AcDbBlockEnd
  0
BLOCK
  5
17F
330
17E
100
AcDbEntity
  8
0
100
AcDbBlockBegin
  2
ULTRAREFLEX_nNn02
 70
     0
 10
0.0
 20
0.0
 30
0.0
  3
ULTRAREFLEX_nNn02
  1

  0
LINE
  5
181
330
17E
100
AcDbEntity
  8
Layer0
  6
AUSGEZOGEN
 62
    30
370
    18
100
AcDbLine
 10
494.626331503241
 20
73.591427530884
 30
0.0
 11
493.196292621486
 21
73.591427530884
 31
0.0
  0
LINE
  5
182
330
17E
100
AcDbEntity
  8
Layer0
  6
AUSGEZOGEN
 62
    30
370
    18
100
AcDbLine
 10
493.057901761961
 20
73.511527530884
 30
0.0
 11
492.342882321083
 21
72.273077530884
 31
0.0
  0
LINE
  5
183
330
17E
100
AcDbEntity
  8
Layer0
  6
AUSGEZOGEN
 62
    30
370
    18
100
AcDbLine
 10
492.342882321083
 20
72.113277530884
 30
0.0
 11
493.057901761961
 21
70.874827530884
 31
0.0
  0
LINE
  5
184
330
17E
100
AcDbEntity
  8
Layer0
  6
AUSGEZOGEN
 62
    30
370
    18
100
AcDbLine
 10
493.196292621486
 20
70.794927530884
 30
0.0
 11
494.626331503241
 21
70.794927530884
 31
0.0
  0
LINE
  5
185
330
17E
100
AcDbEntity
  8
Layer0
  6
AUSGEZOGEN
 62
    30
370
    18
100
AcDbLine
 10
494.764722362766
 20
70.874827530884
 30
0.0
 11
495.479741803644
 21
72.113277530884
 31
0.0
  0
LINE
  5
186
330
17E
100
AcDbEntity
  8
Layer0
  6
AUSGEZOGEN
 62
    30
370
    18
100
AcDbLine
 10
495.479741803644
 20
72.273077530884
 30
0.0
 11
494.764722362766
 21
73.511527530884
 31
0.0
  0
LINE
  5
187
330
17E
100
AcDbEntity
  8
Layer0
  6
AUSGEZOGEN
 62
    30
370
    18
100
AcDbLine
 10
494.049702921888
 20
72.273077530884
 30
0.0
 11
495.479741803644
 21
72.273077530884
 31
0.0
  0
LINE
  5
188
330
17E
100
AcDbEntity
  8
Layer0
  6
AUSGEZOGEN
 62
    30
370
    18
100
AcDbLine
 10
492.342882321083
 20
72.273077530884
 30
0.0
 11
493.772921202839
 21
72.273077530884
 31
0.0
  0
LINE
  5
189
330
17E
100
AcDbEntity
  8
Layer0
  6
AUSGEZOGEN
 62
    30
370
    18
100
AcDbLine
 10
494.049702921888
 20
72.113277530884
 30
0.0
 11
495.479741803644
 21
72.113277530884
 31
0.0
  0
LINE
  5
18A
330
17E
100
AcDbEntity
  8
Layer0
  6
AUSGEZOGEN
 62
    30
370
    18
100
AcDbLine
 10
492.342882321083
 20
72.113277530884
 30
0.0
 11
493.772921202839
 21
72.113277530884
 31
0.0
  0
LINE
  5
18B
330
17E
100
AcDbEntity
  8
Layer0
  6
AUSGEZOGEN
 62
    30
370
    18
100
AcDbLine
 10
494.049702921888
 20
72.113277530884
 30
0.0
 11
494.764722362766
 21
70.874827530884
 31
0.0
  0
LINE
  5
18C
330
17E
100
AcDbEntity
  8
Layer0
  6
AUSGEZOGEN
 62
    30
370
    18
100
AcDbLine
 10
493.196292621486
 20
73.591427530884
 30
0.0
 11
493.911312062364
 21
72.352977530884
 31
0.0
  0
LINE
  5
18D
330
17E
100
AcDbEntity
  8
Layer0
  6
AUSGEZOGEN
 62
    30
370
    18
100
AcDbLine
 10
493.911312062364
 20
72.033377530884
 30
0.0
 11
494.626331503241
 21
70.794927530884
 31
0.0
  0
LINE
  5
18E
330
17E
100
AcDbEntity
  8
Layer0
  6
AUSGEZOGEN
 62
    30
370
    18
100
AcDbLine
 10
493.057901761961
 20
73.511527530884
 30
0.0
 11
493.772921202839
 21
72.273077530884
 31
0.0
  0
LINE
  5
18F
330
17E
100
AcDbEntity
  8
Layer0
  6
AUSGEZOGEN
 62
    30
370
    18
100
AcDbLine
 10
493.911312062364
 20
72.033377530884
 30
0.0
 11
493.196292621486
 21
70.794927530884
 31
0.0
  0
LINE
  5
190
330
17E
100
AcDbEntity
  8
Layer0
  6
AUSGEZOGEN
 62
    30
370
    18
100
AcDbLine
 10
494.764722362766
 20
73.511527530884
 30
0.0
 11
494.049702921888
 21
72.273077530884
 31
0.0
  0
LINE
  5
191
330
17E
100
AcDbEntity
  8
Layer0
  6
AUSGEZOGEN
 62
    30
370
    18
100
AcDbLine
 10
493.772921202839
 20
72.113277530884
 30
0.0
 11
493.057901761961
 21
70.874827530884
 31
0.0
  0
LINE
  5
192
330
17E
100
AcDbEntity
  8
Layer0
  6
AUSGEZOGEN
 62
    30
370
    18
100
AcDbLine
 10
494.626331503241
 20
73.591427530884
 30
0.0
 11
493.911312062364
 21
72.352977530884
 31
0.0
  0
HATCH
  5
193
330
17E
100
AcDbEntity
  8
Layer0
  6
AUSGEZOGEN
 62
    30
370
    18
100
AcDbHatch
 10
0.0
 20
0.0
 30
0.0
210
0.0
220
0.0
230
1.0
  2
SOLID
 70
     1
 71
     0
 91
        6
 92
        2
 72
     0
 73
     1
 93
        3
 10
493.7729212028388
 20
72.11327753088365
 10
492.342882321083
 20
72.11327753088365
 10
493.0579017619609
 20
70.87482753088366
 97
        0
 92
        2
 72
     0
 73
     1
 93
        3
 10
493.7729212028388
 20
72.27307753088365
 10
493.0579017619609
 20
73.51152753088365
 10
492.342882321083
 20
72.27307753088365
 97
        0
 92
        2
 72
     0
 73
     1
 93
        3
 10
493.9113120623635
 20
72.35297753088365
 10
494.6263315032414
 20
73.59142753088365
 10
493.1962926214857
 20
73.59142753088365
 97
        0
 92
        2
 72
     0
 73
     1
 93
        3
 10
494.0497029218883
 20
72.27307753088365
 10
495.4797418036441
 20
72.27307753088365
 10
494.7647223627662
 20
73.51152753088364
 97
        0
 92
        2
 72
     0
 73
     1
 93
        3
 10
494.7647223627662
 20
70.87482753088365
 10
495.4797418036441
 20
72.11327753088365
 10
494.0497029218883
 20
72.11327753088365
 97
        0
 92
        2
 72
     0
 73
     1
 93
        3
 10
493.9113120623635
 20
72.03337753088366
 10
493.1962926214857
 20
70.79492753088365
 10
494.6263315032414
 20
70.79492753088365
 97
        0
 75
     0
 76
     1
 98
        0
  0
TEXT
  5
194
330
17E
100
AcDbEntity
  8
Layer0
  6
AUSGEZOGEN
 62
     7
370
    70
100
AcDbText
 10
483.802467422893
 20
71.293060415626
 30
0.0
 40
1.8377
  1
REFLEX
 41
0.705366510959
  7
Arial Black
 72
     5
 11
491.652642422893
 21
71.293060415626
 31
0.0
100
AcDbText
  0
TEXT
  5
195
330
17E
100
AcDbEntity
  8
Layer0
  6
AUSGEZOGEN
 62
     7
370
    18
100
AcDbText
 10
476.052961403843
 20
71.379753034056
 30
0.0
 40
1.39825
  1
ULTRA
 41
1.159777722278
  7
Arial
 72
     5
 11
483.473673903843
 21
71.379753034056
 31
0.0
100
AcDbText
  0
ENDBLK
  5
180
330
17E
100
AcDbEntity
  8
0
100
AcDbBlockEnd
  0
BLOCK
  5
1A2
330
1A1
100
AcDbEntity
  8
0
100
AcDbBlockBegin
  2
L1_nNn03
 70
     0
 10
0.0
 20
0.0
 30
0.0
  3
L1_nNn03
  1

  0
INSERT
  5
1AA
330
1A1
100
AcDbEntity
  8
0
100
AcDbBlockReference
  2
QS_nNn04
 10
0.0
 20
0.0
 30
0.0
  0
INSERT
  5
1AF
330
1A1
100
AcDbEntity
  8
0
100
AcDbBlockReference
  2
Reflexwerte_nNn05
 10
0.0
 20
0.0
 30
0.0
  0
ENDBLK
  5
1A3
330
1A1
100
AcDbEntity
  8
0
100
AcDbBlockEnd
  0
BLOCK
  5
1A5
330
1A4
100
AcDbEntity
  8
0
100
AcDbBlockBegin
  2
QS_nNn04
 70
     0
 10
0.0
 20
0.0
 30
0.0
  3
QS_nNn04
  1

  0
TEXT
  5
1A7
330
1A4
100
AcDbEntity
  8
Layer0
  6
AUSGEZOGEN
 62
   136
370
    18
100
AcDbText
 10
449.601396657594
 20
104.444693121351
 30
0.0
 40
1.25
  1
Teil frei von Rissen, Grat, Blasen, Einfallstellen,
 41
1.13496141796
  7
Arial
 72
     5
 11
491.312647469409
 21
104.444693121351
 31
0.0
100
AcDbText
  0
TEXT
  5
1A8
330
1A4
100
AcDbEntity
  8
Layer0
  6
AUSGEZOGEN
 62
   136
370
    18
100
AcDbText
 10
449.601396657594
 20
102.444693091549
 30
0.0
 40
1.25
  1
Fliesslinien, Einschlüssen, Formbelag, Kratzer, Schlieren
 41
1.134732261281
  7
Arial
 72
     5
 11
499.555147629831
 21
102.444693091549
 31
0.0
100
AcDbText
  0
TEXT
  5
1A9
330
1A4
100
AcDbEntity
  8
Layer0
  6
AUSGEZOGEN
 62
   136
370
    18
100
AcDbText
 10
449.601396657594
 20
100.444693061747
 30
0.0
 40
1.25
  1
Grenzwertmuster werden gesondert vereinbart
 41
1.135456394682
  7
Arial
 72
     5
 11
490.560147454763
 21
100.444693061747
 31
0.0
100
AcDbText
  0
ENDBLK
  5
1A6
330
1A4
100
AcDbEntity
  8
0
100
AcDbBlockEnd
  0
BLOCK
  5
1AC
330
1AB
100
AcDbEntity
  8
0
100
AcDbBlockBegin
  2
Reflexwerte_nNn05
 70
     0
 10
0.0
 20
0.0
 30
0.0
  3
Reflexwerte_nNn05
  1

  0
TEXT
  5
1AE
330
1AB
100
AcDbEntity
  8
Layer0
  6
AUSGEZOGEN
 62
   136
370
    18
100
AcDbText
 10
449.43467395668
 20
96.083956231296
 30
0.0
 40
1.25
  1
Reflexionswerte werden gesondert vereinbart
 41
1.135633679475
  7
Arial
 72
     5
 11
489.299674732562
 21
96.083956231296
 31
0.0
100
AcDbText
  0
ENDBLK
  5
1AD
330
1AB
100
AcDbEntity
  8
0
100
AcDbBlockEnd
  0
BLOCK
  5
1B2
330
1B1
100
AcDbEntity
  8
0
100
AcDbBlockBegin
  2
L1_nNn06
 70
     0
 10
0.0
 20
0.0
 30
0.0
  3
L1_nNn06
  1

  0
INSERT
  5
563
330
1B1
100
AcDbEntity
  8
0
100
AcDbBlockReference
  2
SECHSK1_nNn07
 10
0.0
 20
0.0
 30
0.0
  0
LINE
  5
564
330
1B1
100
AcDbEntity
  8
Layer0
  6
AUSGEZOGEN
 62
     9
370
    18
100
AcDbLine
 10
477.601114416125
 20
119.290727445721
 30
0.0
 11
477.601114416125
 21
175.012120480547
 31
0.0
  0
LINE
  5
565
330
1B1
100
AcDbEntity
  8
Layer0
  6
AUSGEZOGEN
 62
     9
370
    18
100
AcDbLine
 10
504.027097598359
 20
119.290727445721
 30
0.0
 11
504.027097598359
 21
175.012120480547
 31
0.0
  0
LINE
  5
566
330
1B1
100
AcDbEntity
  8
Layer0
  6
AUSGEZOGEN
 62
     9
370
    18
100
AcDbLine
 10
477.601114416125
 20
119.290727445721
 30
0.0
 11
504.027097598359
 21
119.290727445721
 31
0.0
  0
LINE
  5
567
330
1B1
100
AcDbEntity
  8
Layer0
  6
AUSGEZOGEN
 62
     9
370
    18
100
AcDbLine
 10
477.601114416125
 20
175.012120480547
 30
0.0
 11
504.027097598359
 21
175.012120480547
 31
0.0
  0
LINE
  5
568
330
1B1
100
AcDbEntity
  8
Layer0
  6
DASHDOT
 62
    56
370
    18
100
AcDbLine
 10
490.814106007242
 20
115.574815092166
 30
0.0
 11
490.814106007242
 21
177.843533986175
 31
0.0
  0
LINE
  5
569
330
1B1
100
AcDbEntity
  8
Layer0
  6
DASHDOT
 62
    56
370
    18
100
AcDbLine
 10
474.497649370183
 20
147.151423963134
 30
0.0
 11
507.319192200798
 21
147.151423963134
 31
0.0
  0
LINE
  5
56A
330
1B1
100
AcDbEntity
  8
Layer0
  6
AUSGEZOGEN
 62
     9
370
    18
100
AcDbLine
 10
476.077787599282
 20
176.624060779054
 30
0.0
 11
505.550424415202
 21
176.624060779054
 31
0.0
  0
LINE
  5
56B
330
1B1
100
AcDbEntity
  8
Layer0
  6
AUSGEZOGEN
 62
     9
370
    18
100
AcDbLine
 10
476.077787599282
 20
117.678787147213
 30
0.0
 11
505.550424415202
 21
117.678787147213
 31
0.0
  0
LINE
  5
56C
330
1B1
100
AcDbEntity
  8
Layer0
  6
AUSGEZOGEN
 62
     9
370
    18
100
AcDbLine
 10
505.550424415202
 20
117.678787147213
 30
0.0
 11
505.550424415202
 21
176.624060779054
 31
0.0
  0
LINE
  5
56D
330
1B1
100
AcDbEntity
  8
Layer0
  6
AUSGEZOGEN
 62
     9
370
    18
100
AcDbLine
 10
476.077787599282
 20
117.678787147213
 30
0.0
 11
476.077787599282
 21
176.624060779054
 31
0.0
  0
ENDBLK
  5
1B3
330
1B1
100
AcDbEntity
  8
0
100
AcDbBlockEnd
  0
BLOCK
  5
1B5
330
1B4
100
AcDbEntity
  8
0
100
AcDbBlockBegin
  2
SECHSK1_nNn07
 70
     0
 10
0.0
 20
0.0
 30
0.0
  3
SECHSK1_nNn07
  1

  0
LINE
  5
1B7
330
1B4
100
AcDbEntity
  8
Layer0
  6
AUSGEZOGEN
 62
     9
370
    18
100
AcDbLine
 10
477.601114416125
 20
157.101672719353
 30
0.0
 11
479.899027317439
 21
157.101672719353
 31
0.0
  0
LINE
  5
1B8
330
1B4
100
AcDbEntity
  8
Layer0
  6
AUSGEZOGEN
 62
     9
370
    18
100
AcDbLine
 10
479.899027317439
 20
157.101672719353
 30
0.0
 11
481.047976176659
 21
159.091722470596
 31
0.0
  0
LINE
  5
1B9
330
1B4
100
AcDbEntity
  8
Layer0
  6
AUSGEZOGEN
 62
     9
370
    18
100
AcDbLine
 10
481.047976176659
 20
159.091722470596
 30
0.0
 11
479.899027317439
 21
161.08177222184
 31
0.0
  0
LINE
  5
1BA
330
1B4
100
AcDbEntity
  8
Layer0
  6
AUSGEZOGEN
 62
     9
370
    18
100
AcDbLine
 10
479.899027317439
 20
161.08177222184
 30
0.0
 11
477.601114416125
 21
161.08177222184
 31
0.0
  0
LINE
  5
1BB
330
1B4
100
AcDbEntity
  8
Stammform
  6
AUSGEZOGEN
 62
    56
370
    18
100
AcDbLine
 10
477.601114416125
 20
161.08177222184
 30
0.0
 11
478.750070866782
 21
159.091722470596
 31
0.0
  0
LINE
  5
1BC
330
1B4
100
AcDbEntity
  8
Stammform
  6
AUSGEZOGEN
 62
    56
370
    18
100
AcDbLine
 10
478.750070866782
 20
159.091722470596
 30
0.0
 11
481.047976176659
 21
159.091722470596
 31
0.0
  0
LINE
  5
1BD
330
1B4
100
AcDbEntity
  8
Stammform
  6
AUSGEZOGEN
 62
    56
370
    18
100
AcDbLine
 10
478.750070866782
 20
159.091722470596
 30
0.0
 11
477.601114416125
 21
157.101672719353
 31
0.0
  0
LINE
  5
1BE
330
1B4
100
AcDbEntity
  8
Stammform
  6
AUSGEZOGEN
 62
    56
370
    18
100
AcDbLine
 10
478.750070866782
 20
163.071821973084
 30
0.0
 11
477.601114416125
 21
161.08177222184
 31
0.0
  0
LINE
  5
1BF
330
1B4
100
AcDbEntity
  8
Stammform
  6
AUSGEZOGEN
 62
    56
370
    18
100
AcDbLine
 10
478.750070866782
 20
163.071821973084
 30
0.0
 11
481.047976176659
 21
163.071821973084
 31
0.0
  0
LINE
  5
1C0
330
1B4
100
AcDbEntity
  8
Stammform
  6
AUSGEZOGEN
 62
    56
370
    18
100
AcDbLine
 10
477.601114416125
 20
165.061871724328
 30
0.0
 11
478.750070866782
 21
163.071821973084
 31
0.0
  0
LINE
  5
1C1
330
1B4
100
AcDbEntity
  8
Layer0
  6
AUSGEZOGEN
 62
     9
370
    18
100
AcDbLine
 10
477.601114416125
 20
161.08177222184
 30
0.0
 11
479.899027317439
 21
161.08177222184
 31
0.0
  0
LINE
  5
1C2
330
1B4
100
AcDbEntity
  8
Layer0
  6
AUSGEZOGEN
 62
     9
370
    18
100
AcDbLine
 10
479.899027317439
 20
161.08177222184
 30
0.0
 11
481.047976176659
 21
163.071821973084
 31
0.0
  0
LINE
  5
1C3
330
1B4
100
AcDbEntity
  8
Layer0
  6
AUSGEZOGEN
 62
     9
370
    18
100
AcDbLine
 10
481.047976176659
 20
163.071821973084
 30
0.0
 11
479.899027317439
 21
165.061871724328
 31
0.0
  0
LINE
  5
1C4
330
1B4
100
AcDbEntity
  8
Layer0
  6
AUSGEZOGEN
 62
     9
370
    18
100
AcDbLine
 10
479.899027317439
 20
165.061871724328
 30
0.0
 11
477.601114416125
 21
165.061871724328
 31
0.0
  0
LINE
  5
1C5
330
1B4
100
AcDbEntity
  8
Layer0
  6
AUSGEZOGEN
 62
     9
370
    18
100
AcDbLine
 10
477.601114416125
 20
169.041971226815
 30
0.0
 11
479.899027317439
 21
169.041971226815
 31
0.0
  0
LINE
  5
1C6
330
1B4
100
AcDbEntity
  8
Layer0
  6
AUSGEZOGEN
 62
     9
370
    18
100
AcDbLine
 10
479.899027317439
 20
169.041971226815
 30
0.0
 11
481.047976176659
 21
171.032020978059
 31
0.0
  0
LINE
  5
1C7
330
1B4
100
AcDbEntity
  8
Layer0
  6
AUSGEZOGEN
 62
     9
370
    18
100
AcDbLine
 10
481.047976176659
 20
171.032020978059
 30
0.0
 11
479.899027317439
 21
173.022070729303
 31
0.0
  0
LINE
  5
1C8
330
1B4
100
AcDbEntity
  8
Layer0
  6
AUSGEZOGEN
 62
     9
370
    18
100
AcDbLine
 10
479.899027317439
 20
173.022070729303
 30
0.0
 11
477.601114416125
 21
173.022070729303
 31
0.0
  0
LINE
  5
1C9
330
1B4
100
AcDbEntity
  8
Stammform
  6
AUSGEZOGEN
 62
    56
370
    18
100
AcDbLine
 10
477.601114416125
 20
173.022070729303
 30
0.0
 11
478.750070866782
 21
171.032020978059
 31
0.0
  0
LINE
  5
1CA
330
1B4
100
AcDbEntity
  8
Stammform
  6
AUSGEZOGEN
 62
    56
370
    18
100
AcDbLine
 10
478.750070866782
 20
171.032020978059
 30
0.0
 11
481.047976176659
 21
171.032020978059
 31
0.0
  0
LINE
  5
1CB
330
1B4
100
AcDbEntity
  8
Stammform
  6
AUSGEZOGEN
 62
    56
370
    18
100
AcDbLine
 10
478.750070866782
 20
171.032020978059
 30
0.0
 11
477.601114416125
 21
169.041971226815
 31
0.0
  0
LINE
  5
1CC
330
1B4
100
AcDbEntity
  8
Stammform
  6
AUSGEZOGEN
 62
    56
370
    18
100
AcDbLine
 10
478.750070866782
 20
167.051921475571
 30
0.0
 11
477.601114416125
 21
165.061871724328
 31
0.0
  0
LINE
  5
1CD
330
1B4
100
AcDbEntity
  8
Stammform
  6
AUSGEZOGEN
 62
    56
370
    18
100
AcDbLine
 10
478.750070866782
 20
167.051921475571
 30
0.0
 11
481.047976176659
 21
167.051921475571
 31
0.0
  0
LINE
  5
1CE
330
1B4
100
AcDbEntity
  8
Stammform
  6
AUSGEZOGEN
 62
    56
370
    18
100
AcDbLine
 10
477.601114416125
 20
169.041971226815
 30
0.0
 11
478.750070866782
 21
167.051921475571
 31
0.0
  0
LINE
  5
1CF
330
1B4
100
AcDbEntity
  8
Layer0
  6
AUSGEZOGEN
 62
     9
370
    18
100
AcDbLine
 10
477.601114416125
 20
165.061871724328
 30
0.0
 11
479.899027317439
 21
165.061871724328
 31
0.0
  0
LINE
  5
1D0
330
1B4
100
AcDbEntity
  8
Layer0
  6
AUSGEZOGEN
 62
     9
370
    18
100
AcDbLine
 10
479.899027317439
 20
165.061871724328
 30
0.0
 11
481.047976176659
 21
167.051921475571
 31
0.0
  0
LINE
  5
1D1
330
1B4
100
AcDbEntity
  8
Layer0
  6
AUSGEZOGEN
 62
     9
370
    18
100
AcDbLine
 10
481.047976176659
 20
167.051921475571
 30
0.0
 11
479.899027317439
 21
169.041971226815
 31
0.0
  0
LINE
  5
1D2
330
1B4
100
AcDbEntity
  8
Layer0
  6
AUSGEZOGEN
 62
     9
370
    18
100
AcDbLine
 10
479.899027317439
 20
169.041971226815
 30
0.0
 11
477.601114416125
 21
169.041971226815
 31
0.0
  0
LINE
  5
1D3
330
1B4
100
AcDbEntity
  8
Stammform
  6
AUSGEZOGEN
 62
    56
370
    18
100
AcDbLine
 10
478.750070866782
 20
175.012120480547
 30
0.0
 11
477.601114416125
 21
173.022070729303
 31
0.0
  0
LINE
  5
1D4
330
1B4
100
AcDbEntity
  8
Layer0
  6
AUSGEZOGEN
 62
     9
370
    18
100
AcDbLine
 10
477.601114416125
 20
173.022070729303
 30
0.0
 11
479.899027317439
 21
173.022070729303
 31
0.0
  0
LINE
  5
1D5
330
1B4
100
AcDbEntity
  8
Layer0
  6
AUSGEZOGEN
 62
     9
370
    18
100
AcDbLine
 10
479.899027317439
 20
173.022070729303
 30
0.0
 11
481.047976176659
 21
175.012120480547
 31
0.0
  0
LINE
  5
1D6
330
1B4
100
AcDbEntity
  8
Layer0
  6
AUSGEZOGEN
 62
     9
370
    18
100
AcDbLine
 10
477.601114416125
 20
149.141473714377
 30
0.0
 11
479.899027317439
 21
149.141473714377
 31
0.0
  0
LINE
  5
1D7
330
1B4
100
AcDbEntity
  8
Layer0
  6
AUSGEZOGEN
 62
     9
370
    18
100
AcDbLine
 10
479.899027317439
 20
149.141473714377
 30
0.0
 11
481.047976176659
 21
151.131523465621
 31
0.0
  0
LINE
  5
1D8
330
1B4
100
AcDbEntity
  8
Layer0
  6
AUSGEZOGEN
 62
     9
370
    18
100
AcDbLine
 10
481.047976176659
 20
151.131523465621
 30
0.0
 11
479.899027317439
 21
153.121573216865
 31
0.0
  0
LINE
  5
1D9
330
1B4
100
AcDbEntity
  8
Layer0
  6
AUSGEZOGEN
 62
     9
370
    18
100
AcDbLine
 10
479.899027317439
 20
153.121573216865
 30
0.0
 11
477.601114416125
 21
153.121573216865
 31
0.0
  0
LINE
  5
1DA
330
1B4
100
AcDbEntity
  8
Stammform
  6
AUSGEZOGEN
 62
    56
370
    18
100
AcDbLine
 10
477.601114416125
 20
153.121573216865
 30
0.0
 11
478.750070866782
 21
151.131523465621
 31
0.0
  0
LINE
  5
1DB
330
1B4
100
AcDbEntity
  8
Stammform
  6
AUSGEZOGEN
 62
    56
370
    18
100
AcDbLine
 10
478.750070866782
 20
151.131523465621
 30
0.0
 11
481.047976176659
 21
151.131523465621
 31
0.0
  0
LINE
  5
1DC
330
1B4
100
AcDbEntity
  8
Stammform
  6
AUSGEZOGEN
 62
    56
370
    18
100
AcDbLine
 10
478.750070866782
 20
151.131523465621
 30
0.0
 11
477.601114416125
 21
149.141473714377
 31
0.0
  0
LINE
  5
1DD
330
1B4
100
AcDbEntity
  8
Stammform
  6
AUSGEZOGEN
 62
    56
370
    18
100
AcDbLine
 10
478.750070866782
 20
155.111622968109
 30
0.0
 11
477.601114416125
 21
153.121573216865
 31
0.0
  0
LINE
  5
1DE
330
1B4
100
AcDbEntity
  8
Stammform
  6
AUSGEZOGEN
 62
    56
370
    18
100
AcDbLine
 10
478.750070866782
 20
155.111622968109
 30
0.0
 11
481.047976176659
 21
155.111622968109
 31
0.0
  0
LINE
  5
1DF
330
1B4
100
AcDbEntity
  8
Stammform
  6
AUSGEZOGEN
 62
    56
370
    18
100
AcDbLine
 10
477.601114416125
 20
157.101672719353
 30
0.0
 11
478.750070866782
 21
155.111622968109
 31
0.0
  0
LINE
  5
1E0
330
1B4
100
AcDbEntity
  8
Layer0
  6
AUSGEZOGEN
 62
     9
370
    18
100
AcDbLine
 10
477.601114416125
 20
153.121573216865
 30
0.0
 11
479.899027317439
 21
153.121573216865
 31
0.0
  0
LINE
  5
1E1
330
1B4
100
AcDbEntity
  8
Layer0
  6
AUSGEZOGEN
 62
     9
370
    18
100
AcDbLine
 10
479.899027317439
 20
153.121573216865
 30
0.0
 11
481.047976176659
 21
155.111622968109
 31
0.0
  0
LINE
  5
1E2
330
1B4
100
AcDbEntity
  8
Layer0
  6
AUSGEZOGEN
 62
     9
370
    18
100
AcDbLine
 10
481.047976176659
 20
155.111622968109
 30
0.0
 11
479.899027317439
 21
157.101672719353
 31
0.0
  0
LINE
  5
1E3
330
1B4
100
AcDbEntity
  8
Layer0
  6
AUSGEZOGEN
 62
     9
370
    18
100
AcDbLine
 10
479.899027317439
 20
157.101672719353
 30
0.0
 11
477.601114416125
 21
157.101672719353
 31
0.0
  0
LINE
  5
1E4
330
1B4
100
AcDbEntity
  8
Layer0
  6
AUSGEZOGEN
 62
     9
370
    18
100
AcDbLine
 10
477.601114416125
 20
141.181274709402
 30
0.0
 11
479.899027317439
 21
141.181274709402
 31
0.0
  0
LINE
  5
1E5
330
1B4
100
AcDbEntity
  8
Layer0
  6
AUSGEZOGEN
 62
     9
370
    18
100
AcDbLine
 10
479.899027317439
 20
141.181274709402
 30
0.0
 11
481.047976176659
 21
143.171324460646
 31
0.0
  0
LINE
  5
1E6
330
1B4
100
AcDbEntity
  8
Layer0
  6
AUSGEZOGEN
 62
     9
370
    18
100
AcDbLine
 10
481.047976176659
 20
143.171324460646
 30
0.0
 11
479.899027317439
 21
145.16137421189
 31
0.0
  0
LINE
  5
1E7
330
1B4
100
AcDbEntity
  8
Layer0
  6
AUSGEZOGEN
 62
     9
370
    18
100
AcDbLine
 10
479.899027317439
 20
145.16137421189
 30
0.0
 11
477.601114416125
 21
145.16137421189
 31
0.0
  0
LINE
  5
1E8
330
1B4
100
AcDbEntity
  8
Stammform
  6
AUSGEZOGEN
 62
    56
370
    18
100
AcDbLine
 10
477.601114416125
 20
145.16137421189
 30
0.0
 11
478.750070866782
 21
143.171324460646
 31
0.0
  0
LINE
  5
1E9
330
1B4
100
AcDbEntity
  8
Stammform
  6
AUSGEZOGEN
 62
    56
370
    18
100
AcDbLine
 10
478.750070866782
 20
143.171324460646
 30
0.0
 11
481.047976176659
 21
143.171324460646
 31
0.0
  0
LINE
  5
1EA
330
1B4
100
AcDbEntity
  8
Stammform
  6
AUSGEZOGEN
 62
    56
370
    18
100
AcDbLine
 10
478.750070866782
 20
143.171324460646
 30
0.0
 11
477.601114416125
 21
141.181274709402
 31
0.0
  0
LINE
  5
1EB
330
1B4
100
AcDbEntity
  8
Stammform
  6
AUSGEZOGEN
 62
    56
370
    18
100
AcDbLine
 10
478.750070866782
 20
147.151423963134
 30
0.0
 11
477.601114416125
 21
145.16137421189
 31
0.0
  0
LINE
  5
1EC
330
1B4
100
AcDbEntity
  8
Stammform
  6
AUSGEZOGEN
 62
    56
370
    18
100
AcDbLine
 10
478.750070866782
 20
147.151423963134
 30
0.0
 11
481.047976176659
 21
147.151423963134
 31
0.0
  0
LINE
  5
1ED
330
1B4
100
AcDbEntity
  8
Stammform
  6
AUSGEZOGEN
 62
    56
370
    18
100
AcDbLine
 10
477.601114416125
 20
149.141473714377
 30
0.0
 11
478.750070866782
 21
147.151423963134
 31
0.0
  0
LINE
  5
1EE
330
1B4
100
AcDbEntity
  8
Layer0
  6
AUSGEZOGEN
 62
     9
370
    18
100
AcDbLine
 10
477.601114416125
 20
145.16137421189
 30
0.0
 11
479.899027317439
 21
145.16137421189
 31
0.0
  0
LINE
  5
1EF
330
1B4
100
AcDbEntity
  8
Layer0
  6
AUSGEZOGEN
 62
     9
370
    18
100
AcDbLine
 10
479.899027317439
 20
145.16137421189
 30
0.0
 11
481.047976176659
 21
147.151423963134
 31
0.0
  0
LINE
  5
1F0
330
1B4
100
AcDbEntity
  8
Layer0
  6
AUSGEZOGEN
 62
     9
370
    18
100
AcDbLine
 10
481.047976176659
 20
147.151423963134
 30
0.0
 11
479.899027317439
 21
149.141473714377
 31
0.0
  0
LINE
  5
1F1
330
1B4
100
AcDbEntity
  8
Layer0
  6
AUSGEZOGEN
 62
     9
370
    18
100
AcDbLine
 10
479.899027317439
 20
149.141473714377
 30
0.0
 11
477.601114416125
 21
149.141473714377
 31
0.0
  0
LINE
  5
1F2
330
1B4
100
AcDbEntity
  8
Layer0
  6
AUSGEZOGEN
 62
     9
370
    18
100
AcDbLine
 10
477.601114416125
 20
133.22106811299
 30
0.0
 11
479.899027317439
 21
133.22106811299
 31
0.0
  0
LINE
  5
1F3
330
1B4
100
AcDbEntity
  8
Layer0
  6
AUSGEZOGEN
 62
     9
370
    18
100
AcDbLine
 10
479.899027317439
 20
133.22106811299
 30
0.0
 11
481.047976176659
 21
135.211125455671
 31
0.0
  0
LINE
  5
1F4
330
1B4
100
AcDbEntity
  8
Layer0
  6
AUSGEZOGEN
 62
     9
370
    18
100
AcDbLine
 10
481.047976176659
 20
135.211125455671
 30
0.0
 11
479.899027317439
 21
137.201175206915
 31
0.0
  0
LINE
  5
1F5
330
1B4
100
AcDbEntity
  8
Layer0
  6
AUSGEZOGEN
 62
     9
370
    18
100
AcDbLine
 10
479.899027317439
 20
137.201175206915
 30
0.0
 11
477.601114416125
 21
137.201175206915
 31
0.0
  0
LINE
  5
1F6
330
1B4
100
AcDbEntity
  8
Stammform
  6
AUSGEZOGEN
 62
    56
370
    18
100
AcDbLine
 10
477.601114416125
 20
137.201175206915
 30
0.0
 11
478.750070866782
 21
135.211125455671
 31
0.0
  0
LINE
  5
1F7
330
1B4
100
AcDbEntity
  8
Stammform
  6
AUSGEZOGEN
 62
    56
370
    18
100
AcDbLine
 10
478.750070866782
 20
135.211125455671
 30
0.0
 11
481.047976176659
 21
135.211125455671
 31
0.0
  0
LINE
  5
1F8
330
1B4
100
AcDbEntity
  8
Stammform
  6
AUSGEZOGEN
 62
    56
370
    18
100
AcDbLine
 10
478.750070866782
 20
135.211125455671
 30
0.0
 11
477.601114416125
 21
133.22106811299
 31
0.0
  0
LINE
  5
1F9
330
1B4
100
AcDbEntity
  8
Stammform
  6
AUSGEZOGEN
 62
    56
370
    18
100
AcDbLine
 10
478.750070866782
 20
139.191224958159
 30
0.0
 11
477.601114416125
 21
137.201175206915
 31
0.0
  0
LINE
  5
1FA
330
1B4
100
AcDbEntity
  8
Stammform
  6
AUSGEZOGEN
 62
    56
370
    18
100
AcDbLine
 10
478.750070866782
 20
139.191224958159
 30
0.0
 11
481.047976176659
 21
139.191224958159
 31
0.0
  0
LINE
  5
1FB
330
1B4
100
AcDbEntity
  8
Stammform
  6
AUSGEZOGEN
 62
    56
370
    18
100
AcDbLine
 10
477.601114416125
 20
141.181274709402
 30
0.0
 11
478.750070866782
 21
139.191224958159
 31
0.0
  0
LINE
  5
1FC
330
1B4
100
AcDbEntity
  8
Layer0
  6
AUSGEZOGEN
 62
     9
370
    18
100
AcDbLine
 10
477.601114416125
 20
137.201175206915
 30
0.0
 11
479.899027317439
 21
137.201175206915
 31
0.0
  0
LINE
  5
1FD
330
1B4
100
AcDbEntity
  8
Layer0
  6
AUSGEZOGEN
 62
     9
370
    18
100
AcDbLine
 10
479.899027317439
 20
137.201175206915
 30
0.0
 11
481.047976176659
 21
139.191224958159
 31
0.0
  0
LINE
  5
1FE
330
1B4
100
AcDbEntity
  8
Layer0
  6
AUSGEZOGEN
 62
     9
370
    18
100
AcDbLine
 10
481.047976176659
 20
139.191224958159
 30
0.0
 11
479.899027317439
 21
141.181274709402
 31
0.0
  0
LINE
  5
1FF
330
1B4
100
AcDbEntity
  8
Layer0
  6
AUSGEZOGEN
 62
     9
370
    18
100
AcDbLine
 10
479.899027317439
 20
141.181274709402
 30
0.0
 11
477.601114416125
 21
141.181274709402
 31
0.0
  0
LINE
  5
200
330
1B4
100
AcDbEntity
  8
Layer0
  6
AUSGEZOGEN
 62
     9
370
    18
100
AcDbLine
 10
477.601114416125
 20
125.260869108015
 30
0.0
 11
479.899027317439
 21
125.260869108015
 31
0.0
  0
LINE
  5
201
330
1B4
100
AcDbEntity
  8
Layer0
  6
AUSGEZOGEN
 62
     9
370
    18
100
AcDbLine
 10
479.899027317439
 20
125.260869108015
 30
0.0
 11
481.047976176659
 21
127.250918859258
 31
0.0
  0
LINE
  5
202
330
1B4
100
AcDbEntity
  8
Layer0
  6
AUSGEZOGEN
 62
     9
370
    18
100
AcDbLine
 10
481.047976176659
 20
127.250918859258
 30
0.0
 11
479.899027317439
 21
129.240968610502
 31
0.0
  0
LINE
  5
203
330
1B4
100
AcDbEntity
  8
Layer0
  6
AUSGEZOGEN
 62
     9
370
    18
100
AcDbLine
 10
479.899027317439
 20
129.240968610502
 30
0.0
 11
477.601114416125
 21
129.240968610502
 31
0.0
  0
LINE
  5
204
330
1B4
100
AcDbEntity
  8
Stammform
  6
AUSGEZOGEN
 62
    56
370
    18
100
AcDbLine
 10
477.601114416125
 20
129.240968610502
 30
0.0
 11
478.750070866782
 21
127.250918859258
 31
0.0
  0
LINE
  5
205
330
1B4
100
AcDbEntity
  8
Stammform
  6
AUSGEZOGEN
 62
    56
370
    18
100
AcDbLine
 10
478.750070866782
 20
127.250918859258
 30
0.0
 11
481.047976176659
 21
127.250918859258
 31
0.0
  0
LINE
  5
206
330
1B4
100
AcDbEntity
  8
Stammform
  6
AUSGEZOGEN
 62
    56
370
    18
100
AcDbLine
 10
478.750070866782
 20
127.250918859258
 30
0.0
 11
477.601114416125
 21
125.260869108015
 31
0.0
  0
LINE
  5
207
330
1B4
100
AcDbEntity
  8
Stammform
  6
AUSGEZOGEN
 62
    56
370
    18
100
AcDbLine
 10
478.750070866782
 20
131.231018361746
 30
0.0
 11
477.601114416125
 21
129.240968610502
 31
0.0
  0
LINE
  5
208
330
1B4
100
AcDbEntity
  8
Stammform
  6
AUSGEZOGEN
 62
    56
370
    18
100
AcDbLine
 10
478.750070866782
 20
131.231018361746
 30
0.0
 11
481.047976176659
 21
131.231018361746
 31
0.0
  0
LINE
  5
209
330
1B4
100
AcDbEntity
  8
Stammform
  6
AUSGEZOGEN
 62
    56
370
    18
100
AcDbLine
 10
477.601114416125
 20
133.22106811299
 30
0.0
 11
478.750070866782
 21
131.231018361746
 31
0.0
  0
LINE
  5
20A
330
1B4
100
AcDbEntity
  8
Layer0
  6
AUSGEZOGEN
 62
     9
370
    18
100
AcDbLine
 10
477.601114416125
 20
129.240968610502
 30
0.0
 11
479.899027317439
 21
129.240968610502
 31
0.0
  0
LINE
  5
20B
330
1B4
100
AcDbEntity
  8
Layer0
  6
AUSGEZOGEN
 62
     9
370
    18
100
AcDbLine
 10
479.899027317439
 20
129.240968610502
 30
0.0
 11
481.047976176659
 21
131.231018361746
 31
0.0
  0
LINE
  5
20C
330
1B4
100
AcDbEntity
  8
Layer0
  6
AUSGEZOGEN
 62
     9
370
    18
100
AcDbLine
 10
481.047976176659
 20
131.231018361746
 30
0.0
 11
479.899027317439
 21
133.22106811299
 31
0.0
  0
LINE
  5
20D
330
1B4
100
AcDbEntity
  8
Layer0
  6
AUSGEZOGEN
 62
     9
370
    18
100
AcDbLine
 10
479.899027317439
 20
133.22106811299
 30
0.0
 11
477.601114416125
 21
133.22106811299
 31
0.0
  0
LINE
  5
20E
330
1B4
100
AcDbEntity
  8
Layer0
  6
AUSGEZOGEN
 62
     9
370
    18
100
AcDbLine
 10
477.601114416125
 20
121.280777196964
 30
0.0
 11
479.899027317439
 21
121.280777196964
 31
0.0
  0
LINE
  5
20F
330
1B4
100
AcDbEntity
  8
Layer0
  6
AUSGEZOGEN
 62
     9
370
    18
100
AcDbLine
 10
479.899027317439
 20
121.280777196964
 30
0.0
 11
481.047976176659
 21
123.270826948208
 31
0.0
  0
LINE
  5
210
330
1B4
100
AcDbEntity
  8
Layer0
  6
AUSGEZOGEN
 62
     9
370
    18
100
AcDbLine
 10
481.047976176659
 20
123.270826948208
 30
0.0
 11
479.899027317439
 21
125.260869108015
 31
0.0
  0
LINE
  5
211
330
1B4
100
AcDbEntity
  8
Layer0
  6
AUSGEZOGEN
 62
     9
370
    18
100
AcDbLine
 10
479.899027317439
 20
125.260869108015
 30
0.0
 11
477.601114416125
 21
125.260869108015
 31
0.0
  0
LINE
  5
212
330
1B4
100
AcDbEntity
  8
Stammform
  6
AUSGEZOGEN
 62
    56
370
    18
100
AcDbLine
 10
477.601114416125
 20
125.260869108015
 30
0.0
 11
478.750070866782
 21
123.270826948208
 31
0.0
  0
LINE
  5
213
330
1B4
100
AcDbEntity
  8
Stammform
  6
AUSGEZOGEN
 62
    56
370
    18
100
AcDbLine
 10
478.750070866782
 20
123.270826948208
 30
0.0
 11
481.047976176659
 21
123.270826948208
 31
0.0
  0
LINE
  5
214
330
1B4
100
AcDbEntity
  8
Stammform
  6
AUSGEZOGEN
 62
    56
370
    18
100
AcDbLine
 10
478.750070866782
 20
123.270826948208
 30
0.0
 11
477.601114416125
 21
121.280777196964
 31
0.0
  0
LINE
  5
215
330
1B4
100
AcDbEntity
  8
Stammform
  6
AUSGEZOGEN
 62
    56
370
    18
100
AcDbLine
 10
477.601114416125
 20
121.280777196964
 30
0.0
 11
478.750070866782
 21
119.290727445721
 31
0.0
  0
LINE
  5
216
330
1B4
100
AcDbEntity
  8
Layer0
  6
AUSGEZOGEN
 62
     9
370
    18
100
AcDbLine
 10
481.047976176659
 20
119.290727445721
 30
0.0
 11
479.899027317439
 21
121.280777196964
 31
0.0
  0
LINE
  5
217
330
1B4
100
AcDbEntity
  8
Layer0
  6
AUSGEZOGEN
 62
     9
370
    18
100
AcDbLine
 10
479.899027317439
 20
121.280777196964
 30
0.0
 11
477.601114416125
 21
121.280777196964
 31
0.0
  0
LINE
  5
218
330
1B4
100
AcDbEntity
  8
Layer0
  6
AUSGEZOGEN
 62
     9
370
    18
100
AcDbLine
 10
481.047976176659
 20
123.270826948208
 30
0.0
 11
479.899027317439
 21
121.280777196964
 31
0.0
  0
LINE
  5
219
330
1B4
100
AcDbEntity
  8
Layer0
  6
AUSGEZOGEN
 62
     9
370
    18
100
AcDbLine
 10
479.899027317439
 20
121.280777196964
 30
0.0
 11
481.047976176659
 21
119.290727445721
 31
0.0
  0
LINE
  5
21A
330
1B4
100
AcDbEntity
  8
Layer0
  6
AUSGEZOGEN
 62
     9
370
    18
100
AcDbLine
 10
483.345889077973
 20
119.290727445721
 30
0.0
 11
484.494845528629
 21
121.280777196964
 31
0.0
  0
LINE
  5
21B
330
1B4
100
AcDbEntity
  8
Layer0
  6
AUSGEZOGEN
 62
     9
370
    18
100
AcDbLine
 10
484.494845528629
 20
121.280777196964
 30
0.0
 11
483.345889077973
 21
123.270826948208
 31
0.0
  0
LINE
  5
21C
330
1B4
100
AcDbEntity
  8
Layer0
  6
AUSGEZOGEN
 62
     9
370
    18
100
AcDbLine
 10
483.345889077973
 20
123.270826948208
 30
0.0
 11
481.047976176659
 21
123.270826948208
 31
0.0
  0
LINE
  5
21D
330
1B4
100
AcDbEntity
  8
Stammform
  6
AUSGEZOGEN
 62
    56
370
    18
100
AcDbLine
 10
481.047976176659
 20
123.270826948208
 30
0.0
 11
482.196932627316
 21
121.280777196964
 31
0.0
  0
LINE
  5
21E
330
1B4
100
AcDbEntity
  8
Stammform
  6
AUSGEZOGEN
 62
    56
370
    18
100
AcDbLine
 10
482.196932627316
 20
121.280777196964
 30
0.0
 11
484.494845528629
 21
121.280777196964
 31
0.0
  0
LINE
  5
21F
330
1B4
100
AcDbEntity
  8
Stammform
  6
AUSGEZOGEN
 62
    56
370
    18
100
AcDbLine
 10
482.196932627316
 20
121.280777196964
 30
0.0
 11
481.047976176659
 21
119.290727445721
 31
0.0
  0
LINE
  5
220
330
1B4
100
AcDbEntity
  8
Stammform
  6
AUSGEZOGEN
 62
    56
370
    18
100
AcDbLine
 10
482.196932627316
 20
125.260869108015
 30
0.0
 11
481.047976176659
 21
123.270826948208
 31
0.0
  0
LINE
  5
221
330
1B4
100
AcDbEntity
  8
Stammform
  6
AUSGEZOGEN
 62
    56
370
    18
100
AcDbLine
 10
482.196932627316
 20
125.260869108015
 30
0.0
 11
484.494845528629
 21
125.260869108015
 31
0.0
  0
LINE
  5
222
330
1B4
100
AcDbEntity
  8
Stammform
  6
AUSGEZOGEN
 62
    56
370
    18
100
AcDbLine
 10
481.047976176659
 20
127.250918859258
 30
0.0
 11
482.196932627316
 21
125.260869108015
 31
0.0
  0
LINE
  5
223
330
1B4
100
AcDbEntity
  8
Layer0
  6
AUSGEZOGEN
 62
     9
370
    18
100
AcDbLine
 10
481.047976176659
 20
127.250918859258
 30
0.0
 11
479.899027317439
 21
125.260869108015
 31
0.0
  0
LINE
  5
224
330
1B4
100
AcDbEntity
  8
Layer0
  6
AUSGEZOGEN
 62
     9
370
    18
100
AcDbLine
 10
479.899027317439
 20
125.260869108015
 30
0.0
 11
481.047976176659
 21
123.270826948208
 31
0.0
  0
LINE
  5
225
330
1B4
100
AcDbEntity
  8
Layer0
  6
AUSGEZOGEN
 62
     9
370
    18
100
AcDbLine
 10
481.047976176659
 20
123.270826948208
 30
0.0
 11
483.345889077973
 21
123.270826948208
 31
0.0
  0
LINE
  5
226
330
1B4
100
AcDbEntity
  8
Layer0
  6
AUSGEZOGEN
 62
     9
370
    18
100
AcDbLine
 10
483.345889077973
 20
123.270826948208
 30
0.0
 11
484.494845528629
 21
125.260869108015
 31
0.0
  0
LINE
  5
227
330
1B4
100
AcDbEntity
  8
Layer0
  6
AUSGEZOGEN
 62
     9
370
    18
100
AcDbLine
 10
484.494845528629
 20
125.260869108015
 30
0.0
 11
483.345889077973
 21
127.250918859258
 31
0.0
  0
LINE
  5
228
330
1B4
100
AcDbEntity
  8
Layer0
  6
AUSGEZOGEN
 62
     9
370
    18
100
AcDbLine
 10
483.345889077973
 20
127.250918859258
 30
0.0
 11
481.047976176659
 21
127.250918859258
 31
0.0
  0
LINE
  5
229
330
1B4
100
AcDbEntity
  8
Layer0
  6
AUSGEZOGEN
 62
     9
370
    18
100
AcDbLine
 10
481.047976176659
 20
135.211125455671
 30
0.0
 11
479.899027317439
 21
133.22106811299
 31
0.0
  0
LINE
  5
22A
330
1B4
100
AcDbEntity
  8
Layer0
  6
AUSGEZOGEN
 62
     9
370
    18
100
AcDbLine
 10
479.899027317439
 20
133.22106811299
 30
0.0
 11
481.047976176659
 21
131.231018361746
 31
0.0
  0
LINE
  5
22B
330
1B4
100
AcDbEntity
  8
Layer0
  6
AUSGEZOGEN
 62
     9
370
    18
100
AcDbLine
 10
481.047976176659
 20
131.231018361746
 30
0.0
 11
483.345889077973
 21
131.231018361746
 31
0.0
  0
LINE
  5
22C
330
1B4
100
AcDbEntity
  8
Layer0
  6
AUSGEZOGEN
 62
     9
370
    18
100
AcDbLine
 10
483.345889077973
 20
131.231018361746
 30
0.0
 11
484.494845528629
 21
133.22106811299
 31
0.0
  0
LINE
  5
22D
330
1B4
100
AcDbEntity
  8
Layer0
  6
AUSGEZOGEN
 62
     9
370
    18
100
AcDbLine
 10
484.494845528629
 20
133.22106811299
 30
0.0
 11
483.345889077973
 21
135.211125455671
 31
0.0
  0
LINE
  5
22E
330
1B4
100
AcDbEntity
  8
Layer0
  6
AUSGEZOGEN
 62
     9
370
    18
100
AcDbLine
 10
483.345889077973
 20
135.211125455671
 30
0.0
 11
481.047976176659
 21
135.211125455671
 31
0.0
  0
LINE
  5
22F
330
1B4
100
AcDbEntity
  8
Stammform
  6
AUSGEZOGEN
 62
    56
370
    18
100
AcDbLine
 10
481.047976176659
 20
135.211125455671
 30
0.0
 11
482.196932627316
 21
133.22106811299
 31
0.0
  0
LINE
  5
230
330
1B4
100
AcDbEntity
  8
Stammform
  6
AUSGEZOGEN
 62
    56
370
    18
100
AcDbLine
 10
482.196932627316
 20
133.22106811299
 30
0.0
 11
484.494845528629
 21
133.22106811299
 31
0.0
  0
LINE
  5
231
330
1B4
100
AcDbEntity
  8
Stammform
  6
AUSGEZOGEN
 62
    56
370
    18
100
AcDbLine
 10
482.196932627316
 20
133.22106811299
 30
0.0
 11
481.047976176659
 21
131.231018361746
 31
0.0
  0
LINE
  5
232
330
1B4
100
AcDbEntity
  8
Stammform
  6
AUSGEZOGEN
 62
    56
370
    18
100
AcDbLine
 10
482.196932627316
 20
129.240968610502
 30
0.0
 11
481.047976176659
 21
127.250918859258
 31
0.0
  0
LINE
  5
233
330
1B4
100
AcDbEntity
  8
Stammform
  6
AUSGEZOGEN
 62
    56
370
    18
100
AcDbLine
 10
482.196932627316
 20
129.240968610502
 30
0.0
 11
484.494845528629
 21
129.240968610502
 31
0.0
  0
LINE
  5
234
330
1B4
100
AcDbEntity
  8
Stammform
  6
AUSGEZOGEN
 62
    56
370
    18
100
AcDbLine
 10
481.047976176659
 20
131.231018361746
 30
0.0
 11
482.196932627316
 21
129.240968610502
 31
0.0
  0
LINE
  5
235
330
1B4
100
AcDbEntity
  8
Layer0
  6
AUSGEZOGEN
 62
     9
370
    18
100
AcDbLine
 10
481.047976176659
 20
131.231018361746
 30
0.0
 11
479.899027317439
 21
129.240968610502
 31
0.0
  0
LINE
  5
236
330
1B4
100
AcDbEntity
  8
Layer0
  6
AUSGEZOGEN
 62
     9
370
    18
100
AcDbLine
 10
479.899027317439
 20
129.240968610502
 30
0.0
 11
481.047976176659
 21
127.250918859258
 31
0.0
  0
LINE
  5
237
330
1B4
100
AcDbEntity
  8
Layer0
  6
AUSGEZOGEN
 62
     9
370
    18
100
AcDbLine
 10
481.047976176659
 20
127.250918859258
 30
0.0
 11
483.345889077973
 21
127.250918859258
 31
0.0
  0
LINE
  5
238
330
1B4
100
AcDbEntity
  8
Layer0
  6
AUSGEZOGEN
 62
     9
370
    18
100
AcDbLine
 10
483.345889077973
 20
127.250918859258
 30
0.0
 11
484.494845528629
 21
129.240968610502
 31
0.0
  0
LINE
  5
239
330
1B4
100
AcDbEntity
  8
Layer0
  6
AUSGEZOGEN
 62
     9
370
    18
100
AcDbLine
 10
484.494845528629
 20
129.240968610502
 30
0.0
 11
483.345889077973
 21
131.231018361746
 31
0.0
  0
LINE
  5
23A
330
1B4
100
AcDbEntity
  8
Layer0
  6
AUSGEZOGEN
 62
     9
370
    18
100
AcDbLine
 10
483.345889077973
 20
131.231018361746
 30
0.0
 11
481.047976176659
 21
131.231018361746
 31
0.0
  0
LINE
  5
23B
330
1B4
100
AcDbEntity
  8
Layer0
  6
AUSGEZOGEN
 62
     9
370
    18
100
AcDbLine
 10
481.047976176659
 20
143.171324460646
 30
0.0
 11
479.899027317439
 21
141.181274709402
 31
0.0
  0
LINE
  5
23C
330
1B4
100
AcDbEntity
  8
Layer0
  6
AUSGEZOGEN
 62
     9
370
    18
100
AcDbLine
 10
479.899027317439
 20
141.181274709402
 30
0.0
 11
481.047976176659
 21
139.191224958159
 31
0.0
  0
LINE
  5
23D
330
1B4
100
AcDbEntity
  8
Layer0
  6
AUSGEZOGEN
 62
     9
370
    18
100
AcDbLine
 10
481.047976176659
 20
139.191224958159
 30
0.0
 11
483.345889077973
 21
139.191224958159
 31
0.0
  0
LINE
  5
23E
330
1B4
100
AcDbEntity
  8
Layer0
  6
AUSGEZOGEN
 62
     9
370
    18
100
AcDbLine
 10
483.345889077973
 20
139.191224958159
 30
0.0
 11
484.494845528629
 21
141.181274709402
 31
0.0
  0
LINE
  5
23F
330
1B4
100
AcDbEntity
  8
Layer0
  6
AUSGEZOGEN
 62
     9
370
    18
100
AcDbLine
 10
484.494845528629
 20
141.181274709402
 30
0.0
 11
483.345889077973
 21
143.171324460646
 31
0.0
  0
LINE
  5
240
330
1B4
100
AcDbEntity
  8
Layer0
  6
AUSGEZOGEN
 62
     9
370
    18
100
AcDbLine
 10
483.345889077973
 20
143.171324460646
 30
0.0
 11
481.047976176659
 21
143.171324460646
 31
0.0
  0
LINE
  5
241
330
1B4
100
AcDbEntity
  8
Stammform
  6
AUSGEZOGEN
 62
    56
370
    18
100
AcDbLine
 10
481.047976176659
 20
143.171324460646
 30
0.0
 11
482.196932627316
 21
141.181274709402
 31
0.0
  0
LINE
  5
242
330
1B4
100
AcDbEntity
  8
Stammform
  6
AUSGEZOGEN
 62
    56
370
    18
100
AcDbLine
 10
482.196932627316
 20
141.181274709402
 30
0.0
 11
484.494845528629
 21
141.181274709402
 31
0.0
  0
LINE
  5
243
330
1B4
100
AcDbEntity
  8
Stammform
  6
AUSGEZOGEN
 62
    56
370
    18
100
AcDbLine
 10
482.196932627316
 20
141.181274709402
 30
0.0
 11
481.047976176659
 21
139.191224958159
 31
0.0
  0
LINE
  5
244
330
1B4
100
AcDbEntity
  8
Stammform
  6
AUSGEZOGEN
 62
    56
370
    18
100
AcDbLine
 10
482.196932627316
 20
137.201175206915
 30
0.0
 11
481.047976176659
 21
135.211125455671
 31
0.0
  0
LINE
  5
245
330
1B4
100
AcDbEntity
  8
Stammform
  6
AUSGEZOGEN
 62
    56
370
    18
100
AcDbLine
 10
482.196932627316
 20
137.201175206915
 30
0.0
 11
484.494845528629
 21
137.201175206915
 31
0.0
  0
LINE
  5
246
330
1B4
100
AcDbEntity
  8
Stammform
  6
AUSGEZOGEN
 62
    56
370
    18
100
AcDbLine
 10
481.047976176659
 20
139.191224958159
 30
0.0
 11
482.196932627316
 21
137.201175206915
 31
0.0
  0
LINE
  5
247
330
1B4
100
AcDbEntity
  8
Layer0
  6
AUSGEZOGEN
 62
     9
370
    18
100
AcDbLine
 10
481.047976176659
 20
139.191224958159
 30
0.0
 11
479.899027317439
 21
137.201175206915
 31
0.0
  0
LINE
  5
248
330
1B4
100
AcDbEntity
  8
Layer0
  6
AUSGEZOGEN
 62
     9
370
    18
100
AcDbLine
 10
479.899027317439
 20
137.201175206915
 30
0.0
 11
481.047976176659
 21
135.211125455671
 31
0.0
  0
LINE
  5
249
330
1B4
100
AcDbEntity
  8
Layer0
  6
AUSGEZOGEN
 62
     9
370
    18
100
AcDbLine
 10
481.047976176659
 20
135.211125455671
 30
0.0
 11
483.345889077973
 21
135.211125455671
 31
0.0
  0
LINE
  5
24A
330
1B4
100
AcDbEntity
  8
Layer0
  6
AUSGEZOGEN
 62
     9
370
    18
100
AcDbLine
 10
483.345889077973
 20
135.211125455671
 30
0.0
 11
484.494845528629
 21
137.201175206915
 31
0.0
  0
LINE
  5
24B
330
1B4
100
AcDbEntity
  8
Layer0
  6
AUSGEZOGEN
 62
     9
370
    18
100
AcDbLine
 10
484.494845528629
 20
137.201175206915
 30
0.0
 11
483.345889077973
 21
139.191224958159
 31
0.0
  0
LINE
  5
24C
330
1B4
100
AcDbEntity
  8
Layer0
  6
AUSGEZOGEN
 62
     9
370
    18
100
AcDbLine
 10
483.345889077973
 20
139.191224958159
 30
0.0
 11
481.047976176659
 21
139.191224958159
 31
0.0
  0
LINE
  5
24D
330
1B4
100
AcDbEntity
  8
Layer0
  6
AUSGEZOGEN
 62
     9
370
    18
100
AcDbLine
 10
481.047976176659
 20
151.131523465621
 30
0.0
 11
479.899027317439
 21
149.141473714377
 31
0.0
  0
LINE
  5
24E
330
1B4
100
AcDbEntity
  8
Layer0
  6
AUSGEZOGEN
 62
     9
370
    18
100
AcDbLine
 10
479.899027317439
 20
149.141473714377
 30
0.0
 11
481.047976176659
 21
147.151423963134
 31
0.0
  0
LINE
  5
24F
330
1B4
100
AcDbEntity
  8
Layer0
  6
AUSGEZOGEN
 62
     9
370
    18
100
AcDbLine
 10
481.047976176659
 20
147.151423963134
 30
0.0
 11
483.345889077973
 21
147.151423963134
 31
0.0
  0
LINE
  5
250
330
1B4
100
AcDbEntity
  8
Layer0
  6
AUSGEZOGEN
 62
     9
370
    18
100
AcDbLine
 10
483.345889077973
 20
147.151423963134
 30
0.0
 11
484.494845528629
 21
149.141473714377
 31
0.0
  0
LINE
  5
251
330
1B4
100
AcDbEntity
  8
Layer0
  6
AUSGEZOGEN
 62
     9
370
    18
100
AcDbLine
 10
484.494845528629
 20
149.141473714377
 30
0.0
 11
483.345889077973
 21
151.131523465621
 31
0.0
  0
LINE
  5
252
330
1B4
100
AcDbEntity
  8
Layer0
  6
AUSGEZOGEN
 62
     9
370
    18
100
AcDbLine
 10
483.345889077973
 20
151.131523465621
 30
0.0
 11
481.047976176659
 21
151.131523465621
 31
0.0
  0
LINE
  5
253
330
1B4
100
AcDbEntity
  8
Stammform
  6
AUSGEZOGEN
 62
    56
370
    18
100
AcDbLine
 10
481.047976176659
 20
151.131523465621
 30
0.0
 11
482.196932627316
 21
149.141473714377
 31
0.0
  0
LINE
  5
254
330
1B4
100
AcDbEntity
  8
Stammform
  6
AUSGEZOGEN
 62
    56
370
    18
100
AcDbLine
 10
482.196932627316
 20
149.141473714377
 30
0.0
 11
484.494845528629
 21
149.141473714377
 31
0.0
  0
LINE
  5
255
330
1B4
100
AcDbEntity
  8
Stammform
  6
AUSGEZOGEN
 62
    56
370
    18
100
AcDbLine
 10
482.196932627316
 20
149.141473714377
 30
0.0
 11
481.047976176659
 21
147.151423963134
 31
0.0
  0
LINE
  5
256
330
1B4
100
AcDbEntity
  8
Stammform
  6
AUSGEZOGEN
 62
    56
370
    18
100
AcDbLine
 10
482.196932627316
 20
145.16137421189
 30
0.0
 11
481.047976176659
 21
143.171324460646
 31
0.0
  0
LINE
  5
257
330
1B4
100
AcDbEntity
  8
Stammform
  6
AUSGEZOGEN
 62
    56
370
    18
100
AcDbLine
 10
482.196932627316
 20
145.16137421189
 30
0.0
 11
484.494845528629
 21
145.16137421189
 31
0.0
  0
LINE
  5
258
330
1B4
100
AcDbEntity
  8
Stammform
  6
AUSGEZOGEN
 62
    56
370
    18
100
AcDbLine
 10
481.047976176659
 20
147.151423963134
 30
0.0
 11
482.196932627316
 21
145.16137421189
 31
0.0
  0
LINE
  5
259
330
1B4
100
AcDbEntity
  8
Layer0
  6
AUSGEZOGEN
 62
     9
370
    18
100
AcDbLine
 10
481.047976176659
 20
147.151423963134
 30
0.0
 11
479.899027317439
 21
145.16137421189
 31
0.0
  0
LINE
  5
25A
330
1B4
100
AcDbEntity
  8
Layer0
  6
AUSGEZOGEN
 62
     9
370
    18
100
AcDbLine
 10
479.899027317439
 20
145.16137421189
 30
0.0
 11
481.047976176659
 21
143.171324460646
 31
0.0
  0
LINE
  5
25B
330
1B4
100
AcDbEntity
  8
Layer0
  6
AUSGEZOGEN
 62
     9
370
    18
100
AcDbLine
 10
481.047976176659
 20
143.171324460646
 30
0.0
 11
483.345889077973
 21
143.171324460646
 31
0.0
  0
LINE
  5
25C
330
1B4
100
AcDbEntity
  8
Layer0
  6
AUSGEZOGEN
 62
     9
370
    18
100
AcDbLine
 10
483.345889077973
 20
143.171324460646
 30
0.0
 11
484.494845528629
 21
145.16137421189
 31
0.0
  0
LINE
  5
25D
330
1B4
100
AcDbEntity
  8
Layer0
  6
AUSGEZOGEN
 62
     9
370
    18
100
AcDbLine
 10
484.494845528629
 20
145.16137421189
 30
0.0
 11
483.345889077973
 21
147.151423963134
 31
0.0
  0
LINE
  5
25E
330
1B4
100
AcDbEntity
  8
Layer0
  6
AUSGEZOGEN
 62
     9
370
    18
100
AcDbLine
 10
483.345889077973
 20
147.151423963134
 30
0.0
 11
481.047976176659
 21
147.151423963134
 31
0.0
  0
LINE
  5
25F
330
1B4
100
AcDbEntity
  8
Layer0
  6
AUSGEZOGEN
 62
     9
370
    18
100
AcDbLine
 10
481.047976176659
 20
159.091722470596
 30
0.0
 11
479.899027317439
 21
157.101672719353
 31
0.0
  0
LINE
  5
260
330
1B4
100
AcDbEntity
  8
Layer0
  6
AUSGEZOGEN
 62
     9
370
    18
100
AcDbLine
 10
479.899027317439
 20
157.101672719353
 30
0.0
 11
481.047976176659
 21
155.111622968109
 31
0.0
  0
LINE
  5
261
330
1B4
100
AcDbEntity
  8
Layer0
  6
AUSGEZOGEN
 62
     9
370
    18
100
AcDbLine
 10
481.047976176659
 20
155.111622968109
 30
0.0
 11
483.345889077973
 21
155.111622968109
 31
0.0
  0
LINE
  5
262
330
1B4
100
AcDbEntity
  8
Layer0
  6
AUSGEZOGEN
 62
     9
370
    18
100
AcDbLine
 10
483.345889077973
 20
155.111622968109
 30
0.0
 11
484.494845528629
 21
157.101672719353
 31
0.0
  0
LINE
  5
263
330
1B4
100
AcDbEntity
  8
Layer0
  6
AUSGEZOGEN
 62
     9
370
    18
100
AcDbLine
 10
484.494845528629
 20
157.101672719353
 30
0.0
 11
483.345889077973
 21
159.091722470596
 31
0.0
  0
LINE
  5
264
330
1B4
100
AcDbEntity
  8
Layer0
  6
AUSGEZOGEN
 62
     9
370
    18
100
AcDbLine
 10
483.345889077973
 20
159.091722470596
 30
0.0
 11
481.047976176659
 21
159.091722470596
 31
0.0
  0
LINE
  5
265
330
1B4
100
AcDbEntity
  8
Stammform
  6
AUSGEZOGEN
 62
    56
370
    18
100
AcDbLine
 10
481.047976176659
 20
159.091722470596
 30
0.0
 11
482.196932627316
 21
157.101672719353
 31
0.0
  0
LINE
  5
266
330
1B4
100
AcDbEntity
  8
Stammform
  6
AUSGEZOGEN
 62
    56
370
    18
100
AcDbLine
 10
482.196932627316
 20
157.101672719353
 30
0.0
 11
484.494845528629
 21
157.101672719353
 31
0.0
  0
LINE
  5
267
330
1B4
100
AcDbEntity
  8
Stammform
  6
AUSGEZOGEN
 62
    56
370
    18
100
AcDbLine
 10
482.196932627316
 20
157.101672719353
 30
0.0
 11
481.047976176659
 21
155.111622968109
 31
0.0
  0
LINE
  5
268
330
1B4
100
AcDbEntity
  8
Stammform
  6
AUSGEZOGEN
 62
    56
370
    18
100
AcDbLine
 10
482.196932627316
 20
153.121573216865
 30
0.0
 11
481.047976176659
 21
151.131523465621
 31
0.0
  0
LINE
  5
269
330
1B4
100
AcDbEntity
  8
Stammform
  6
AUSGEZOGEN
 62
    56
370
    18
100
AcDbLine
 10
482.196932627316
 20
153.121573216865
 30
0.0
 11
484.494845528629
 21
153.121573216865
 31
0.0
  0
LINE
  5
26A
330
1B4
100
AcDbEntity
  8
Stammform
  6
AUSGEZOGEN
 62
    56
370
    18
100
AcDbLine
 10
481.047976176659
 20
155.111622968109
 30
0.0
 11
482.196932627316
 21
153.121573216865
 31
0.0
  0
LINE
  5
26B
330
1B4
100
AcDbEntity
  8
Layer0
  6
AUSGEZOGEN
 62
     9
370
    18
100
AcDbLine
 10
481.047976176659
 20
155.111622968109
 30
0.0
 11
479.899027317439
 21
153.121573216865
 31
0.0
  0
LINE
  5
26C
330
1B4
100
AcDbEntity
  8
Layer0
  6
AUSGEZOGEN
 62
     9
370
    18
100
AcDbLine
 10
479.899027317439
 20
153.121573216865
 30
0.0
 11
481.047976176659
 21
151.131523465621
 31
0.0
  0
LINE
  5
26D
330
1B4
100
AcDbEntity
  8
Layer0
  6
AUSGEZOGEN
 62
     9
370
    18
100
AcDbLine
 10
481.047976176659
 20
151.131523465621
 30
0.0
 11
483.345889077973
 21
151.131523465621
 31
0.0
  0
LINE
  5
26E
330
1B4
100
AcDbEntity
  8
Layer0
  6
AUSGEZOGEN
 62
     9
370
    18
100
AcDbLine
 10
483.345889077973
 20
151.131523465621
 30
0.0
 11
484.494845528629
 21
153.121573216865
 31
0.0
  0
LINE
  5
26F
330
1B4
100
AcDbEntity
  8
Layer0
  6
AUSGEZOGEN
 62
     9
370
    18
100
AcDbLine
 10
484.494845528629
 20
153.121573216865
 30
0.0
 11
483.345889077973
 21
155.111622968109
 31
0.0
  0
LINE
  5
270
330
1B4
100
AcDbEntity
  8
Layer0
  6
AUSGEZOGEN
 62
     9
370
    18
100
AcDbLine
 10
483.345889077973
 20
155.111622968109
 30
0.0
 11
481.047976176659
 21
155.111622968109
 31
0.0
  0
LINE
  5
271
330
1B4
100
AcDbEntity
  8
Layer0
  6
AUSGEZOGEN
 62
     9
370
    18
100
AcDbLine
 10
481.047976176659
 20
171.032020978059
 30
0.0
 11
479.899027317439
 21
169.041971226815
 31
0.0
  0
LINE
  5
272
330
1B4
100
AcDbEntity
  8
Layer0
  6
AUSGEZOGEN
 62
     9
370
    18
100
AcDbLine
 10
479.899027317439
 20
169.041971226815
 30
0.0
 11
481.047976176659
 21
167.051921475571
 31
0.0
  0
LINE
  5
273
330
1B4
100
AcDbEntity
  8
Layer0
  6
AUSGEZOGEN
 62
     9
370
    18
100
AcDbLine
 10
481.047976176659
 20
167.051921475571
 30
0.0
 11
483.345889077973
 21
167.051921475571
 31
0.0
  0
LINE
  5
274
330
1B4
100
AcDbEntity
  8
Layer0
  6
AUSGEZOGEN
 62
     9
370
    18
100
AcDbLine
 10
483.345889077973
 20
167.051921475571
 30
0.0
 11
484.494845528629
 21
169.041971226815
 31
0.0
  0
LINE
  5
275
330
1B4
100
AcDbEntity
  8
Layer0
  6
AUSGEZOGEN
 62
     9
370
    18
100
AcDbLine
 10
484.494845528629
 20
169.041971226815
 30
0.0
 11
483.345889077973
 21
171.032020978059
 31
0.0
  0
LINE
  5
276
330
1B4
100
AcDbEntity
  8
Layer0
  6
AUSGEZOGEN
 62
     9
370
    18
100
AcDbLine
 10
483.345889077973
 20
171.032020978059
 30
0.0
 11
481.047976176659
 21
171.032020978059
 31
0.0
  0
LINE
  5
277
330
1B4
100
AcDbEntity
  8
Stammform
  6
AUSGEZOGEN
 62
    56
370
    18
100
AcDbLine
 10
481.047976176659
 20
171.032020978059
 30
0.0
 11
482.196932627316
 21
169.041971226815
 31
0.0
  0
LINE
  5
278
330
1B4
100
AcDbEntity
  8
Stammform
  6
AUSGEZOGEN
 62
    56
370
    18
100
AcDbLine
 10
482.196932627316
 20
169.041971226815
 30
0.0
 11
484.494845528629
 21
169.041971226815
 31
0.0
  0
LINE
  5
279
330
1B4
100
AcDbEntity
  8
Stammform
  6
AUSGEZOGEN
 62
    56
370
    18
100
AcDbLine
 10
482.196932627316
 20
169.041971226815
 30
0.0
 11
481.047976176659
 21
167.051921475571
 31
0.0
  0
LINE
  5
27A
330
1B4
100
AcDbEntity
  8
Stammform
  6
AUSGEZOGEN
 62
    56
370
    18
100
AcDbLine
 10
482.196932627316
 20
173.022070729303
 30
0.0
 11
481.047976176659
 21
171.032020978059
 31
0.0
  0
LINE
  5
27B
330
1B4
100
AcDbEntity
  8
Stammform
  6
AUSGEZOGEN
 62
    56
370
    18
100
AcDbLine
 10
482.196932627316
 20
173.022070729303
 30
0.0
 11
484.494845528629
 21
173.022070729303
 31
0.0
  0
LINE
  5
27C
330
1B4
100
AcDbEntity
  8
Stammform
  6
AUSGEZOGEN
 62
    56
370
    18
100
AcDbLine
 10
481.047976176659
 20
175.012120480547
 30
0.0
 11
482.196932627316
 21
173.022070729303
 31
0.0
  0
LINE
  5
27D
330
1B4
100
AcDbEntity
  8
Layer0
  6
AUSGEZOGEN
 62
     9
370
    18
100
AcDbLine
 10
481.047976176659
 20
175.012120480547
 30
0.0
 11
479.899027317439
 21
173.022070729303
 31
0.0
  0
LINE
  5
27E
330
1B4
100
AcDbEntity
  8
Layer0
  6
AUSGEZOGEN
 62
     9
370
    18
100
AcDbLine
 10
479.899027317439
 20
173.022070729303
 30
0.0
 11
481.047976176659
 21
171.032020978059
 31
0.0
  0
LINE
  5
27F
330
1B4
100
AcDbEntity
  8
Layer0
  6
AUSGEZOGEN
 62
     9
370
    18
100
AcDbLine
 10
481.047976176659
 20
171.032020978059
 30
0.0
 11
483.345889077973
 21
171.032020978059
 31
0.0
  0
LINE
  5
280
330
1B4
100
AcDbEntity
  8
Layer0
  6
AUSGEZOGEN
 62
     9
370
    18
100
AcDbLine
 10
483.345889077973
 20
171.032020978059
 30
0.0
 11
484.494845528629
 21
173.022070729303
 31
0.0
  0
LINE
  5
281
330
1B4
100
AcDbEntity
  8
Layer0
  6
AUSGEZOGEN
 62
     9
370
    18
100
AcDbLine
 10
484.494845528629
 20
173.022070729303
 30
0.0
 11
483.345889077973
 21
175.012120480547
 31
0.0
  0
LINE
  5
282
330
1B4
100
AcDbEntity
  8
Layer0
  6
AUSGEZOGEN
 62
     9
370
    18
100
AcDbLine
 10
481.047976176659
 20
167.051921475571
 30
0.0
 11
479.899027317439
 21
165.061871724328
 31
0.0
  0
LINE
  5
283
330
1B4
100
AcDbEntity
  8
Layer0
  6
AUSGEZOGEN
 62
     9
370
    18
100
AcDbLine
 10
479.899027317439
 20
165.061871724328
 30
0.0
 11
481.047976176659
 21
163.071821973084
 31
0.0
  0
LINE
  5
284
330
1B4
100
AcDbEntity
  8
Layer0
  6
AUSGEZOGEN
 62
     9
370
    18
100
AcDbLine
 10
481.047976176659
 20
163.071821973084
 30
0.0
 11
483.345889077973
 21
163.071821973084
 31
0.0
  0
LINE
  5
285
330
1B4
100
AcDbEntity
  8
Layer0
  6
AUSGEZOGEN
 62
     9
370
    18
100
AcDbLine
 10
483.345889077973
 20
163.071821973084
 30
0.0
 11
484.494845528629
 21
165.061871724328
 31
0.0
  0
LINE
  5
286
330
1B4
100
AcDbEntity
  8
Layer0
  6
AUSGEZOGEN
 62
     9
370
    18
100
AcDbLine
 10
484.494845528629
 20
165.061871724328
 30
0.0
 11
483.345889077973
 21
167.051921475571
 31
0.0
  0
LINE
  5
287
330
1B4
100
AcDbEntity
  8
Layer0
  6
AUSGEZOGEN
 62
     9
370
    18
100
AcDbLine
 10
483.345889077973
 20
167.051921475571
 30
0.0
 11
481.047976176659
 21
167.051921475571
 31
0.0
  0
LINE
  5
288
330
1B4
100
AcDbEntity
  8
Stammform
  6
AUSGEZOGEN
 62
    56
370
    18
100
AcDbLine
 10
481.047976176659
 20
167.051921475571
 30
0.0
 11
482.196932627316
 21
165.061871724328
 31
0.0
  0
LINE
  5
289
330
1B4
100
AcDbEntity
  8
Stammform
  6
AUSGEZOGEN
 62
    56
370
    18
100
AcDbLine
 10
482.196932627316
 20
165.061871724328
 30
0.0
 11
484.494845528629
 21
165.061871724328
 31
0.0
  0
LINE
  5
28A
330
1B4
100
AcDbEntity
  8
Stammform
  6
AUSGEZOGEN
 62
    56
370
    18
100
AcDbLine
 10
482.196932627316
 20
165.061871724328
 30
0.0
 11
481.047976176659
 21
163.071821973084
 31
0.0
  0
LINE
  5
28B
330
1B4
100
AcDbEntity
  8
Stammform
  6
AUSGEZOGEN
 62
    56
370
    18
100
AcDbLine
 10
482.196932627316
 20
161.08177222184
 30
0.0
 11
481.047976176659
 21
159.091722470596
 31
0.0
  0
LINE
  5
28C
330
1B4
100
AcDbEntity
  8
Stammform
  6
AUSGEZOGEN
 62
    56
370
    18
100
AcDbLine
 10
482.196932627316
 20
161.08177222184
 30
0.0
 11
484.494845528629
 21
161.08177222184
 31
0.0
  0
LINE
  5
28D
330
1B4
100
AcDbEntity
  8
Stammform
  6
AUSGEZOGEN
 62
    56
370
    18
100
AcDbLine
 10
481.047976176659
 20
163.071821973084
 30
0.0
 11
482.196932627316
 21
161.08177222184
 31
0.0
  0
LINE
  5
28E
330
1B4
100
AcDbEntity
  8
Layer0
  6
AUSGEZOGEN
 62
     9
370
    18
100
AcDbLine
 10
481.047976176659
 20
163.071821973084
 30
0.0
 11
479.899027317439
 21
161.08177222184
 31
0.0
  0
LINE
  5
28F
330
1B4
100
AcDbEntity
  8
Layer0
  6
AUSGEZOGEN
 62
     9
370
    18
100
AcDbLine
 10
479.899027317439
 20
161.08177222184
 30
0.0
 11
481.047976176659
 21
159.091722470596
 31
0.0
  0
LINE
  5
290
330
1B4
100
AcDbEntity
  8
Layer0
  6
AUSGEZOGEN
 62
     9
370
    18
100
AcDbLine
 10
481.047976176659
 20
159.091722470596
 30
0.0
 11
483.345889077973
 21
159.091722470596
 31
0.0
  0
LINE
  5
291
330
1B4
100
AcDbEntity
  8
Layer0
  6
AUSGEZOGEN
 62
     9
370
    18
100
AcDbLine
 10
483.345889077973
 20
159.091722470596
 30
0.0
 11
484.494845528629
 21
161.08177222184
 31
0.0
  0
LINE
  5
292
330
1B4
100
AcDbEntity
  8
Layer0
  6
AUSGEZOGEN
 62
     9
370
    18
100
AcDbLine
 10
484.494845528629
 20
161.08177222184
 30
0.0
 11
483.345889077973
 21
163.071821973084
 31
0.0
  0
LINE
  5
293
330
1B4
100
AcDbEntity
  8
Layer0
  6
AUSGEZOGEN
 62
     9
370
    18
100
AcDbLine
 10
483.345889077973
 20
163.071821973084
 30
0.0
 11
481.047976176659
 21
163.071821973084
 31
0.0
  0
LINE
  5
294
330
1B4
100
AcDbEntity
  8
Layer0
  6
AUSGEZOGEN
 62
     9
370
    18
100
AcDbLine
 10
487.9417148806
 20
163.071821973084
 30
0.0
 11
486.792758429943
 21
161.08177222184
 31
0.0
  0
LINE
  5
295
330
1B4
100
AcDbEntity
  8
Layer0
  6
AUSGEZOGEN
 62
     9
370
    18
100
AcDbLine
 10
486.792758429943
 20
161.08177222184
 30
0.0
 11
487.9417148806
 21
159.091722470596
 31
0.0
  0
LINE
  5
296
330
1B4
100
AcDbEntity
  8
Layer0
  6
AUSGEZOGEN
 62
     9
370
    18
100
AcDbLine
 10
487.9417148806
 20
159.091722470596
 30
0.0
 11
490.239627781914
 21
159.091722470596
 31
0.0
  0
LINE
  5
297
330
1B4
100
AcDbEntity
  8
Layer0
  6
AUSGEZOGEN
 62
     9
370
    18
100
AcDbLine
 10
490.239627781914
 20
159.091722470596
 30
0.0
 11
491.388584232571
 21
161.08177222184
 31
0.0
  0
LINE
  5
298
330
1B4
100
AcDbEntity
  8
Layer0
  6
AUSGEZOGEN
 62
     9
370
    18
100
AcDbLine
 10
491.388584232571
 20
161.08177222184
 30
0.0
 11
490.239627781914
 21
163.071821973084
 31
0.0
  0
LINE
  5
299
330
1B4
100
AcDbEntity
  8
Layer0
  6
AUSGEZOGEN
 62
     9
370
    18
100
AcDbLine
 10
490.239627781914
 20
163.071821973084
 30
0.0
 11
487.9417148806
 21
163.071821973084
 31
0.0
  0
LINE
  5
29A
330
1B4
100
AcDbEntity
  8
Stammform
  6
AUSGEZOGEN
 62
    56
370
    18
100
AcDbLine
 10
487.9417148806
 20
163.071821973084
 30
0.0
 11
489.090671331257
 21
161.08177222184
 31
0.0
  0
LINE
  5
29B
330
1B4
100
AcDbEntity
  8
Stammform
  6
AUSGEZOGEN
 62
    56
370
    18
100
AcDbLine
 10
489.090671331257
 20
161.08177222184
 30
0.0
 11
491.388584232571
 21
161.08177222184
 31
0.0
  0
LINE
  5
29C
330
1B4
100
AcDbEntity
  8
Stammform
  6
AUSGEZOGEN
 62
    56
370
    18
100
AcDbLine
 10
489.090671331257
 20
161.08177222184
 30
0.0
 11
487.9417148806
 21
159.091722470596
 31
0.0
  0
LINE
  5
29D
330
1B4
100
AcDbEntity
  8
Stammform
  6
AUSGEZOGEN
 62
    56
370
    18
100
AcDbLine
 10
489.090671331257
 20
165.061871724328
 30
0.0
 11
487.9417148806
 21
163.071821973084
 31
0.0
  0
LINE
  5
29E
330
1B4
100
AcDbEntity
  8
Stammform
  6
AUSGEZOGEN
 62
    56
370
    18
100
AcDbLine
 10
489.090671331257
 20
165.061871724328
 30
0.0
 11
491.388584232571
 21
165.061871724328
 31
0.0
  0
LINE
  5
29F
330
1B4
100
AcDbEntity
  8
Stammform
  6
AUSGEZOGEN
 62
    56
370
    18
100
AcDbLine
 10
487.9417148806
 20
167.051921475571
 30
0.0
 11
489.090671331257
 21
165.061871724328
 31
0.0
  0
LINE
  5
2A0
330
1B4
100
AcDbEntity
  8
Layer0
  6
AUSGEZOGEN
 62
     9
370
    18
100
AcDbLine
 10
487.9417148806
 20
167.051921475571
 30
0.0
 11
486.792758429943
 21
165.061871724328
 31
0.0
  0
LINE
  5
2A1
330
1B4
100
AcDbEntity
  8
Layer0
  6
AUSGEZOGEN
 62
     9
370
    18
100
AcDbLine
 10
486.792758429943
 20
165.061871724328
 30
0.0
 11
487.9417148806
 21
163.071821973084
 31
0.0
  0
LINE
  5
2A2
330
1B4
100
AcDbEntity
  8
Layer0
  6
AUSGEZOGEN
 62
     9
370
    18
100
AcDbLine
 10
487.9417148806
 20
163.071821973084
 30
0.0
 11
490.239627781914
 21
163.071821973084
 31
0.0
  0
LINE
  5
2A3
330
1B4
100
AcDbEntity
  8
Layer0
  6
AUSGEZOGEN
 62
     9
370
    18
100
AcDbLine
 10
490.239627781914
 20
163.071821973084
 30
0.0
 11
491.388584232571
 21
165.061871724328
 31
0.0
  0
LINE
  5
2A4
330
1B4
100
AcDbEntity
  8
Layer0
  6
AUSGEZOGEN
 62
     9
370
    18
100
AcDbLine
 10
491.388584232571
 20
165.061871724328
 30
0.0
 11
490.239627781914
 21
167.051921475571
 31
0.0
  0
LINE
  5
2A5
330
1B4
100
AcDbEntity
  8
Layer0
  6
AUSGEZOGEN
 62
     9
370
    18
100
AcDbLine
 10
490.239627781914
 20
167.051921475571
 30
0.0
 11
487.9417148806
 21
167.051921475571
 31
0.0
  0
LINE
  5
2A6
330
1B4
100
AcDbEntity
  8
Layer0
  6
AUSGEZOGEN
 62
     9
370
    18
100
AcDbLine
 10
487.9417148806
 20
175.012120480547
 30
0.0
 11
486.792758429943
 21
173.022070729303
 31
0.0
  0
LINE
  5
2A7
330
1B4
100
AcDbEntity
  8
Layer0
  6
AUSGEZOGEN
 62
     9
370
    18
100
AcDbLine
 10
486.792758429943
 20
173.022070729303
 30
0.0
 11
487.9417148806
 21
171.032020978059
 31
0.0
  0
LINE
  5
2A8
330
1B4
100
AcDbEntity
  8
Layer0
  6
AUSGEZOGEN
 62
     9
370
    18
100
AcDbLine
 10
487.9417148806
 20
171.032020978059
 30
0.0
 11
490.239627781914
 21
171.032020978059
 31
0.0
  0
LINE
  5
2A9
330
1B4
100
AcDbEntity
  8
Layer0
  6
AUSGEZOGEN
 62
     9
370
    18
100
AcDbLine
 10
490.239627781914
 20
171.032020978059
 30
0.0
 11
491.388584232571
 21
173.022070729303
 31
0.0
  0
LINE
  5
2AA
330
1B4
100
AcDbEntity
  8
Layer0
  6
AUSGEZOGEN
 62
     9
370
    18
100
AcDbLine
 10
491.388584232571
 20
173.022070729303
 30
0.0
 11
490.239627781914
 21
175.012120480547
 31
0.0
  0
LINE
  5
2AB
330
1B4
100
AcDbEntity
  8
Stammform
  6
AUSGEZOGEN
 62
    56
370
    18
100
AcDbLine
 10
487.9417148806
 20
175.012120480547
 30
0.0
 11
489.090671331257
 21
173.022070729303
 31
0.0
  0
LINE
  5
2AC
330
1B4
100
AcDbEntity
  8
Stammform
  6
AUSGEZOGEN
 62
    56
370
    18
100
AcDbLine
 10
489.090671331257
 20
173.022070729303
 30
0.0
 11
491.388584232571
 21
173.022070729303
 31
0.0
  0
LINE
  5
2AD
330
1B4
100
AcDbEntity
  8
Stammform
  6
AUSGEZOGEN
 62
    56
370
    18
100
AcDbLine
 10
489.090671331257
 20
173.022070729303
 30
0.0
 11
487.9417148806
 21
171.032020978059
 31
0.0
  0
LINE
  5
2AE
330
1B4
100
AcDbEntity
  8
Stammform
  6
AUSGEZOGEN
 62
    56
370
    18
100
AcDbLine
 10
489.090671331257
 20
169.041971226815
 30
0.0
 11
487.9417148806
 21
167.051921475571
 31
0.0
  0
LINE
  5
2AF
330
1B4
100
AcDbEntity
  8
Stammform
  6
AUSGEZOGEN
 62
    56
370
    18
100
AcDbLine
 10
489.090671331257
 20
169.041971226815
 30
0.0
 11
491.388584232571
 21
169.041971226815
 31
0.0
  0
LINE
  5
2B0
330
1B4
100
AcDbEntity
  8
Stammform
  6
AUSGEZOGEN
 62
    56
370
    18
100
AcDbLine
 10
487.9417148806
 20
171.032020978059
 30
0.0
 11
489.090671331257
 21
169.041971226815
 31
0.0
  0
LINE
  5
2B1
330
1B4
100
AcDbEntity
  8
Layer0
  6
AUSGEZOGEN
 62
     9
370
    18
100
AcDbLine
 10
487.9417148806
 20
171.032020978059
 30
0.0
 11
486.792758429943
 21
169.041971226815
 31
0.0
  0
LINE
  5
2B2
330
1B4
100
AcDbEntity
  8
Layer0
  6
AUSGEZOGEN
 62
     9
370
    18
100
AcDbLine
 10
486.792758429943
 20
169.041971226815
 30
0.0
 11
487.9417148806
 21
167.051921475571
 31
0.0
  0
LINE
  5
2B3
330
1B4
100
AcDbEntity
  8
Layer0
  6
AUSGEZOGEN
 62
     9
370
    18
100
AcDbLine
 10
487.9417148806
 20
167.051921475571
 30
0.0
 11
490.239627781914
 21
167.051921475571
 31
0.0
  0
LINE
  5
2B4
330
1B4
100
AcDbEntity
  8
Layer0
  6
AUSGEZOGEN
 62
     9
370
    18
100
AcDbLine
 10
490.239627781914
 20
167.051921475571
 30
0.0
 11
491.388584232571
 21
169.041971226815
 31
0.0
  0
LINE
  5
2B5
330
1B4
100
AcDbEntity
  8
Layer0
  6
AUSGEZOGEN
 62
     9
370
    18
100
AcDbLine
 10
491.388584232571
 20
169.041971226815
 30
0.0
 11
490.239627781914
 21
171.032020978059
 31
0.0
  0
LINE
  5
2B6
330
1B4
100
AcDbEntity
  8
Layer0
  6
AUSGEZOGEN
 62
     9
370
    18
100
AcDbLine
 10
490.239627781914
 20
171.032020978059
 30
0.0
 11
487.9417148806
 21
171.032020978059
 31
0.0
  0
LINE
  5
2B7
330
1B4
100
AcDbEntity
  8
Layer0
  6
AUSGEZOGEN
 62
     9
370
    18
100
AcDbLine
 10
487.9417148806
 20
155.111622968109
 30
0.0
 11
486.792758429943
 21
153.121573216865
 31
0.0
  0
LINE
  5
2B8
330
1B4
100
AcDbEntity
  8
Layer0
  6
AUSGEZOGEN
 62
     9
370
    18
100
AcDbLine
 10
486.792758429943
 20
153.121573216865
 30
0.0
 11
487.9417148806
 21
151.131523465621
 31
0.0
  0
LINE
  5
2B9
330
1B4
100
AcDbEntity
  8
Layer0
  6
AUSGEZOGEN
 62
     9
370
    18
100
AcDbLine
 10
487.9417148806
 20
151.131523465621
 30
0.0
 11
490.239627781914
 21
151.131523465621
 31
0.0
  0
LINE
  5
2BA
330
1B4
100
AcDbEntity
  8
Layer0
  6
AUSGEZOGEN
 62
     9
370
    18
100
AcDbLine
 10
490.239627781914
 20
151.131523465621
 30
0.0
 11
491.388584232571
 21
153.121573216865
 31
0.0
  0
LINE
  5
2BB
330
1B4
100
AcDbEntity
  8
Layer0
  6
AUSGEZOGEN
 62
     9
370
    18
100
AcDbLine
 10
491.388584232571
 20
153.121573216865
 30
0.0
 11
490.239627781914
 21
155.111622968109
 31
0.0
  0
LINE
  5
2BC
330
1B4
100
AcDbEntity
  8
Layer0
  6
AUSGEZOGEN
 62
     9
370
    18
100
AcDbLine
 10
490.239627781914
 20
155.111622968109
 30
0.0
 11
487.9417148806
 21
155.111622968109
 31
0.0
  0
LINE
  5
2BD
330
1B4
100
AcDbEntity
  8
Stammform
  6
AUSGEZOGEN
 62
    56
370
    18
100
AcDbLine
 10
487.9417148806
 20
155.111622968109
 30
0.0
 11
489.090671331257
 21
153.121573216865
 31
0.0
  0
LINE
  5
2BE
330
1B4
100
AcDbEntity
  8
Stammform
  6
AUSGEZOGEN
 62
    56
370
    18
100
AcDbLine
 10
489.090671331257
 20
153.121573216865
 30
0.0
 11
491.388584232571
 21
153.121573216865
 31
0.0
  0
LINE
  5
2BF
330
1B4
100
AcDbEntity
  8
Stammform
  6
AUSGEZOGEN
 62
    56
370
    18
100
AcDbLine
 10
489.090671331257
 20
153.121573216865
 30
0.0
 11
487.9417148806
 21
151.131523465621
 31
0.0
  0
LINE
  5
2C0
330
1B4
100
AcDbEntity
  8
Stammform
  6
AUSGEZOGEN
 62
    56
370
    18
100
AcDbLine
 10
489.090671331257
 20
157.101672719353
 30
0.0
 11
487.9417148806
 21
155.111622968109
 31
0.0
  0
LINE
  5
2C1
330
1B4
100
AcDbEntity
  8
Stammform
  6
AUSGEZOGEN
 62
    56
370
    18
100
AcDbLine
 10
489.090671331257
 20
157.101672719353
 30
0.0
 11
491.388584232571
 21
157.101672719353
 31
0.0
  0
LINE
  5
2C2
330
1B4
100
AcDbEntity
  8
Stammform
  6
AUSGEZOGEN
 62
    56
370
    18
100
AcDbLine
 10
487.9417148806
 20
159.091722470596
 30
0.0
 11
489.090671331257
 21
157.101672719353
 31
0.0
  0
LINE
  5
2C3
330
1B4
100
AcDbEntity
  8
Layer0
  6
AUSGEZOGEN
 62
     9
370
    18
100
AcDbLine
 10
487.9417148806
 20
159.091722470596
 30
0.0
 11
486.792758429943
 21
157.101672719353
 31
0.0
  0
LINE
  5
2C4
330
1B4
100
AcDbEntity
  8
Layer0
  6
AUSGEZOGEN
 62
     9
370
    18
100
AcDbLine
 10
486.792758429943
 20
157.101672719353
 30
0.0
 11
487.9417148806
 21
155.111622968109
 31
0.0
  0
LINE
  5
2C5
330
1B4
100
AcDbEntity
  8
Layer0
  6
AUSGEZOGEN
 62
     9
370
    18
100
AcDbLine
 10
487.9417148806
 20
155.111622968109
 30
0.0
 11
490.239627781914
 21
155.111622968109
 31
0.0
  0
LINE
  5
2C6
330
1B4
100
AcDbEntity
  8
Layer0
  6
AUSGEZOGEN
 62
     9
370
    18
100
AcDbLine
 10
490.239627781914
 20
155.111622968109
 30
0.0
 11
491.388584232571
 21
157.101672719353
 31
0.0
  0
LINE
  5
2C7
330
1B4
100
AcDbEntity
  8
Layer0
  6
AUSGEZOGEN
 62
     9
370
    18
100
AcDbLine
 10
491.388584232571
 20
157.101672719353
 30
0.0
 11
490.239627781914
 21
159.091722470596
 31
0.0
  0
LINE
  5
2C8
330
1B4
100
AcDbEntity
  8
Layer0
  6
AUSGEZOGEN
 62
     9
370
    18
100
AcDbLine
 10
490.239627781914
 20
159.091722470596
 30
0.0
 11
487.9417148806
 21
159.091722470596
 31
0.0
  0
LINE
  5
2C9
330
1B4
100
AcDbEntity
  8
Layer0
  6
AUSGEZOGEN
 62
     9
370
    18
100
AcDbLine
 10
487.9417148806
 20
147.151423963134
 30
0.0
 11
486.792758429943
 21
145.16137421189
 31
0.0
  0
LINE
  5
2CA
330
1B4
100
AcDbEntity
  8
Layer0
  6
AUSGEZOGEN
 62
     9
370
    18
100
AcDbLine
 10
486.792758429943
 20
145.16137421189
 30
0.0
 11
487.9417148806
 21
143.171324460646
 31
0.0
  0
LINE
  5
2CB
330
1B4
100
AcDbEntity
  8
Layer0
  6
AUSGEZOGEN
 62
     9
370
    18
100
AcDbLine
 10
487.9417148806
 20
143.171324460646
 30
0.0
 11
490.239627781914
 21
143.171324460646
 31
0.0
  0
LINE
  5
2CC
330
1B4
100
AcDbEntity
  8
Layer0
  6
AUSGEZOGEN
 62
     9
370
    18
100
AcDbLine
 10
490.239627781914
 20
143.171324460646
 30
0.0
 11
491.388584232571
 21
145.16137421189
 31
0.0
  0
LINE
  5
2CD
330
1B4
100
AcDbEntity
  8
Layer0
  6
AUSGEZOGEN
 62
     9
370
    18
100
AcDbLine
 10
491.388584232571
 20
145.16137421189
 30
0.0
 11
490.239627781914
 21
147.151423963134
 31
0.0
  0
LINE
  5
2CE
330
1B4
100
AcDbEntity
  8
Layer0
  6
AUSGEZOGEN
 62
     9
370
    18
100
AcDbLine
 10
490.239627781914
 20
147.151423963134
 30
0.0
 11
487.9417148806
 21
147.151423963134
 31
0.0
  0
LINE
  5
2CF
330
1B4
100
AcDbEntity
  8
Stammform
  6
AUSGEZOGEN
 62
    56
370
    18
100
AcDbLine
 10
487.9417148806
 20
147.151423963134
 30
0.0
 11
489.090671331257
 21
145.16137421189
 31
0.0
  0
LINE
  5
2D0
330
1B4
100
AcDbEntity
  8
Stammform
  6
AUSGEZOGEN
 62
    56
370
    18
100
AcDbLine
 10
489.090671331257
 20
145.16137421189
 30
0.0
 11
491.388584232571
 21
145.16137421189
 31
0.0
  0
LINE
  5
2D1
330
1B4
100
AcDbEntity
  8
Stammform
  6
AUSGEZOGEN
 62
    56
370
    18
100
AcDbLine
 10
489.090671331257
 20
145.16137421189
 30
0.0
 11
487.9417148806
 21
143.171324460646
 31
0.0
  0
LINE
  5
2D2
330
1B4
100
AcDbEntity
  8
Stammform
  6
AUSGEZOGEN
 62
    56
370
    18
100
AcDbLine
 10
489.090671331257
 20
149.141473714377
 30
0.0
 11
487.9417148806
 21
147.151423963134
 31
0.0
  0
LINE
  5
2D3
330
1B4
100
AcDbEntity
  8
Stammform
  6
AUSGEZOGEN
 62
    56
370
    18
100
AcDbLine
 10
489.090671331257
 20
149.141473714377
 30
0.0
 11
491.388584232571
 21
149.141473714377
 31
0.0
  0
LINE
  5
2D4
330
1B4
100
AcDbEntity
  8
Stammform
  6
AUSGEZOGEN
 62
    56
370
    18
100
AcDbLine
 10
487.9417148806
 20
151.131523465621
 30
0.0
 11
489.090671331257
 21
149.141473714377
 31
0.0
  0
LINE
  5
2D5
330
1B4
100
AcDbEntity
  8
Layer0
  6
AUSGEZOGEN
 62
     9
370
    18
100
AcDbLine
 10
487.9417148806
 20
151.131523465621
 30
0.0
 11
486.792758429943
 21
149.141473714377
 31
0.0
  0
LINE
  5
2D6
330
1B4
100
AcDbEntity
  8
Layer0
  6
AUSGEZOGEN
 62
     9
370
    18
100
AcDbLine
 10
486.792758429943
 20
149.141473714377
 30
0.0
 11
487.9417148806
 21
147.151423963134
 31
0.0
  0
LINE
  5
2D7
330
1B4
100
AcDbEntity
  8
Layer0
  6
AUSGEZOGEN
 62
     9
370
    18
100
AcDbLine
 10
487.9417148806
 20
147.151423963134
 30
0.0
 11
490.239627781914
 21
147.151423963134
 31
0.0
  0
LINE
  5
2D8
330
1B4
100
AcDbEntity
  8
Layer0
  6
AUSGEZOGEN
 62
     9
370
    18
100
AcDbLine
 10
490.239627781914
 20
147.151423963134
 30
0.0
 11
491.388584232571
 21
149.141473714377
 31
0.0
  0
LINE
  5
2D9
330
1B4
100
AcDbEntity
  8
Layer0
  6
AUSGEZOGEN
 62
     9
370
    18
100
AcDbLine
 10
491.388584232571
 20
149.141473714377
 30
0.0
 11
490.239627781914
 21
151.131523465621
 31
0.0
  0
LINE
  5
2DA
330
1B4
100
AcDbEntity
  8
Layer0
  6
AUSGEZOGEN
 62
     9
370
    18
100
AcDbLine
 10
490.239627781914
 20
151.131523465621
 30
0.0
 11
487.9417148806
 21
151.131523465621
 31
0.0
  0
LINE
  5
2DB
330
1B4
100
AcDbEntity
  8
Layer0
  6
AUSGEZOGEN
 62
     9
370
    18
100
AcDbLine
 10
487.9417148806
 20
139.191224958159
 30
0.0
 11
486.792758429943
 21
137.201175206915
 31
0.0
  0
LINE
  5
2DC
330
1B4
100
AcDbEntity
  8
Layer0
  6
AUSGEZOGEN
 62
     9
370
    18
100
AcDbLine
 10
486.792758429943
 20
137.201175206915
 30
0.0
 11
487.9417148806
 21
135.211125455671
 31
0.0
  0
LINE
  5
2DD
330
1B4
100
AcDbEntity
  8
Layer0
  6
AUSGEZOGEN
 62
     9
370
    18
100
AcDbLine
 10
487.9417148806
 20
135.211125455671
 30
0.0
 11
490.239627781914
 21
135.211125455671
 31
0.0
  0
LINE
  5
2DE
330
1B4
100
AcDbEntity
  8
Layer0
  6
AUSGEZOGEN
 62
     9
370
    18
100
AcDbLine
 10
490.239627781914
 20
135.211125455671
 30
0.0
 11
491.388584232571
 21
137.201175206915
 31
0.0
  0
LINE
  5
2DF
330
1B4
100
AcDbEntity
  8
Layer0
  6
AUSGEZOGEN
 62
     9
370
    18
100
AcDbLine
 10
491.388584232571
 20
137.201175206915
 30
0.0
 11
490.239627781914
 21
139.191224958159
 31
0.0
  0
LINE
  5
2E0
330
1B4
100
AcDbEntity
  8
Layer0
  6
AUSGEZOGEN
 62
     9
370
    18
100
AcDbLine
 10
490.239627781914
 20
139.191224958159
 30
0.0
 11
487.9417148806
 21
139.191224958159
 31
0.0
  0
LINE
  5
2E1
330
1B4
100
AcDbEntity
  8
Stammform
  6
AUSGEZOGEN
 62
    56
370
    18
100
AcDbLine
 10
487.9417148806
 20
139.191224958159
 30
0.0
 11
489.090671331257
 21
137.201175206915
 31
0.0
  0
LINE
  5
2E2
330
1B4
100
AcDbEntity
  8
Stammform
  6
AUSGEZOGEN
 62
    56
370
    18
100
AcDbLine
 10
489.090671331257
 20
137.201175206915
 30
0.0
 11
491.388584232571
 21
137.201175206915
 31
0.0
  0
LINE
  5
2E3
330
1B4
100
AcDbEntity
  8
Stammform
  6
AUSGEZOGEN
 62
    56
370
    18
100
AcDbLine
 10
489.090671331257
 20
137.201175206915
 30
0.0
 11
487.9417148806
 21
135.211125455671
 31
0.0
  0
LINE
  5
2E4
330
1B4
100
AcDbEntity
  8
Stammform
  6
AUSGEZOGEN
 62
    56
370
    18
100
AcDbLine
 10
489.090671331257
 20
141.181274709402
 30
0.0
 11
487.9417148806
 21
139.191224958159
 31
0.0
  0
LINE
  5
2E5
330
1B4
100
AcDbEntity
  8
Stammform
  6
AUSGEZOGEN
 62
    56
370
    18
100
AcDbLine
 10
489.090671331257
 20
141.181274709402
 30
0.0
 11
491.388584232571
 21
141.181274709402
 31
0.0
  0
LINE
  5
2E6
330
1B4
100
AcDbEntity
  8
Stammform
  6
AUSGEZOGEN
 62
    56
370
    18
100
AcDbLine
 10
487.9417148806
 20
143.171324460646
 30
0.0
 11
489.090671331257
 21
141.181274709402
 31
0.0
  0
LINE
  5
2E7
330
1B4
100
AcDbEntity
  8
Layer0
  6
AUSGEZOGEN
 62
     9
370
    18
100
AcDbLine
 10
487.9417148806
 20
143.171324460646
 30
0.0
 11
486.792758429943
 21
141.181274709402
 31
0.0
  0
LINE
  5
2E8
330
1B4
100
AcDbEntity
  8
Layer0
  6
AUSGEZOGEN
 62
     9
370
    18
100
AcDbLine
 10
486.792758429943
 20
141.181274709402
 30
0.0
 11
487.9417148806
 21
139.191224958159
 31
0.0
  0
LINE
  5
2E9
330
1B4
100
AcDbEntity
  8
Layer0
  6
AUSGEZOGEN
 62
     9
370
    18
100
AcDbLine
 10
487.9417148806
 20
139.191224958159
 30
0.0
 11
490.239627781914
 21
139.191224958159
 31
0.0
  0
LINE
  5
2EA
330
1B4
100
AcDbEntity
  8
Layer0
  6
AUSGEZOGEN
 62
     9
370
    18
100
AcDbLine
 10
490.239627781914
 20
139.191224958159
 30
0.0
 11
491.388584232571
 21
141.181274709402
 31
0.0
  0
LINE
  5
2EB
330
1B4
100
AcDbEntity
  8
Layer0
  6
AUSGEZOGEN
 62
     9
370
    18
100
AcDbLine
 10
491.388584232571
 20
141.181274709402
 30
0.0
 11
490.239627781914
 21
143.171324460646
 31
0.0
  0
LINE
  5
2EC
330
1B4
100
AcDbEntity
  8
Layer0
  6
AUSGEZOGEN
 62
     9
370
    18
100
AcDbLine
 10
490.239627781914
 20
143.171324460646
 30
0.0
 11
487.9417148806
 21
143.171324460646
 31
0.0
  0
LINE
  5
2ED
330
1B4
100
AcDbEntity
  8
Layer0
  6
AUSGEZOGEN
 62
     9
370
    18
100
AcDbLine
 10
487.9417148806
 20
131.231018361746
 30
0.0
 11
486.792758429943
 21
129.240968610502
 31
0.0
  0
LINE
  5
2EE
330
1B4
100
AcDbEntity
  8
Layer0
  6
AUSGEZOGEN
 62
     9
370
    18
100
AcDbLine
 10
486.792758429943
 20
129.240968610502
 30
0.0
 11
487.9417148806
 21
127.250918859258
 31
0.0
  0
LINE
  5
2EF
330
1B4
100
AcDbEntity
  8
Layer0
  6
AUSGEZOGEN
 62
     9
370
    18
100
AcDbLine
 10
487.9417148806
 20
127.250918859258
 30
0.0
 11
490.239627781914
 21
127.250918859258
 31
0.0
  0
LINE
  5
2F0
330
1B4
100
AcDbEntity
  8
Layer0
  6
AUSGEZOGEN
 62
     9
370
    18
100
AcDbLine
 10
490.239627781914
 20
127.250918859258
 30
0.0
 11
491.388584232571
 21
129.240968610502
 31
0.0
  0
LINE
  5
2F1
330
1B4
100
AcDbEntity
  8
Layer0
  6
AUSGEZOGEN
 62
     9
370
    18
100
AcDbLine
 10
491.388584232571
 20
129.240968610502
 30
0.0
 11
490.239627781914
 21
131.231018361746
 31
0.0
  0
LINE
  5
2F2
330
1B4
100
AcDbEntity
  8
Layer0
  6
AUSGEZOGEN
 62
     9
370
    18
100
AcDbLine
 10
490.239627781914
 20
131.231018361746
 30
0.0
 11
487.9417148806
 21
131.231018361746
 31
0.0
  0
LINE
  5
2F3
330
1B4
100
AcDbEntity
  8
Stammform
  6
AUSGEZOGEN
 62
    56
370
    18
100
AcDbLine
 10
487.9417148806
 20
131.231018361746
 30
0.0
 11
489.090671331257
 21
129.240968610502
 31
0.0
  0
LINE
  5
2F4
330
1B4
100
AcDbEntity
  8
Stammform
  6
AUSGEZOGEN
 62
    56
370
    18
100
AcDbLine
 10
489.090671331257
 20
129.240968610502
 30
0.0
 11
491.388584232571
 21
129.240968610502
 31
0.0
  0
LINE
  5
2F5
330
1B4
100
AcDbEntity
  8
Stammform
  6
AUSGEZOGEN
 62
    56
370
    18
100
AcDbLine
 10
489.090671331257
 20
129.240968610502
 30
0.0
 11
487.9417148806
 21
127.250918859258
 31
0.0
  0
LINE
  5
2F6
330
1B4
100
AcDbEntity
  8
Stammform
  6
AUSGEZOGEN
 62
    56
370
    18
100
AcDbLine
 10
489.090671331257
 20
133.22106811299
 30
0.0
 11
487.9417148806
 21
131.231018361746
 31
0.0
  0
LINE
  5
2F7
330
1B4
100
AcDbEntity
  8
Stammform
  6
AUSGEZOGEN
 62
    56
370
    18
100
AcDbLine
 10
489.090671331257
 20
133.22106811299
 30
0.0
 11
491.388584232571
 21
133.22106811299
 31
0.0
  0
LINE
  5
2F8
330
1B4
100
AcDbEntity
  8
Stammform
  6
AUSGEZOGEN
 62
    56
370
    18
100
AcDbLine
 10
487.9417148806
 20
135.211125455671
 30
0.0
 11
489.090671331257
 21
133.22106811299
 31
0.0
  0
LINE
  5
2F9
330
1B4
100
AcDbEntity
  8
Layer0
  6
AUSGEZOGEN
 62
     9
370
    18
100
AcDbLine
 10
487.9417148806
 20
135.211125455671
 30
0.0
 11
486.792758429943
 21
133.22106811299
 31
0.0
  0
LINE
  5
2FA
330
1B4
100
AcDbEntity
  8
Layer0
  6
AUSGEZOGEN
 62
     9
370
    18
100
AcDbLine
 10
486.792758429943
 20
133.22106811299
 30
0.0
 11
487.9417148806
 21
131.231018361746
 31
0.0
  0
LINE
  5
2FB
330
1B4
100
AcDbEntity
  8
Layer0
  6
AUSGEZOGEN
 62
     9
370
    18
100
AcDbLine
 10
487.9417148806
 20
131.231018361746
 30
0.0
 11
490.239627781914
 21
131.231018361746
 31
0.0
  0
LINE
  5
2FC
330
1B4
100
AcDbEntity
  8
Layer0
  6
AUSGEZOGEN
 62
     9
370
    18
100
AcDbLine
 10
490.239627781914
 20
131.231018361746
 30
0.0
 11
491.388584232571
 21
133.22106811299
 31
0.0
  0
LINE
  5
2FD
330
1B4
100
AcDbEntity
  8
Layer0
  6
AUSGEZOGEN
 62
     9
370
    18
100
AcDbLine
 10
491.388584232571
 20
133.22106811299
 30
0.0
 11
490.239627781914
 21
135.211125455671
 31
0.0
  0
LINE
  5
2FE
330
1B4
100
AcDbEntity
  8
Layer0
  6
AUSGEZOGEN
 62
     9
370
    18
100
AcDbLine
 10
490.239627781914
 20
135.211125455671
 30
0.0
 11
487.9417148806
 21
135.211125455671
 31
0.0
  0
LINE
  5
2FF
330
1B4
100
AcDbEntity
  8
Layer0
  6
AUSGEZOGEN
 62
     9
370
    18
100
AcDbLine
 10
487.9417148806
 20
127.250918859258
 30
0.0
 11
486.792758429943
 21
125.260869108015
 31
0.0
  0
LINE
  5
300
330
1B4
100
AcDbEntity
  8
Layer0
  6
AUSGEZOGEN
 62
     9
370
    18
100
AcDbLine
 10
486.792758429943
 20
125.260869108015
 30
0.0
 11
487.9417148806
 21
123.270826948208
 31
0.0
  0
LINE
  5
301
330
1B4
100
AcDbEntity
  8
Layer0
  6
AUSGEZOGEN
 62
     9
370
    18
100
AcDbLine
 10
487.9417148806
 20
123.270826948208
 30
0.0
 11
490.239627781914
 21
123.270826948208
 31
0.0
  0
LINE
  5
302
330
1B4
100
AcDbEntity
  8
Layer0
  6
AUSGEZOGEN
 62
     9
370
    18
100
AcDbLine
 10
490.239627781914
 20
123.270826948208
 30
0.0
 11
491.388584232571
 21
125.260869108015
 31
0.0
  0
LINE
  5
303
330
1B4
100
AcDbEntity
  8
Layer0
  6
AUSGEZOGEN
 62
     9
370
    18
100
AcDbLine
 10
491.388584232571
 20
125.260869108015
 30
0.0
 11
490.239627781914
 21
127.250918859258
 31
0.0
  0
LINE
  5
304
330
1B4
100
AcDbEntity
  8
Layer0
  6
AUSGEZOGEN
 62
     9
370
    18
100
AcDbLine
 10
490.239627781914
 20
127.250918859258
 30
0.0
 11
487.9417148806
 21
127.250918859258
 31
0.0
  0
LINE
  5
305
330
1B4
100
AcDbEntity
  8
Stammform
  6
AUSGEZOGEN
 62
    56
370
    18
100
AcDbLine
 10
487.9417148806
 20
127.250918859258
 30
0.0
 11
489.090671331257
 21
125.260869108015
 31
0.0
  0
LINE
  5
306
330
1B4
100
AcDbEntity
  8
Stammform
  6
AUSGEZOGEN
 62
    56
370
    18
100
AcDbLine
 10
489.090671331257
 20
125.260869108015
 30
0.0
 11
491.388584232571
 21
125.260869108015
 31
0.0
  0
LINE
  5
307
330
1B4
100
AcDbEntity
  8
Stammform
  6
AUSGEZOGEN
 62
    56
370
    18
100
AcDbLine
 10
489.090671331257
 20
125.260869108015
 30
0.0
 11
487.9417148806
 21
123.270826948208
 31
0.0
  0
LINE
  5
308
330
1B4
100
AcDbEntity
  8
Stammform
  6
AUSGEZOGEN
 62
    56
370
    18
100
AcDbLine
 10
489.090671331257
 20
121.280777196964
 30
0.0
 11
487.9417148806
 21
119.290727445721
 31
0.0
  0
LINE
  5
309
330
1B4
100
AcDbEntity
  8
Stammform
  6
AUSGEZOGEN
 62
    56
370
    18
100
AcDbLine
 10
489.090671331257
 20
121.280777196964
 30
0.0
 11
491.388584232571
 21
121.280777196964
 31
0.0
  0
LINE
  5
30A
330
1B4
100
AcDbEntity
  8
Stammform
  6
AUSGEZOGEN
 62
    56
370
    18
100
AcDbLine
 10
487.9417148806
 20
123.270826948208
 30
0.0
 11
489.090671331257
 21
121.280777196964
 31
0.0
  0
LINE
  5
30B
330
1B4
100
AcDbEntity
  8
Layer0
  6
AUSGEZOGEN
 62
     9
370
    18
100
AcDbLine
 10
487.9417148806
 20
123.270826948208
 30
0.0
 11
486.792758429943
 21
121.280777196964
 31
0.0
  0
LINE
  5
30C
330
1B4
100
AcDbEntity
  8
Layer0
  6
AUSGEZOGEN
 62
     9
370
    18
100
AcDbLine
 10
486.792758429943
 20
121.280777196964
 30
0.0
 11
487.9417148806
 21
119.290727445721
 31
0.0
  0
LINE
  5
30D
330
1B4
100
AcDbEntity
  8
Layer0
  6
AUSGEZOGEN
 62
     9
370
    18
100
AcDbLine
 10
490.239627781914
 20
119.290727445721
 30
0.0
 11
491.388584232571
 21
121.280777196964
 31
0.0
  0
LINE
  5
30E
330
1B4
100
AcDbEntity
  8
Layer0
  6
AUSGEZOGEN
 62
     9
370
    18
100
AcDbLine
 10
491.388584232571
 20
121.280777196964
 30
0.0
 11
490.239627781914
 21
123.270826948208
 31
0.0
  0
LINE
  5
30F
330
1B4
100
AcDbEntity
  8
Layer0
  6
AUSGEZOGEN
 62
     9
370
    18
100
AcDbLine
 10
490.239627781914
 20
123.270826948208
 30
0.0
 11
487.9417148806
 21
123.270826948208
 31
0.0
  0
LINE
  5
310
330
1B4
100
AcDbEntity
  8
Layer0
  6
AUSGEZOGEN
 62
     9
370
    18
100
AcDbLine
 10
484.494845528629
 20
121.280777196964
 30
0.0
 11
483.345889077973
 21
119.290727445721
 31
0.0
  0
LINE
  5
311
330
1B4
100
AcDbEntity
  8
Layer0
  6
AUSGEZOGEN
 62
     9
370
    18
100
AcDbLine
 10
487.9417148806
 20
119.290727445721
 30
0.0
 11
486.792758429943
 21
121.280777196964
 31
0.0
  0
LINE
  5
312
330
1B4
100
AcDbEntity
  8
Layer0
  6
AUSGEZOGEN
 62
     9
370
    18
100
AcDbLine
 10
486.792758429943
 20
121.280777196964
 30
0.0
 11
484.494845528629
 21
121.280777196964
 31
0.0
  0
LINE
  5
313
330
1B4
100
AcDbEntity
  8
Stammform
  6
AUSGEZOGEN
 62
    56
370
    18
100
AcDbLine
 10
484.494845528629
 20
121.280777196964
 30
0.0
 11
485.643801979286
 21
119.290727445721
 31
0.0
  0
LINE
  5
314
330
1B4
100
AcDbEntity
  8
Stammform
  6
AUSGEZOGEN
 62
    56
370
    18
100
AcDbLine
 10
485.643801979286
 20
123.270826948208
 30
0.0
 11
484.494845528629
 21
121.280777196964
 31
0.0
  0
LINE
  5
315
330
1B4
100
AcDbEntity
  8
Stammform
  6
AUSGEZOGEN
 62
    56
370
    18
100
AcDbLine
 10
485.643801979286
 20
123.270826948208
 30
0.0
 11
487.9417148806
 21
123.270826948208
 31
0.0
  0
LINE
  5
316
330
1B4
100
AcDbEntity
  8
Stammform
  6
AUSGEZOGEN
 62
    56
370
    18
100
AcDbLine
 10
484.494845528629
 20
125.260869108015
 30
0.0
 11
485.643801979286
 21
123.270826948208
 31
0.0
  0
LINE
  5
317
330
1B4
100
AcDbEntity
  8
Layer0
  6
AUSGEZOGEN
 62
     9
370
    18
100
AcDbLine
 10
484.494845528629
 20
125.260869108015
 30
0.0
 11
483.345889077973
 21
123.270826948208
 31
0.0
  0
LINE
  5
318
330
1B4
100
AcDbEntity
  8
Layer0
  6
AUSGEZOGEN
 62
     9
370
    18
100
AcDbLine
 10
483.345889077973
 20
123.270826948208
 30
0.0
 11
484.494845528629
 21
121.280777196964
 31
0.0
  0
LINE
  5
319
330
1B4
100
AcDbEntity
  8
Layer0
  6
AUSGEZOGEN
 62
     9
370
    18
100
AcDbLine
 10
484.494845528629
 20
121.280777196964
 30
0.0
 11
486.792758429943
 21
121.280777196964
 31
0.0
  0
LINE
  5
31A
330
1B4
100
AcDbEntity
  8
Layer0
  6
AUSGEZOGEN
 62
     9
370
    18
100
AcDbLine
 10
486.792758429943
 20
121.280777196964
 30
0.0
 11
487.9417148806
 21
123.270826948208
 31
0.0
  0
LINE
  5
31B
330
1B4
100
AcDbEntity
  8
Layer0
  6
AUSGEZOGEN
 62
     9
370
    18
100
AcDbLine
 10
487.9417148806
 20
123.270826948208
 30
0.0
 11
486.792758429943
 21
125.260869108015
 31
0.0
  0
LINE
  5
31C
330
1B4
100
AcDbEntity
  8
Layer0
  6
AUSGEZOGEN
 62
     9
370
    18
100
AcDbLine
 10
486.792758429943
 20
125.260869108015
 30
0.0
 11
484.494845528629
 21
125.260869108015
 31
0.0
  0
LINE
  5
31D
330
1B4
100
AcDbEntity
  8
Layer0
  6
AUSGEZOGEN
 62
     9
370
    18
100
AcDbLine
 10
484.494845528629
 20
133.22106811299
 30
0.0
 11
483.345889077973
 21
131.231018361746
 31
0.0
  0
LINE
  5
31E
330
1B4
100
AcDbEntity
  8
Layer0
  6
AUSGEZOGEN
 62
     9
370
    18
100
AcDbLine
 10
483.345889077973
 20
131.231018361746
 30
0.0
 11
484.494845528629
 21
129.240968610502
 31
0.0
  0
LINE
  5
31F
330
1B4
100
AcDbEntity
  8
Layer0
  6
AUSGEZOGEN
 62
     9
370
    18
100
AcDbLine
 10
484.494845528629
 20
129.240968610502
 30
0.0
 11
486.792758429943
 21
129.240968610502
 31
0.0
  0
LINE
  5
320
330
1B4
100
AcDbEntity
  8
Layer0
  6
AUSGEZOGEN
 62
     9
370
    18
100
AcDbLine
 10
486.792758429943
 20
129.240968610502
 30
0.0
 11
487.9417148806
 21
131.231018361746
 31
0.0
  0
LINE
  5
321
330
1B4
100
AcDbEntity
  8
Layer0
  6
AUSGEZOGEN
 62
     9
370
    18
100
AcDbLine
 10
487.9417148806
 20
131.231018361746
 30
0.0
 11
486.792758429943
 21
133.22106811299
 31
0.0
  0
LINE
  5
322
330
1B4
100
AcDbEntity
  8
Layer0
  6
AUSGEZOGEN
 62
     9
370
    18
100
AcDbLine
 10
486.792758429943
 20
133.22106811299
 30
0.0
 11
484.494845528629
 21
133.22106811299
 31
0.0
  0
LINE
  5
323
330
1B4
100
AcDbEntity
  8
Stammform
  6
AUSGEZOGEN
 62
    56
370
    18
100
AcDbLine
 10
484.494845528629
 20
133.22106811299
 30
0.0
 11
485.643801979286
 21
131.231018361746
 31
0.0
  0
LINE
  5
324
330
1B4
100
AcDbEntity
  8
Stammform
  6
AUSGEZOGEN
 62
    56
370
    18
100
AcDbLine
 10
485.643801979286
 20
131.231018361746
 30
0.0
 11
487.9417148806
 21
131.231018361746
 31
0.0
  0
LINE
  5
325
330
1B4
100
AcDbEntity
  8
Stammform
  6
AUSGEZOGEN
 62
    56
370
    18
100
AcDbLine
 10
485.643801979286
 20
131.231018361746
 30
0.0
 11
484.494845528629
 21
129.240968610502
 31
0.0
  0
LINE
  5
326
330
1B4
100
AcDbEntity
  8
Stammform
  6
AUSGEZOGEN
 62
    56
370
    18
100
AcDbLine
 10
485.643801979286
 20
127.250918859258
 30
0.0
 11
484.494845528629
 21
125.260869108015
 31
0.0
  0
LINE
  5
327
330
1B4
100
AcDbEntity
  8
Stammform
  6
AUSGEZOGEN
 62
    56
370
    18
100
AcDbLine
 10
485.643801979286
 20
127.250918859258
 30
0.0
 11
487.9417148806
 21
127.250918859258
 31
0.0
  0
LINE
  5
328
330
1B4
100
AcDbEntity
  8
Stammform
  6
AUSGEZOGEN
 62
    56
370
    18
100
AcDbLine
 10
484.494845528629
 20
129.240968610502
 30
0.0
 11
485.643801979286
 21
127.250918859258
 31
0.0
  0
LINE
  5
329
330
1B4
100
AcDbEntity
  8
Layer0
  6
AUSGEZOGEN
 62
     9
370
    18
100
AcDbLine
 10
484.494845528629
 20
129.240968610502
 30
0.0
 11
483.345889077973
 21
127.250918859258
 31
0.0
  0
LINE
  5
32A
330
1B4
100
AcDbEntity
  8
Layer0
  6
AUSGEZOGEN
 62
     9
370
    18
100
AcDbLine
 10
483.345889077973
 20
127.250918859258
 30
0.0
 11
484.494845528629
 21
125.260869108015
 31
0.0
  0
LINE
  5
32B
330
1B4
100
AcDbEntity
  8
Layer0
  6
AUSGEZOGEN
 62
     9
370
    18
100
AcDbLine
 10
484.494845528629
 20
125.260869108015
 30
0.0
 11
486.792758429943
 21
125.260869108015
 31
0.0
  0
LINE
  5
32C
330
1B4
100
AcDbEntity
  8
Layer0
  6
AUSGEZOGEN
 62
     9
370
    18
100
AcDbLine
 10
486.792758429943
 20
125.260869108015
 30
0.0
 11
487.9417148806
 21
127.250918859258
 31
0.0
  0
LINE
  5
32D
330
1B4
100
AcDbEntity
  8
Layer0
  6
AUSGEZOGEN
 62
     9
370
    18
100
AcDbLine
 10
487.9417148806
 20
127.250918859258
 30
0.0
 11
486.792758429943
 21
129.240968610502
 31
0.0
  0
LINE
  5
32E
330
1B4
100
AcDbEntity
  8
Layer0
  6
AUSGEZOGEN
 62
     9
370
    18
100
AcDbLine
 10
486.792758429943
 20
129.240968610502
 30
0.0
 11
484.494845528629
 21
129.240968610502
 31
0.0
  0
LINE
  5
32F
330
1B4
100
AcDbEntity
  8
Layer0
  6
AUSGEZOGEN
 62
     9
370
    18
100
AcDbLine
 10
484.494845528629
 20
141.181274709402
 30
0.0
 11
483.345889077973
 21
139.191224958159
 31
0.0
  0
LINE
  5
330
330
1B4
100
AcDbEntity
  8
Layer0
  6
AUSGEZOGEN
 62
     9
370
    18
100
AcDbLine
 10
483.345889077973
 20
139.191224958159
 30
0.0
 11
484.494845528629
 21
137.201175206915
 31
0.0
  0
LINE
  5
331
330
1B4
100
AcDbEntity
  8
Layer0
  6
AUSGEZOGEN
 62
     9
370
    18
100
AcDbLine
 10
484.494845528629
 20
137.201175206915
 30
0.0
 11
486.792758429943
 21
137.201175206915
 31
0.0
  0
LINE
  5
332
330
1B4
100
AcDbEntity
  8
Layer0
  6
AUSGEZOGEN
 62
     9
370
    18
100
AcDbLine
 10
486.792758429943
 20
137.201175206915
 30
0.0
 11
487.9417148806
 21
139.191224958159
 31
0.0
  0
LINE
  5
333
330
1B4
100
AcDbEntity
  8
Layer0
  6
AUSGEZOGEN
 62
     9
370
    18
100
AcDbLine
 10
487.9417148806
 20
139.191224958159
 30
0.0
 11
486.792758429943
 21
141.181274709402
 31
0.0
  0
LINE
  5
334
330
1B4
100
AcDbEntity
  8
Layer0
  6
AUSGEZOGEN
 62
     9
370
    18
100
AcDbLine
 10
486.792758429943
 20
141.181274709402
 30
0.0
 11
484.494845528629
 21
141.181274709402
 31
0.0
  0
LINE
  5
335
330
1B4
100
AcDbEntity
  8
Stammform
  6
AUSGEZOGEN
 62
    56
370
    18
100
AcDbLine
 10
484.494845528629
 20
141.181274709402
 30
0.0
 11
485.643801979286
 21
139.191224958159
 31
0.0
  0
LINE
  5
336
330
1B4
100
AcDbEntity
  8
Stammform
  6
AUSGEZOGEN
 62
    56
370
    18
100
AcDbLine
 10
485.643801979286
 20
139.191224958159
 30
0.0
 11
487.9417148806
 21
139.191224958159
 31
0.0
  0
LINE
  5
337
330
1B4
100
AcDbEntity
  8
Stammform
  6
AUSGEZOGEN
 62
    56
370
    18
100
AcDbLine
 10
485.643801979286
 20
139.191224958159
 30
0.0
 11
484.494845528629
 21
137.201175206915
 31
0.0
  0
LINE
  5
338
330
1B4
100
AcDbEntity
  8
Stammform
  6
AUSGEZOGEN
 62
    56
370
    18
100
AcDbLine
 10
485.643801979286
 20
135.211125455671
 30
0.0
 11
484.494845528629
 21
133.22106811299
 31
0.0
  0
LINE
  5
339
330
1B4
100
AcDbEntity
  8
Stammform
  6
AUSGEZOGEN
 62
    56
370
    18
100
AcDbLine
 10
485.643801979286
 20
135.211125455671
 30
0.0
 11
487.9417148806
 21
135.211125455671
 31
0.0
  0
LINE
  5
33A
330
1B4
100
AcDbEntity
  8
Stammform
  6
AUSGEZOGEN
 62
    56
370
    18
100
AcDbLine
 10
484.494845528629
 20
137.201175206915
 30
0.0
 11
485.643801979286
 21
135.211125455671
 31
0.0
  0
LINE
  5
33B
330
1B4
100
AcDbEntity
  8
Layer0
  6
AUSGEZOGEN
 62
     9
370
    18
100
AcDbLine
 10
484.494845528629
 20
137.201175206915
 30
0.0
 11
483.345889077973
 21
135.211125455671
 31
0.0
  0
LINE
  5
33C
330
1B4
100
AcDbEntity
  8
Layer0
  6
AUSGEZOGEN
 62
     9
370
    18
100
AcDbLine
 10
483.345889077973
 20
135.211125455671
 30
0.0
 11
484.494845528629
 21
133.22106811299
 31
0.0
  0
LINE
  5
33D
330
1B4
100
AcDbEntity
  8
Layer0
  6
AUSGEZOGEN
 62
     9
370
    18
100
AcDbLine
 10
484.494845528629
 20
133.22106811299
 30
0.0
 11
486.792758429943
 21
133.22106811299
 31
0.0
  0
LINE
  5
33E
330
1B4
100
AcDbEntity
  8
Layer0
  6
AUSGEZOGEN
 62
     9
370
    18
100
AcDbLine
 10
486.792758429943
 20
133.22106811299
 30
0.0
 11
487.9417148806
 21
135.211125455671
 31
0.0
  0
LINE
  5
33F
330
1B4
100
AcDbEntity
  8
Layer0
  6
AUSGEZOGEN
 62
     9
370
    18
100
AcDbLine
 10
487.9417148806
 20
135.211125455671
 30
0.0
 11
486.792758429943
 21
137.201175206915
 31
0.0
  0
LINE
  5
340
330
1B4
100
AcDbEntity
  8
Layer0
  6
AUSGEZOGEN
 62
     9
370
    18
100
AcDbLine
 10
486.792758429943
 20
137.201175206915
 30
0.0
 11
484.494845528629
 21
137.201175206915
 31
0.0
  0
LINE
  5
341
330
1B4
100
AcDbEntity
  8
Layer0
  6
AUSGEZOGEN
 62
     9
370
    18
100
AcDbLine
 10
484.494845528629
 20
149.141473714377
 30
0.0
 11
483.345889077973
 21
147.151423963134
 31
0.0
  0
LINE
  5
342
330
1B4
100
AcDbEntity
  8
Layer0
  6
AUSGEZOGEN
 62
     9
370
    18
100
AcDbLine
 10
483.345889077973
 20
147.151423963134
 30
0.0
 11
484.494845528629
 21
145.16137421189
 31
0.0
  0
LINE
  5
343
330
1B4
100
AcDbEntity
  8
Layer0
  6
AUSGEZOGEN
 62
     9
370
    18
100
AcDbLine
 10
484.494845528629
 20
145.16137421189
 30
0.0
 11
486.792758429943
 21
145.16137421189
 31
0.0
  0
LINE
  5
344
330
1B4
100
AcDbEntity
  8
Layer0
  6
AUSGEZOGEN
 62
     9
370
    18
100
AcDbLine
 10
486.792758429943
 20
145.16137421189
 30
0.0
 11
487.9417148806
 21
147.151423963134
 31
0.0
  0
LINE
  5
345
330
1B4
100
AcDbEntity
  8
Layer0
  6
AUSGEZOGEN
 62
     9
370
    18
100
AcDbLine
 10
487.9417148806
 20
147.151423963134
 30
0.0
 11
486.792758429943
 21
149.141473714377
 31
0.0
  0
LINE
  5
346
330
1B4
100
AcDbEntity
  8
Layer0
  6
AUSGEZOGEN
 62
     9
370
    18
100
AcDbLine
 10
486.792758429943
 20
149.141473714377
 30
0.0
 11
484.494845528629
 21
149.141473714377
 31
0.0
  0
LINE
  5
347
330
1B4
100
AcDbEntity
  8
Stammform
  6
AUSGEZOGEN
 62
    56
370
    18
100
AcDbLine
 10
484.494845528629
 20
149.141473714377
 30
0.0
 11
485.643801979286
 21
147.151423963134
 31
0.0
  0
LINE
  5
348
330
1B4
100
AcDbEntity
  8
Stammform
  6
AUSGEZOGEN
 62
    56
370
    18
100
AcDbLine
 10
485.643801979286
 20
147.151423963134
 30
0.0
 11
487.9417148806
 21
147.151423963134
 31
0.0
  0
LINE
  5
349
330
1B4
100
AcDbEntity
  8
Stammform
  6
AUSGEZOGEN
 62
    56
370
    18
100
AcDbLine
 10
485.643801979286
 20
147.151423963134
 30
0.0
 11
484.494845528629
 21
145.16137421189
 31
0.0
  0
LINE
  5
34A
330
1B4
100
AcDbEntity
  8
Stammform
  6
AUSGEZOGEN
 62
    56
370
    18
100
AcDbLine
 10
485.643801979286
 20
143.171324460646
 30
0.0
 11
484.494845528629
 21
141.181274709402
 31
0.0
  0
LINE
  5
34B
330
1B4
100
AcDbEntity
  8
Stammform
  6
AUSGEZOGEN
 62
    56
370
    18
100
AcDbLine
 10
485.643801979286
 20
143.171324460646
 30
0.0
 11
487.9417148806
 21
143.171324460646
 31
0.0
  0
LINE
  5
34C
330
1B4
100
AcDbEntity
  8
Stammform
  6
AUSGEZOGEN
 62
    56
370
    18
100
AcDbLine
 10
484.494845528629
 20
145.16137421189
 30
0.0
 11
485.643801979286
 21
143.171324460646
 31
0.0
  0
LINE
  5
34D
330
1B4
100
AcDbEntity
  8
Layer0
  6
AUSGEZOGEN
 62
     9
370
    18
100
AcDbLine
 10
484.494845528629
 20
145.16137421189
 30
0.0
 11
483.345889077973
 21
143.171324460646
 31
0.0
  0
LINE
  5
34E
330
1B4
100
AcDbEntity
  8
Layer0
  6
AUSGEZOGEN
 62
     9
370
    18
100
AcDbLine
 10
483.345889077973
 20
143.171324460646
 30
0.0
 11
484.494845528629
 21
141.181274709402
 31
0.0
  0
LINE
  5
34F
330
1B4
100
AcDbEntity
  8
Layer0
  6
AUSGEZOGEN
 62
     9
370
    18
100
AcDbLine
 10
484.494845528629
 20
141.181274709402
 30
0.0
 11
486.792758429943
 21
141.181274709402
 31
0.0
  0
LINE
  5
350
330
1B4
100
AcDbEntity
  8
Layer0
  6
AUSGEZOGEN
 62
     9
370
    18
100
AcDbLine
 10
486.792758429943
 20
141.181274709402
 30
0.0
 11
487.9417148806
 21
143.171324460646
 31
0.0
  0
LINE
  5
351
330
1B4
100
AcDbEntity
  8
Layer0
  6
AUSGEZOGEN
 62
     9
370
    18
100
AcDbLine
 10
487.9417148806
 20
143.171324460646
 30
0.0
 11
486.792758429943
 21
145.16137421189
 31
0.0
  0
LINE
  5
352
330
1B4
100
AcDbEntity
  8
Layer0
  6
AUSGEZOGEN
 62
     9
370
    18
100
AcDbLine
 10
486.792758429943
 20
145.16137421189
 30
0.0
 11
484.494845528629
 21
145.16137421189
 31
0.0
  0
LINE
  5
353
330
1B4
100
AcDbEntity
  8
Layer0
  6
AUSGEZOGEN
 62
     9
370
    18
100
AcDbLine
 10
484.494845528629
 20
157.101672719353
 30
0.0
 11
483.345889077973
 21
155.111622968109
 31
0.0
  0
LINE
  5
354
330
1B4
100
AcDbEntity
  8
Layer0
  6
AUSGEZOGEN
 62
     9
370
    18
100
AcDbLine
 10
483.345889077973
 20
155.111622968109
 30
0.0
 11
484.494845528629
 21
153.121573216865
 31
0.0
  0
LINE
  5
355
330
1B4
100
AcDbEntity
  8
Layer0
  6
AUSGEZOGEN
 62
     9
370
    18
100
AcDbLine
 10
484.494845528629
 20
153.121573216865
 30
0.0
 11
486.792758429943
 21
153.121573216865
 31
0.0
  0
LINE
  5
356
330
1B4
100
AcDbEntity
  8
Layer0
  6
AUSGEZOGEN
 62
     9
370
    18
100
AcDbLine
 10
486.792758429943
 20
153.121573216865
 30
0.0
 11
487.9417148806
 21
155.111622968109
 31
0.0
  0
LINE
  5
357
330
1B4
100
AcDbEntity
  8
Layer0
  6
AUSGEZOGEN
 62
     9
370
    18
100
AcDbLine
 10
487.9417148806
 20
155.111622968109
 30
0.0
 11
486.792758429943
 21
157.101672719353
 31
0.0
  0
LINE
  5
358
330
1B4
100
AcDbEntity
  8
Layer0
  6
AUSGEZOGEN
 62
     9
370
    18
100
AcDbLine
 10
486.792758429943
 20
157.101672719353
 30
0.0
 11
484.494845528629
 21
157.101672719353
 31
0.0
  0
LINE
  5
359
330
1B4
100
AcDbEntity
  8
Stammform
  6
AUSGEZOGEN
 62
    56
370
    18
100
AcDbLine
 10
484.494845528629
 20
157.101672719353
 30
0.0
 11
485.643801979286
 21
155.111622968109
 31
0.0
  0
LINE
  5
35A
330
1B4
100
AcDbEntity
  8
Stammform
  6
AUSGEZOGEN
 62
    56
370
    18
100
AcDbLine
 10
485.643801979286
 20
155.111622968109
 30
0.0
 11
487.9417148806
 21
155.111622968109
 31
0.0
  0
LINE
  5
35B
330
1B4
100
AcDbEntity
  8
Stammform
  6
AUSGEZOGEN
 62
    56
370
    18
100
AcDbLine
 10
485.643801979286
 20
155.111622968109
 30
0.0
 11
484.494845528629
 21
153.121573216865
 31
0.0
  0
LINE
  5
35C
330
1B4
100
AcDbEntity
  8
Stammform
  6
AUSGEZOGEN
 62
    56
370
    18
100
AcDbLine
 10
485.643801979286
 20
151.131523465621
 30
0.0
 11
484.494845528629
 21
149.141473714377
 31
0.0
  0
LINE
  5
35D
330
1B4
100
AcDbEntity
  8
Stammform
  6
AUSGEZOGEN
 62
    56
370
    18
100
AcDbLine
 10
485.643801979286
 20
151.131523465621
 30
0.0
 11
487.9417148806
 21
151.131523465621
 31
0.0
  0
LINE
  5
35E
330
1B4
100
AcDbEntity
  8
Stammform
  6
AUSGEZOGEN
 62
    56
370
    18
100
AcDbLine
 10
484.494845528629
 20
153.121573216865
 30
0.0
 11
485.643801979286
 21
151.131523465621
 31
0.0
  0
LINE
  5
35F
330
1B4
100
AcDbEntity
  8
Layer0
  6
AUSGEZOGEN
 62
     9
370
    18
100
AcDbLine
 10
484.494845528629
 20
153.121573216865
 30
0.0
 11
483.345889077973
 21
151.131523465621
 31
0.0
  0
LINE
  5
360
330
1B4
100
AcDbEntity
  8
Layer0
  6
AUSGEZOGEN
 62
     9
370
    18
100
AcDbLine
 10
483.345889077973
 20
151.131523465621
 30
0.0
 11
484.494845528629
 21
149.141473714377
 31
0.0
  0
LINE
  5
361
330
1B4
100
AcDbEntity
  8
Layer0
  6
AUSGEZOGEN
 62
     9
370
    18
100
AcDbLine
 10
484.494845528629
 20
149.141473714377
 30
0.0
 11
486.792758429943
 21
149.141473714377
 31
0.0
  0
LINE
  5
362
330
1B4
100
AcDbEntity
  8
Layer0
  6
AUSGEZOGEN
 62
     9
370
    18
100
AcDbLine
 10
486.792758429943
 20
149.141473714377
 30
0.0
 11
487.9417148806
 21
151.131523465621
 31
0.0
  0
LINE
  5
363
330
1B4
100
AcDbEntity
  8
Layer0
  6
AUSGEZOGEN
 62
     9
370
    18
100
AcDbLine
 10
487.9417148806
 20
151.131523465621
 30
0.0
 11
486.792758429943
 21
153.121573216865
 31
0.0
  0
LINE
  5
364
330
1B4
100
AcDbEntity
  8
Layer0
  6
AUSGEZOGEN
 62
     9
370
    18
100
AcDbLine
 10
486.792758429943
 20
153.121573216865
 30
0.0
 11
484.494845528629
 21
153.121573216865
 31
0.0
  0
LINE
  5
365
330
1B4
100
AcDbEntity
  8
Layer0
  6
AUSGEZOGEN
 62
     9
370
    18
100
AcDbLine
 10
483.345889077973
 20
175.012120480547
 30
0.0
 11
484.494845528629
 21
173.022070729303
 31
0.0
  0
LINE
  5
366
330
1B4
100
AcDbEntity
  8
Layer0
  6
AUSGEZOGEN
 62
     9
370
    18
100
AcDbLine
 10
484.494845528629
 20
173.022070729303
 30
0.0
 11
486.792758429943
 21
173.022070729303
 31
0.0
  0
LINE
  5
367
330
1B4
100
AcDbEntity
  8
Layer0
  6
AUSGEZOGEN
 62
     9
370
    18
100
AcDbLine
 10
486.792758429943
 20
173.022070729303
 30
0.0
 11
487.9417148806
 21
175.012120480547
 31
0.0
  0
LINE
  5
368
330
1B4
100
AcDbEntity
  8
Stammform
  6
AUSGEZOGEN
 62
    56
370
    18
100
AcDbLine
 10
485.643801979286
 20
175.012120480547
 30
0.0
 11
484.494845528629
 21
173.022070729303
 31
0.0
  0
LINE
  5
369
330
1B4
100
AcDbEntity
  8
Layer0
  6
AUSGEZOGEN
 62
     9
370
    18
100
AcDbLine
 10
484.494845528629
 20
169.041971226815
 30
0.0
 11
483.345889077973
 21
167.051921475571
 31
0.0
  0
LINE
  5
36A
330
1B4
100
AcDbEntity
  8
Layer0
  6
AUSGEZOGEN
 62
     9
370
    18
100
AcDbLine
 10
483.345889077973
 20
167.051921475571
 30
0.0
 11
484.494845528629
 21
165.061871724328
 31
0.0
  0
LINE
  5
36B
330
1B4
100
AcDbEntity
  8
Layer0
  6
AUSGEZOGEN
 62
     9
370
    18
100
AcDbLine
 10
484.494845528629
 20
165.061871724328
 30
0.0
 11
486.792758429943
 21
165.061871724328
 31
0.0
  0
LINE
  5
36C
330
1B4
100
AcDbEntity
  8
Layer0
  6
AUSGEZOGEN
 62
     9
370
    18
100
AcDbLine
 10
486.792758429943
 20
165.061871724328
 30
0.0
 11
487.9417148806
 21
167.051921475571
 31
0.0
  0
LINE
  5
36D
330
1B4
100
AcDbEntity
  8
Layer0
  6
AUSGEZOGEN
 62
     9
370
    18
100
AcDbLine
 10
487.9417148806
 20
167.051921475571
 30
0.0
 11
486.792758429943
 21
169.041971226815
 31
0.0
  0
LINE
  5
36E
330
1B4
100
AcDbEntity
  8
Layer0
  6
AUSGEZOGEN
 62
     9
370
    18
100
AcDbLine
 10
486.792758429943
 20
169.041971226815
 30
0.0
 11
484.494845528629
 21
169.041971226815
 31
0.0
  0
LINE
  5
36F
330
1B4
100
AcDbEntity
  8
Stammform
  6
AUSGEZOGEN
 62
    56
370
    18
100
AcDbLine
 10
484.494845528629
 20
169.041971226815
 30
0.0
 11
485.643801979286
 21
167.051921475571
 31
0.0
  0
LINE
  5
370
330
1B4
100
AcDbEntity
  8
Stammform
  6
AUSGEZOGEN
 62
    56
370
    18
100
AcDbLine
 10
485.643801979286
 20
167.051921475571
 30
0.0
 11
487.9417148806
 21
167.051921475571
 31
0.0
  0
LINE
  5
371
330
1B4
100
AcDbEntity
  8
Stammform
  6
AUSGEZOGEN
 62
    56
370
    18
100
AcDbLine
 10
485.643801979286
 20
167.051921475571
 30
0.0
 11
484.494845528629
 21
165.061871724328
 31
0.0
  0
LINE
  5
372
330
1B4
100
AcDbEntity
  8
Stammform
  6
AUSGEZOGEN
 62
    56
370
    18
100
AcDbLine
 10
485.643801979286
 20
171.032020978059
 30
0.0
 11
484.494845528629
 21
169.041971226815
 31
0.0
  0
LINE
  5
373
330
1B4
100
AcDbEntity
  8
Stammform
  6
AUSGEZOGEN
 62
    56
370
    18
100
AcDbLine
 10
485.643801979286
 20
171.032020978059
 30
0.0
 11
487.9417148806
 21
171.032020978059
 31
0.0
  0
LINE
  5
374
330
1B4
100
AcDbEntity
  8
Stammform
  6
AUSGEZOGEN
 62
    56
370
    18
100
AcDbLine
 10
484.494845528629
 20
173.022070729303
 30
0.0
 11
485.643801979286
 21
171.032020978059
 31
0.0
  0
LINE
  5
375
330
1B4
100
AcDbEntity
  8
Layer0
  6
AUSGEZOGEN
 62
     9
370
    18
100
AcDbLine
 10
484.494845528629
 20
173.022070729303
 30
0.0
 11
483.345889077973
 21
171.032020978059
 31
0.0
  0
LINE
  5
376
330
1B4
100
AcDbEntity
  8
Layer0
  6
AUSGEZOGEN
 62
     9
370
    18
100
AcDbLine
 10
483.345889077973
 20
171.032020978059
 30
0.0
 11
484.494845528629
 21
169.041971226815
 31
0.0
  0
LINE
  5
377
330
1B4
100
AcDbEntity
  8
Layer0
  6
AUSGEZOGEN
 62
     9
370
    18
100
AcDbLine
 10
484.494845528629
 20
169.041971226815
 30
0.0
 11
486.792758429943
 21
169.041971226815
 31
0.0
  0
LINE
  5
378
330
1B4
100
AcDbEntity
  8
Layer0
  6
AUSGEZOGEN
 62
     9
370
    18
100
AcDbLine
 10
486.792758429943
 20
169.041971226815
 30
0.0
 11
487.9417148806
 21
171.032020978059
 31
0.0
  0
LINE
  5
379
330
1B4
100
AcDbEntity
  8
Layer0
  6
AUSGEZOGEN
 62
     9
370
    18
100
AcDbLine
 10
487.9417148806
 20
171.032020978059
 30
0.0
 11
486.792758429943
 21
173.022070729303
 31
0.0
  0
LINE
  5
37A
330
1B4
100
AcDbEntity
  8
Layer0
  6
AUSGEZOGEN
 62
     9
370
    18
100
AcDbLine
 10
486.792758429943
 20
173.022070729303
 30
0.0
 11
484.494845528629
 21
173.022070729303
 31
0.0
  0
LINE
  5
37B
330
1B4
100
AcDbEntity
  8
Layer0
  6
AUSGEZOGEN
 62
     9
370
    18
100
AcDbLine
 10
484.494845528629
 20
165.061871724328
 30
0.0
 11
483.345889077973
 21
163.071821973084
 31
0.0
  0
LINE
  5
37C
330
1B4
100
AcDbEntity
  8
Layer0
  6
AUSGEZOGEN
 62
     9
370
    18
100
AcDbLine
 10
483.345889077973
 20
163.071821973084
 30
0.0
 11
484.494845528629
 21
161.08177222184
 31
0.0
  0
LINE
  5
37D
330
1B4
100
AcDbEntity
  8
Layer0
  6
AUSGEZOGEN
 62
     9
370
    18
100
AcDbLine
 10
484.494845528629
 20
161.08177222184
 30
0.0
 11
486.792758429943
 21
161.08177222184
 31
0.0
  0
LINE
  5
37E
330
1B4
100
AcDbEntity
  8
Layer0
  6
AUSGEZOGEN
 62
     9
370
    18
100
AcDbLine
 10
486.792758429943
 20
161.08177222184
 30
0.0
 11
487.9417148806
 21
163.071821973084
 31
0.0
  0
LINE
  5
37F
330
1B4
100
AcDbEntity
  8
Layer0
  6
AUSGEZOGEN
 62
     9
370
    18
100
AcDbLine
 10
487.9417148806
 20
163.071821973084
 30
0.0
 11
486.792758429943
 21
165.061871724328
 31
0.0
  0
LINE
  5
380
330
1B4
100
AcDbEntity
  8
Layer0
  6
AUSGEZOGEN
 62
     9
370
    18
100
AcDbLine
 10
486.792758429943
 20
165.061871724328
 30
0.0
 11
484.494845528629
 21
165.061871724328
 31
0.0
  0
LINE
  5
381
330
1B4
100
AcDbEntity
  8
Stammform
  6
AUSGEZOGEN
 62
    56
370
    18
100
AcDbLine
 10
484.494845528629
 20
165.061871724328
 30
0.0
 11
485.643801979286
 21
163.071821973084
 31
0.0
  0
LINE
  5
382
330
1B4
100
AcDbEntity
  8
Stammform
  6
AUSGEZOGEN
 62
    56
370
    18
100
AcDbLine
 10
485.643801979286
 20
163.071821973084
 30
0.0
 11
487.9417148806
 21
163.071821973084
 31
0.0
  0
LINE
  5
383
330
1B4
100
AcDbEntity
  8
Stammform
  6
AUSGEZOGEN
 62
    56
370
    18
100
AcDbLine
 10
485.643801979286
 20
163.071821973084
 30
0.0
 11
484.494845528629
 21
161.08177222184
 31
0.0
  0
LINE
  5
384
330
1B4
100
AcDbEntity
  8
Stammform
  6
AUSGEZOGEN
 62
    56
370
    18
100
AcDbLine
 10
485.643801979286
 20
159.091722470596
 30
0.0
 11
484.494845528629
 21
157.101672719353
 31
0.0
  0
LINE
  5
385
330
1B4
100
AcDbEntity
  8
Stammform
  6
AUSGEZOGEN
 62
    56
370
    18
100
AcDbLine
 10
485.643801979286
 20
159.091722470596
 30
0.0
 11
487.9417148806
 21
159.091722470596
 31
0.0
  0
LINE
  5
386
330
1B4
100
AcDbEntity
  8
Stammform
  6
AUSGEZOGEN
 62
    56
370
    18
100
AcDbLine
 10
484.494845528629
 20
161.08177222184
 30
0.0
 11
485.643801979286
 21
159.091722470596
 31
0.0
  0
LINE
  5
387
330
1B4
100
AcDbEntity
  8
Layer0
  6
AUSGEZOGEN
 62
     9
370
    18
100
AcDbLine
 10
484.494845528629
 20
161.08177222184
 30
0.0
 11
483.345889077973
 21
159.091722470596
 31
0.0
  0
LINE
  5
388
330
1B4
100
AcDbEntity
  8
Layer0
  6
AUSGEZOGEN
 62
     9
370
    18
100
AcDbLine
 10
483.345889077973
 20
159.091722470596
 30
0.0
 11
484.494845528629
 21
157.101672719353
 31
0.0
  0
LINE
  5
389
330
1B4
100
AcDbEntity
  8
Layer0
  6
AUSGEZOGEN
 62
     9
370
    18
100
AcDbLine
 10
484.494845528629
 20
157.101672719353
 30
0.0
 11
486.792758429943
 21
157.101672719353
 31
0.0
  0
LINE
  5
38A
330
1B4
100
AcDbEntity
  8
Layer0
  6
AUSGEZOGEN
 62
     9
370
    18
100
AcDbLine
 10
486.792758429943
 20
157.101672719353
 30
0.0
 11
487.9417148806
 21
159.091722470596
 31
0.0
  0
LINE
  5
38B
330
1B4
100
AcDbEntity
  8
Layer0
  6
AUSGEZOGEN
 62
     9
370
    18
100
AcDbLine
 10
487.9417148806
 20
159.091722470596
 30
0.0
 11
486.792758429943
 21
161.08177222184
 31
0.0
  0
LINE
  5
38C
330
1B4
100
AcDbEntity
  8
Layer0
  6
AUSGEZOGEN
 62
     9
370
    18
100
AcDbLine
 10
486.792758429943
 20
161.08177222184
 30
0.0
 11
484.494845528629
 21
161.08177222184
 31
0.0
  0
LINE
  5
38D
330
1B4
100
AcDbEntity
  8
Layer0
  6
AUSGEZOGEN
 62
     9
370
    18
100
AcDbLine
 10
494.835445993104
 20
163.071821973084
 30
0.0
 11
493.686489542447
 21
161.08177222184
 31
0.0
  0
LINE
  5
38E
330
1B4
100
AcDbEntity
  8
Layer0
  6
AUSGEZOGEN
 62
     9
370
    18
100
AcDbLine
 10
493.686489542447
 20
161.08177222184
 30
0.0
 11
494.835445993104
 21
159.091722470596
 31
0.0
  0
LINE
  5
38F
330
1B4
100
AcDbEntity
  8
Layer0
  6
AUSGEZOGEN
 62
     9
370
    18
100
AcDbLine
 10
494.835445993104
 20
159.091722470596
 30
0.0
 11
497.133358894418
 21
159.091722470596
 31
0.0
  0
LINE
  5
390
330
1B4
100
AcDbEntity
  8
Layer0
  6
AUSGEZOGEN
 62
     9
370
    18
100
AcDbLine
 10
497.133358894418
 20
159.091722470596
 30
0.0
 11
498.282315345074
 21
161.08177222184
 31
0.0
  0
LINE
  5
391
330
1B4
100
AcDbEntity
  8
Layer0
  6
AUSGEZOGEN
 62
     9
370
    18
100
AcDbLine
 10
498.282315345074
 20
161.08177222184
 30
0.0
 11
497.133358894418
 21
163.071821973084
 31
0.0
  0
LINE
  5
392
330
1B4
100
AcDbEntity
  8
Layer0
  6
AUSGEZOGEN
 62
     9
370
    18
100
AcDbLine
 10
497.133358894418
 20
163.071821973084
 30
0.0
 11
494.835445993104
 21
163.071821973084
 31
0.0
  0
LINE
  5
393
330
1B4
100
AcDbEntity
  8
Stammform
  6
AUSGEZOGEN
 62
    56
370
    18
100
AcDbLine
 10
494.835445993104
 20
163.071821973084
 30
0.0
 11
495.984402443761
 21
161.08177222184
 31
0.0
  0
LINE
  5
394
330
1B4
100
AcDbEntity
  8
Stammform
  6
AUSGEZOGEN
 62
    56
370
    18
100
AcDbLine
 10
495.984402443761
 20
161.08177222184
 30
0.0
 11
498.282315345074
 21
161.08177222184
 31
0.0
  0
LINE
  5
395
330
1B4
100
AcDbEntity
  8
Stammform
  6
AUSGEZOGEN
 62
    56
370
    18
100
AcDbLine
 10
495.984402443761
 20
161.08177222184
 30
0.0
 11
494.835445993104
 21
159.091722470596
 31
0.0
  0
LINE
  5
396
330
1B4
100
AcDbEntity
  8
Stammform
  6
AUSGEZOGEN
 62
    56
370
    18
100
AcDbLine
 10
495.984402443761
 20
165.061871724328
 30
0.0
 11
494.835445993104
 21
163.071821973084
 31
0.0
  0
LINE
  5
397
330
1B4
100
AcDbEntity
  8
Stammform
  6
AUSGEZOGEN
 62
    56
370
    18
100
AcDbLine
 10
495.984402443761
 20
165.061871724328
 30
0.0
 11
498.282315345074
 21
165.061871724328
 31
0.0
  0
LINE
  5
398
330
1B4
100
AcDbEntity
  8
Stammform
  6
AUSGEZOGEN
 62
    56
370
    18
100
AcDbLine
 10
494.835445993104
 20
167.051921475571
 30
0.0
 11
495.984402443761
 21
165.061871724328
 31
0.0
  0
LINE
  5
399
330
1B4
100
AcDbEntity
  8
Layer0
  6
AUSGEZOGEN
 62
     9
370
    18
100
AcDbLine
 10
494.835445993104
 20
167.051921475571
 30
0.0
 11
493.686489542447
 21
165.061871724328
 31
0.0
  0
LINE
  5
39A
330
1B4
100
AcDbEntity
  8
Layer0
  6
AUSGEZOGEN
 62
     9
370
    18
100
AcDbLine
 10
493.686489542447
 20
165.061871724328
 30
0.0
 11
494.835445993104
 21
163.071821973084
 31
0.0
  0
LINE
  5
39B
330
1B4
100
AcDbEntity
  8
Layer0
  6
AUSGEZOGEN
 62
     9
370
    18
100
AcDbLine
 10
494.835445993104
 20
163.071821973084
 30
0.0
 11
497.133358894418
 21
163.071821973084
 31
0.0
  0
LINE
  5
39C
330
1B4
100
AcDbEntity
  8
Layer0
  6
AUSGEZOGEN
 62
     9
370
    18
100
AcDbLine
 10
497.133358894418
 20
163.071821973084
 30
0.0
 11
498.282315345074
 21
165.061871724328
 31
0.0
  0
LINE
  5
39D
330
1B4
100
AcDbEntity
  8
Layer0
  6
AUSGEZOGEN
 62
     9
370
    18
100
AcDbLine
 10
498.282315345074
 20
165.061871724328
 30
0.0
 11
497.133358894418
 21
167.051921475571
 31
0.0
  0
LINE
  5
39E
330
1B4
100
AcDbEntity
  8
Layer0
  6
AUSGEZOGEN
 62
     9
370
    18
100
AcDbLine
 10
497.133358894418
 20
167.051921475571
 30
0.0
 11
494.835445993104
 21
167.051921475571
 31
0.0
  0
LINE
  5
39F
330
1B4
100
AcDbEntity
  8
Layer0
  6
AUSGEZOGEN
 62
     9
370
    18
100
AcDbLine
 10
494.835445993104
 20
175.012120480547
 30
0.0
 11
493.686489542447
 21
173.022070729303
 31
0.0
  0
LINE
  5
3A0
330
1B4
100
AcDbEntity
  8
Layer0
  6
AUSGEZOGEN
 62
     9
370
    18
100
AcDbLine
 10
493.686489542447
 20
173.022070729303
 30
0.0
 11
494.835445993104
 21
171.032020978059
 31
0.0
  0
LINE
  5
3A1
330
1B4
100
AcDbEntity
  8
Layer0
  6
AUSGEZOGEN
 62
     9
370
    18
100
AcDbLine
 10
494.835445993104
 20
171.032020978059
 30
0.0
 11
497.133358894418
 21
171.032020978059
 31
0.0
  0
LINE
  5
3A2
330
1B4
100
AcDbEntity
  8
Layer0
  6
AUSGEZOGEN
 62
     9
370
    18
100
AcDbLine
 10
497.133358894418
 20
171.032020978059
 30
0.0
 11
498.282315345074
 21
173.022070729303
 31
0.0
  0
LINE
  5
3A3
330
1B4
100
AcDbEntity
  8
Layer0
  6
AUSGEZOGEN
 62
     9
370
    18
100
AcDbLine
 10
498.282315345074
 20
173.022070729303
 30
0.0
 11
497.133358894418
 21
175.012120480547
 31
0.0
  0
LINE
  5
3A4
330
1B4
100
AcDbEntity
  8
Stammform
  6
AUSGEZOGEN
 62
    56
370
    18
100
AcDbLine
 10
494.835445993104
 20
175.012120480547
 30
0.0
 11
495.984402443761
 21
173.022070729303
 31
0.0
  0
LINE
  5
3A5
330
1B4
100
AcDbEntity
  8
Stammform
  6
AUSGEZOGEN
 62
    56
370
    18
100
AcDbLine
 10
495.984402443761
 20
173.022070729303
 30
0.0
 11
498.282315345074
 21
173.022070729303
 31
0.0
  0
LINE
  5
3A6
330
1B4
100
AcDbEntity
  8
Stammform
  6
AUSGEZOGEN
 62
    56
370
    18
100
AcDbLine
 10
495.984402443761
 20
173.022070729303
 30
0.0
 11
494.835445993104
 21
171.032020978059
 31
0.0
  0
LINE
  5
3A7
330
1B4
100
AcDbEntity
  8
Stammform
  6
AUSGEZOGEN
 62
    56
370
    18
100
AcDbLine
 10
495.984402443761
 20
169.041971226815
 30
0.0
 11
494.835445993104
 21
167.051921475571
 31
0.0
  0
LINE
  5
3A8
330
1B4
100
AcDbEntity
  8
Stammform
  6
AUSGEZOGEN
 62
    56
370
    18
100
AcDbLine
 10
495.984402443761
 20
169.041971226815
 30
0.0
 11
498.282315345074
 21
169.041971226815
 31
0.0
  0
LINE
  5
3A9
330
1B4
100
AcDbEntity
  8
Stammform
  6
AUSGEZOGEN
 62
    56
370
    18
100
AcDbLine
 10
494.835445993104
 20
171.032020978059
 30
0.0
 11
495.984402443761
 21
169.041971226815
 31
0.0
  0
LINE
  5
3AA
330
1B4
100
AcDbEntity
  8
Layer0
  6
AUSGEZOGEN
 62
     9
370
    18
100
AcDbLine
 10
494.835445993104
 20
171.032020978059
 30
0.0
 11
493.686489542447
 21
169.041971226815
 31
0.0
  0
LINE
  5
3AB
330
1B4
100
AcDbEntity
  8
Layer0
  6
AUSGEZOGEN
 62
     9
370
    18
100
AcDbLine
 10
493.686489542447
 20
169.041971226815
 30
0.0
 11
494.835445993104
 21
167.051921475571
 31
0.0
  0
LINE
  5
3AC
330
1B4
100
AcDbEntity
  8
Layer0
  6
AUSGEZOGEN
 62
     9
370
    18
100
AcDbLine
 10
494.835445993104
 20
167.051921475571
 30
0.0
 11
497.133358894418
 21
167.051921475571
 31
0.0
  0
LINE
  5
3AD
330
1B4
100
AcDbEntity
  8
Layer0
  6
AUSGEZOGEN
 62
     9
370
    18
100
AcDbLine
 10
497.133358894418
 20
167.051921475571
 30
0.0
 11
498.282315345074
 21
169.041971226815
 31
0.0
  0
LINE
  5
3AE
330
1B4
100
AcDbEntity
  8
Layer0
  6
AUSGEZOGEN
 62
     9
370
    18
100
AcDbLine
 10
498.282315345074
 20
169.041971226815
 30
0.0
 11
497.133358894418
 21
171.032020978059
 31
0.0
  0
LINE
  5
3AF
330
1B4
100
AcDbEntity
  8
Layer0
  6
AUSGEZOGEN
 62
     9
370
    18
100
AcDbLine
 10
497.133358894418
 20
171.032020978059
 30
0.0
 11
494.835445993104
 21
171.032020978059
 31
0.0
  0
LINE
  5
3B0
330
1B4
100
AcDbEntity
  8
Layer0
  6
AUSGEZOGEN
 62
     9
370
    18
100
AcDbLine
 10
494.835445993104
 20
155.111622968109
 30
0.0
 11
493.686489542447
 21
153.121573216865
 31
0.0
  0
LINE
  5
3B1
330
1B4
100
AcDbEntity
  8
Layer0
  6
AUSGEZOGEN
 62
     9
370
    18
100
AcDbLine
 10
493.686489542447
 20
153.121573216865
 30
0.0
 11
494.835445993104
 21
151.131523465621
 31
0.0
  0
LINE
  5
3B2
330
1B4
100
AcDbEntity
  8
Layer0
  6
AUSGEZOGEN
 62
     9
370
    18
100
AcDbLine
 10
494.835445993104
 20
151.131523465621
 30
0.0
 11
497.133358894418
 21
151.131523465621
 31
0.0
  0
LINE
  5
3B3
330
1B4
100
AcDbEntity
  8
Layer0
  6
AUSGEZOGEN
 62
     9
370
    18
100
AcDbLine
 10
497.133358894418
 20
151.131523465621
 30
0.0
 11
498.282315345074
 21
153.121573216865
 31
0.0
  0
LINE
  5
3B4
330
1B4
100
AcDbEntity
  8
Layer0
  6
AUSGEZOGEN
 62
     9
370
    18
100
AcDbLine
 10
498.282315345074
 20
153.121573216865
 30
0.0
 11
497.133358894418
 21
155.111622968109
 31
0.0
  0
LINE
  5
3B5
330
1B4
100
AcDbEntity
  8
Layer0
  6
AUSGEZOGEN
 62
     9
370
    18
100
AcDbLine
 10
497.133358894418
 20
155.111622968109
 30
0.0
 11
494.835445993104
 21
155.111622968109
 31
0.0
  0
LINE
  5
3B6
330
1B4
100
AcDbEntity
  8
Stammform
  6
AUSGEZOGEN
 62
    56
370
    18
100
AcDbLine
 10
494.835445993104
 20
155.111622968109
 30
0.0
 11
495.984402443761
 21
153.121573216865
 31
0.0
  0
LINE
  5
3B7
330
1B4
100
AcDbEntity
  8
Stammform
  6
AUSGEZOGEN
 62
    56
370
    18
100
AcDbLine
 10
495.984402443761
 20
153.121573216865
 30
0.0
 11
498.282315345074
 21
153.121573216865
 31
0.0
  0
LINE
  5
3B8
330
1B4
100
AcDbEntity
  8
Stammform
  6
AUSGEZOGEN
 62
    56
370
    18
100
AcDbLine
 10
495.984402443761
 20
153.121573216865
 30
0.0
 11
494.835445993104
 21
151.131523465621
 31
0.0
  0
LINE
  5
3B9
330
1B4
100
AcDbEntity
  8
Stammform
  6
AUSGEZOGEN
 62
    56
370
    18
100
AcDbLine
 10
495.984402443761
 20
157.101672719353
 30
0.0
 11
494.835445993104
 21
155.111622968109
 31
0.0
  0
LINE
  5
3BA
330
1B4
100
AcDbEntity
  8
Stammform
  6
AUSGEZOGEN
 62
    56
370
    18
100
AcDbLine
 10
495.984402443761
 20
157.101672719353
 30
0.0
 11
498.282315345074
 21
157.101672719353
 31
0.0
  0
LINE
  5
3BB
330
1B4
100
AcDbEntity
  8
Stammform
  6
AUSGEZOGEN
 62
    56
370
    18
100
AcDbLine
 10
494.835445993104
 20
159.091722470596
 30
0.0
 11
495.984402443761
 21
157.101672719353
 31
0.0
  0
LINE
  5
3BC
330
1B4
100
AcDbEntity
  8
Layer0
  6
AUSGEZOGEN
 62
     9
370
    18
100
AcDbLine
 10
494.835445993104
 20
159.091722470596
 30
0.0
 11
493.686489542447
 21
157.101672719353
 31
0.0
  0
LINE
  5
3BD
330
1B4
100
AcDbEntity
  8
Layer0
  6
AUSGEZOGEN
 62
     9
370
    18
100
AcDbLine
 10
493.686489542447
 20
157.101672719353
 30
0.0
 11
494.835445993104
 21
155.111622968109
 31
0.0
  0
LINE
  5
3BE
330
1B4
100
AcDbEntity
  8
Layer0
  6
AUSGEZOGEN
 62
     9
370
    18
100
AcDbLine
 10
494.835445993104
 20
155.111622968109
 30
0.0
 11
497.133358894418
 21
155.111622968109
 31
0.0
  0
LINE
  5
3BF
330
1B4
100
AcDbEntity
  8
Layer0
  6
AUSGEZOGEN
 62
     9
370
    18
100
AcDbLine
 10
497.133358894418
 20
155.111622968109
 30
0.0
 11
498.282315345074
 21
157.101672719353
 31
0.0
  0
LINE
  5
3C0
330
1B4
100
AcDbEntity
  8
Layer0
  6
AUSGEZOGEN
 62
     9
370
    18
100
AcDbLine
 10
498.282315345074
 20
157.101672719353
 30
0.0
 11
497.133358894418
 21
159.091722470596
 31
0.0
  0
LINE
  5
3C1
330
1B4
100
AcDbEntity
  8
Layer0
  6
AUSGEZOGEN
 62
     9
370
    18
100
AcDbLine
 10
497.133358894418
 20
159.091722470596
 30
0.0
 11
494.835445993104
 21
159.091722470596
 31
0.0
  0
LINE
  5
3C2
330
1B4
100
AcDbEntity
  8
Layer0
  6
AUSGEZOGEN
 62
     9
370
    18
100
AcDbLine
 10
494.835445993104
 20
147.151423963134
 30
0.0
 11
493.686489542447
 21
145.16137421189
 31
0.0
  0
LINE
  5
3C3
330
1B4
100
AcDbEntity
  8
Layer0
  6
AUSGEZOGEN
 62
     9
370
    18
100
AcDbLine
 10
493.686489542447
 20
145.16137421189
 30
0.0
 11
494.835445993104
 21
143.171324460646
 31
0.0
  0
LINE
  5
3C4
330
1B4
100
AcDbEntity
  8
Layer0
  6
AUSGEZOGEN
 62
     9
370
    18
100
AcDbLine
 10
494.835445993104
 20
143.171324460646
 30
0.0
 11
497.133358894418
 21
143.171324460646
 31
0.0
  0
LINE
  5
3C5
330
1B4
100
AcDbEntity
  8
Layer0
  6
AUSGEZOGEN
 62
     9
370
    18
100
AcDbLine
 10
497.133358894418
 20
143.171324460646
 30
0.0
 11
498.282315345074
 21
145.16137421189
 31
0.0
  0
LINE
  5
3C6
330
1B4
100
AcDbEntity
  8
Layer0
  6
AUSGEZOGEN
 62
     9
370
    18
100
AcDbLine
 10
498.282315345074
 20
145.16137421189
 30
0.0
 11
497.133358894418
 21
147.151423963134
 31
0.0
  0
LINE
  5
3C7
330
1B4
100
AcDbEntity
  8
Layer0
  6
AUSGEZOGEN
 62
     9
370
    18
100
AcDbLine
 10
497.133358894418
 20
147.151423963134
 30
0.0
 11
494.835445993104
 21
147.151423963134
 31
0.0
  0
LINE
  5
3C8
330
1B4
100
AcDbEntity
  8
Stammform
  6
AUSGEZOGEN
 62
    56
370
    18
100
AcDbLine
 10
494.835445993104
 20
147.151423963134
 30
0.0
 11
495.984402443761
 21
145.16137421189
 31
0.0
  0
LINE
  5
3C9
330
1B4
100
AcDbEntity
  8
Stammform
  6
AUSGEZOGEN
 62
    56
370
    18
100
AcDbLine
 10
495.984402443761
 20
145.16137421189
 30
0.0
 11
498.282315345074
 21
145.16137421189
 31
0.0
  0
LINE
  5
3CA
330
1B4
100
AcDbEntity
  8
Stammform
  6
AUSGEZOGEN
 62
    56
370
    18
100
AcDbLine
 10
495.984402443761
 20
145.16137421189
 30
0.0
 11
494.835445993104
 21
143.171324460646
 31
0.0
  0
LINE
  5
3CB
330
1B4
100
AcDbEntity
  8
Stammform
  6
AUSGEZOGEN
 62
    56
370
    18
100
AcDbLine
 10
495.984402443761
 20
149.141473714377
 30
0.0
 11
494.835445993104
 21
147.151423963134
 31
0.0
  0
LINE
  5
3CC
330
1B4
100
AcDbEntity
  8
Stammform
  6
AUSGEZOGEN
 62
    56
370
    18
100
AcDbLine
 10
495.984402443761
 20
149.141473714377
 30
0.0
 11
498.282315345074
 21
149.141473714377
 31
0.0
  0
LINE
  5
3CD
330
1B4
100
AcDbEntity
  8
Stammform
  6
AUSGEZOGEN
 62
    56
370
    18
100
AcDbLine
 10
494.835445993104
 20
151.131523465621
 30
0.0
 11
495.984402443761
 21
149.141473714377
 31
0.0
  0
LINE
  5
3CE
330
1B4
100
AcDbEntity
  8
Layer0
  6
AUSGEZOGEN
 62
     9
370
    18
100
AcDbLine
 10
494.835445993104
 20
151.131523465621
 30
0.0
 11
493.686489542447
 21
149.141473714377
 31
0.0
  0
LINE
  5
3CF
330
1B4
100
AcDbEntity
  8
Layer0
  6
AUSGEZOGEN
 62
     9
370
    18
100
AcDbLine
 10
493.686489542447
 20
149.141473714377
 30
0.0
 11
494.835445993104
 21
147.151423963134
 31
0.0
  0
LINE
  5
3D0
330
1B4
100
AcDbEntity
  8
Layer0
  6
AUSGEZOGEN
 62
     9
370
    18
100
AcDbLine
 10
494.835445993104
 20
147.151423963134
 30
0.0
 11
497.133358894418
 21
147.151423963134
 31
0.0
  0
LINE
  5
3D1
330
1B4
100
AcDbEntity
  8
Layer0
  6
AUSGEZOGEN
 62
     9
370
    18
100
AcDbLine
 10
497.133358894418
 20
147.151423963134
 30
0.0
 11
498.282315345074
 21
149.141473714377
 31
0.0
  0
LINE
  5
3D2
330
1B4
100
AcDbEntity
  8
Layer0
  6
AUSGEZOGEN
 62
     9
370
    18
100
AcDbLine
 10
498.282315345074
 20
149.141473714377
 30
0.0
 11
497.133358894418
 21
151.131523465621
 31
0.0
  0
LINE
  5
3D3
330
1B4
100
AcDbEntity
  8
Layer0
  6
AUSGEZOGEN
 62
     9
370
    18
100
AcDbLine
 10
497.133358894418
 20
151.131523465621
 30
0.0
 11
494.835445993104
 21
151.131523465621
 31
0.0
  0
LINE
  5
3D4
330
1B4
100
AcDbEntity
  8
Layer0
  6
AUSGEZOGEN
 62
     9
370
    18
100
AcDbLine
 10
494.835445993104
 20
139.191224958159
 30
0.0
 11
493.686489542447
 21
137.201175206915
 31
0.0
  0
LINE
  5
3D5
330
1B4
100
AcDbEntity
  8
Layer0
  6
AUSGEZOGEN
 62
     9
370
    18
100
AcDbLine
 10
493.686489542447
 20
137.201175206915
 30
0.0
 11
494.835445993104
 21
135.211125455671
 31
0.0
  0
LINE
  5
3D6
330
1B4
100
AcDbEntity
  8
Layer0
  6
AUSGEZOGEN
 62
     9
370
    18
100
AcDbLine
 10
494.835445993104
 20
135.211125455671
 30
0.0
 11
497.133358894418
 21
135.211125455671
 31
0.0
  0
LINE
  5
3D7
330
1B4
100
AcDbEntity
  8
Layer0
  6
AUSGEZOGEN
 62
     9
370
    18
100
AcDbLine
 10
497.133358894418
 20
135.211125455671
 30
0.0
 11
498.282315345074
 21
137.201175206915
 31
0.0
  0
LINE
  5
3D8
330
1B4
100
AcDbEntity
  8
Layer0
  6
AUSGEZOGEN
 62
     9
370
    18
100
AcDbLine
 10
498.282315345074
 20
137.201175206915
 30
0.0
 11
497.133358894418
 21
139.191224958159
 31
0.0
  0
LINE
  5
3D9
330
1B4
100
AcDbEntity
  8
Layer0
  6
AUSGEZOGEN
 62
     9
370
    18
100
AcDbLine
 10
497.133358894418
 20
139.191224958159
 30
0.0
 11
494.835445993104
 21
139.191224958159
 31
0.0
  0
LINE
  5
3DA
330
1B4
100
AcDbEntity
  8
Stammform
  6
AUSGEZOGEN
 62
    56
370
    18
100
AcDbLine
 10
494.835445993104
 20
139.191224958159
 30
0.0
 11
495.984402443761
 21
137.201175206915
 31
0.0
  0
LINE
  5
3DB
330
1B4
100
AcDbEntity
  8
Stammform
  6
AUSGEZOGEN
 62
    56
370
    18
100
AcDbLine
 10
495.984402443761
 20
137.201175206915
 30
0.0
 11
498.282315345074
 21
137.201175206915
 31
0.0
  0
LINE
  5
3DC
330
1B4
100
AcDbEntity
  8
Stammform
  6
AUSGEZOGEN
 62
    56
370
    18
100
AcDbLine
 10
495.984402443761
 20
137.201175206915
 30
0.0
 11
494.835445993104
 21
135.211125455671
 31
0.0
  0
LINE
  5
3DD
330
1B4
100
AcDbEntity
  8
Stammform
  6
AUSGEZOGEN
 62
    56
370
    18
100
AcDbLine
 10
495.984402443761
 20
141.181274709402
 30
0.0
 11
494.835445993104
 21
139.191224958159
 31
0.0
  0
LINE
  5
3DE
330
1B4
100
AcDbEntity
  8
Stammform
  6
AUSGEZOGEN
 62
    56
370
    18
100
AcDbLine
 10
495.984402443761
 20
141.181274709402
 30
0.0
 11
498.282315345074
 21
141.181274709402
 31
0.0
  0
LINE
  5
3DF
330
1B4
100
AcDbEntity
  8
Stammform
  6
AUSGEZOGEN
 62
    56
370
    18
100
AcDbLine
 10
494.835445993104
 20
143.171324460646
 30
0.0
 11
495.984402443761
 21
141.181274709402
 31
0.0
  0
LINE
  5
3E0
330
1B4
100
AcDbEntity
  8
Layer0
  6
AUSGEZOGEN
 62
     9
370
    18
100
AcDbLine
 10
494.835445993104
 20
143.171324460646
 30
0.0
 11
493.686489542447
 21
141.181274709402
 31
0.0
  0
LINE
  5
3E1
330
1B4
100
AcDbEntity
  8
Layer0
  6
AUSGEZOGEN
 62
     9
370
    18
100
AcDbLine
 10
493.686489542447
 20
141.181274709402
 30
0.0
 11
494.835445993104
 21
139.191224958159
 31
0.0
  0
LINE
  5
3E2
330
1B4
100
AcDbEntity
  8
Layer0
  6
AUSGEZOGEN
 62
     9
370
    18
100
AcDbLine
 10
494.835445993104
 20
139.191224958159
 30
0.0
 11
497.133358894418
 21
139.191224958159
 31
0.0
  0
LINE
  5
3E3
330
1B4
100
AcDbEntity
  8
Layer0
  6
AUSGEZOGEN
 62
     9
370
    18
100
AcDbLine
 10
497.133358894418
 20
139.191224958159
 30
0.0
 11
498.282315345074
 21
141.181274709402
 31
0.0
  0
LINE
  5
3E4
330
1B4
100
AcDbEntity
  8
Layer0
  6
AUSGEZOGEN
 62
     9
370
    18
100
AcDbLine
 10
498.282315345074
 20
141.181274709402
 30
0.0
 11
497.133358894418
 21
143.171324460646
 31
0.0
  0
LINE
  5
3E5
330
1B4
100
AcDbEntity
  8
Layer0
  6
AUSGEZOGEN
 62
     9
370
    18
100
AcDbLine
 10
497.133358894418
 20
143.171324460646
 30
0.0
 11
494.835445993104
 21
143.171324460646
 31
0.0
  0
LINE
  5
3E6
330
1B4
100
AcDbEntity
  8
Layer0
  6
AUSGEZOGEN
 62
     9
370
    18
100
AcDbLine
 10
494.835445993104
 20
131.231018361746
 30
0.0
 11
493.686489542447
 21
129.240968610502
 31
0.0
  0
LINE
  5
3E7
330
1B4
100
AcDbEntity
  8
Layer0
  6
AUSGEZOGEN
 62
     9
370
    18
100
AcDbLine
 10
493.686489542447
 20
129.240968610502
 30
0.0
 11
494.835445993104
 21
127.250918859258
 31
0.0
  0
LINE
  5
3E8
330
1B4
100
AcDbEntity
  8
Layer0
  6
AUSGEZOGEN
 62
     9
370
    18
100
AcDbLine
 10
494.835445993104
 20
127.250918859258
 30
0.0
 11
497.133358894418
 21
127.250918859258
 31
0.0
  0
LINE
  5
3E9
330
1B4
100
AcDbEntity
  8
Layer0
  6
AUSGEZOGEN
 62
     9
370
    18
100
AcDbLine
 10
497.133358894418
 20
127.250918859258
 30
0.0
 11
498.282315345074
 21
129.240968610502
 31
0.0
  0
LINE
  5
3EA
330
1B4
100
AcDbEntity
  8
Layer0
  6
AUSGEZOGEN
 62
     9
370
    18
100
AcDbLine
 10
498.282315345074
 20
129.240968610502
 30
0.0
 11
497.133358894418
 21
131.231018361746
 31
0.0
  0
LINE
  5
3EB
330
1B4
100
AcDbEntity
  8
Layer0
  6
AUSGEZOGEN
 62
     9
370
    18
100
AcDbLine
 10
497.133358894418
 20
131.231018361746
 30
0.0
 11
494.835445993104
 21
131.231018361746
 31
0.0
  0
LINE
  5
3EC
330
1B4
100
AcDbEntity
  8
Stammform
  6
AUSGEZOGEN
 62
    56
370
    18
100
AcDbLine
 10
494.835445993104
 20
131.231018361746
 30
0.0
 11
495.984402443761
 21
129.240968610502
 31
0.0
  0
LINE
  5
3ED
330
1B4
100
AcDbEntity
  8
Stammform
  6
AUSGEZOGEN
 62
    56
370
    18
100
AcDbLine
 10
495.984402443761
 20
129.240968610502
 30
0.0
 11
498.282315345074
 21
129.240968610502
 31
0.0
  0
LINE
  5
3EE
330
1B4
100
AcDbEntity
  8
Stammform
  6
AUSGEZOGEN
 62
    56
370
    18
100
AcDbLine
 10
495.984402443761
 20
129.240968610502
 30
0.0
 11
494.835445993104
 21
127.250918859258
 31
0.0
  0
LINE
  5
3EF
330
1B4
100
AcDbEntity
  8
Stammform
  6
AUSGEZOGEN
 62
    56
370
    18
100
AcDbLine
 10
495.984402443761
 20
133.22106811299
 30
0.0
 11
494.835445993104
 21
131.231018361746
 31
0.0
  0
LINE
  5
3F0
330
1B4
100
AcDbEntity
  8
Stammform
  6
AUSGEZOGEN
 62
    56
370
    18
100
AcDbLine
 10
495.984402443761
 20
133.22106811299
 30
0.0
 11
498.282315345074
 21
133.22106811299
 31
0.0
  0
LINE
  5
3F1
330
1B4
100
AcDbEntity
  8
Stammform
  6
AUSGEZOGEN
 62
    56
370
    18
100
AcDbLine
 10
494.835445993104
 20
135.211125455671
 30
0.0
 11
495.984402443761
 21
133.22106811299
 31
0.0
  0
LINE
  5
3F2
330
1B4
100
AcDbEntity
  8
Layer0
  6
AUSGEZOGEN
 62
     9
370
    18
100
AcDbLine
 10
494.835445993104
 20
135.211125455671
 30
0.0
 11
493.686489542447
 21
133.22106811299
 31
0.0
  0
LINE
  5
3F3
330
1B4
100
AcDbEntity
  8
Layer0
  6
AUSGEZOGEN
 62
     9
370
    18
100
AcDbLine
 10
493.686489542447
 20
133.22106811299
 30
0.0
 11
494.835445993104
 21
131.231018361746
 31
0.0
  0
LINE
  5
3F4
330
1B4
100
AcDbEntity
  8
Layer0
  6
AUSGEZOGEN
 62
     9
370
    18
100
AcDbLine
 10
494.835445993104
 20
131.231018361746
 30
0.0
 11
497.133358894418
 21
131.231018361746
 31
0.0
  0
LINE
  5
3F5
330
1B4
100
AcDbEntity
  8
Layer0
  6
AUSGEZOGEN
 62
     9
370
    18
100
AcDbLine
 10
497.133358894418
 20
131.231018361746
 30
0.0
 11
498.282315345074
 21
133.22106811299
 31
0.0
  0
LINE
  5
3F6
330
1B4
100
AcDbEntity
  8
Layer0
  6
AUSGEZOGEN
 62
     9
370
    18
100
AcDbLine
 10
498.282315345074
 20
133.22106811299
 30
0.0
 11
497.133358894418
 21
135.211125455671
 31
0.0
  0
LINE
  5
3F7
330
1B4
100
AcDbEntity
  8
Layer0
  6
AUSGEZOGEN
 62
     9
370
    18
100
AcDbLine
 10
497.133358894418
 20
135.211125455671
 30
0.0
 11
494.835445993104
 21
135.211125455671
 31
0.0
  0
LINE
  5
3F8
330
1B4
100
AcDbEntity
  8
Layer0
  6
AUSGEZOGEN
 62
     9
370
    18
100
AcDbLine
 10
494.835445993104
 20
127.250918859258
 30
0.0
 11
493.686489542447
 21
125.260869108015
 31
0.0
  0
LINE
  5
3F9
330
1B4
100
AcDbEntity
  8
Layer0
  6
AUSGEZOGEN
 62
     9
370
    18
100
AcDbLine
 10
493.686489542447
 20
125.260869108015
 30
0.0
 11
494.835445993104
 21
123.270826948208
 31
0.0
  0
LINE
  5
3FA
330
1B4
100
AcDbEntity
  8
Layer0
  6
AUSGEZOGEN
 62
     9
370
    18
100
AcDbLine
 10
494.835445993104
 20
123.270826948208
 30
0.0
 11
497.133358894418
 21
123.270826948208
 31
0.0
  0
LINE
  5
3FB
330
1B4
100
AcDbEntity
  8
Layer0
  6
AUSGEZOGEN
 62
     9
370
    18
100
AcDbLine
 10
497.133358894418
 20
123.270826948208
 30
0.0
 11
498.282315345074
 21
125.260869108015
 31
0.0
  0
LINE
  5
3FC
330
1B4
100
AcDbEntity
  8
Layer0
  6
AUSGEZOGEN
 62
     9
370
    18
100
AcDbLine
 10
498.282315345074
 20
125.260869108015
 30
0.0
 11
497.133358894418
 21
127.250918859258
 31
0.0
  0
LINE
  5
3FD
330
1B4
100
AcDbEntity
  8
Layer0
  6
AUSGEZOGEN
 62
     9
370
    18
100
AcDbLine
 10
497.133358894418
 20
127.250918859258
 30
0.0
 11
494.835445993104
 21
127.250918859258
 31
0.0
  0
LINE
  5
3FE
330
1B4
100
AcDbEntity
  8
Stammform
  6
AUSGEZOGEN
 62
    56
370
    18
100
AcDbLine
 10
494.835445993104
 20
127.250918859258
 30
0.0
 11
495.984402443761
 21
125.260869108015
 31
0.0
  0
LINE
  5
3FF
330
1B4
100
AcDbEntity
  8
Stammform
  6
AUSGEZOGEN
 62
    56
370
    18
100
AcDbLine
 10
495.984402443761
 20
125.260869108015
 30
0.0
 11
498.282315345074
 21
125.260869108015
 31
0.0
  0
LINE
  5
400
330
1B4
100
AcDbEntity
  8
Stammform
  6
AUSGEZOGEN
 62
    56
370
    18
100
AcDbLine
 10
495.984402443761
 20
125.260869108015
 30
0.0
 11
494.835445993104
 21
123.270826948208
 31
0.0
  0
LINE
  5
401
330
1B4
100
AcDbEntity
  8
Stammform
  6
AUSGEZOGEN
 62
    56
370
    18
100
AcDbLine
 10
495.984402443761
 20
121.280777196964
 30
0.0
 11
494.835445993104
 21
119.290727445721
 31
0.0
  0
LINE
  5
402
330
1B4
100
AcDbEntity
  8
Stammform
  6
AUSGEZOGEN
 62
    56
370
    18
100
AcDbLine
 10
495.984402443761
 20
121.280777196964
 30
0.0
 11
498.282315345074
 21
121.280777196964
 31
0.0
  0
LINE
  5
403
330
1B4
100
AcDbEntity
  8
Stammform
  6
AUSGEZOGEN
 62
    56
370
    18
100
AcDbLine
 10
494.835445993104
 20
123.270826948208
 30
0.0
 11
495.984402443761
 21
121.280777196964
 31
0.0
  0
LINE
  5
404
330
1B4
100
AcDbEntity
  8
Layer0
  6
AUSGEZOGEN
 62
     9
370
    18
100
AcDbLine
 10
494.835445993104
 20
123.270826948208
 30
0.0
 11
493.686489542447
 21
121.280777196964
 31
0.0
  0
LINE
  5
405
330
1B4
100
AcDbEntity
  8
Layer0
  6
AUSGEZOGEN
 62
     9
370
    18
100
AcDbLine
 10
493.686489542447
 20
121.280777196964
 30
0.0
 11
494.835445993104
 21
119.290727445721
 31
0.0
  0
LINE
  5
406
330
1B4
100
AcDbEntity
  8
Layer0
  6
AUSGEZOGEN
 62
     9
370
    18
100
AcDbLine
 10
497.133358894418
 20
119.290727445721
 30
0.0
 11
498.282315345074
 21
121.280777196964
 31
0.0
  0
LINE
  5
407
330
1B4
100
AcDbEntity
  8
Layer0
  6
AUSGEZOGEN
 62
     9
370
    18
100
AcDbLine
 10
498.282315345074
 20
121.280777196964
 30
0.0
 11
497.133358894418
 21
123.270826948208
 31
0.0
  0
LINE
  5
408
330
1B4
100
AcDbEntity
  8
Layer0
  6
AUSGEZOGEN
 62
     9
370
    18
100
AcDbLine
 10
497.133358894418
 20
123.270826948208
 30
0.0
 11
494.835445993104
 21
123.270826948208
 31
0.0
  0
LINE
  5
409
330
1B4
100
AcDbEntity
  8
Layer0
  6
AUSGEZOGEN
 62
     9
370
    18
100
AcDbLine
 10
491.388584232571
 20
121.280777196964
 30
0.0
 11
490.239627781914
 21
119.290727445721
 31
0.0
  0
LINE
  5
40A
330
1B4
100
AcDbEntity
  8
Layer0
  6
AUSGEZOGEN
 62
     9
370
    18
100
AcDbLine
 10
494.835445993104
 20
119.290727445721
 30
0.0
 11
493.686489542447
 21
121.280777196964
 31
0.0
  0
LINE
  5
40B
330
1B4
100
AcDbEntity
  8
Layer0
  6
AUSGEZOGEN
 62
     9
370
    18
100
AcDbLine
 10
493.686489542447
 20
121.280777196964
 30
0.0
 11
491.388584232571
 21
121.280777196964
 31
0.0
  0
LINE
  5
40C
330
1B4
100
AcDbEntity
  8
Stammform
  6
AUSGEZOGEN
 62
    56
370
    18
100
AcDbLine
 10
491.388584232571
 20
121.280777196964
 30
0.0
 11
492.53753309179
 21
119.290727445721
 31
0.0
  0
LINE
  5
40D
330
1B4
100
AcDbEntity
  8
Stammform
  6
AUSGEZOGEN
 62
    56
370
    18
100
AcDbLine
 10
492.53753309179
 20
123.270826948208
 30
0.0
 11
491.388584232571
 21
121.280777196964
 31
0.0
  0
LINE
  5
40E
330
1B4
100
AcDbEntity
  8
Stammform
  6
AUSGEZOGEN
 62
    56
370
    18
100
AcDbLine
 10
492.53753309179
 20
123.270826948208
 30
0.0
 11
494.835445993104
 21
123.270826948208
 31
0.0
  0
LINE
  5
40F
330
1B4
100
AcDbEntity
  8
Stammform
  6
AUSGEZOGEN
 62
    56
370
    18
100
AcDbLine
 10
491.388584232571
 20
125.260869108015
 30
0.0
 11
492.53753309179
 21
123.270826948208
 31
0.0
  0
LINE
  5
410
330
1B4
100
AcDbEntity
  8
Layer0
  6
AUSGEZOGEN
 62
     9
370
    18
100
AcDbLine
 10
491.388584232571
 20
125.260869108015
 30
0.0
 11
490.239627781914
 21
123.270826948208
 31
0.0
  0
LINE
  5
411
330
1B4
100
AcDbEntity
  8
Layer0
  6
AUSGEZOGEN
 62
     9
370
    18
100
AcDbLine
 10
490.239627781914
 20
123.270826948208
 30
0.0
 11
491.388584232571
 21
121.280777196964
 31
0.0
  0
LINE
  5
412
330
1B4
100
AcDbEntity
  8
Layer0
  6
AUSGEZOGEN
 62
     9
370
    18
100
AcDbLine
 10
491.388584232571
 20
121.280777196964
 30
0.0
 11
493.686489542447
 21
121.280777196964
 31
0.0
  0
LINE
  5
413
330
1B4
100
AcDbEntity
  8
Layer0
  6
AUSGEZOGEN
 62
     9
370
    18
100
AcDbLine
 10
493.686489542447
 20
121.280777196964
 30
0.0
 11
494.835445993104
 21
123.270826948208
 31
0.0
  0
LINE
  5
414
330
1B4
100
AcDbEntity
  8
Layer0
  6
AUSGEZOGEN
 62
     9
370
    18
100
AcDbLine
 10
494.835445993104
 20
123.270826948208
 30
0.0
 11
493.686489542447
 21
125.260869108015
 31
0.0
  0
LINE
  5
415
330
1B4
100
AcDbEntity
  8
Layer0
  6
AUSGEZOGEN
 62
     9
370
    18
100
AcDbLine
 10
493.686489542447
 20
125.260869108015
 30
0.0
 11
491.388584232571
 21
125.260869108015
 31
0.0
  0
LINE
  5
416
330
1B4
100
AcDbEntity
  8
Layer0
  6
AUSGEZOGEN
 62
     9
370
    18
100
AcDbLine
 10
491.388584232571
 20
133.22106811299
 30
0.0
 11
490.239627781914
 21
131.231018361746
 31
0.0
  0
LINE
  5
417
330
1B4
100
AcDbEntity
  8
Layer0
  6
AUSGEZOGEN
 62
     9
370
    18
100
AcDbLine
 10
490.239627781914
 20
131.231018361746
 30
0.0
 11
491.388584232571
 21
129.240968610502
 31
0.0
  0
LINE
  5
418
330
1B4
100
AcDbEntity
  8
Layer0
  6
AUSGEZOGEN
 62
     9
370
    18
100
AcDbLine
 10
491.388584232571
 20
129.240968610502
 30
0.0
 11
493.686489542447
 21
129.240968610502
 31
0.0
  0
LINE
  5
419
330
1B4
100
AcDbEntity
  8
Layer0
  6
AUSGEZOGEN
 62
     9
370
    18
100
AcDbLine
 10
493.686489542447
 20
129.240968610502
 30
0.0
 11
494.835445993104
 21
131.231018361746
 31
0.0
  0
LINE
  5
41A
330
1B4
100
AcDbEntity
  8
Layer0
  6
AUSGEZOGEN
 62
     9
370
    18
100
AcDbLine
 10
494.835445993104
 20
131.231018361746
 30
0.0
 11
493.686489542447
 21
133.22106811299
 31
0.0
  0
LINE
  5
41B
330
1B4
100
AcDbEntity
  8
Layer0
  6
AUSGEZOGEN
 62
     9
370
    18
100
AcDbLine
 10
493.686489542447
 20
133.22106811299
 30
0.0
 11
491.388584232571
 21
133.22106811299
 31
0.0
  0
LINE
  5
41C
330
1B4
100
AcDbEntity
  8
Stammform
  6
AUSGEZOGEN
 62
    56
370
    18
100
AcDbLine
 10
491.388584232571
 20
133.22106811299
 30
0.0
 11
492.53753309179
 21
131.231018361746
 31
0.0
  0
LINE
  5
41D
330
1B4
100
AcDbEntity
  8
Stammform
  6
AUSGEZOGEN
 62
    56
370
    18
100
AcDbLine
 10
492.53753309179
 20
131.231018361746
 30
0.0
 11
494.835445993104
 21
131.231018361746
 31
0.0
  0
LINE
  5
41E
330
1B4
100
AcDbEntity
  8
Stammform
  6
AUSGEZOGEN
 62
    56
370
    18
100
AcDbLine
 10
492.53753309179
 20
131.231018361746
 30
0.0
 11
491.388584232571
 21
129.240968610502
 31
0.0
  0
LINE
  5
41F
330
1B4
100
AcDbEntity
  8
Stammform
  6
AUSGEZOGEN
 62
    56
370
    18
100
AcDbLine
 10
492.53753309179
 20
127.250918859258
 30
0.0
 11
491.388584232571
 21
125.260869108015
 31
0.0
  0
LINE
  5
420
330
1B4
100
AcDbEntity
  8
Stammform
  6
AUSGEZOGEN
 62
    56
370
    18
100
AcDbLine
 10
492.53753309179
 20
127.250918859258
 30
0.0
 11
494.835445993104
 21
127.250918859258
 31
0.0
  0
LINE
  5
421
330
1B4
100
AcDbEntity
  8
Stammform
  6
AUSGEZOGEN
 62
    56
370
    18
100
AcDbLine
 10
491.388584232571
 20
129.240968610502
 30
0.0
 11
492.53753309179
 21
127.250918859258
 31
0.0
  0
LINE
  5
422
330
1B4
100
AcDbEntity
  8
Layer0
  6
AUSGEZOGEN
 62
     9
370
    18
100
AcDbLine
 10
491.388584232571
 20
129.240968610502
 30
0.0
 11
490.239627781914
 21
127.250918859258
 31
0.0
  0
LINE
  5
423
330
1B4
100
AcDbEntity
  8
Layer0
  6
AUSGEZOGEN
 62
     9
370
    18
100
AcDbLine
 10
490.239627781914
 20
127.250918859258
 30
0.0
 11
491.388584232571
 21
125.260869108015
 31
0.0
  0
LINE
  5
424
330
1B4
100
AcDbEntity
  8
Layer0
  6
AUSGEZOGEN
 62
     9
370
    18
100
AcDbLine
 10
491.388584232571
 20
125.260869108015
 30
0.0
 11
493.686489542447
 21
125.260869108015
 31
0.0
  0
LINE
  5
425
330
1B4
100
AcDbEntity
  8
Layer0
  6
AUSGEZOGEN
 62
     9
370
    18
100
AcDbLine
 10
493.686489542447
 20
125.260869108015
 30
0.0
 11
494.835445993104
 21
127.250918859258
 31
0.0
  0
LINE
  5
426
330
1B4
100
AcDbEntity
  8
Layer0
  6
AUSGEZOGEN
 62
     9
370
    18
100
AcDbLine
 10
494.835445993104
 20
127.250918859258
 30
0.0
 11
493.686489542447
 21
129.240968610502
 31
0.0
  0
LINE
  5
427
330
1B4
100
AcDbEntity
  8
Layer0
  6
AUSGEZOGEN
 62
     9
370
    18
100
AcDbLine
 10
493.686489542447
 20
129.240968610502
 30
0.0
 11
491.388584232571
 21
129.240968610502
 31
0.0
  0
LINE
  5
428
330
1B4
100
AcDbEntity
  8
Layer0
  6
AUSGEZOGEN
 62
     9
370
    18
100
AcDbLine
 10
491.388584232571
 20
141.181274709402
 30
0.0
 11
490.239627781914
 21
139.191224958159
 31
0.0
  0
LINE
  5
429
330
1B4
100
AcDbEntity
  8
Layer0
  6
AUSGEZOGEN
 62
     9
370
    18
100
AcDbLine
 10
490.239627781914
 20
139.191224958159
 30
0.0
 11
491.388584232571
 21
137.201175206915
 31
0.0
  0
LINE
  5
42A
330
1B4
100
AcDbEntity
  8
Layer0
  6
AUSGEZOGEN
 62
     9
370
    18
100
AcDbLine
 10
491.388584232571
 20
137.201175206915
 30
0.0
 11
493.686489542447
 21
137.201175206915
 31
0.0
  0
LINE
  5
42B
330
1B4
100
AcDbEntity
  8
Layer0
  6
AUSGEZOGEN
 62
     9
370
    18
100
AcDbLine
 10
493.686489542447
 20
137.201175206915
 30
0.0
 11
494.835445993104
 21
139.191224958159
 31
0.0
  0
LINE
  5
42C
330
1B4
100
AcDbEntity
  8
Layer0
  6
AUSGEZOGEN
 62
     9
370
    18
100
AcDbLine
 10
494.835445993104
 20
139.191224958159
 30
0.0
 11
493.686489542447
 21
141.181274709402
 31
0.0
  0
LINE
  5
42D
330
1B4
100
AcDbEntity
  8
Layer0
  6
AUSGEZOGEN
 62
     9
370
    18
100
AcDbLine
 10
493.686489542447
 20
141.181274709402
 30
0.0
 11
491.388584232571
 21
141.181274709402
 31
0.0
  0
LINE
  5
42E
330
1B4
100
AcDbEntity
  8
Stammform
  6
AUSGEZOGEN
 62
    56
370
    18
100
AcDbLine
 10
491.388584232571
 20
141.181274709402
 30
0.0
 11
492.53753309179
 21
139.191224958159
 31
0.0
  0
LINE
  5
42F
330
1B4
100
AcDbEntity
  8
Stammform
  6
AUSGEZOGEN
 62
    56
370
    18
100
AcDbLine
 10
492.53753309179
 20
139.191224958159
 30
0.0
 11
494.835445993104
 21
139.191224958159
 31
0.0
  0
LINE
  5
430
330
1B4
100
AcDbEntity
  8
Stammform
  6
AUSGEZOGEN
 62
    56
370
    18
100
AcDbLine
 10
492.53753309179
 20
139.191224958159
 30
0.0
 11
491.388584232571
 21
137.201175206915
 31
0.0
  0
LINE
  5
431
330
1B4
100
AcDbEntity
  8
Stammform
  6
AUSGEZOGEN
 62
    56
370
    18
100
AcDbLine
 10
492.53753309179
 20
135.211125455671
 30
0.0
 11
491.388584232571
 21
133.22106811299
 31
0.0
  0
LINE
  5
432
330
1B4
100
AcDbEntity
  8
Stammform
  6
AUSGEZOGEN
 62
    56
370
    18
100
AcDbLine
 10
492.53753309179
 20
135.211125455671
 30
0.0
 11
494.835445993104
 21
135.211125455671
 31
0.0
  0
LINE
  5
433
330
1B4
100
AcDbEntity
  8
Stammform
  6
AUSGEZOGEN
 62
    56
370
    18
100
AcDbLine
 10
491.388584232571
 20
137.201175206915
 30
0.0
 11
492.53753309179
 21
135.211125455671
 31
0.0
  0
LINE
  5
434
330
1B4
100
AcDbEntity
  8
Layer0
  6
AUSGEZOGEN
 62
     9
370
    18
100
AcDbLine
 10
491.388584232571
 20
137.201175206915
 30
0.0
 11
490.239627781914
 21
135.211125455671
 31
0.0
  0
LINE
  5
435
330
1B4
100
AcDbEntity
  8
Layer0
  6
AUSGEZOGEN
 62
     9
370
    18
100
AcDbLine
 10
490.239627781914
 20
135.211125455671
 30
0.0
 11
491.388584232571
 21
133.22106811299
 31
0.0
  0
LINE
  5
436
330
1B4
100
AcDbEntity
  8
Layer0
  6
AUSGEZOGEN
 62
     9
370
    18
100
AcDbLine
 10
491.388584232571
 20
133.22106811299
 30
0.0
 11
493.686489542447
 21
133.22106811299
 31
0.0
  0
LINE
  5
437
330
1B4
100
AcDbEntity
  8
Layer0
  6
AUSGEZOGEN
 62
     9
370
    18
100
AcDbLine
 10
493.686489542447
 20
133.22106811299
 30
0.0
 11
494.835445993104
 21
135.211125455671
 31
0.0
  0
LINE
  5
438
330
1B4
100
AcDbEntity
  8
Layer0
  6
AUSGEZOGEN
 62
     9
370
    18
100
AcDbLine
 10
494.835445993104
 20
135.211125455671
 30
0.0
 11
493.686489542447
 21
137.201175206915
 31
0.0
  0
LINE
  5
439
330
1B4
100
AcDbEntity
  8
Layer0
  6
AUSGEZOGEN
 62
     9
370
    18
100
AcDbLine
 10
493.686489542447
 20
137.201175206915
 30
0.0
 11
491.388584232571
 21
137.201175206915
 31
0.0
  0
LINE
  5
43A
330
1B4
100
AcDbEntity
  8
Layer0
  6
AUSGEZOGEN
 62
     9
370
    18
100
AcDbLine
 10
491.388584232571
 20
149.141473714377
 30
0.0
 11
490.239627781914
 21
147.151423963134
 31
0.0
  0
LINE
  5
43B
330
1B4
100
AcDbEntity
  8
Layer0
  6
AUSGEZOGEN
 62
     9
370
    18
100
AcDbLine
 10
490.239627781914
 20
147.151423963134
 30
0.0
 11
491.388584232571
 21
145.16137421189
 31
0.0
  0
LINE
  5
43C
330
1B4
100
AcDbEntity
  8
Layer0
  6
AUSGEZOGEN
 62
     9
370
    18
100
AcDbLine
 10
491.388584232571
 20
145.16137421189
 30
0.0
 11
493.686489542447
 21
145.16137421189
 31
0.0
  0
LINE
  5
43D
330
1B4
100
AcDbEntity
  8
Layer0
  6
AUSGEZOGEN
 62
     9
370
    18
100
AcDbLine
 10
493.686489542447
 20
145.16137421189
 30
0.0
 11
494.835445993104
 21
147.151423963134
 31
0.0
  0
LINE
  5
43E
330
1B4
100
AcDbEntity
  8
Layer0
  6
AUSGEZOGEN
 62
     9
370
    18
100
AcDbLine
 10
494.835445993104
 20
147.151423963134
 30
0.0
 11
493.686489542447
 21
149.141473714377
 31
0.0
  0
LINE
  5
43F
330
1B4
100
AcDbEntity
  8
Layer0
  6
AUSGEZOGEN
 62
     9
370
    18
100
AcDbLine
 10
493.686489542447
 20
149.141473714377
 30
0.0
 11
491.388584232571
 21
149.141473714377
 31
0.0
  0
LINE
  5
440
330
1B4
100
AcDbEntity
  8
Stammform
  6
AUSGEZOGEN
 62
    56
370
    18
100
AcDbLine
 10
491.388584232571
 20
149.141473714377
 30
0.0
 11
492.53753309179
 21
147.151423963134
 31
0.0
  0
LINE
  5
441
330
1B4
100
AcDbEntity
  8
Stammform
  6
AUSGEZOGEN
 62
    56
370
    18
100
AcDbLine
 10
492.53753309179
 20
147.151423963134
 30
0.0
 11
494.835445993104
 21
147.151423963134
 31
0.0
  0
LINE
  5
442
330
1B4
100
AcDbEntity
  8
Stammform
  6
AUSGEZOGEN
 62
    56
370
    18
100
AcDbLine
 10
492.53753309179
 20
147.151423963134
 30
0.0
 11
491.388584232571
 21
145.16137421189
 31
0.0
  0
LINE
  5
443
330
1B4
100
AcDbEntity
  8
Stammform
  6
AUSGEZOGEN
 62
    56
370
    18
100
AcDbLine
 10
492.53753309179
 20
143.171324460646
 30
0.0
 11
491.388584232571
 21
141.181274709402
 31
0.0
  0
LINE
  5
444
330
1B4
100
AcDbEntity
  8
Stammform
  6
AUSGEZOGEN
 62
    56
370
    18
100
AcDbLine
 10
492.53753309179
 20
143.171324460646
 30
0.0
 11
494.835445993104
 21
143.171324460646
 31
0.0
  0
LINE
  5
445
330
1B4
100
AcDbEntity
  8
Stammform
  6
AUSGEZOGEN
 62
    56
370
    18
100
AcDbLine
 10
491.388584232571
 20
145.16137421189
 30
0.0
 11
492.53753309179
 21
143.171324460646
 31
0.0
  0
LINE
  5
446
330
1B4
100
AcDbEntity
  8
Layer0
  6
AUSGEZOGEN
 62
     9
370
    18
100
AcDbLine
 10
491.388584232571
 20
145.16137421189
 30
0.0
 11
490.239627781914
 21
143.171324460646
 31
0.0
  0
LINE
  5
447
330
1B4
100
AcDbEntity
  8
Layer0
  6
AUSGEZOGEN
 62
     9
370
    18
100
AcDbLine
 10
490.239627781914
 20
143.171324460646
 30
0.0
 11
491.388584232571
 21
141.181274709402
 31
0.0
  0
LINE
  5
448
330
1B4
100
AcDbEntity
  8
Layer0
  6
AUSGEZOGEN
 62
     9
370
    18
100
AcDbLine
 10
491.388584232571
 20
141.181274709402
 30
0.0
 11
493.686489542447
 21
141.181274709402
 31
0.0
  0
LINE
  5
449
330
1B4
100
AcDbEntity
  8
Layer0
  6
AUSGEZOGEN
 62
     9
370
    18
100
AcDbLine
 10
493.686489542447
 20
141.181274709402
 30
0.0
 11
494.835445993104
 21
143.171324460646
 31
0.0
  0
LINE
  5
44A
330
1B4
100
AcDbEntity
  8
Layer0
  6
AUSGEZOGEN
 62
     9
370
    18
100
AcDbLine
 10
494.835445993104
 20
143.171324460646
 30
0.0
 11
493.686489542447
 21
145.16137421189
 31
0.0
  0
LINE
  5
44B
330
1B4
100
AcDbEntity
  8
Layer0
  6
AUSGEZOGEN
 62
     9
370
    18
100
AcDbLine
 10
493.686489542447
 20
145.16137421189
 30
0.0
 11
491.388584232571
 21
145.16137421189
 31
0.0
  0
LINE
  5
44C
330
1B4
100
AcDbEntity
  8
Layer0
  6
AUSGEZOGEN
 62
     9
370
    18
100
AcDbLine
 10
491.388584232571
 20
157.101672719353
 30
0.0
 11
490.239627781914
 21
155.111622968109
 31
0.0
  0
LINE
  5
44D
330
1B4
100
AcDbEntity
  8
Layer0
  6
AUSGEZOGEN
 62
     9
370
    18
100
AcDbLine
 10
490.239627781914
 20
155.111622968109
 30
0.0
 11
491.388584232571
 21
153.121573216865
 31
0.0
  0
LINE
  5
44E
330
1B4
100
AcDbEntity
  8
Layer0
  6
AUSGEZOGEN
 62
     9
370
    18
100
AcDbLine
 10
491.388584232571
 20
153.121573216865
 30
0.0
 11
493.686489542447
 21
153.121573216865
 31
0.0
  0
LINE
  5
44F
330
1B4
100
AcDbEntity
  8
Layer0
  6
AUSGEZOGEN
 62
     9
370
    18
100
AcDbLine
 10
493.686489542447
 20
153.121573216865
 30
0.0
 11
494.835445993104
 21
155.111622968109
 31
0.0
  0
LINE
  5
450
330
1B4
100
AcDbEntity
  8
Layer0
  6
AUSGEZOGEN
 62
     9
370
    18
100
AcDbLine
 10
494.835445993104
 20
155.111622968109
 30
0.0
 11
493.686489542447
 21
157.101672719353
 31
0.0
  0
LINE
  5
451
330
1B4
100
AcDbEntity
  8
Layer0
  6
AUSGEZOGEN
 62
     9
370
    18
100
AcDbLine
 10
493.686489542447
 20
157.101672719353
 30
0.0
 11
491.388584232571
 21
157.101672719353
 31
0.0
  0
LINE
  5
452
330
1B4
100
AcDbEntity
  8
Stammform
  6
AUSGEZOGEN
 62
    56
370
    18
100
AcDbLine
 10
491.388584232571
 20
157.101672719353
 30
0.0
 11
492.53753309179
 21
155.111622968109
 31
0.0
  0
LINE
  5
453
330
1B4
100
AcDbEntity
  8
Stammform
  6
AUSGEZOGEN
 62
    56
370
    18
100
AcDbLine
 10
492.53753309179
 20
155.111622968109
 30
0.0
 11
494.835445993104
 21
155.111622968109
 31
0.0
  0
LINE
  5
454
330
1B4
100
AcDbEntity
  8
Stammform
  6
AUSGEZOGEN
 62
    56
370
    18
100
AcDbLine
 10
492.53753309179
 20
155.111622968109
 30
0.0
 11
491.388584232571
 21
153.121573216865
 31
0.0
  0
LINE
  5
455
330
1B4
100
AcDbEntity
  8
Stammform
  6
AUSGEZOGEN
 62
    56
370
    18
100
AcDbLine
 10
492.53753309179
 20
151.131523465621
 30
0.0
 11
491.388584232571
 21
149.141473714377
 31
0.0
  0
LINE
  5
456
330
1B4
100
AcDbEntity
  8
Stammform
  6
AUSGEZOGEN
 62
    56
370
    18
100
AcDbLine
 10
492.53753309179
 20
151.131523465621
 30
0.0
 11
494.835445993104
 21
151.131523465621
 31
0.0
  0
LINE
  5
457
330
1B4
100
AcDbEntity
  8
Stammform
  6
AUSGEZOGEN
 62
    56
370
    18
100
AcDbLine
 10
491.388584232571
 20
153.121573216865
 30
0.0
 11
492.53753309179
 21
151.131523465621
 31
0.0
  0
LINE
  5
458
330
1B4
100
AcDbEntity
  8
Layer0
  6
AUSGEZOGEN
 62
     9
370
    18
100
AcDbLine
 10
491.388584232571
 20
153.121573216865
 30
0.0
 11
490.239627781914
 21
151.131523465621
 31
0.0
  0
LINE
  5
459
330
1B4
100
AcDbEntity
  8
Layer0
  6
AUSGEZOGEN
 62
     9
370
    18
100
AcDbLine
 10
490.239627781914
 20
151.131523465621
 30
0.0
 11
491.388584232571
 21
149.141473714377
 31
0.0
  0
LINE
  5
45A
330
1B4
100
AcDbEntity
  8
Layer0
  6
AUSGEZOGEN
 62
     9
370
    18
100
AcDbLine
 10
491.388584232571
 20
149.141473714377
 30
0.0
 11
493.686489542447
 21
149.141473714377
 31
0.0
  0
LINE
  5
45B
330
1B4
100
AcDbEntity
  8
Layer0
  6
AUSGEZOGEN
 62
     9
370
    18
100
AcDbLine
 10
493.686489542447
 20
149.141473714377
 30
0.0
 11
494.835445993104
 21
151.131523465621
 31
0.0
  0
LINE
  5
45C
330
1B4
100
AcDbEntity
  8
Layer0
  6
AUSGEZOGEN
 62
     9
370
    18
100
AcDbLine
 10
494.835445993104
 20
151.131523465621
 30
0.0
 11
493.686489542447
 21
153.121573216865
 31
0.0
  0
LINE
  5
45D
330
1B4
100
AcDbEntity
  8
Layer0
  6
AUSGEZOGEN
 62
     9
370
    18
100
AcDbLine
 10
493.686489542447
 20
153.121573216865
 30
0.0
 11
491.388584232571
 21
153.121573216865
 31
0.0
  0
LINE
  5
45E
330
1B4
100
AcDbEntity
  8
Layer0
  6
AUSGEZOGEN
 62
     9
370
    18
100
AcDbLine
 10
490.239627781914
 20
175.012120480547
 30
0.0
 11
491.388584232571
 21
173.022070729303
 31
0.0
  0
LINE
  5
45F
330
1B4
100
AcDbEntity
  8
Layer0
  6
AUSGEZOGEN
 62
     9
370
    18
100
AcDbLine
 10
491.388584232571
 20
173.022070729303
 30
0.0
 11
493.686489542447
 21
173.022070729303
 31
0.0
  0
LINE
  5
460
330
1B4
100
AcDbEntity
  8
Layer0
  6
AUSGEZOGEN
 62
     9
370
    18
100
AcDbLine
 10
493.686489542447
 20
173.022070729303
 30
0.0
 11
494.835445993104
 21
175.012120480547
 31
0.0
  0
LINE
  5
461
330
1B4
100
AcDbEntity
  8
Stammform
  6
AUSGEZOGEN
 62
    56
370
    18
100
AcDbLine
 10
492.53753309179
 20
175.012120480547
 30
0.0
 11
491.388584232571
 21
173.022070729303
 31
0.0
  0
LINE
  5
462
330
1B4
100
AcDbEntity
  8
Layer0
  6
AUSGEZOGEN
 62
     9
370
    18
100
AcDbLine
 10
491.388584232571
 20
169.041971226815
 30
0.0
 11
490.239627781914
 21
167.051921475571
 31
0.0
  0
LINE
  5
463
330
1B4
100
AcDbEntity
  8
Layer0
  6
AUSGEZOGEN
 62
     9
370
    18
100
AcDbLine
 10
490.239627781914
 20
167.051921475571
 30
0.0
 11
491.388584232571
 21
165.061871724328
 31
0.0
  0
LINE
  5
464
330
1B4
100
AcDbEntity
  8
Layer0
  6
AUSGEZOGEN
 62
     9
370
    18
100
AcDbLine
 10
491.388584232571
 20
165.061871724328
 30
0.0
 11
493.686489542447
 21
165.061871724328
 31
0.0
  0
LINE
  5
465
330
1B4
100
AcDbEntity
  8
Layer0
  6
AUSGEZOGEN
 62
     9
370
    18
100
AcDbLine
 10
493.686489542447
 20
165.061871724328
 30
0.0
 11
494.835445993104
 21
167.051921475571
 31
0.0
  0
LINE
  5
466
330
1B4
100
AcDbEntity
  8
Layer0
  6
AUSGEZOGEN
 62
     9
370
    18
100
AcDbLine
 10
494.835445993104
 20
167.051921475571
 30
0.0
 11
493.686489542447
 21
169.041971226815
 31
0.0
  0
LINE
  5
467
330
1B4
100
AcDbEntity
  8
Layer0
  6
AUSGEZOGEN
 62
     9
370
    18
100
AcDbLine
 10
493.686489542447
 20
169.041971226815
 30
0.0
 11
491.388584232571
 21
169.041971226815
 31
0.0
  0
LINE
  5
468
330
1B4
100
AcDbEntity
  8
Stammform
  6
AUSGEZOGEN
 62
    56
370
    18
100
AcDbLine
 10
491.388584232571
 20
169.041971226815
 30
0.0
 11
492.53753309179
 21
167.051921475571
 31
0.0
  0
LINE
  5
469
330
1B4
100
AcDbEntity
  8
Stammform
  6
AUSGEZOGEN
 62
    56
370
    18
100
AcDbLine
 10
492.53753309179
 20
167.051921475571
 30
0.0
 11
494.835445993104
 21
167.051921475571
 31
0.0
  0
LINE
  5
46A
330
1B4
100
AcDbEntity
  8
Stammform
  6
AUSGEZOGEN
 62
    56
370
    18
100
AcDbLine
 10
492.53753309179
 20
167.051921475571
 30
0.0
 11
491.388584232571
 21
165.061871724328
 31
0.0
  0
LINE
  5
46B
330
1B4
100
AcDbEntity
  8
Stammform
  6
AUSGEZOGEN
 62
    56
370
    18
100
AcDbLine
 10
492.53753309179
 20
171.032020978059
 30
0.0
 11
491.388584232571
 21
169.041971226815
 31
0.0
  0
LINE
  5
46C
330
1B4
100
AcDbEntity
  8
Stammform
  6
AUSGEZOGEN
 62
    56
370
    18
100
AcDbLine
 10
492.53753309179
 20
171.032020978059
 30
0.0
 11
494.835445993104
 21
171.032020978059
 31
0.0
  0
LINE
  5
46D
330
1B4
100
AcDbEntity
  8
Stammform
  6
AUSGEZOGEN
 62
    56
370
    18
100
AcDbLine
 10
491.388584232571
 20
173.022070729303
 30
0.0
 11
492.53753309179
 21
171.032020978059
 31
0.0
  0
LINE
  5
46E
330
1B4
100
AcDbEntity
  8
Layer0
  6
AUSGEZOGEN
 62
     9
370
    18
100
AcDbLine
 10
491.388584232571
 20
173.022070729303
 30
0.0
 11
490.239627781914
 21
171.032020978059
 31
0.0
  0
LINE
  5
46F
330
1B4
100
AcDbEntity
  8
Layer0
  6
AUSGEZOGEN
 62
     9
370
    18
100
AcDbLine
 10
490.239627781914
 20
171.032020978059
 30
0.0
 11
491.388584232571
 21
169.041971226815
 31
0.0
  0
LINE
  5
470
330
1B4
100
AcDbEntity
  8
Layer0
  6
AUSGEZOGEN
 62
     9
370
    18
100
AcDbLine
 10
491.388584232571
 20
169.041971226815
 30
0.0
 11
493.686489542447
 21
169.041971226815
 31
0.0
  0
LINE
  5
471
330
1B4
100
AcDbEntity
  8
Layer0
  6
AUSGEZOGEN
 62
     9
370
    18
100
AcDbLine
 10
493.686489542447
 20
169.041971226815
 30
0.0
 11
494.835445993104
 21
171.032020978059
 31
0.0
  0
LINE
  5
472
330
1B4
100
AcDbEntity
  8
Layer0
  6
AUSGEZOGEN
 62
     9
370
    18
100
AcDbLine
 10
494.835445993104
 20
171.032020978059
 30
0.0
 11
493.686489542447
 21
173.022070729303
 31
0.0
  0
LINE
  5
473
330
1B4
100
AcDbEntity
  8
Layer0
  6
AUSGEZOGEN
 62
     9
370
    18
100
AcDbLine
 10
493.686489542447
 20
173.022070729303
 30
0.0
 11
491.388584232571
 21
173.022070729303
 31
0.0
  0
LINE
  5
474
330
1B4
100
AcDbEntity
  8
Layer0
  6
AUSGEZOGEN
 62
     9
370
    18
100
AcDbLine
 10
491.388584232571
 20
165.061871724328
 30
0.0
 11
490.239627781914
 21
163.071821973084
 31
0.0
  0
LINE
  5
475
330
1B4
100
AcDbEntity
  8
Layer0
  6
AUSGEZOGEN
 62
     9
370
    18
100
AcDbLine
 10
490.239627781914
 20
163.071821973084
 30
0.0
 11
491.388584232571
 21
161.08177222184
 31
0.0
  0
LINE
  5
476
330
1B4
100
AcDbEntity
  8
Layer0
  6
AUSGEZOGEN
 62
     9
370
    18
100
AcDbLine
 10
491.388584232571
 20
161.08177222184
 30
0.0
 11
493.686489542447
 21
161.08177222184
 31
0.0
  0
LINE
  5
477
330
1B4
100
AcDbEntity
  8
Layer0
  6
AUSGEZOGEN
 62
     9
370
    18
100
AcDbLine
 10
493.686489542447
 20
161.08177222184
 30
0.0
 11
494.835445993104
 21
163.071821973084
 31
0.0
  0
LINE
  5
478
330
1B4
100
AcDbEntity
  8
Layer0
  6
AUSGEZOGEN
 62
     9
370
    18
100
AcDbLine
 10
494.835445993104
 20
163.071821973084
 30
0.0
 11
493.686489542447
 21
165.061871724328
 31
0.0
  0
LINE
  5
479
330
1B4
100
AcDbEntity
  8
Layer0
  6
AUSGEZOGEN
 62
     9
370
    18
100
AcDbLine
 10
493.686489542447
 20
165.061871724328
 30
0.0
 11
491.388584232571
 21
165.061871724328
 31
0.0
  0
LINE
  5
47A
330
1B4
100
AcDbEntity
  8
Stammform
  6
AUSGEZOGEN
 62
    56
370
    18
100
AcDbLine
 10
491.388584232571
 20
165.061871724328
 30
0.0
 11
492.53753309179
 21
163.071821973084
 31
0.0
  0
LINE
  5
47B
330
1B4
100
AcDbEntity
  8
Stammform
  6
AUSGEZOGEN
 62
    56
370
    18
100
AcDbLine
 10
492.53753309179
 20
163.071821973084
 30
0.0
 11
494.835445993104
 21
163.071821973084
 31
0.0
  0
LINE
  5
47C
330
1B4
100
AcDbEntity
  8
Stammform
  6
AUSGEZOGEN
 62
    56
370
    18
100
AcDbLine
 10
492.53753309179
 20
163.071821973084
 30
0.0
 11
491.388584232571
 21
161.08177222184
 31
0.0
  0
LINE
  5
47D
330
1B4
100
AcDbEntity
  8
Stammform
  6
AUSGEZOGEN
 62
    56
370
    18
100
AcDbLine
 10
492.53753309179
 20
159.091722470596
 30
0.0
 11
491.388584232571
 21
157.101672719353
 31
0.0
  0
LINE
  5
47E
330
1B4
100
AcDbEntity
  8
Stammform
  6
AUSGEZOGEN
 62
    56
370
    18
100
AcDbLine
 10
492.53753309179
 20
159.091722470596
 30
0.0
 11
494.835445993104
 21
159.091722470596
 31
0.0
  0
LINE
  5
47F
330
1B4
100
AcDbEntity
  8
Stammform
  6
AUSGEZOGEN
 62
    56
370
    18
100
AcDbLine
 10
491.388584232571
 20
161.08177222184
 30
0.0
 11
492.53753309179
 21
159.091722470596
 31
0.0
  0
LINE
  5
480
330
1B4
100
AcDbEntity
  8
Layer0
  6
AUSGEZOGEN
 62
     9
370
    18
100
AcDbLine
 10
491.388584232571
 20
161.08177222184
 30
0.0
 11
490.239627781914
 21
159.091722470596
 31
0.0
  0
LINE
  5
481
330
1B4
100
AcDbEntity
  8
Layer0
  6
AUSGEZOGEN
 62
     9
370
    18
100
AcDbLine
 10
490.239627781914
 20
159.091722470596
 30
0.0
 11
491.388584232571
 21
157.101672719353
 31
0.0
  0
LINE
  5
482
330
1B4
100
AcDbEntity
  8
Layer0
  6
AUSGEZOGEN
 62
     9
370
    18
100
AcDbLine
 10
491.388584232571
 20
157.101672719353
 30
0.0
 11
493.686489542447
 21
157.101672719353
 31
0.0
  0
LINE
  5
483
330
1B4
100
AcDbEntity
  8
Layer0
  6
AUSGEZOGEN
 62
     9
370
    18
100
AcDbLine
 10
493.686489542447
 20
157.101672719353
 30
0.0
 11
494.835445993104
 21
159.091722470596
 31
0.0
  0
LINE
  5
484
330
1B4
100
AcDbEntity
  8
Layer0
  6
AUSGEZOGEN
 62
     9
370
    18
100
AcDbLine
 10
494.835445993104
 20
159.091722470596
 30
0.0
 11
493.686489542447
 21
161.08177222184
 31
0.0
  0
LINE
  5
485
330
1B4
100
AcDbEntity
  8
Layer0
  6
AUSGEZOGEN
 62
     9
370
    18
100
AcDbLine
 10
493.686489542447
 20
161.08177222184
 30
0.0
 11
491.388584232571
 21
161.08177222184
 31
0.0
  0
LINE
  5
486
330
1B4
100
AcDbEntity
  8
Layer0
  6
AUSGEZOGEN
 62
     9
370
    18
100
AcDbLine
 10
501.729184697045
 20
163.071821973084
 30
0.0
 11
500.580228246388
 21
161.08177222184
 31
0.0
  0
LINE
  5
487
330
1B4
100
AcDbEntity
  8
Layer0
  6
AUSGEZOGEN
 62
     9
370
    18
100
AcDbLine
 10
500.580228246388
 20
161.08177222184
 30
0.0
 11
501.729184697045
 21
159.091722470596
 31
0.0
  0
LINE
  5
488
330
1B4
100
AcDbEntity
  8
Layer0
  6
AUSGEZOGEN
 62
     9
370
    18
100
AcDbLine
 10
501.729184697045
 20
159.091722470596
 30
0.0
 11
504.027097598359
 21
159.091722470596
 31
0.0
  0
LINE
  5
489
330
1B4
100
AcDbEntity
  8
Layer0
  6
AUSGEZOGEN
 62
     9
370
    18
100
AcDbLine
 10
504.027097598359
 20
163.071821973084
 30
0.0
 11
501.729184697045
 21
163.071821973084
 31
0.0
  0
LINE
  5
48A
330
1B4
100
AcDbEntity
  8
Stammform
  6
AUSGEZOGEN
 62
    56
370
    18
100
AcDbLine
 10
501.729184697045
 20
163.071821973084
 30
0.0
 11
502.878141147702
 21
161.08177222184
 31
0.0
  0
LINE
  5
48B
330
1B4
100
AcDbEntity
  8
Stammform
  6
AUSGEZOGEN
 62
    56
370
    18
100
AcDbLine
 10
502.878141147702
 20
161.08177222184
 30
0.0
 11
504.027097598359
 21
161.08177222184
 31
0.0
  0
LINE
  5
48C
330
1B4
100
AcDbEntity
  8
Stammform
  6
AUSGEZOGEN
 62
    56
370
    18
100
AcDbLine
 10
502.878141147702
 20
161.08177222184
 30
0.0
 11
501.729184697045
 21
159.091722470596
 31
0.0
  0
LINE
  5
48D
330
1B4
100
AcDbEntity
  8
Stammform
  6
AUSGEZOGEN
 62
    56
370
    18
100
AcDbLine
 10
502.878141147702
 20
165.061871724328
 30
0.0
 11
501.729184697045
 21
163.071821973084
 31
0.0
  0
LINE
  5
48E
330
1B4
100
AcDbEntity
  8
Stammform
  6
AUSGEZOGEN
 62
    56
370
    18
100
AcDbLine
 10
502.878141147702
 20
165.061871724328
 30
0.0
 11
504.027097598359
 21
165.061871724328
 31
0.0
  0
LINE
  5
48F
330
1B4
100
AcDbEntity
  8
Stammform
  6
AUSGEZOGEN
 62
    56
370
    18
100
AcDbLine
 10
501.729184697045
 20
167.051921475571
 30
0.0
 11
502.878141147702
 21
165.061871724328
 31
0.0
  0
LINE
  5
490
330
1B4
100
AcDbEntity
  8
Layer0
  6
AUSGEZOGEN
 62
     9
370
    18
100
AcDbLine
 10
501.729184697045
 20
167.051921475571
 30
0.0
 11
500.580228246388
 21
165.061871724328
 31
0.0
  0
LINE
  5
491
330
1B4
100
AcDbEntity
  8
Layer0
  6
AUSGEZOGEN
 62
     9
370
    18
100
AcDbLine
 10
500.580228246388
 20
165.061871724328
 30
0.0
 11
501.729184697045
 21
163.071821973084
 31
0.0
  0
LINE
  5
492
330
1B4
100
AcDbEntity
  8
Layer0
  6
AUSGEZOGEN
 62
     9
370
    18
100
AcDbLine
 10
501.729184697045
 20
163.071821973084
 30
0.0
 11
504.027097598359
 21
163.071821973084
 31
0.0
  0
LINE
  5
493
330
1B4
100
AcDbEntity
  8
Layer0
  6
AUSGEZOGEN
 62
     9
370
    18
100
AcDbLine
 10
504.027097598359
 20
167.051921475571
 30
0.0
 11
501.729184697045
 21
167.051921475571
 31
0.0
  0
LINE
  5
494
330
1B4
100
AcDbEntity
  8
Layer0
  6
AUSGEZOGEN
 62
     9
370
    18
100
AcDbLine
 10
501.729184697045
 20
175.012120480547
 30
0.0
 11
500.580228246388
 21
173.022070729303
 31
0.0
  0
LINE
  5
495
330
1B4
100
AcDbEntity
  8
Layer0
  6
AUSGEZOGEN
 62
     9
370
    18
100
AcDbLine
 10
500.580228246388
 20
173.022070729303
 30
0.0
 11
501.729184697045
 21
171.032020978059
 31
0.0
  0
LINE
  5
496
330
1B4
100
AcDbEntity
  8
Layer0
  6
AUSGEZOGEN
 62
     9
370
    18
100
AcDbLine
 10
501.729184697045
 20
171.032020978059
 30
0.0
 11
504.027097598359
 21
171.032020978059
 31
0.0
  0
LINE
  5
497
330
1B4
100
AcDbEntity
  8
Stammform
  6
AUSGEZOGEN
 62
    56
370
    18
100
AcDbLine
 10
501.729184697045
 20
175.012120480547
 30
0.0
 11
502.878141147702
 21
173.022070729303
 31
0.0
  0
LINE
  5
498
330
1B4
100
AcDbEntity
  8
Stammform
  6
AUSGEZOGEN
 62
    56
370
    18
100
AcDbLine
 10
502.878141147702
 20
173.022070729303
 30
0.0
 11
504.027097598359
 21
173.022070729303
 31
0.0
  0
LINE
  5
499
330
1B4
100
AcDbEntity
  8
Stammform
  6
AUSGEZOGEN
 62
    56
370
    18
100
AcDbLine
 10
502.878141147702
 20
173.022070729303
 30
0.0
 11
501.729184697045
 21
171.032020978059
 31
0.0
  0
LINE
  5
49A
330
1B4
100
AcDbEntity
  8
Stammform
  6
AUSGEZOGEN
 62
    56
370
    18
100
AcDbLine
 10
502.878141147702
 20
169.041971226815
 30
0.0
 11
501.729184697045
 21
167.051921475571
 31
0.0
  0
LINE
  5
49B
330
1B4
100
AcDbEntity
  8
Stammform
  6
AUSGEZOGEN
 62
    56
370
    18
100
AcDbLine
 10
502.878141147702
 20
169.041971226815
 30
0.0
 11
504.027097598359
 21
169.041971226815
 31
0.0
  0
LINE
  5
49C
330
1B4
100
AcDbEntity
  8
Stammform
  6
AUSGEZOGEN
 62
    56
370
    18
100
AcDbLine
 10
501.729184697045
 20
171.032020978059
 30
0.0
 11
502.878141147702
 21
169.041971226815
 31
0.0
  0
LINE
  5
49D
330
1B4
100
AcDbEntity
  8
Layer0
  6
AUSGEZOGEN
 62
     9
370
    18
100
AcDbLine
 10
501.729184697045
 20
171.032020978059
 30
0.0
 11
500.580228246388
 21
169.041971226815
 31
0.0
  0
LINE
  5
49E
330
1B4
100
AcDbEntity
  8
Layer0
  6
AUSGEZOGEN
 62
     9
370
    18
100
AcDbLine
 10
500.580228246388
 20
169.041971226815
 30
0.0
 11
501.729184697045
 21
167.051921475571
 31
0.0
  0
LINE
  5
49F
330
1B4
100
AcDbEntity
  8
Layer0
  6
AUSGEZOGEN
 62
     9
370
    18
100
AcDbLine
 10
501.729184697045
 20
167.051921475571
 30
0.0
 11
504.027097598359
 21
167.051921475571
 31
0.0
  0
LINE
  5
4A0
330
1B4
100
AcDbEntity
  8
Layer0
  6
AUSGEZOGEN
 62
     9
370
    18
100
AcDbLine
 10
504.027097598359
 20
171.032020978059
 30
0.0
 11
501.729184697045
 21
171.032020978059
 31
0.0
  0
LINE
  5
4A1
330
1B4
100
AcDbEntity
  8
Layer0
  6
AUSGEZOGEN
 62
     9
370
    18
100
AcDbLine
 10
501.729184697045
 20
155.111622968109
 30
0.0
 11
500.580228246388
 21
153.121573216865
 31
0.0
  0
LINE
  5
4A2
330
1B4
100
AcDbEntity
  8
Layer0
  6
AUSGEZOGEN
 62
     9
370
    18
100
AcDbLine
 10
500.580228246388
 20
153.121573216865
 30
0.0
 11
501.729184697045
 21
151.131523465621
 31
0.0
  0
LINE
  5
4A3
330
1B4
100
AcDbEntity
  8
Layer0
  6
AUSGEZOGEN
 62
     9
370
    18
100
AcDbLine
 10
501.729184697045
 20
151.131523465621
 30
0.0
 11
504.027097598359
 21
151.131523465621
 31
0.0
  0
LINE
  5
4A4
330
1B4
100
AcDbEntity
  8
Layer0
  6
AUSGEZOGEN
 62
     9
370
    18
100
AcDbLine
 10
504.027097598359
 20
155.111622968109
 30
0.0
 11
501.729184697045
 21
155.111622968109
 31
0.0
  0
LINE
  5
4A5
330
1B4
100
AcDbEntity
  8
Stammform
  6
AUSGEZOGEN
 62
    56
370
    18
100
AcDbLine
 10
501.729184697045
 20
155.111622968109
 30
0.0
 11
502.878141147702
 21
153.121573216865
 31
0.0
  0
LINE
  5
4A6
330
1B4
100
AcDbEntity
  8
Stammform
  6
AUSGEZOGEN
 62
    56
370
    18
100
AcDbLine
 10
502.878141147702
 20
153.121573216865
 30
0.0
 11
504.027097598359
 21
153.121573216865
 31
0.0
  0
LINE
  5
4A7
330
1B4
100
AcDbEntity
  8
Stammform
  6
AUSGEZOGEN
 62
    56
370
    18
100
AcDbLine
 10
502.878141147702
 20
153.121573216865
 30
0.0
 11
501.729184697045
 21
151.131523465621
 31
0.0
  0
LINE
  5
4A8
330
1B4
100
AcDbEntity
  8
Stammform
  6
AUSGEZOGEN
 62
    56
370
    18
100
AcDbLine
 10
502.878141147702
 20
157.101672719353
 30
0.0
 11
501.729184697045
 21
155.111622968109
 31
0.0
  0
LINE
  5
4A9
330
1B4
100
AcDbEntity
  8
Stammform
  6
AUSGEZOGEN
 62
    56
370
    18
100
AcDbLine
 10
502.878141147702
 20
157.101672719353
 30
0.0
 11
504.027097598359
 21
157.101672719353
 31
0.0
  0
LINE
  5
4AA
330
1B4
100
AcDbEntity
  8
Stammform
  6
AUSGEZOGEN
 62
    56
370
    18
100
AcDbLine
 10
501.729184697045
 20
159.091722470596
 30
0.0
 11
502.878141147702
 21
157.101672719353
 31
0.0
  0
LINE
  5
4AB
330
1B4
100
AcDbEntity
  8
Layer0
  6
AUSGEZOGEN
 62
     9
370
    18
100
AcDbLine
 10
501.729184697045
 20
159.091722470596
 30
0.0
 11
500.580228246388
 21
157.101672719353
 31
0.0
  0
LINE
  5
4AC
330
1B4
100
AcDbEntity
  8
Layer0
  6
AUSGEZOGEN
 62
     9
370
    18
100
AcDbLine
 10
500.580228246388
 20
157.101672719353
 30
0.0
 11
501.729184697045
 21
155.111622968109
 31
0.0
  0
LINE
  5
4AD
330
1B4
100
AcDbEntity
  8
Layer0
  6
AUSGEZOGEN
 62
     9
370
    18
100
AcDbLine
 10
501.729184697045
 20
155.111622968109
 30
0.0
 11
504.027097598359
 21
155.111622968109
 31
0.0
  0
LINE
  5
4AE
330
1B4
100
AcDbEntity
  8
Layer0
  6
AUSGEZOGEN
 62
     9
370
    18
100
AcDbLine
 10
504.027097598359
 20
159.091722470596
 30
0.0
 11
501.729184697045
 21
159.091722470596
 31
0.0
  0
LINE
  5
4AF
330
1B4
100
AcDbEntity
  8
Layer0
  6
AUSGEZOGEN
 62
     9
370
    18
100
AcDbLine
 10
501.729184697045
 20
147.151423963134
 30
0.0
 11
500.580228246388
 21
145.16137421189
 31
0.0
  0
LINE
  5
4B0
330
1B4
100
AcDbEntity
  8
Layer0
  6
AUSGEZOGEN
 62
     9
370
    18
100
AcDbLine
 10
500.580228246388
 20
145.16137421189
 30
0.0
 11
501.729184697045
 21
143.171324460646
 31
0.0
  0
LINE
  5
4B1
330
1B4
100
AcDbEntity
  8
Layer0
  6
AUSGEZOGEN
 62
     9
370
    18
100
AcDbLine
 10
501.729184697045
 20
143.171324460646
 30
0.0
 11
504.027097598359
 21
143.171324460646
 31
0.0
  0
LINE
  5
4B2
330
1B4
100
AcDbEntity
  8
Layer0
  6
AUSGEZOGEN
 62
     9
370
    18
100
AcDbLine
 10
504.027097598359
 20
147.151423963134
 30
0.0
 11
501.729184697045
 21
147.151423963134
 31
0.0
  0
LINE
  5
4B3
330
1B4
100
AcDbEntity
  8
Stammform
  6
AUSGEZOGEN
 62
    56
370
    18
100
AcDbLine
 10
501.729184697045
 20
147.151423963134
 30
0.0
 11
502.878141147702
 21
145.16137421189
 31
0.0
  0
LINE
  5
4B4
330
1B4
100
AcDbEntity
  8
Stammform
  6
AUSGEZOGEN
 62
    56
370
    18
100
AcDbLine
 10
502.878141147702
 20
145.16137421189
 30
0.0
 11
504.027097598359
 21
145.16137421189
 31
0.0
  0
LINE
  5
4B5
330
1B4
100
AcDbEntity
  8
Stammform
  6
AUSGEZOGEN
 62
    56
370
    18
100
AcDbLine
 10
502.878141147702
 20
145.16137421189
 30
0.0
 11
501.729184697045
 21
143.171324460646
 31
0.0
  0
LINE
  5
4B6
330
1B4
100
AcDbEntity
  8
Stammform
  6
AUSGEZOGEN
 62
    56
370
    18
100
AcDbLine
 10
502.878141147702
 20
149.141473714377
 30
0.0
 11
501.729184697045
 21
147.151423963134
 31
0.0
  0
LINE
  5
4B7
330
1B4
100
AcDbEntity
  8
Stammform
  6
AUSGEZOGEN
 62
    56
370
    18
100
AcDbLine
 10
502.878141147702
 20
149.141473714377
 30
0.0
 11
504.027097598359
 21
149.141473714377
 31
0.0
  0
LINE
  5
4B8
330
1B4
100
AcDbEntity
  8
Stammform
  6
AUSGEZOGEN
 62
    56
370
    18
100
AcDbLine
 10
501.729184697045
 20
151.131523465621
 30
0.0
 11
502.878141147702
 21
149.141473714377
 31
0.0
  0
LINE
  5
4B9
330
1B4
100
AcDbEntity
  8
Layer0
  6
AUSGEZOGEN
 62
     9
370
    18
100
AcDbLine
 10
501.729184697045
 20
151.131523465621
 30
0.0
 11
500.580228246388
 21
149.141473714377
 31
0.0
  0
LINE
  5
4BA
330
1B4
100
AcDbEntity
  8
Layer0
  6
AUSGEZOGEN
 62
     9
370
    18
100
AcDbLine
 10
500.580228246388
 20
149.141473714377
 30
0.0
 11
501.729184697045
 21
147.151423963134
 31
0.0
  0
LINE
  5
4BB
330
1B4
100
AcDbEntity
  8
Layer0
  6
AUSGEZOGEN
 62
     9
370
    18
100
AcDbLine
 10
501.729184697045
 20
147.151423963134
 30
0.0
 11
504.027097598359
 21
147.151423963134
 31
0.0
  0
LINE
  5
4BC
330
1B4
100
AcDbEntity
  8
Layer0
  6
AUSGEZOGEN
 62
     9
370
    18
100
AcDbLine
 10
504.027097598359
 20
151.131523465621
 30
0.0
 11
501.729184697045
 21
151.131523465621
 31
0.0
  0
LINE
  5
4BD
330
1B4
100
AcDbEntity
  8
Layer0
  6
AUSGEZOGEN
 62
     9
370
    18
100
AcDbLine
 10
501.729184697045
 20
139.191224958159
 30
0.0
 11
500.580228246388
 21
137.201175206915
 31
0.0
  0
LINE
  5
4BE
330
1B4
100
AcDbEntity
  8
Layer0
  6
AUSGEZOGEN
 62
     9
370
    18
100
AcDbLine
 10
500.580228246388
 20
137.201175206915
 30
0.0
 11
501.729184697045
 21
135.211125455671
 31
0.0
  0
LINE
  5
4BF
330
1B4
100
AcDbEntity
  8
Layer0
  6
AUSGEZOGEN
 62
     9
370
    18
100
AcDbLine
 10
501.729184697045
 20
135.211125455671
 30
0.0
 11
504.027097598359
 21
135.211125455671
 31
0.0
  0
LINE
  5
4C0
330
1B4
100
AcDbEntity
  8
Layer0
  6
AUSGEZOGEN
 62
     9
370
    18
100
AcDbLine
 10
504.027097598359
 20
139.191224958159
 30
0.0
 11
501.729184697045
 21
139.191224958159
 31
0.0
  0
LINE
  5
4C1
330
1B4
100
AcDbEntity
  8
Stammform
  6
AUSGEZOGEN
 62
    56
370
    18
100
AcDbLine
 10
501.729184697045
 20
139.191224958159
 30
0.0
 11
502.878141147702
 21
137.201175206915
 31
0.0
  0
LINE
  5
4C2
330
1B4
100
AcDbEntity
  8
Stammform
  6
AUSGEZOGEN
 62
    56
370
    18
100
AcDbLine
 10
502.878141147702
 20
137.201175206915
 30
0.0
 11
504.027097598359
 21
137.201175206915
 31
0.0
  0
LINE
  5
4C3
330
1B4
100
AcDbEntity
  8
Stammform
  6
AUSGEZOGEN
 62
    56
370
    18
100
AcDbLine
 10
502.878141147702
 20
137.201175206915
 30
0.0
 11
501.729184697045
 21
135.211125455671
 31
0.0
  0
LINE
  5
4C4
330
1B4
100
AcDbEntity
  8
Stammform
  6
AUSGEZOGEN
 62
    56
370
    18
100
AcDbLine
 10
502.878141147702
 20
141.181274709402
 30
0.0
 11
501.729184697045
 21
139.191224958159
 31
0.0
  0
LINE
  5
4C5
330
1B4
100
AcDbEntity
  8
Stammform
  6
AUSGEZOGEN
 62
    56
370
    18
100
AcDbLine
 10
502.878141147702
 20
141.181274709402
 30
0.0
 11
504.027097598359
 21
141.181274709402
 31
0.0
  0
LINE
  5
4C6
330
1B4
100
AcDbEntity
  8
Stammform
  6
AUSGEZOGEN
 62
    56
370
    18
100
AcDbLine
 10
501.729184697045
 20
143.171324460646
 30
0.0
 11
502.878141147702
 21
141.181274709402
 31
0.0
  0
LINE
  5
4C7
330
1B4
100
AcDbEntity
  8
Layer0
  6
AUSGEZOGEN
 62
     9
370
    18
100
AcDbLine
 10
501.729184697045
 20
143.171324460646
 30
0.0
 11
500.580228246388
 21
141.181274709402
 31
0.0
  0
LINE
  5
4C8
330
1B4
100
AcDbEntity
  8
Layer0
  6
AUSGEZOGEN
 62
     9
370
    18
100
AcDbLine
 10
500.580228246388
 20
141.181274709402
 30
0.0
 11
501.729184697045
 21
139.191224958159
 31
0.0
  0
LINE
  5
4C9
330
1B4
100
AcDbEntity
  8
Layer0
  6
AUSGEZOGEN
 62
     9
370
    18
100
AcDbLine
 10
501.729184697045
 20
139.191224958159
 30
0.0
 11
504.027097598359
 21
139.191224958159
 31
0.0
  0
LINE
  5
4CA
330
1B4
100
AcDbEntity
  8
Layer0
  6
AUSGEZOGEN
 62
     9
370
    18
100
AcDbLine
 10
504.027097598359
 20
143.171324460646
 30
0.0
 11
501.729184697045
 21
143.171324460646
 31
0.0
  0
LINE
  5
4CB
330
1B4
100
AcDbEntity
  8
Layer0
  6
AUSGEZOGEN
 62
     9
370
    18
100
AcDbLine
 10
501.729184697045
 20
131.231018361746
 30
0.0
 11
500.580228246388
 21
129.240968610502
 31
0.0
  0
LINE
  5
4CC
330
1B4
100
AcDbEntity
  8
Layer0
  6
AUSGEZOGEN
 62
     9
370
    18
100
AcDbLine
 10
500.580228246388
 20
129.240968610502
 30
0.0
 11
501.729184697045
 21
127.250918859258
 31
0.0
  0
LINE
  5
4CD
330
1B4
100
AcDbEntity
  8
Layer0
  6
AUSGEZOGEN
 62
     9
370
    18
100
AcDbLine
 10
501.729184697045
 20
127.250918859258
 30
0.0
 11
504.027097598359
 21
127.250918859258
 31
0.0
  0
LINE
  5
4CE
330
1B4
100
AcDbEntity
  8
Layer0
  6
AUSGEZOGEN
 62
     9
370
    18
100
AcDbLine
 10
504.027097598359
 20
131.231018361746
 30
0.0
 11
501.729184697045
 21
131.231018361746
 31
0.0
  0
LINE
  5
4CF
330
1B4
100
AcDbEntity
  8
Stammform
  6
AUSGEZOGEN
 62
    56
370
    18
100
AcDbLine
 10
501.729184697045
 20
131.231018361746
 30
0.0
 11
502.878141147702
 21
129.240968610502
 31
0.0
  0
LINE
  5
4D0
330
1B4
100
AcDbEntity
  8
Stammform
  6
AUSGEZOGEN
 62
    56
370
    18
100
AcDbLine
 10
502.878141147702
 20
129.240968610502
 30
0.0
 11
504.027097598359
 21
129.240968610502
 31
0.0
  0
LINE
  5
4D1
330
1B4
100
AcDbEntity
  8
Stammform
  6
AUSGEZOGEN
 62
    56
370
    18
100
AcDbLine
 10
502.878141147702
 20
129.240968610502
 30
0.0
 11
501.729184697045
 21
127.250918859258
 31
0.0
  0
LINE
  5
4D2
330
1B4
100
AcDbEntity
  8
Stammform
  6
AUSGEZOGEN
 62
    56
370
    18
100
AcDbLine
 10
502.878141147702
 20
133.22106811299
 30
0.0
 11
501.729184697045
 21
131.231018361746
 31
0.0
  0
LINE
  5
4D3
330
1B4
100
AcDbEntity
  8
Stammform
  6
AUSGEZOGEN
 62
    56
370
    18
100
AcDbLine
 10
502.878141147702
 20
133.22106811299
 30
0.0
 11
504.027097598359
 21
133.22106811299
 31
0.0
  0
LINE
  5
4D4
330
1B4
100
AcDbEntity
  8
Stammform
  6
AUSGEZOGEN
 62
    56
370
    18
100
AcDbLine
 10
501.729184697045
 20
135.211125455671
 30
0.0
 11
502.878141147702
 21
133.22106811299
 31
0.0
  0
LINE
  5
4D5
330
1B4
100
AcDbEntity
  8
Layer0
  6
AUSGEZOGEN
 62
     9
370
    18
100
AcDbLine
 10
501.729184697045
 20
135.211125455671
 30
0.0
 11
500.580228246388
 21
133.22106811299
 31
0.0
  0
LINE
  5
4D6
330
1B4
100
AcDbEntity
  8
Layer0
  6
AUSGEZOGEN
 62
     9
370
    18
100
AcDbLine
 10
500.580228246388
 20
133.22106811299
 30
0.0
 11
501.729184697045
 21
131.231018361746
 31
0.0
  0
LINE
  5
4D7
330
1B4
100
AcDbEntity
  8
Layer0
  6
AUSGEZOGEN
 62
     9
370
    18
100
AcDbLine
 10
501.729184697045
 20
131.231018361746
 30
0.0
 11
504.027097598359
 21
131.231018361746
 31
0.0
  0
LINE
  5
4D8
330
1B4
100
AcDbEntity
  8
Layer0
  6
AUSGEZOGEN
 62
     9
370
    18
100
AcDbLine
 10
504.027097598359
 20
135.211125455671
 30
0.0
 11
501.729184697045
 21
135.211125455671
 31
0.0
  0
LINE
  5
4D9
330
1B4
100
AcDbEntity
  8
Layer0
  6
AUSGEZOGEN
 62
     9
370
    18
100
AcDbLine
 10
501.729184697045
 20
127.250918859258
 30
0.0
 11
500.580228246388
 21
125.260869108015
 31
0.0
  0
LINE
  5
4DA
330
1B4
100
AcDbEntity
  8
Layer0
  6
AUSGEZOGEN
 62
     9
370
    18
100
AcDbLine
 10
500.580228246388
 20
125.260869108015
 30
0.0
 11
501.729184697045
 21
123.270826948208
 31
0.0
  0
LINE
  5
4DB
330
1B4
100
AcDbEntity
  8
Layer0
  6
AUSGEZOGEN
 62
     9
370
    18
100
AcDbLine
 10
501.729184697045
 20
123.270826948208
 30
0.0
 11
504.027097598359
 21
123.270826948208
 31
0.0
  0
LINE
  5
4DC
330
1B4
100
AcDbEntity
  8
Layer0
  6
AUSGEZOGEN
 62
     9
370
    18
100
AcDbLine
 10
504.027097598359
 20
127.250918859258
 30
0.0
 11
501.729184697045
 21
127.250918859258
 31
0.0
  0
LINE
  5
4DD
330
1B4
100
AcDbEntity
  8
Stammform
  6
AUSGEZOGEN
 62
    56
370
    18
100
AcDbLine
 10
501.729184697045
 20
127.250918859258
 30
0.0
 11
502.878141147702
 21
125.260869108015
 31
0.0
  0
LINE
  5
4DE
330
1B4
100
AcDbEntity
  8
Stammform
  6
AUSGEZOGEN
 62
    56
370
    18
100
AcDbLine
 10
502.878141147702
 20
125.260869108015
 30
0.0
 11
504.027097598359
 21
125.260869108015
 31
0.0
  0
LINE
  5
4DF
330
1B4
100
AcDbEntity
  8
Stammform
  6
AUSGEZOGEN
 62
    56
370
    18
100
AcDbLine
 10
502.878141147702
 20
125.260869108015
 30
0.0
 11
501.729184697045
 21
123.270826948208
 31
0.0
  0
LINE
  5
4E0
330
1B4
100
AcDbEntity
  8
Stammform
  6
AUSGEZOGEN
 62
    56
370
    18
100
AcDbLine
 10
502.878141147702
 20
121.280777196964
 30
0.0
 11
501.729184697045
 21
119.290727445721
 31
0.0
  0
LINE
  5
4E1
330
1B4
100
AcDbEntity
  8
Stammform
  6
AUSGEZOGEN
 62
    56
370
    18
100
AcDbLine
 10
502.878141147702
 20
121.280777196964
 30
0.0
 11
504.027097598359
 21
121.280777196964
 31
0.0
  0
LINE
  5
4E2
330
1B4
100
AcDbEntity
  8
Stammform
  6
AUSGEZOGEN
 62
    56
370
    18
100
AcDbLine
 10
501.729184697045
 20
123.270826948208
 30
0.0
 11
502.878141147702
 21
121.280777196964
 31
0.0
  0
LINE
  5
4E3
330
1B4
100
AcDbEntity
  8
Layer0
  6
AUSGEZOGEN
 62
     9
370
    18
100
AcDbLine
 10
501.729184697045
 20
123.270826948208
 30
0.0
 11
500.580228246388
 21
121.280777196964
 31
0.0
  0
LINE
  5
4E4
330
1B4
100
AcDbEntity
  8
Layer0
  6
AUSGEZOGEN
 62
     9
370
    18
100
AcDbLine
 10
500.580228246388
 20
121.280777196964
 30
0.0
 11
501.729184697045
 21
119.290727445721
 31
0.0
  0
LINE
  5
4E5
330
1B4
100
AcDbEntity
  8
Layer0
  6
AUSGEZOGEN
 62
     9
370
    18
100
AcDbLine
 10
504.027097598359
 20
123.270826948208
 30
0.0
 11
501.729184697045
 21
123.270826948208
 31
0.0
  0
LINE
  5
4E6
330
1B4
100
AcDbEntity
  8
Layer0
  6
AUSGEZOGEN
 62
     9
370
    18
100
AcDbLine
 10
498.282315345074
 20
121.280777196964
 30
0.0
 11
497.133358894418
 21
119.290727445721
 31
0.0
  0
LINE
  5
4E7
330
1B4
100
AcDbEntity
  8
Layer0
  6
AUSGEZOGEN
 62
     9
370
    18
100
AcDbLine
 10
501.729184697045
 20
119.290727445721
 30
0.0
 11
500.580228246388
 21
121.280777196964
 31
0.0
  0
LINE
  5
4E8
330
1B4
100
AcDbEntity
  8
Layer0
  6
AUSGEZOGEN
 62
     9
370
    18
100
AcDbLine
 10
500.580228246388
 20
121.280777196964
 30
0.0
 11
498.282315345074
 21
121.280777196964
 31
0.0
  0
LINE
  5
4E9
330
1B4
100
AcDbEntity
  8
Stammform
  6
AUSGEZOGEN
 62
    56
370
    18
100
AcDbLine
 10
498.282315345074
 20
121.280777196964
 30
0.0
 11
499.431271795731
 21
119.290727445721
 31
0.0
  0
LINE
  5
4EA
330
1B4
100
AcDbEntity
  8
Stammform
  6
AUSGEZOGEN
 62
    56
370
    18
100
AcDbLine
 10
499.431271795731
 20
123.270826948208
 30
0.0
 11
498.282315345074
 21
121.280777196964
 31
0.0
  0
LINE
  5
4EB
330
1B4
100
AcDbEntity
  8
Stammform
  6
AUSGEZOGEN
 62
    56
370
    18
100
AcDbLine
 10
499.431271795731
 20
123.270826948208
 30
0.0
 11
501.729184697045
 21
123.270826948208
 31
0.0
  0
LINE
  5
4EC
330
1B4
100
AcDbEntity
  8
Stammform
  6
AUSGEZOGEN
 62
    56
370
    18
100
AcDbLine
 10
498.282315345074
 20
125.260869108015
 30
0.0
 11
499.431271795731
 21
123.270826948208
 31
0.0
  0
LINE
  5
4ED
330
1B4
100
AcDbEntity
  8
Layer0
  6
AUSGEZOGEN
 62
     9
370
    18
100
AcDbLine
 10
498.282315345074
 20
125.260869108015
 30
0.0
 11
497.133358894418
 21
123.270826948208
 31
0.0
  0
LINE
  5
4EE
330
1B4
100
AcDbEntity
  8
Layer0
  6
AUSGEZOGEN
 62
     9
370
    18
100
AcDbLine
 10
497.133358894418
 20
123.270826948208
 30
0.0
 11
498.282315345074
 21
121.280777196964
 31
0.0
  0
LINE
  5
4EF
330
1B4
100
AcDbEntity
  8
Layer0
  6
AUSGEZOGEN
 62
     9
370
    18
100
AcDbLine
 10
498.282315345074
 20
121.280777196964
 30
0.0
 11
500.580228246388
 21
121.280777196964
 31
0.0
  0
LINE
  5
4F0
330
1B4
100
AcDbEntity
  8
Layer0
  6
AUSGEZOGEN
 62
     9
370
    18
100
AcDbLine
 10
500.580228246388
 20
121.280777196964
 30
0.0
 11
501.729184697045
 21
123.270826948208
 31
0.0
  0
LINE
  5
4F1
330
1B4
100
AcDbEntity
  8
Layer0
  6
AUSGEZOGEN
 62
     9
370
    18
100
AcDbLine
 10
501.729184697045
 20
123.270826948208
 30
0.0
 11
500.580228246388
 21
125.260869108015
 31
0.0
  0
LINE
  5
4F2
330
1B4
100
AcDbEntity
  8
Layer0
  6
AUSGEZOGEN
 62
     9
370
    18
100
AcDbLine
 10
500.580228246388
 20
125.260869108015
 30
0.0
 11
498.282315345074
 21
125.260869108015
 31
0.0
  0
LINE
  5
4F3
330
1B4
100
AcDbEntity
  8
Layer0
  6
AUSGEZOGEN
 62
     9
370
    18
100
AcDbLine
 10
498.282315345074
 20
133.22106811299
 30
0.0
 11
497.133358894418
 21
131.231018361746
 31
0.0
  0
LINE
  5
4F4
330
1B4
100
AcDbEntity
  8
Layer0
  6
AUSGEZOGEN
 62
     9
370
    18
100
AcDbLine
 10
497.133358894418
 20
131.231018361746
 30
0.0
 11
498.282315345074
 21
129.240968610502
 31
0.0
  0
LINE
  5
4F5
330
1B4
100
AcDbEntity
  8
Layer0
  6
AUSGEZOGEN
 62
     9
370
    18
100
AcDbLine
 10
498.282315345074
 20
129.240968610502
 30
0.0
 11
500.580228246388
 21
129.240968610502
 31
0.0
  0
LINE
  5
4F6
330
1B4
100
AcDbEntity
  8
Layer0
  6
AUSGEZOGEN
 62
     9
370
    18
100
AcDbLine
 10
500.580228246388
 20
129.240968610502
 30
0.0
 11
501.729184697045
 21
131.231018361746
 31
0.0
  0
LINE
  5
4F7
330
1B4
100
AcDbEntity
  8
Layer0
  6
AUSGEZOGEN
 62
     9
370
    18
100
AcDbLine
 10
501.729184697045
 20
131.231018361746
 30
0.0
 11
500.580228246388
 21
133.22106811299
 31
0.0
  0
LINE
  5
4F8
330
1B4
100
AcDbEntity
  8
Layer0
  6
AUSGEZOGEN
 62
     9
370
    18
100
AcDbLine
 10
500.580228246388
 20
133.22106811299
 30
0.0
 11
498.282315345074
 21
133.22106811299
 31
0.0
  0
LINE
  5
4F9
330
1B4
100
AcDbEntity
  8
Stammform
  6
AUSGEZOGEN
 62
    56
370
    18
100
AcDbLine
 10
498.282315345074
 20
133.22106811299
 30
0.0
 11
499.431271795731
 21
131.231018361746
 31
0.0
  0
LINE
  5
4FA
330
1B4
100
AcDbEntity
  8
Stammform
  6
AUSGEZOGEN
 62
    56
370
    18
100
AcDbLine
 10
499.431271795731
 20
131.231018361746
 30
0.0
 11
501.729184697045
 21
131.231018361746
 31
0.0
  0
LINE
  5
4FB
330
1B4
100
AcDbEntity
  8
Stammform
  6
AUSGEZOGEN
 62
    56
370
    18
100
AcDbLine
 10
499.431271795731
 20
131.231018361746
 30
0.0
 11
498.282315345074
 21
129.240968610502
 31
0.0
  0
LINE
  5
4FC
330
1B4
100
AcDbEntity
  8
Stammform
  6
AUSGEZOGEN
 62
    56
370
    18
100
AcDbLine
 10
499.431271795731
 20
127.250918859258
 30
0.0
 11
498.282315345074
 21
125.260869108015
 31
0.0
  0
LINE
  5
4FD
330
1B4
100
AcDbEntity
  8
Stammform
  6
AUSGEZOGEN
 62
    56
370
    18
100
AcDbLine
 10
499.431271795731
 20
127.250918859258
 30
0.0
 11
501.729184697045
 21
127.250918859258
 31
0.0
  0
LINE
  5
4FE
330
1B4
100
AcDbEntity
  8
Stammform
  6
AUSGEZOGEN
 62
    56
370
    18
100
AcDbLine
 10
498.282315345074
 20
129.240968610502
 30
0.0
 11
499.431271795731
 21
127.250918859258
 31
0.0
  0
LINE
  5
4FF
330
1B4
100
AcDbEntity
  8
Layer0
  6
AUSGEZOGEN
 62
     9
370
    18
100
AcDbLine
 10
498.282315345074
 20
129.240968610502
 30
0.0
 11
497.133358894418
 21
127.250918859258
 31
0.0
  0
LINE
  5
500
330
1B4
100
AcDbEntity
  8
Layer0
  6
AUSGEZOGEN
 62
     9
370
    18
100
AcDbLine
 10
497.133358894418
 20
127.250918859258
 30
0.0
 11
498.282315345074
 21
125.260869108015
 31
0.0
  0
LINE
  5
501
330
1B4
100
AcDbEntity
  8
Layer0
  6
AUSGEZOGEN
 62
     9
370
    18
100
AcDbLine
 10
498.282315345074
 20
125.260869108015
 30
0.0
 11
500.580228246388
 21
125.260869108015
 31
0.0
  0
LINE
  5
502
330
1B4
100
AcDbEntity
  8
Layer0
  6
AUSGEZOGEN
 62
     9
370
    18
100
AcDbLine
 10
500.580228246388
 20
125.260869108015
 30
0.0
 11
501.729184697045
 21
127.250918859258
 31
0.0
  0
LINE
  5
503
330
1B4
100
AcDbEntity
  8
Layer0
  6
AUSGEZOGEN
 62
     9
370
    18
100
AcDbLine
 10
501.729184697045
 20
127.250918859258
 30
0.0
 11
500.580228246388
 21
129.240968610502
 31
0.0
  0
LINE
  5
504
330
1B4
100
AcDbEntity
  8
Layer0
  6
AUSGEZOGEN
 62
     9
370
    18
100
AcDbLine
 10
500.580228246388
 20
129.240968610502
 30
0.0
 11
498.282315345074
 21
129.240968610502
 31
0.0
  0
LINE
  5
505
330
1B4
100
AcDbEntity
  8
Layer0
  6
AUSGEZOGEN
 62
     9
370
    18
100
AcDbLine
 10
498.282315345074
 20
141.181274709402
 30
0.0
 11
497.133358894418
 21
139.191224958159
 31
0.0
  0
LINE
  5
506
330
1B4
100
AcDbEntity
  8
Layer0
  6
AUSGEZOGEN
 62
     9
370
    18
100
AcDbLine
 10
497.133358894418
 20
139.191224958159
 30
0.0
 11
498.282315345074
 21
137.201175206915
 31
0.0
  0
LINE
  5
507
330
1B4
100
AcDbEntity
  8
Layer0
  6
AUSGEZOGEN
 62
     9
370
    18
100
AcDbLine
 10
498.282315345074
 20
137.201175206915
 30
0.0
 11
500.580228246388
 21
137.201175206915
 31
0.0
  0
LINE
  5
508
330
1B4
100
AcDbEntity
  8
Layer0
  6
AUSGEZOGEN
 62
     9
370
    18
100
AcDbLine
 10
500.580228246388
 20
137.201175206915
 30
0.0
 11
501.729184697045
 21
139.191224958159
 31
0.0
  0
LINE
  5
509
330
1B4
100
AcDbEntity
  8
Layer0
  6
AUSGEZOGEN
 62
     9
370
    18
100
AcDbLine
 10
501.729184697045
 20
139.191224958159
 30
0.0
 11
500.580228246388
 21
141.181274709402
 31
0.0
  0
LINE
  5
50A
330
1B4
100
AcDbEntity
  8
Layer0
  6
AUSGEZOGEN
 62
     9
370
    18
100
AcDbLine
 10
500.580228246388
 20
141.181274709402
 30
0.0
 11
498.282315345074
 21
141.181274709402
 31
0.0
  0
LINE
  5
50B
330
1B4
100
AcDbEntity
  8
Stammform
  6
AUSGEZOGEN
 62
    56
370
    18
100
AcDbLine
 10
498.282315345074
 20
141.181274709402
 30
0.0
 11
499.431271795731
 21
139.191224958159
 31
0.0
  0
LINE
  5
50C
330
1B4
100
AcDbEntity
  8
Stammform
  6
AUSGEZOGEN
 62
    56
370
    18
100
AcDbLine
 10
499.431271795731
 20
139.191224958159
 30
0.0
 11
501.729184697045
 21
139.191224958159
 31
0.0
  0
LINE
  5
50D
330
1B4
100
AcDbEntity
  8
Stammform
  6
AUSGEZOGEN
 62
    56
370
    18
100
AcDbLine
 10
499.431271795731
 20
139.191224958159
 30
0.0
 11
498.282315345074
 21
137.201175206915
 31
0.0
  0
LINE
  5
50E
330
1B4
100
AcDbEntity
  8
Stammform
  6
AUSGEZOGEN
 62
    56
370
    18
100
AcDbLine
 10
499.431271795731
 20
135.211125455671
 30
0.0
 11
498.282315345074
 21
133.22106811299
 31
0.0
  0
LINE
  5
50F
330
1B4
100
AcDbEntity
  8
Stammform
  6
AUSGEZOGEN
 62
    56
370
    18
100
AcDbLine
 10
499.431271795731
 20
135.211125455671
 30
0.0
 11
501.729184697045
 21
135.211125455671
 31
0.0
  0
LINE
  5
510
330
1B4
100
AcDbEntity
  8
Stammform
  6
AUSGEZOGEN
 62
    56
370
    18
100
AcDbLine
 10
498.282315345074
 20
137.201175206915
 30
0.0
 11
499.431271795731
 21
135.211125455671
 31
0.0
  0
LINE
  5
511
330
1B4
100
AcDbEntity
  8
Layer0
  6
AUSGEZOGEN
 62
     9
370
    18
100
AcDbLine
 10
498.282315345074
 20
137.201175206915
 30
0.0
 11
497.133358894418
 21
135.211125455671
 31
0.0
  0
LINE
  5
512
330
1B4
100
AcDbEntity
  8
Layer0
  6
AUSGEZOGEN
 62
     9
370
    18
100
AcDbLine
 10
497.133358894418
 20
135.211125455671
 30
0.0
 11
498.282315345074
 21
133.22106811299
 31
0.0
  0
LINE
  5
513
330
1B4
100
AcDbEntity
  8
Layer0
  6
AUSGEZOGEN
 62
     9
370
    18
100
AcDbLine
 10
498.282315345074
 20
133.22106811299
 30
0.0
 11
500.580228246388
 21
133.22106811299
 31
0.0
  0
LINE
  5
514
330
1B4
100
AcDbEntity
  8
Layer0
  6
AUSGEZOGEN
 62
     9
370
    18
100
AcDbLine
 10
500.580228246388
 20
133.22106811299
 30
0.0
 11
501.729184697045
 21
135.211125455671
 31
0.0
  0
LINE
  5
515
330
1B4
100
AcDbEntity
  8
Layer0
  6
AUSGEZOGEN
 62
     9
370
    18
100
AcDbLine
 10
501.729184697045
 20
135.211125455671
 30
0.0
 11
500.580228246388
 21
137.201175206915
 31
0.0
  0
LINE
  5
516
330
1B4
100
AcDbEntity
  8
Layer0
  6
AUSGEZOGEN
 62
     9
370
    18
100
AcDbLine
 10
500.580228246388
 20
137.201175206915
 30
0.0
 11
498.282315345074
 21
137.201175206915
 31
0.0
  0
LINE
  5
517
330
1B4
100
AcDbEntity
  8
Layer0
  6
AUSGEZOGEN
 62
     9
370
    18
100
AcDbLine
 10
498.282315345074
 20
149.141473714377
 30
0.0
 11
497.133358894418
 21
147.151423963134
 31
0.0
  0
LINE
  5
518
330
1B4
100
AcDbEntity
  8
Layer0
  6
AUSGEZOGEN
 62
     9
370
    18
100
AcDbLine
 10
497.133358894418
 20
147.151423963134
 30
0.0
 11
498.282315345074
 21
145.16137421189
 31
0.0
  0
LINE
  5
519
330
1B4
100
AcDbEntity
  8
Layer0
  6
AUSGEZOGEN
 62
     9
370
    18
100
AcDbLine
 10
498.282315345074
 20
145.16137421189
 30
0.0
 11
500.580228246388
 21
145.16137421189
 31
0.0
  0
LINE
  5
51A
330
1B4
100
AcDbEntity
  8
Layer0
  6
AUSGEZOGEN
 62
     9
370
    18
100
AcDbLine
 10
500.580228246388
 20
145.16137421189
 30
0.0
 11
501.729184697045
 21
147.151423963134
 31
0.0
  0
LINE
  5
51B
330
1B4
100
AcDbEntity
  8
Layer0
  6
AUSGEZOGEN
 62
     9
370
    18
100
AcDbLine
 10
501.729184697045
 20
147.151423963134
 30
0.0
 11
500.580228246388
 21
149.141473714377
 31
0.0
  0
LINE
  5
51C
330
1B4
100
AcDbEntity
  8
Layer0
  6
AUSGEZOGEN
 62
     9
370
    18
100
AcDbLine
 10
500.580228246388
 20
149.141473714377
 30
0.0
 11
498.282315345074
 21
149.141473714377
 31
0.0
  0
LINE
  5
51D
330
1B4
100
AcDbEntity
  8
Stammform
  6
AUSGEZOGEN
 62
    56
370
    18
100
AcDbLine
 10
498.282315345074
 20
149.141473714377
 30
0.0
 11
499.431271795731
 21
147.151423963134
 31
0.0
  0
LINE
  5
51E
330
1B4
100
AcDbEntity
  8
Stammform
  6
AUSGEZOGEN
 62
    56
370
    18
100
AcDbLine
 10
499.431271795731
 20
147.151423963134
 30
0.0
 11
501.729184697045
 21
147.151423963134
 31
0.0
  0
LINE
  5
51F
330
1B4
100
AcDbEntity
  8
Stammform
  6
AUSGEZOGEN
 62
    56
370
    18
100
AcDbLine
 10
499.431271795731
 20
147.151423963134
 30
0.0
 11
498.282315345074
 21
145.16137421189
 31
0.0
  0
LINE
  5
520
330
1B4
100
AcDbEntity
  8
Stammform
  6
AUSGEZOGEN
 62
    56
370
    18
100
AcDbLine
 10
499.431271795731
 20
143.171324460646
 30
0.0
 11
498.282315345074
 21
141.181274709402
 31
0.0
  0
LINE
  5
521
330
1B4
100
AcDbEntity
  8
Stammform
  6
AUSGEZOGEN
 62
    56
370
    18
100
AcDbLine
 10
499.431271795731
 20
143.171324460646
 30
0.0
 11
501.729184697045
 21
143.171324460646
 31
0.0
  0
LINE
  5
522
330
1B4
100
AcDbEntity
  8
Stammform
  6
AUSGEZOGEN
 62
    56
370
    18
100
AcDbLine
 10
498.282315345074
 20
145.16137421189
 30
0.0
 11
499.431271795731
 21
143.171324460646
 31
0.0
  0
LINE
  5
523
330
1B4
100
AcDbEntity
  8
Layer0
  6
AUSGEZOGEN
 62
     9
370
    18
100
AcDbLine
 10
498.282315345074
 20
145.16137421189
 30
0.0
 11
497.133358894418
 21
143.171324460646
 31
0.0
  0
LINE
  5
524
330
1B4
100
AcDbEntity
  8
Layer0
  6
AUSGEZOGEN
 62
     9
370
    18
100
AcDbLine
 10
497.133358894418
 20
143.171324460646
 30
0.0
 11
498.282315345074
 21
141.181274709402
 31
0.0
  0
LINE
  5
525
330
1B4
100
AcDbEntity
  8
Layer0
  6
AUSGEZOGEN
 62
     9
370
    18
100
AcDbLine
 10
498.282315345074
 20
141.181274709402
 30
0.0
 11
500.580228246388
 21
141.181274709402
 31
0.0
  0
LINE
  5
526
330
1B4
100
AcDbEntity
  8
Layer0
  6
AUSGEZOGEN
 62
     9
370
    18
100
AcDbLine
 10
500.580228246388
 20
141.181274709402
 30
0.0
 11
501.729184697045
 21
143.171324460646
 31
0.0
  0
LINE
  5
527
330
1B4
100
AcDbEntity
  8
Layer0
  6
AUSGEZOGEN
 62
     9
370
    18
100
AcDbLine
 10
501.729184697045
 20
143.171324460646
 30
0.0
 11
500.580228246388
 21
145.16137421189
 31
0.0
  0
LINE
  5
528
330
1B4
100
AcDbEntity
  8
Layer0
  6
AUSGEZOGEN
 62
     9
370
    18
100
AcDbLine
 10
500.580228246388
 20
145.16137421189
 30
0.0
 11
498.282315345074
 21
145.16137421189
 31
0.0
  0
LINE
  5
529
330
1B4
100
AcDbEntity
  8
Layer0
  6
AUSGEZOGEN
 62
     9
370
    18
100
AcDbLine
 10
498.282315345074
 20
157.101672719353
 30
0.0
 11
497.133358894418
 21
155.111622968109
 31
0.0
  0
LINE
  5
52A
330
1B4
100
AcDbEntity
  8
Layer0
  6
AUSGEZOGEN
 62
     9
370
    18
100
AcDbLine
 10
497.133358894418
 20
155.111622968109
 30
0.0
 11
498.282315345074
 21
153.121573216865
 31
0.0
  0
LINE
  5
52B
330
1B4
100
AcDbEntity
  8
Layer0
  6
AUSGEZOGEN
 62
     9
370
    18
100
AcDbLine
 10
498.282315345074
 20
153.121573216865
 30
0.0
 11
500.580228246388
 21
153.121573216865
 31
0.0
  0
LINE
  5
52C
330
1B4
100
AcDbEntity
  8
Layer0
  6
AUSGEZOGEN
 62
     9
370
    18
100
AcDbLine
 10
500.580228246388
 20
153.121573216865
 30
0.0
 11
501.729184697045
 21
155.111622968109
 31
0.0
  0
LINE
  5
52D
330
1B4
100
AcDbEntity
  8
Layer0
  6
AUSGEZOGEN
 62
     9
370
    18
100
AcDbLine
 10
501.729184697045
 20
155.111622968109
 30
0.0
 11
500.580228246388
 21
157.101672719353
 31
0.0
  0
LINE
  5
52E
330
1B4
100
AcDbEntity
  8
Layer0
  6
AUSGEZOGEN
 62
     9
370
    18
100
AcDbLine
 10
500.580228246388
 20
157.101672719353
 30
0.0
 11
498.282315345074
 21
157.101672719353
 31
0.0
  0
LINE
  5
52F
330
1B4
100
AcDbEntity
  8
Stammform
  6
AUSGEZOGEN
 62
    56
370
    18
100
AcDbLine
 10
498.282315345074
 20
157.101672719353
 30
0.0
 11
499.431271795731
 21
155.111622968109
 31
0.0
  0
LINE
  5
530
330
1B4
100
AcDbEntity
  8
Stammform
  6
AUSGEZOGEN
 62
    56
370
    18
100
AcDbLine
 10
499.431271795731
 20
155.111622968109
 30
0.0
 11
501.729184697045
 21
155.111622968109
 31
0.0
  0
LINE
  5
531
330
1B4
100
AcDbEntity
  8
Stammform
  6
AUSGEZOGEN
 62
    56
370
    18
100
AcDbLine
 10
499.431271795731
 20
155.111622968109
 30
0.0
 11
498.282315345074
 21
153.121573216865
 31
0.0
  0
LINE
  5
532
330
1B4
100
AcDbEntity
  8
Stammform
  6
AUSGEZOGEN
 62
    56
370
    18
100
AcDbLine
 10
499.431271795731
 20
151.131523465621
 30
0.0
 11
498.282315345074
 21
149.141473714377
 31
0.0
  0
LINE
  5
533
330
1B4
100
AcDbEntity
  8
Stammform
  6
AUSGEZOGEN
 62
    56
370
    18
100
AcDbLine
 10
499.431271795731
 20
151.131523465621
 30
0.0
 11
501.729184697045
 21
151.131523465621
 31
0.0
  0
LINE
  5
534
330
1B4
100
AcDbEntity
  8
Stammform
  6
AUSGEZOGEN
 62
    56
370
    18
100
AcDbLine
 10
498.282315345074
 20
153.121573216865
 30
0.0
 11
499.431271795731
 21
151.131523465621
 31
0.0
  0
LINE
  5
535
330
1B4
100
AcDbEntity
  8
Layer0
  6
AUSGEZOGEN
 62
     9
370
    18
100
AcDbLine
 10
498.282315345074
 20
153.121573216865
 30
0.0
 11
497.133358894418
 21
151.131523465621
 31
0.0
  0
LINE
  5
536
330
1B4
100
AcDbEntity
  8
Layer0
  6
AUSGEZOGEN
 62
     9
370
    18
100
AcDbLine
 10
497.133358894418
 20
151.131523465621
 30
0.0
 11
498.282315345074
 21
149.141473714377
 31
0.0
  0
LINE
  5
537
330
1B4
100
AcDbEntity
  8
Layer0
  6
AUSGEZOGEN
 62
     9
370
    18
100
AcDbLine
 10
498.282315345074
 20
149.141473714377
 30
0.0
 11
500.580228246388
 21
149.141473714377
 31
0.0
  0
LINE
  5
538
330
1B4
100
AcDbEntity
  8
Layer0
  6
AUSGEZOGEN
 62
     9
370
    18
100
AcDbLine
 10
500.580228246388
 20
149.141473714377
 30
0.0
 11
501.729184697045
 21
151.131523465621
 31
0.0
  0
LINE
  5
539
330
1B4
100
AcDbEntity
  8
Layer0
  6
AUSGEZOGEN
 62
     9
370
    18
100
AcDbLine
 10
501.729184697045
 20
151.131523465621
 30
0.0
 11
500.580228246388
 21
153.121573216865
 31
0.0
  0
LINE
  5
53A
330
1B4
100
AcDbEntity
  8
Layer0
  6
AUSGEZOGEN
 62
     9
370
    18
100
AcDbLine
 10
500.580228246388
 20
153.121573216865
 30
0.0
 11
498.282315345074
 21
153.121573216865
 31
0.0
  0
LINE
  5
53B
330
1B4
100
AcDbEntity
  8
Layer0
  6
AUSGEZOGEN
 62
     9
370
    18
100
AcDbLine
 10
497.133358894418
 20
175.012120480547
 30
0.0
 11
498.282315345074
 21
173.022070729303
 31
0.0
  0
LINE
  5
53C
330
1B4
100
AcDbEntity
  8
Layer0
  6
AUSGEZOGEN
 62
     9
370
    18
100
AcDbLine
 10
498.282315345074
 20
173.022070729303
 30
0.0
 11
500.580228246388
 21
173.022070729303
 31
0.0
  0
LINE
  5
53D
330
1B4
100
AcDbEntity
  8
Layer0
  6
AUSGEZOGEN
 62
     9
370
    18
100
AcDbLine
 10
500.580228246388
 20
173.022070729303
 30
0.0
 11
501.729184697045
 21
175.012120480547
 31
0.0
  0
LINE
  5
53E
330
1B4
100
AcDbEntity
  8
Stammform
  6
AUSGEZOGEN
 62
    56
370
    18
100
AcDbLine
 10
499.431271795731
 20
175.012120480547
 30
0.0
 11
498.282315345074
 21
173.022070729303
 31
0.0
  0
LINE
  5
53F
330
1B4
100
AcDbEntity
  8
Layer0
  6
AUSGEZOGEN
 62
     9
370
    18
100
AcDbLine
 10
498.282315345074
 20
169.041971226815
 30
0.0
 11
497.133358894418
 21
167.051921475571
 31
0.0
  0
LINE
  5
540
330
1B4
100
AcDbEntity
  8
Layer0
  6
AUSGEZOGEN
 62
     9
370
    18
100
AcDbLine
 10
497.133358894418
 20
167.051921475571
 30
0.0
 11
498.282315345074
 21
165.061871724328
 31
0.0
  0
LINE
  5
541
330
1B4
100
AcDbEntity
  8
Layer0
  6
AUSGEZOGEN
 62
     9
370
    18
100
AcDbLine
 10
498.282315345074
 20
165.061871724328
 30
0.0
 11
500.580228246388
 21
165.061871724328
 31
0.0
  0
LINE
  5
542
330
1B4
100
AcDbEntity
  8
Layer0
  6
AUSGEZOGEN
 62
     9
370
    18
100
AcDbLine
 10
500.580228246388
 20
165.061871724328
 30
0.0
 11
501.729184697045
 21
167.051921475571
 31
0.0
  0
LINE
  5
543
330
1B4
100
AcDbEntity
  8
Layer0
  6
AUSGEZOGEN
 62
     9
370
    18
100
AcDbLine
 10
501.729184697045
 20
167.051921475571
 30
0.0
 11
500.580228246388
 21
169.041971226815
 31
0.0
  0
LINE
  5
544
330
1B4
100
AcDbEntity
  8
Layer0
  6
AUSGEZOGEN
 62
     9
370
    18
100
AcDbLine
 10
500.580228246388
 20
169.041971226815
 30
0.0
 11
498.282315345074
 21
169.041971226815
 31
0.0
  0
LINE
  5
545
330
1B4
100
AcDbEntity
  8
Stammform
  6
AUSGEZOGEN
 62
    56
370
    18
100
AcDbLine
 10
498.282315345074
 20
169.041971226815
 30
0.0
 11
499.431271795731
 21
167.051921475571
 31
0.0
  0
LINE
  5
546
330
1B4
100
AcDbEntity
  8
Stammform
  6
AUSGEZOGEN
 62
    56
370
    18
100
AcDbLine
 10
499.431271795731
 20
167.051921475571
 30
0.0
 11
501.729184697045
 21
167.051921475571
 31
0.0
  0
LINE
  5
547
330
1B4
100
AcDbEntity
  8
Stammform
  6
AUSGEZOGEN
 62
    56
370
    18
100
AcDbLine
 10
499.431271795731
 20
167.051921475571
 30
0.0
 11
498.282315345074
 21
165.061871724328
 31
0.0
  0
LINE
  5
548
330
1B4
100
AcDbEntity
  8
Stammform
  6
AUSGEZOGEN
 62
    56
370
    18
100
AcDbLine
 10
499.431271795731
 20
171.032020978059
 30
0.0
 11
498.282315345074
 21
169.041971226815
 31
0.0
  0
LINE
  5
549
330
1B4
100
AcDbEntity
  8
Stammform
  6
AUSGEZOGEN
 62
    56
370
    18
100
AcDbLine
 10
499.431271795731
 20
171.032020978059
 30
0.0
 11
501.729184697045
 21
171.032020978059
 31
0.0
  0
LINE
  5
54A
330
1B4
100
AcDbEntity
  8
Stammform
  6
AUSGEZOGEN
 62
    56
370
    18
100
AcDbLine
 10
498.282315345074
 20
173.022070729303
 30
0.0
 11
499.431271795731
 21
171.032020978059
 31
0.0
  0
LINE
  5
54B
330
1B4
100
AcDbEntity
  8
Layer0
  6
AUSGEZOGEN
 62
     9
370
    18
100
AcDbLine
 10
498.282315345074
 20
173.022070729303
 30
0.0
 11
497.133358894418
 21
171.032020978059
 31
0.0
  0
LINE
  5
54C
330
1B4
100
AcDbEntity
  8
Layer0
  6
AUSGEZOGEN
 62
     9
370
    18
100
AcDbLine
 10
497.133358894418
 20
171.032020978059
 30
0.0
 11
498.282315345074
 21
169.041971226815
 31
0.0
  0
LINE
  5
54D
330
1B4
100
AcDbEntity
  8
Layer0
  6
AUSGEZOGEN
 62
     9
370
    18
100
AcDbLine
 10
498.282315345074
 20
169.041971226815
 30
0.0
 11
500.580228246388
 21
169.041971226815
 31
0.0
  0
LINE
  5
54E
330
1B4
100
AcDbEntity
  8
Layer0
  6
AUSGEZOGEN
 62
     9
370
    18
100
AcDbLine
 10
500.580228246388
 20
169.041971226815
 30
0.0
 11
501.729184697045
 21
171.032020978059
 31
0.0
  0
LINE
  5
54F
330
1B4
100
AcDbEntity
  8
Layer0
  6
AUSGEZOGEN
 62
     9
370
    18
100
AcDbLine
 10
501.729184697045
 20
171.032020978059
 30
0.0
 11
500.580228246388
 21
173.022070729303
 31
0.0
  0
LINE
  5
550
330
1B4
100
AcDbEntity
  8
Layer0
  6
AUSGEZOGEN
 62
     9
370
    18
100
AcDbLine
 10
500.580228246388
 20
173.022070729303
 30
0.0
 11
498.282315345074
 21
173.022070729303
 31
0.0
  0
LINE
  5
551
330
1B4
100
AcDbEntity
  8
Layer0
  6
AUSGEZOGEN
 62
     9
370
    18
100
AcDbLine
 10
498.282315345074
 20
165.061871724328
 30
0.0
 11
497.133358894418
 21
163.071821973084
 31
0.0
  0
LINE
  5
552
330
1B4
100
AcDbEntity
  8
Layer0
  6
AUSGEZOGEN
 62
     9
370
    18
100
AcDbLine
 10
497.133358894418
 20
163.071821973084
 30
0.0
 11
498.282315345074
 21
161.08177222184
 31
0.0
  0
LINE
  5
553
330
1B4
100
AcDbEntity
  8
Layer0
  6
AUSGEZOGEN
 62
     9
370
    18
100
AcDbLine
 10
498.282315345074
 20
161.08177222184
 30
0.0
 11
500.580228246388
 21
161.08177222184
 31
0.0
  0
LINE
  5
554
330
1B4
100
AcDbEntity
  8
Layer0
  6
AUSGEZOGEN
 62
     9
370
    18
100
AcDbLine
 10
500.580228246388
 20
161.08177222184
 30
0.0
 11
501.729184697045
 21
163.071821973084
 31
0.0
  0
LINE
  5
555
330
1B4
100
AcDbEntity
  8
Layer0
  6
AUSGEZOGEN
 62
     9
370
    18
100
AcDbLine
 10
501.729184697045
 20
163.071821973084
 30
0.0
 11
500.580228246388
 21
165.061871724328
 31
0.0
  0
LINE
  5
556
330
1B4
100
AcDbEntity
  8
Layer0
  6
AUSGEZOGEN
 62
     9
370
    18
100
AcDbLine
 10
500.580228246388
 20
165.061871724328
 30
0.0
 11
498.282315345074
 21
165.061871724328
 31
0.0
  0
LINE
  5
557
330
1B4
100
AcDbEntity
  8
Stammform
  6
AUSGEZOGEN
 62
    56
370
    18
100
AcDbLine
 10
498.282315345074
 20
165.061871724328
 30
0.0
 11
499.431271795731
 21
163.071821973084
 31
0.0
  0
LINE
  5
558
330
1B4
100
AcDbEntity
  8
Stammform
  6
AUSGEZOGEN
 62
    56
370
    18
100
AcDbLine
 10
499.431271795731
 20
163.071821973084
 30
0.0
 11
501.729184697045
 21
163.071821973084
 31
0.0
  0
LINE
  5
559
330
1B4
100
AcDbEntity
  8
Stammform
  6
AUSGEZOGEN
 62
    56
370
    18
100
AcDbLine
 10
499.431271795731
 20
163.071821973084
 30
0.0
 11
498.282315345074
 21
161.08177222184
 31
0.0
  0
LINE
  5
55A
330
1B4
100
AcDbEntity
  8
Stammform
  6
AUSGEZOGEN
 62
    56
370
    18
100
AcDbLine
 10
499.431271795731
 20
159.091722470596
 30
0.0
 11
498.282315345074
 21
157.101672719353
 31
0.0
  0
LINE
  5
55B
330
1B4
100
AcDbEntity
  8
Stammform
  6
AUSGEZOGEN
 62
    56
370
    18
100
AcDbLine
 10
499.431271795731
 20
159.091722470596
 30
0.0
 11
501.729184697045
 21
159.091722470596
 31
0.0
  0
LINE
  5
55C
330
1B4
100
AcDbEntity
  8
Stammform
  6
AUSGEZOGEN
 62
    56
370
    18
100
AcDbLine
 10
498.282315345074
 20
161.08177222184
 30
0.0
 11
499.431271795731
 21
159.091722470596
 31
0.0
  0
LINE
  5
55D
330
1B4
100
AcDbEntity
  8
Layer0
  6
AUSGEZOGEN
 62
     9
370
    18
100
AcDbLine
 10
498.282315345074
 20
161.08177222184
 30
0.0
 11
497.133358894418
 21
159.091722470596
 31
0.0
  0
LINE
  5
55E
330
1B4
100
AcDbEntity
  8
Layer0
  6
AUSGEZOGEN
 62
     9
370
    18
100
AcDbLine
 10
497.133358894418
 20
159.091722470596
 30
0.0
 11
498.282315345074
 21
157.101672719353
 31
0.0
  0
LINE
  5
55F
330
1B4
100
AcDbEntity
  8
Layer0
  6
AUSGEZOGEN
 62
     9
370
    18
100
AcDbLine
 10
498.282315345074
 20
157.101672719353
 30
0.0
 11
500.580228246388
 21
157.101672719353
 31
0.0
  0
LINE
  5
560
330
1B4
100
AcDbEntity
  8
Layer0
  6
AUSGEZOGEN
 62
     9
370
    18
100
AcDbLine
 10
500.580228246388
 20
157.101672719353
 30
0.0
 11
501.729184697045
 21
159.091722470596
 31
0.0
  0
LINE
  5
561
330
1B4
100
AcDbEntity
  8
Layer0
  6
AUSGEZOGEN
 62
     9
370
    18
100
AcDbLine
 10
501.729184697045
 20
159.091722470596
 30
0.0
 11
500.580228246388
 21
161.08177222184
 31
0.0
  0
LINE
  5
562
330
1B4
100
AcDbEntity
  8
Layer0
  6
AUSGEZOGEN
 62
     9
370
    18
100
AcDbLine
 10
500.580228246388
 20
161.08177222184
 30
0.0
 11
498.282315345074
 21
161.08177222184
 31
0.0
  0
ENDBLK
  5
1B6
330
1B4
100
AcDbEntity
  8
0
100
AcDbBlockEnd
  0
BLOCK
  5
576
330
575
100
AcDbEntity
  8
0
100
AcDbBlockBegin
  2
*D9
 70
     1
 10
0.0
 20
0.0
 30
0.0
  3
*D9
  1

  0
LINE
  5
578
330
575
100
AcDbEntity
  8
Layer70
  6
AUSGEZOGEN
 62
   136
370
    18
100
AcDbLine
 10
502.777097598359
 20
112.812016366614
 30
0.0
 11
502.777097598359
 21
112.312016366614
 31
0.0
  0
LINE
  5
579
330
575
100
AcDbEntity
  8
Layer70
  6
AUSGEZOGEN
 62
   136
370
    18
100
AcDbLine
 10
502.777097598359
 20
112.812016366614
 30
0.0
 11
504.027097598359
 21
112.562016366614
 31
0.0
  0
LINE
  5
57A
330
575
100
AcDbEntity
  8
Layer70
  6
AUSGEZOGEN
 62
   136
370
    18
100
AcDbLine
 10
504.027097598359
 20
112.562016366614
 30
0.0
 11
502.777097598359
 21
112.312016366614
 31
0.0
  0
LINE
  5
57B
330
575
100
AcDbEntity
  8
Layer70
  6
AUSGEZOGEN
 62
   136
370
    18
100
AcDbLine
 10
478.851114416125
 20
112.312016366614
 30
0.0
 11
478.851114416125
 21
112.812016366614
 31
0.0
  0
LINE
  5
57C
330
575
100
AcDbEntity
  8
Layer70
  6
AUSGEZOGEN
 62
   136
370
    18
100
AcDbLine
 10
478.851114416125
 20
112.312016366614
 30
0.0
 11
477.601114416125
 21
112.562016366614
 31
0.0
  0
LINE
  5
57D
330
575
100
AcDbEntity
  8
Layer70
  6
AUSGEZOGEN
 62
   136
370
    18
100
AcDbLine
 10
477.601114416125
 20
112.562016366614
 30
0.0
 11
478.851114416125
 21
112.812016366614
 31
0.0
  0
LINE
  5
57E
330
575
100
AcDbEntity
  8
Layer70
  6
AUSGEZOGEN
 62
   136
370
    18
100
AcDbLine
 10
477.601114416125
 20
112.562016366614
 30
0.0
 11
504.027097598359
 21
112.562016366614
 31
0.0
  0
LINE
  5
57F
330
575
100
AcDbEntity
  8
Layer70
  6
AUSGEZOGEN
 62
   136
370
    18
100
AcDbLine
 10
477.601114416125
 20
119.290727445721
 30
0.0
 11
477.601114416125
 21
111.847730652329
 31
0.0
  0
LINE
  5
580
330
575
100
AcDbEntity
  8
Layer70
  6
AUSGEZOGEN
 62
   136
370
    18
100
AcDbLine
 10
504.027097598359
 20
119.290727445721
 30
0.0
 11
504.027097598359
 21
111.847730652329
 31
0.0
  0
TEXT
  5
581
330
575
100
AcDbEntity
  8
Layer70
  6
AUSGEZOGEN
 62
   136
370
    18
100
AcDbText
 10
488.173509531431
 20
113.062016366614
 30
0.0
 40
1.25
  1
26.43
 41
1.216985820632
  7
Arial
 72
     5
 11
493.485652638487
 21
113.062016366614
 31
0.0
100
AcDbText
  0
ENDBLK
  5
577
330
575
100
AcDbEntity
  8
0
100
AcDbBlockEnd
  0
BLOCK
  5
584
330
583
100
AcDbEntity
  8
0
100
AcDbBlockBegin
  2
_CLOSED
 70
     0
 10
0.0
 20
0.0
 30
0.0
  3
_CLOSED
  1

  0
LINE
  5
586
330
583
100
AcDbEntity
  8
0
  6
ByBlock
 62
     0
370
    -2
100
AcDbLine
 10
-1.0
 20
0.166667
 30
0.0
 11
0.0
 21
0.0
 31
0.0
  0
LINE
  5
587
330
583
100
AcDbEntity
  8
0
  6
ByBlock
 62
     0
370
    -2
100
AcDbLine
 10
0.0
 20
0.0
 30
0.0
 11
-1.0
 21
-0.166667
 31
0.0
  0
LINE
  5
588
330
583
100
AcDbEntity
  8
0
  6
ByBlock
 62
     0
370
    -2
100
AcDbLine
 10
-1.0
 20
0.166667
 30
0.0
 11
-1.0
 21
-0.166667
 31
0.0
  0
LINE
  5
589
330
583
100
AcDbEntity
  8
0
  6
ByBlock
 62
     0
370
    -2
100
AcDbLine
 10
0.0
 20
0.0
 30
0.0
 11
-1.0
 21
0.0
 31
0.0
  0
ENDBLK
  5
585
330
583
100
AcDbEntity
  8
0
100
AcDbBlockEnd
  0
BLOCK
  5
58B
330
58A
100
AcDbEntity
  8
0
100
AcDbBlockBegin
  2
*D11
 70
     1
 10
0.0
 20
0.0
 30
0.0
  3
*D11
  1

  0
LINE
  5
58D
330
58A
100
AcDbEntity
  8
Layer70
  6
AUSGEZOGEN
 62
   136
370
    18
100
AcDbLine
 10
504.564106007242
 20
109.831622091943
 30
0.0
 11
504.564106007242
 21
109.331622091943
 31
0.0
  0
LINE
  5
58E
330
58A
100
AcDbEntity
  8
Layer70
  6
AUSGEZOGEN
 62
   136
370
    18
100
AcDbLine
 10
504.564106007242
 20
109.831622091943
 30
0.0
 11
505.814106007242
 21
109.581622091943
 31
0.0
  0
LINE
  5
58F
330
58A
100
AcDbEntity
  8
Layer70
  6
AUSGEZOGEN
 62
   136
370
    18
100
AcDbLine
 10
505.814106007242
 20
109.581622091943
 30
0.0
 11
504.564106007242
 21
109.331622091943
 31
0.0
  0
LINE
  5
590
330
58A
100
AcDbEntity
  8
Layer70
  6
AUSGEZOGEN
 62
   136
370
    18
100
AcDbLine
 10
477.064106007242
 20
109.331622091943
 30
0.0
 11
477.064106007242
 21
109.831622091943
 31
0.0
  0
LINE
  5
591
330
58A
100
AcDbEntity
  8
Layer70
  6
AUSGEZOGEN
 62
   136
370
    18
100
AcDbLine
 10
477.064106007242
 20
109.331622091943
 30
0.0
 11
475.814106007242
 21
109.581622091943
 31
0.0
  0
LINE
  5
592
330
58A
100
AcDbEntity
  8
Layer70
  6
AUSGEZOGEN
 62
   136
370
    18
100
AcDbLine
 10
475.814106007242
 20
109.581622091943
 30
0.0
 11
477.064106007242
 21
109.831622091943
 31
0.0
  0
LINE
  5
593
330
58A
100
AcDbEntity
  8
Layer70
  6
AUSGEZOGEN
 62
   136
370
    18
100
AcDbLine
 10
475.814106007242
 20
109.581622091943
 30
0.0
 11
505.814106007242
 21
109.581622091943
 31
0.0
  0
LINE
  5
594
330
58A
100
AcDbEntity
  8
Layer70
  6
AUSGEZOGEN
 62
   136
370
    18
100
AcDbLine
 10
475.814106007242
 20
117.401423963134
 30
0.0
 11
475.814106007242
 21
108.867336377657
 31
0.0
  0
LINE
  5
595
330
58A
100
AcDbEntity
  8
Layer70
  6
AUSGEZOGEN
 62
   136
370
    18
100
AcDbLine
 10
505.814106007242
 20
117.401423963134
 30
0.0
 11
505.814106007242
 21
108.867336377657
 31
0.0
  0
TEXT
  5
596
330
58A
100
AcDbEntity
  8
Layer70
  6
AUSGEZOGEN
 62
   136
370
    18
100
AcDbText
 10
489.961144015014
 20
110.081622091943
 30
0.0
 40
1.25
  1
30
 41
1.131075166857
  7
Arial
 72
     5
 11
492.155429838717
 21
110.081622091943
 31
0.0
100
AcDbText
  0
ENDBLK
  5
58C
330
58A
100
AcDbEntity
  8
0
100
AcDbBlockEnd
  0
BLOCK
  5
599
330
598
100
AcDbEntity
  8
0
100
AcDbBlockBegin
  2
*D12
 70
     1
 10
0.0
 20
0.0
 30
0.0
  3
*D12
  1

  0
LINE
  5
59B
330
598
100
AcDbEntity
  8
Layer70
  6
AUSGEZOGEN
 62
   136
370
    18
100
AcDbLine
 10
513.347644409068
 20
175.651423963134
 30
0.0
 11
513.847644409068
 21
175.651423963134
 31
0.0
  0
LINE
  5
59C
330
598
100
AcDbEntity
  8
Layer70
  6
AUSGEZOGEN
 62
   136
370
    18
100
AcDbLine
 10
513.347644409068
 20
175.651423963134
 30
0.0
 11
513.597644409068
 21
176.901423963134
 31
0.0
  0
LINE
  5
59D
330
598
100
AcDbEntity
  8
Layer70
  6
AUSGEZOGEN
 62
   136
370
    18
100
AcDbLine
 10
513.597644409068
 20
176.901423963134
 30
0.0
 11
513.847644409068
 21
175.651423963134
 31
0.0
  0
LINE
  5
59E
330
598
100
AcDbEntity
  8
Layer70
  6
AUSGEZOGEN
 62
   136
370
    18
100
AcDbLine
 10
513.847644409068
 20
118.651423963134
 30
0.0
 11
513.347644409068
 21
118.651423963134
 31
0.0
  0
LINE
  5
59F
330
598
100
AcDbEntity
  8
Layer70
  6
AUSGEZOGEN
 62
   136
370
    18
100
AcDbLine
 10
513.847644409068
 20
118.651423963134
 30
0.0
 11
513.597644409068
 21
117.401423963134
 31
0.0
  0
LINE
  5
5A0
330
598
100
AcDbEntity
  8
Layer70
  6
AUSGEZOGEN
 62
   136
370
    18
100
AcDbLine
 10
513.597644409068
 20
117.401423963134
 30
0.0
 11
513.347644409068
 21
118.651423963134
 31
0.0
  0
LINE
  5
5A1
330
598
100
AcDbEntity
  8
Layer70
  6
AUSGEZOGEN
 62
   136
370
    18
100
AcDbLine
 10
513.597644409068
 20
117.401423963134
 30
0.0
 11
513.597644409068
 21
176.901423963134
 31
0.0
  0
LINE
  5
5A2
330
598
100
AcDbEntity
  8
Layer70
  6
AUSGEZOGEN
 62
   136
370
    18
100
AcDbLine
 10
505.814106007242
 20
117.401423963134
 30
0.0
 11
514.311930123353
 21
117.401423963134
 31
0.0
  0
LINE
  5
5A3
330
598
100
AcDbEntity
  8
Layer70
  6
AUSGEZOGEN
 62
   136
370
    18
100
AcDbLine
 10
505.814106007242
 20
176.901423963134
 30
0.0
 11
514.311930123353
 21
176.901423963134
 31
0.0
  0
TEXT
  5
5A4
330
598
100
AcDbEntity
  8
Layer70
  6
AUSGEZOGEN
 62
   136
370
    18
100
AcDbText
 10
513.097644409068
 20
145.160078745832
 30
0.0
 40
1.25
  1
59.5
 50
90.0
 41
1.209972706038
  7
Arial
 72
     5
 11
513.097644409068
 21
149.26793608283
 31
0.0
100
AcDbText
  0
ENDBLK
  5
59A
330
598
100
AcDbEntity
  8
0
100
AcDbBlockEnd
  0
BLOCK
  5
5A7
330
5A6
100
AcDbEntity
  8
0
100
AcDbBlockBegin
  2
*D13
 70
     1
 10
0.0
 20
0.0
 30
0.0
  3
*D13
  1

  0
LINE
  5
5A9
330
5A6
100
AcDbEntity
  8
Layer70
  6
AUSGEZOGEN
 62
   136
370
    18
100
AcDbLine
 10
471.223703699348
 20
135.886125455671
 30
0.0
 11
471.723703699348
 21
135.886125455671
 31
0.0
  0
LINE
  5
5AA
330
5A6
100
AcDbEntity
  8
Layer70
  6
AUSGEZOGEN
 62
   136
370
    18
100
AcDbLine
 10
471.223703699348
 20
135.886125455671
 30
0.0
 11
471.473703699348
 21
137.136125455671
 31
0.0
  0
LINE
  5
5AB
330
5A6
100
AcDbEntity
  8
Layer70
  6
AUSGEZOGEN
 62
   136
370
    18
100
AcDbLine
 10
471.473703699348
 20
137.136125455671
 30
0.0
 11
471.723703699348
 21
135.886125455671
 31
0.0
  0
LINE
  5
5AC
330
5A6
100
AcDbEntity
  8
Layer70
  6
AUSGEZOGEN
 62
   136
370
    18
100
AcDbLine
 10
471.723703699348
 20
134.536125455671
 30
0.0
 11
471.223703699348
 21
134.536125455671
 31
0.0
  0
LINE
  5
5AD
330
5A6
100
AcDbEntity
  8
Layer70
  6
AUSGEZOGEN
 62
   136
370
    18
100
AcDbLine
 10
471.723703699348
 20
134.536125455671
 30
0.0
 11
471.473703699348
 21
133.286125455671
 31
0.0
  0
LINE
  5
5AE
330
5A6
100
AcDbEntity
  8
Layer70
  6
AUSGEZOGEN
 62
   136
370
    18
100
AcDbLine
 10
471.473703699348
 20
133.286125455671
 30
0.0
 11
471.223703699348
 21
134.536125455671
 31
0.0
  0
LINE
  5
5AF
330
5A6
100
AcDbEntity
  8
Layer70
  6
AUSGEZOGEN
 62
   136
370
    18
100
AcDbLine
 10
471.473703699348
 20
133.286125455671
 30
0.0
 11
471.473703699348
 21
137.136125455671
 31
0.0
  0
LINE
  5
5B0
330
5A6
100
AcDbEntity
  8
Layer70
  6
AUSGEZOGEN
 62
   136
370
    18
100
AcDbLine
 10
471.473703699348
 20
137.136125455671
 30
0.0
 11
471.473703699348
 21
137.533011928669
 31
0.0
  0
LINE
  5
5B1
330
5A6
100
AcDbEntity
  8
Layer70
  6
AUSGEZOGEN
 62
   136
370
    18
100
AcDbLine
 10
478.750070866782
 20
133.286125455671
 30
0.0
 11
470.759417985063
 21
133.286125455671
 31
0.0
  0
LINE
  5
5B2
330
5A6
100
AcDbEntity
  8
Layer70
  6
AUSGEZOGEN
 62
   136
370
    18
100
AcDbLine
 10
478.750070866782
 20
137.136125455671
 30
0.0
 11
470.759417985063
 21
137.136125455671
 31
0.0
  0
TEXT
  5
5B3
330
5A6
100
AcDbEntity
  8
Layer70
  6
AUSGEZOGEN
 62
   136
370
    18
100
AcDbText
 10
470.973703699348
 20
133.318011733463
 30
0.0
 40
1.25
  1
3.85
 50
90.0
 41
1.209972706038
  7
Arial
 72
     5
 11
470.973703699348
 21
137.425869070461
 31
0.0
100
AcDbText
  0
ENDBLK
  5
5A8
330
5A6
100
AcDbEntity
  8
0
100
AcDbBlockEnd
  0
BLOCK
  5
5C0
330
5BF
100
AcDbEntity
  8
0
100
AcDbBlockBegin
  2
*D14
 70
     1
 10
0.0
 20
0.0
 30
0.0
  3
*D14
  1

  0
LINE
  5
5C2
330
5BF
100
AcDbEntity
  8
Layer70
  6
AUSGEZOGEN
 62
   136
370
    18
100
AcDbLine
 10
510.220012962983
 20
188.983094960446
 30
0.0
 11
510.720012962983
 21
188.983094960446
 31
0.0
  0
LINE
  5
5C3
330
5BF
100
AcDbEntity
  8
Layer70
  6
AUSGEZOGEN
 62
   136
370
    18
100
AcDbLine
 10
510.220012962983
 20
188.983094960446
 30
0.0
 11
510.470012962983
 21
190.233094960446
 31
0.0
  0
LINE
  5
5C4
330
5BF
100
AcDbEntity
  8
Layer70
  6
AUSGEZOGEN
 62
   136
370
    18
100
AcDbLine
 10
510.470012962983
 20
190.233094960446
 30
0.0
 11
510.720012962983
 21
188.983094960446
 31
0.0
  0
LINE
  5
5C5
330
5BF
100
AcDbEntity
  8
Layer70
  6
AUSGEZOGEN
 62
   136
370
    18
100
AcDbLine
 10
510.720012962983
 20
186.083094960446
 30
0.0
 11
510.220012962983
 21
186.083094960446
 31
0.0
  0
LINE
  5
5C6
330
5BF
100
AcDbEntity
  8
Layer70
  6
AUSGEZOGEN
 62
   136
370
    18
100
AcDbLine
 10
510.720012962983
 20
186.083094960446
 30
0.0
 11
510.470012962983
 21
184.833094960446
 31
0.0
  0
LINE
  5
5C7
330
5BF
100
AcDbEntity
  8
Layer70
  6
AUSGEZOGEN
 62
   136
370
    18
100
AcDbLine
 10
510.470012962983
 20
184.833094960446
 30
0.0
 11
510.220012962983
 21
186.083094960446
 31
0.0
  0
LINE
  5
5C8
330
5BF
100
AcDbEntity
  8
Layer70
  6
AUSGEZOGEN
 62
   136
370
    18
100
AcDbLine
 10
510.470012962983
 20
184.833094960446
 30
0.0
 11
510.470012962983
 21
190.233094960446
 31
0.0
  0
LINE
  5
5C9
330
5BF
100
AcDbEntity
  8
Layer70
  6
AUSGEZOGEN
 62
   136
370
    18
100
AcDbLine
 10
505.814106007242
 20
184.833094960446
 30
0.0
 11
511.184298677268
 21
184.833094960446
 31
0.0
  0
LINE
  5
5CA
330
5BF
100
AcDbEntity
  8
Layer70
  6
AUSGEZOGEN
 62
   136
370
    18
100
AcDbLine
 10
505.71984865663
 20
190.233094960446
 30
0.0
 11
511.184298677268
 21
190.233094960446
 31
0.0
  0
TEXT
  5
5CB
330
5BF
100
AcDbEntity
  8
Layer70
  6
AUSGEZOGEN
 62
   136
370
    18
100
AcDbText
 10
509.970012962983
 20
186.026554012259
 30
0.0
 40
1.25
  1
5.4
 50
90.0
 41
1.197349099769
  7
Arial
 72
     5
 11
509.970012962983
 21
188.930125579198
 31
0.0
100
AcDbText
  0
ENDBLK
  5
5C1
330
5BF
100
AcDbEntity
  8
0
100
AcDbBlockEnd
  0
BLOCK
  5
5CE
330
5CD
100
AcDbEntity
  8
0
100
AcDbBlockBegin
  2
*D15
 70
     1
 10
0.0
 20
0.0
 30
0.0
  3
*D15
  1

  0
LINE
  5
5D0
330
5CD
100
AcDbEntity
  8
Layer70
  6
AUSGEZOGEN
 62
   136
370
    18
100
AcDbLine
 10
513.25
 20
191.983094960446
 30
0.0
 11
513.75
 21
191.983094960446
 31
0.0
  0
LINE
  5
5D1
330
5CD
100
AcDbEntity
  8
Layer70
  6
AUSGEZOGEN
 62
   136
370
    18
100
AcDbLine
 10
513.25
 20
191.983094960446
 30
0.0
 11
513.5
 21
193.233094960446
 31
0.0
  0
LINE
  5
5D2
330
5CD
100
AcDbEntity
  8
Layer70
  6
AUSGEZOGEN
 62
   136
370
    18
100
AcDbLine
 10
513.5
 20
193.233094960446
 30
0.0
 11
513.75
 21
191.983094960446
 31
0.0
  0
LINE
  5
5D3
330
5CD
100
AcDbEntity
  8
Layer70
  6
AUSGEZOGEN
 62
   136
370
    18
100
AcDbLine
 10
513.75
 20
186.083094960446
 30
0.0
 11
513.25
 21
186.083094960446
 31
0.0
  0
LINE
  5
5D4
330
5CD
100
AcDbEntity
  8
Layer70
  6
AUSGEZOGEN
 62
   136
370
    18
100
AcDbLine
 10
513.75
 20
186.083094960446
 30
0.0
 11
513.5
 21
184.833094960446
 31
0.0
  0
LINE
  5
5D5
330
5CD
100
AcDbEntity
  8
Layer70
  6
AUSGEZOGEN
 62
   136
370
    18
100
AcDbLine
 10
513.5
 20
184.833094960446
 30
0.0
 11
513.25
 21
186.083094960446
 31
0.0
  0
LINE
  5
5D6
330
5CD
100
AcDbEntity
  8
Layer70
  6
AUSGEZOGEN
 62
   136
370
    18
100
AcDbLine
 10
513.5
 20
184.833094960446
 30
0.0
 11
513.5
 21
193.233094960446
 31
0.0
  0
LINE
  5
5D7
330
5CD
100
AcDbEntity
  8
Layer70
  6
AUSGEZOGEN
 62
   136
370
    18
100
AcDbLine
 10
505.814106007242
 20
184.833094960446
 30
0.0
 11
514.214285714286
 21
184.833094960446
 31
0.0
  0
LINE
  5
5D8
330
5CD
100
AcDbEntity
  8
Layer70
  6
AUSGEZOGEN
 62
   136
370
    18
100
AcDbLine
 10
505.664106007242
 20
193.233094960446
 30
0.0
 11
514.214285714286
 21
193.233094960446
 31
0.0
  0
TEXT
  5
5D9
330
5CD
100
AcDbEntity
  8
Layer70
  6
AUSGEZOGEN
 62
   136
370
    18
100
AcDbText
 10
513.0
 20
186.026554012259
 30
0.0
 40
1.25
  1
8.4
 50
90.0
 41
1.197349099769
  7
Arial
 72
     5
 11
513.0
 21
188.930125579198
 31
0.0
100
AcDbText
  0
TEXT
  5
5DA
330
5CD
100
AcDbEntity
  8
Layer70
  6
AUSGEZOGEN
 62
   136
370
    18
100
AcDbText
 10
512.8125
 20
189.144411295613
 30
0.0
 40
0.875
  1
%%p0.3
 50
90.0
 41
1.291250039099
  7
Arial
 72
     5
 11
512.8125
 21
192.201768575688
 31
0.0
100
AcDbText
  0
ENDBLK
  5
5CF
330
5CD
100
AcDbEntity
  8
0
100
AcDbBlockEnd
  0
BLOCK
  5
5DD
330
5DC
100
AcDbEntity
  8
0
100
AcDbBlockBegin
  2
*D16
 70
     1
 10
0.0
 20
0.0
 30
0.0
  3
*D16
  1

  0
LINE
  5
5DF
330
5DC
100
AcDbEntity
  8
Layer70
  6
AUSGEZOGEN
 62
   136
370
    18
100
AcDbLine
 10
509.75
 20
173.762120480547
 30
0.0
 11
510.25
 21
173.762120480547
 31
0.0
  0
LINE
  5
5E0
330
5DC
100
AcDbEntity
  8
Layer70
  6
AUSGEZOGEN
 62
   136
370
    18
100
AcDbLine
 10
509.75
 20
173.762120480547
 30
0.0
 11
510.0
 21
175.012120480547
 31
0.0
  0
LINE
  5
5E1
330
5DC
100
AcDbEntity
  8
Layer70
  6
AUSGEZOGEN
 62
   136
370
    18
100
AcDbLine
 10
510.0
 20
175.012120480547
 30
0.0
 11
510.25
 21
173.762120480547
 31
0.0
  0
LINE
  5
5E2
330
5DC
100
AcDbEntity
  8
Layer70
  6
AUSGEZOGEN
 62
   136
370
    18
100
AcDbLine
 10
510.25
 20
120.540727445721
 30
0.0
 11
509.75
 21
120.540727445721
 31
0.0
  0
LINE
  5
5E3
330
5DC
100
AcDbEntity
  8
Layer70
  6
AUSGEZOGEN
 62
   136
370
    18
100
AcDbLine
 10
510.25
 20
120.540727445721
 30
0.0
 11
510.0
 21
119.290727445721
 31
0.0
  0
LINE
  5
5E4
330
5DC
100
AcDbEntity
  8
Layer70
  6
AUSGEZOGEN
 62
   136
370
    18
100
AcDbLine
 10
510.0
 20
119.290727445721
 30
0.0
 11
509.75
 21
120.540727445721
 31
0.0
  0
LINE
  5
5E5
330
5DC
100
AcDbEntity
  8
Layer70
  6
AUSGEZOGEN
 62
   136
370
    18
100
AcDbLine
 10
510.0
 20
119.290727445721
 30
0.0
 11
510.0
 21
175.012120480547
 31
0.0
  0
LINE
  5
5E6
330
5DC
100
AcDbEntity
  8
Layer70
  6
AUSGEZOGEN
 62
   136
370
    18
100
AcDbLine
 10
504.027097598359
 20
119.290727445721
 30
0.0
 11
510.714285714286
 21
119.290727445721
 31
0.0
  0
LINE
  5
5E7
330
5DC
100
AcDbEntity
  8
Layer70
  6
AUSGEZOGEN
 62
   136
370
    18
100
AcDbLine
 10
504.027097598359
 20
175.012120480547
 30
0.0
 11
510.714285714286
 21
175.012120480547
 31
0.0
  0
TEXT
  5
5E8
330
5DC
100
AcDbEntity
  8
Layer70
  6
AUSGEZOGEN
 62
   136
370
    18
100
AcDbText
 10
509.5
 20
144.5
 30
0.0
 40
1.25
  1
55.72
 50
90.0
 41
1.216985820632
  7
Arial
 72
     5
 11
509.5
 21
149.812143107057
 31
0.0
100
AcDbText
  0
ENDBLK
  5
5DE
330
5DC
100
AcDbEntity
  8
0
100
AcDbBlockEnd
  0
ENDSEC
  0
SECTION
  2
ENTITIES
  0
INSERT
  5
19E
330
1F
100
AcDbEntity
  8
0
100
AcDbBlockReference
  2
A4_nNn00
 10
0.0
 20
0.0
 30
0.0
  0
TEXT
  5
19F
330
1F
100
AcDbEntity
  8
Layer50
  6
AUSGEZOGEN
 62
     9
370
    18
100
AcDbText
 10
505.379859787363
 20
71.005242196167
 30
0.0
 40
2.35
  1
02104500k
 41
1.218898721598
  7
Arial
 72
     5
 11
525.161489030052
 21
71.005242196167
 31
0.0
100
AcDbText
  0
TEXT
  5
1A0
330
1F
100
AcDbEntity
  8
Layer50
  6
AUSGEZOGEN
 62
     9
370
    18
100
AcDbText
 10
498.357373408218
 20
79.571027117031
 30
0.0
 40
2.35
  1
Reflektor 30x60LF
 41
1.260209492803
  7
Arial
 72
     5
 11
532.130231689652
 21
79.571027117031
 31
0.0
100
AcDbText
  0
INSERT
  5
1B0
330
1F
100
AcDbEntity
  8
0
100
AcDbBlockReference
  2
L1_nNn03
 10
0.0
 20
0.0
 30
0.0
  0
INSERT
  5
56E
330
1F
100
AcDbEntity
  8
0
100
AcDbBlockReference
  2
L1_nNn06
 10
0.0
 20
0.0
 30
0.0
  0
LINE
  5
56F
330
1F
100
AcDbEntity
  8
Layer0
  6
AUSGEZOGEN
 62
     9
370
    18
100
AcDbLine
 10
505.814106007242
 20
117.401423963134
 30
0.0
 11
505.814106007242
 21
176.901423963134
 31
0.0
  0
LINE
  5
570
330
1F
100
AcDbEntity
  8
Layer0
  6
AUSGEZOGEN
 62
     9
370
    18
100
AcDbLine
 10
475.814106007242
 20
117.401423963134
 30
0.0
 11
475.814106007242
 21
176.901423963134
 31
0.0
  0
LINE
  5
571
330
1F
100
AcDbEntity
  8
Layer0
  6
AUSGEZOGEN
 62
     9
370
    18
100
AcDbLine
 10
475.814106007242
 20
176.901423963134
 30
0.0
 11
505.814106007242
 21
176.901423963134
 31
0.0
  0
LINE
  5
572
330
1F
100
AcDbEntity
  8
Layer0
  6
AUSGEZOGEN
 62
     9
370
    18
100
AcDbLine
 10
475.814106007242
 20
117.401423963134
 30
0.0
 11
505.814106007242
 21
117.401423963134
 31
0.0
  0
LINE
  5
573
330
1F
100
AcDbEntity
  8
Layer0
  6
AUSGEZOGEN
 62
   136
370
    18
100
AcDbLine
 10
478.750070866782
 20
137.136125455671
 30
0.0
 11
479.936583583275
 21
137.136125455671
 31
0.0
  0
LINE
  5
574
330
1F
100
AcDbEntity
  8
Layer0
  6
AUSGEZOGEN
 62
   136
370
    18
100
AcDbLine
 10
478.750070866782
 20
133.286125455671
 30
0.0
 11
479.936587822885
 21
133.286125455671
 31
0.0
  0
DIMENSION
  5
582
330
1F
100
AcDbEntity
  8
Layer70
  6
AUSGEZOGEN
 62
   136
370
    18
100
AcDbDimension
  2
*D9
 10
504.027097598359
 20
112.562016366614
 30
0.0
 11
490.829581084959
 21
113.687016366614
 31
0.0
 70
   160
 71
     5
 42
-1.0
  3
ISO-25
100
AcDbAlignedDimension
 13
477.601114416125
 23
119.290727445721
 33
0.0
 14
504.027097598359
 24
119.290727445721
 34
0.0
100
AcDbRotatedDimension
1001
ACAD
1000
DSTYLE
1002
{
1070
     3
1000
<>
1070
    44
1040
0.892857142857
1070
   280
1070
     0
1070
    77
1070
     1
1070
    78
1070
     8
1070
   179
1070
     2
1070
   271
1070
     2
1070
   344
1005
583
1070
   343
1005
583
1070
   173
1070
     1
1070
    41
1040
1.25
1070
   147
1040
0.178571428571
1070
   140
1040
1.25
1070
   178
1070
   136
1070
   177
1070
   136
1070
   176
1070
   136
1002
}
  0
DIMENSION
  5
597
330
1F
100
AcDbEntity
  8
Layer70
  6
AUSGEZOGEN
 62
   136
370
    18
100
AcDbDimension
  2
*D11
 10
505.814106007242
 20
109.581622091943
 30
0.0
 11
491.058286926866
 21
110.706622091943
 31
0.0
 70
   160
 71
     5
 42
-1.0
  3
ISO-25
100
AcDbAlignedDimension
 13
475.814106007242
 23
117.401423963134
 33
0.0
 14
505.814106007242
 24
117.401423963134
 34
0.0
100
AcDbRotatedDimension
1001
ACAD
1000
DSTYLE
1002
{
1070
     3
1000
<>
1070
    44
1040
0.892857142857
1070
   280
1070
     0
1070
    77
1070
     1
1070
    78
1070
     8
1070
   179
1070
     2
1070
   271
1070
     2
1070
   344
1005
583
1070
   343
1005
583
1070
   173
1070
     1
1070
    41
1040
1.25
1070
   147
1040
0.178571428571
1070
   140
1040
1.25
1070
   178
1070
   136
1070
   177
1070
   136
1070
   176
1070
   136
1002
}
  0
DIMENSION
  5
5A5
330
1F
100
AcDbEntity
  8
Layer70
  6
AUSGEZOGEN
 62
   136
370
    18
100
AcDbDimension
  2
*D12
 10
513.597644409068
 20
176.901423963134
 30
0.0
 11
512.472644409068
 21
147.214007414331
 31
0.0
 70
   160
 71
     5
 42
-1.0
 53
90.0
  3
ISO-25
100
AcDbAlignedDimension
 13
505.814106007242
 23
117.401423963134
 33
0.0
 14
505.814106007242
 24
176.901423963134
 34
0.0
 50
90.0
100
AcDbRotatedDimension
1001
ACAD
1000
DSTYLE
1002
{
1070
     3
1000
<>
1070
    44
1040
0.892857142857
1070
   280
1070
     0
1070
    77
1070
     1
1070
    78
1070
     8
1070
   179
1070
     2
1070
   271
1070
     2
1070
   344
1005
583
1070
   343
1005
583
1070
   173
1070
     1
1070
    41
1040
1.25
1070
   147
1040
0.178571428571
1070
   140
1040
1.25
1070
   178
1070
   136
1070
   177
1070
   136
1070
   176
1070
   136
1002
}
  0
DIMENSION
  5
5B4
330
1F
100
AcDbEntity
  8
Layer70
  6
AUSGEZOGEN
 62
   136
370
    18
100
AcDbDimension
  2
*D13
 10
471.473703699348
 20
137.136125455671
 30
0.0
 11
470.348703699348
 21
135.371940401962
 31
0.0
 70
   160
 71
     5
 42
-1.0
 53
90.0
  3
ISO-25
100
AcDbAlignedDimension
 13
478.750070866782
 23
133.286125455671
 33
0.0
 14
478.750070866782
 24
137.136125455671
 34
0.0
 50
90.0
100
AcDbRotatedDimension
1001
ACAD
1000
DSTYLE
1002
{
1070
     3
1000
<>
1070
    44
1040
0.892857142857
1070
   280
1070
     0
1070
    77
1070
     1
1070
    78
1070
     8
1070
   179
1070
     2
1070
   271
1070
     2
1070
   344
1005
583
1070
   343
1005
583
1070
   173
1070
     1
1070
    41
1040
1.25
1070
   147
1040
0.178571428571
1070
   140
1040
1.25
1070
   178
1070
   136
1070
   177
1070
   136
1070
   176
1070
   136
1002
}
  0
LINE
  5
5B5
330
1F
100
AcDbEntity
  8
Layer0
  6
DASHDOT
 62
    56
370
    18
100
AcDbLine
 10
490.814106007242
 20
183.681226382488
 30
0.0
 11
490.814106007242
 21
194.295212557604
 31
0.0
  0
LINE
  5
5B6
330
1F
100
AcDbEntity
  8
Layer0
  6
AUSGEZOGEN
 62
     9
370
    18
100
AcDbLine
 10
475.814106007242
 20
184.833094960446
 30
0.0
 11
490.814106007242
 21
184.833094960446
 31
0.0
  0
LINE
  5
5B7
330
1F
100
AcDbEntity
  8
Layer0
  6
AUSGEZOGEN
 62
     9
370
    18
100
AcDbLine
 10
475.814106007242
 20
184.833094960446
 30
0.0
 11
475.908363357854
 21
190.233094960446
 31
0.0
  0
LINE
  5
5B8
330
1F
100
AcDbEntity
  8
Layer0
  6
AUSGEZOGEN
 62
     9
370
    18
100
AcDbLine
 10
475.908363357854
 20
190.233094960446
 30
0.0
 11
490.814106007242
 21
190.233094960446
 31
0.0
  0
LINE
  5
5B9
330
1F
100
AcDbEntity
  8
Layer0
  6
AUSGEZOGEN
 62
     9
370
    18
100
AcDbLine
 10
505.814106007242
 20
184.833094960446
 30
0.0
 11
490.814106007242
 21
184.833094960446
 31
0.0
  0
LINE
  5
5BA
330
1F
100
AcDbEntity
  8
Layer0
  6
AUSGEZOGEN
 62
     9
370
    18
100
AcDbLine
 10
505.814106007242
 20
184.833094960446
 30
0.0
 11
505.71984865663
 21
190.233094960446
 31
0.0
  0
LINE
  5
5BB
330
1F
100
AcDbEntity
  8
Layer0
  6
AUSGEZOGEN
 62
     9
370
    18
100
AcDbLine
 10
505.71984865663
 20
190.233094960446
 30
0.0
 11
490.814106007242
 21
190.233094960446
 31
0.0
  0
LINE
  5
5BC
330
1F
100
AcDbEntity
  8
Layer0
  6
AUSGEZOGEN
 62
     9
370
    18
100
AcDbLine
 10
505.664106007242
 20
193.233094960446
 30
0.0
 11
475.964106007242
 21
193.233094960446
 31
0.0
  0
LINE
  5
5BD
330
1F
100
AcDbEntity
  8
Layer0
  6
AUSGEZOGEN
 62
     9
370
    18
100
AcDbLine
 10
475.964106007242
 20
190.233094960446
 30
0.0
 11
475.964106007242
 21
193.233094960446
 31
0.0
  0
LINE
  5
5BE
330
1F
100
AcDbEntity
  8
Layer0
  6
AUSGEZOGEN
 62
     9
370
    18
100
AcDbLine
 10
505.664106007242
 20
190.233094960446
 30
0.0
 11
505.664106007242
 21
193.233094960446
 31
0.0
  0
DIMENSION
  5
5CC
330
1F
100
AcDbEntity
  8
Layer70
  6
AUSGEZOGEN
 62
   136
370
    18
100
AcDbDimension
  2
*D14
 10
510.470012962983
 20
190.233094960446
 30
0.0
 11
509.345012962983
 21
187.478339795728
 31
0.0
 70
   160
 71
     5
 42
-1.0
 53
90.0
  3
ISO-25
100
AcDbAlignedDimension
 13
505.814106007242
 23
184.833094960446
 33
0.0
 14
505.71984865663
 24
190.233094960446
 34
0.0
 50
90.0
100
AcDbRotatedDimension
1001
ACAD
1000
DSTYLE
1002
{
1070
     3
1000
<>
1070
    44
1040
0.892857142857
1070
   280
1070
     0
1070
    77
1070
     1
1070
    78
1070
     8
1070
   179
1070
     2
1070
   271
1070
     2
1070
   344
1005
583
1070
   343
1005
583
1070
   173
1070
     1
1070
    41
1040
1.25
1070
   147
1040
0.178571428571
1070
   140
1040
1.25
1070
   178
1070
   136
1070
   177
1070
   136
1070
   176
1070
   136
1002
}
  0
DIMENSION
  5
5DB
330
1F
100
AcDbEntity
  8
Layer70
  6
AUSGEZOGEN
 62
   136
370
    18
100
AcDbDimension
  2
*D15
 10
513.5
 20
193.233094960446
 30
0.0
 11
512.375
 21
189.114161293973
 31
0.0
 70
   160
 71
     5
 42
-1.0
 53
90.0
  3
ISO-25
100
AcDbAlignedDimension
 13
505.814106007242
 23
184.833094960446
 33
0.0
 14
505.664106007242
 24
193.233094960446
 34
0.0
 50
90.0
100
AcDbRotatedDimension
1001
ACAD
1000
DSTYLE
1002
{
1070
     3
1000
<>\S%%p0.3
1070
    44
1040
0.892857142857
1070
   280
1070
     0
1070
    77
1070
     1
1070
    78
1070
     8
1070
   179
1070
     2
1070
   271
1070
     2
1070
   344
1005
583
1070
   343
1005
583
1070
   173
1070
     1
1070
    41
1040
1.25
1070
   147
1040
0.178571428571
1070
   140
1040
1.25
1070
   178
1070
   136
1070
   177
1070
   136
1070
   176
1070
   136
1002
}
  0
DIMENSION
  5
5E9
330
1F
100
AcDbEntity
  8
Layer70
  6
AUSGEZOGEN
 62
   136
370
    18
100
AcDbDimension
  2
*D16
 10
510.0
 20
175.012120480547
 30
0.0
 11
508.875
 21
147.156071553528
 31
0.0
 70
   160
 71
     5
 42
-1.0
 53
90.0
  3
ISO-25
100
AcDbAlignedDimension
 13
504.027097598359
 23
119.290727445721
 33
0.0
 14
504.027097598359
 24
175.012120480547
 34
0.0
 50
90.0
100
AcDbRotatedDimension
1001
ACAD
1000
DSTYLE
1002
{
1070
     3
1000
<>
1070
    44
1040
0.892857142857
1070
   280
1070
     0
1070
    77
1070
     1
1070
    78
1070
     8
1070
   179
1070
     2
1070
   271
1070
     2
1070
   344
1005
583
1070
   343
1005
583
1070
   173
1070
     1
1070
    41
1040
1.25
1070
   147
1040
0.178571428571
1070
   140
1040
1.25
1070
   178
1070
   136
1070
   177
1070
   136
1070
   176
1070
   136
1002
}
  0
ENDSEC
  0
SECTION
  2
OBJECTS
  0
DICTIONARY
  5
C
330
0
100
AcDbDictionary
281
     1
  3
ACAD_GROUP
350
D
  3
ACAD_LAYOUT
350
1A
  3
ACAD_MATERIAL
350
3B
  3
ACAD_MLEADERSTYLE
350
611
  3
ACAD_MLINESTYLE
350
17
  3
ACAD_PLOTSETTINGS
350
19
  3
ACAD_PLOTSTYLENAME
350
E
  3
ACAD_TABLESTYLE
350
610
  3
ACAD_VISUALSTYLE
350
2A
  3
ACAD_WIPEOUT_VARS
350
3F
  0
DICTIONARY
  5
D
102
{ACAD_REACTORS
330
C
102
}
330
C
100
AcDbDictionary
281
     1
  0
DICTIONARY
  5
1A
102
{ACAD_REACTORS
330
C
102
}
330
C
100
AcDbDictionary
281
     1
  3
Layout1
350
1E
  3
Layout2
350
26
  3
Model
350
22
  0
DICTIONARY
  5
3B
102
{ACAD_REACTORS
330
C
102
}
330
C
100
AcDbDictionary
281
     1
  3
ByBlock
350
3D
  3
ByLayer
350
3C
  3
Global
350
3E
  0
DICTIONARY
  5
611
102
{ACAD_REACTORS
330
C
102
}
330
C
100
AcDbDictionary
281
     1
  0
DICTIONARY
  5
17
102
{ACAD_REACTORS
330
C
102
}
330
C
100
AcDbDictionary
281
     1
  3
Standard
350
18
  0
DICTIONARY
  5
19
102
{ACAD_REACTORS
330
C
102
}
330
C
100
AcDbDictionary
281
     1
  0
ACDBDICTIONARYWDFLT
  5
E
102
{ACAD_REACTORS
330
C
102
}
330
C
100
AcDbDictionary
281
     1
  3
Normal
350
F
100
AcDbDictionaryWithDefault
340
F
  0
DICTIONARY
  5
610
102
{ACAD_REACTORS
330
C
102
}
330
C
100
AcDbDictionary
281
     1
  0
DICTIONARY
  5
2A
102
{ACAD_REACTORS
330
C
102
}
330
C
100
AcDbDictionary
281
     1
  3
2dWireframe
350
2F
  3
3D Hidden
350
31
  3
3dWireframe
350
30
  3
Basic
350
32
  3
Brighten
350
36
  3
ColorChange
350
3A
  3
Conceptual
350
34
  3
Dim
350
35
  3
Facepattern
350
39
  3
Flat
350
2B
  3
FlatWithEdges
350
2C
  3
Gouraud
350
2D
  3
GouraudWithEdges
350
2E
  3
Linepattern
350
38
  3
Realistic
350
33
  3
Thicken
350
37
  0
WIPEOUTVARIABLES
  5
3F
102
{ACAD_REACTORS
330
C
102
}
330
C
100
AcDbWipeoutVariables
 70
     0
  0
LAYOUT
  5
1E
102
{ACAD_REACTORS
330
1A
102
}
330
1A
100
AcDbPlotSettings
  1

  2
none_device
  4

  6

 40
0.0
 41
0.0
 42
0.0
 43
0.0
 44
0.0
 45
0.0
 46
0.0
 47
0.0
 48
0.0
 49
0.0
140
0.0
141
0.0
142
1.0
143
1.0
 70
   688
 72
     0
 73
     0
 74
     5
  7

 75
    16
 76
     0
 77
     2
 78
   300
147
1.0
148
0.0
149
0.0
100
AcDbLayout
  1
Layout1
 70
     1
 71
     1
 10
0.0
 20
0.0
 11
420.0
 21
297.0
 12
0.0
 22
0.0
 32
0.0
 14
1.000000000000E+20
 24
1.000000000000E+20
 34
1.000000000000E+20
 15
-1.000000000000E+20
 25
-1.000000000000E+20
 35
-1.000000000000E+20
146
0.0
 13
0.0
 23
0.0
 33
0.0
 16
1.0
 26
0.0
 36
0.0
 17
0.0
 27
1.0
 37
0.0
 76
     0
330
1B
  0
LAYOUT
  5
26
102
{ACAD_REACTORS
330
1A
102
}
330
1A
100
AcDbPlotSettings
  1

  2
none_device
  4

  6

 40
0.0
 41
0.0
 42
0.0
 43
0.0
 44
0.0
 45
0.0
 46
0.0
 47
0.0
 48
0.0
 49
0.0
140
0.0
141
0.0
142
1.0
143
1.0
 70
   688
 72
     0
 73
     0
 74
     5
  7

 75
    16
 76
     0
 77
     2
 78
   300
147
1.0
148
0.0
149
0.0
100
AcDbLayout
  1
Layout2
 70
     1
 71
     2
 10
0.0
 20
0.0
 11
0.0
 21
0.0
 12
0.0
 22
0.0
 32
0.0
 14
0.0
 24
0.0
 34
0.0
 15
0.0
 25
0.0
 35
0.0
146
0.0
 13
0.0
 23
0.0
 33
0.0
 16
1.0
 26
0.0
 36
0.0
 17
0.0
 27
1.0
 37
0.0
 76
     0
330
23
  0
LAYOUT
  5
22
102
{ACAD_REACTORS
330
1A
102
}
330
1A
100
AcDbPlotSettings
  1

  2
none_device
  4

  6

 40
0.0
 41
0.0
 42
0.0
 43
0.0
 44
0.0
 45
0.0
 46
0.0
 47
0.0
 48
0.0
 49
0.0
140
0.0
141
0.0
142
1.0
143
1.0
 70
  1712
 72
     0
 73
     0
 74
     0
  7

 75
     0
 76
     0
 77
     2
 78
   300
147
1.0
148
0.0
149
0.0
100
AcDbLayout
  1
Model
 70
     1
 71
     0
 10
0.0
 20
0.0
 11
420.0
 21
297.0
 12
0.0
 22
0.0
 32
0.0
 14
300.284221921034
 24
57.755471486175
 34
0.0
 15
678.99445831927
 25
211.304471486175
 35
0.0
146
0.0
 13
0.0
 23
0.0
 33
0.0
 16
1.0
 26
0.0
 36
0.0
 17
0.0
 27
1.0
 37
0.0
 76
     0
330
1F
331
29
  0
MATERIAL
  5
3D
102
{ACAD_REACTORS
330
3B
102
}
102
{ACAD_XDICTIONARY
360
60C
102
}
330
3B
100
AcDbMaterial
  1
ByBlock
  0
MATERIAL
  5
3C
102
{ACAD_REACTORS
330
3B
102
}
102
{ACAD_XDICTIONARY
360
60A
102
}
330
3B
100
AcDbMaterial
  1
ByLayer
  0
MATERIAL
  5
3E
102
{ACAD_REACTORS
330
3B
102
}
102
{ACAD_XDICTIONARY
360
60E
102
}
330
3B
100
AcDbMaterial
  1
Global
  0
MLINESTYLE
  5
18
102
{ACAD_REACTORS
330
17
102
}
330
17
100
AcDbMlineStyle
  2
Standard
 70
     0
  3

 62
   256
 51
90.0
 52
90.0
 71
     2
 49
0.5
 62
   256
  6
BYLAYER
 49
-0.5
 62
   256
  6
BYLAYER
  0
ACDBPLACEHOLDER
  5
F
102
{ACAD_REACTORS
330
E
102
}
330
E
  0
VISUALSTYLE
  5
2F
102
{ACAD_REACTORS
330
2A
102
}
102
{ACAD_XDICTIONARY
360
5F2
102
}
330
2A
100
AcDbVisualStyle
  2
2dWireframe
 70
     4
 71
     0
 72
     2
 73
     0
 90
        0
 40
-0.6
 41
-30.0
 62
     5
 63
     7
421
 16777215
 74
     1
 91
        4
 64
     7
 65
   257
 75
     1
175
     1
 42
1.0
 92
        0
 66
   257
 43
1.0
 76
     1
 77
     6
 78
     2
 67
     7
 79
     5
170
     0
171
     0
290
     0
174
     0
 93
        1
 44
0.0
173
     0
291
     0
 45
0.0
1001
ACAD
1000
AcDbSavedByObjectVersion
1070
     0
  0
VISUALSTYLE
  5
31
102
{ACAD_REACTORS
330
2A
102
}
102
{ACAD_XDICTIONARY
360
5F6
102
}
330
2A
100
AcDbVisualStyle
  2
3D Hidden
 70
     6
 71
     1
 72
     2
 73
     2
 90
        0
 40
-0.6
 41
-30.0
 62
     5
 63
     7
421
 16777215
 74
     2
 91
        2
 64
     7
 65
   257
 75
     2
175
     1
 42
40.0
 92
        0
 66
   257
 43
1.0
 76
     1
 77
     6
 78
     2
 67
     7
 79
     3
170
     0
171
     0
290
     0
174
     0
 93
        1
 44
0.0
173
     0
291
     0
 45
0.0
1001
ACAD
1000
AcDbSavedByObjectVersion
1070
     0
  0
VISUALSTYLE
  5
30
102
{ACAD_REACTORS
330
2A
102
}
102
{ACAD_XDICTIONARY
360
5F4
102
}
330
2A
100
AcDbVisualStyle
  2
3dWireframe
 70
     5
 71
     0
 72
     2
 73
     0
 90
        0
 40
-0.6
 41
-30.0
 62
     5
 63
     7
421
 16777215
 74
     1
 91
        4
 64
     7
 65
   257
 75
     1
175
     1
 42
1.0
 92
        0
 66
   257
 43
1.0
 76
     1
 77
     6
 78
     2
 67
     7
 79
     5
170
     0
171
     0
290
     0
174
     0
 93
        1
 44
0.0
173
     0
291
     0
 45
0.0
1001
ACAD
1000
AcDbSavedByObjectVersion
1070
     0
  0
VISUALSTYLE
  5
32
102
{ACAD_REACTORS
330
2A
102
}
102
{ACAD_XDICTIONARY
360
5F8
102
}
330
2A
100
AcDbVisualStyle
  2
Basic
 70
     7
 71
     1
 72
     0
 73
     1
 90
        0
 40
-0.6
 41
-30.0
 62
     5
 63
     7
421
 16777215
 74
     0
 91
        4
 64
     7
 65
   257
 75
     1
175
     1
 42
1.0
 92
        8
 66
     7
 43
1.0
 76
     1
 77
     6
 78
     2
 67
     7
 79
     5
170
     0
171
     0
290
     0
174
     0
 93
        1
 44
0.0
173
     0
291
     1
 45
0.0
1001
ACAD
1000
AcDbSavedByObjectVersion
1070
     0
  0
VISUALSTYLE
  5
36
102
{ACAD_REACTORS
330
2A
102
}
102
{ACAD_XDICTIONARY
360
600
102
}
330
2A
100
AcDbVisualStyle
  2
Brighten
 70
    12
 71
     2
 72
     2
 73
     0
 90
        0
 40
-0.6
 41
-30.0
 62
     5
 63
     7
421
 16777215
 74
     1
 91
        4
 64
     7
 65
   257
 75
     1
175
     1
 42
1.0
 92
        8
 66
     7
 43
1.0
 76
     1
 77
     6
 78
     2
 67
     7
 79
     5
170
     0
171
     0
290
     0
174
     0
 93
        1
 44
50.0
173
     0
291
     1
 45
0.0
1001
ACAD
1000
AcDbSavedByObjectVersion
1070
     0
  0
VISUALSTYLE
  5
3A
102
{ACAD_REACTORS
330
2A
102
}
102
{ACAD_XDICTIONARY
360
608
102
}
330
2A
100
AcDbVisualStyle
  2
ColorChange
 70
    16
 71
     2
 72
     2
 73
     3
 90
        0
 40
-0.6
 41
-30.0
 62
     5
 63
     8
421
  8421504
 74
     1
 91
        4
 64
     7
 65
   257
 75
     1
175
     1
 42
1.0
 92
        8
 66
     8
424
  8421504
 43
1.0
 76
     1
 77
     6
 78
     2
 67
     7
 79
     5
170
     0
171
     0
290
     0
174
     0
 93
        1
 44
0.0
173
     0
291
     1
 45
0.0
1001
ACAD
1000
AcDbSavedByObjectVersion
1070
     0
  0
VISUALSTYLE
  5
34
102
{ACAD_REACTORS
330
2A
102
}
102
{ACAD_XDICTIONARY
360
5FC
102
}
330
2A
100
AcDbVisualStyle
  2
Conceptual
 70
     9
 71
     3
 72
     2
 73
     0
 90
        0
 40
-0.6
 41
-30.0
 62
     5
 63
     7
421
 16777215
 74
     2
 91
        2
 64
     7
 65
   257
 75
     1
175
     1
 42
40.0
 92
        8
 66
     7
 43
1.0
 76
     1
 77
     6
 78
     2
 67
     7
 79
     3
170
     0
171
     0
290
     0
174
     0
 93
        1
 44
0.0
173
     0
291
     0
 45
0.0
1001
ACAD
1000
AcDbSavedByObjectVersion
1070
     0
  0
VISUALSTYLE
  5
35
102
{ACAD_REACTORS
330
2A
102
}
102
{ACAD_XDICTIONARY
360
5FE
102
}
330
2A
100
AcDbVisualStyle
  2
Dim
 70
    11
 71
     2
 72
     2
 73
     0
 90
        0
 40
-0.6
 41
-30.0
 62
     5
 63
     7
421
 16777215
 74
     1
 91
        4
 64
     7
 65
   257
 75
     1
175
     1
 42
1.0
 92
        8
 66
     7
 43
1.0
 76
     1
 77
     6
 78
     2
 67
     7
 79
     5
170
     0
171
     0
290
     0
174
     0
 93
        1
 44
-50.0
173
     0
291
     1
 45
0.0
1001
ACAD
1000
AcDbSavedByObjectVersion
1070
     0
  0
VISUALSTYLE
  5
39
102
{ACAD_REACTORS
330
2A
102
}
102
{ACAD_XDICTIONARY
360
606
102
}
330
2A
100
AcDbVisualStyle
  2
Facepattern
 70
    15
 71
     2
 72
     2
 73
     0
 90
        0
 40
-0.6
 41
-30.0
 62
     5
 63
     7
421
 16777215
 74
     1
 91
        4
 64
     7
 65
   257
 75
     1
175
     1
 42
1.0
 92
        8
 66
     7
 43
1.0
 76
     1
 77
     6
 78
     2
 67
     7
 79
     5
170
     0
171
     0
290
     0
174
     0
 93
        1
 44
0.0
173
     0
291
     1
 45
0.0
1001
ACAD
1000
AcDbSavedByObjectVersion
1070
     0
  0
VISUALSTYLE
  5
2B
102
{ACAD_REACTORS
330
2A
102
}
102
{ACAD_XDICTIONARY
360
5EA
102
}
330
2A
100
AcDbVisualStyle
  2
Flat
 70
     0
 71
     2
 72
     1
 73
     1
 90
        2
 40
-0.6
 41
30.0
 62
     5
 63
     7
421
 16777215
 74
     0
 91
        4
 64
     7
 65
   257
 75
     1
175
     1
 42
1.0
 92
        8
 66
     7
 43
1.0
 76
     1
 77
     6
 78
     2
 67
     7
 79
     5
170
     0
171
     0
290
     0
174
     0
 93
       13
 44
0.0
173
     0
291
     1
 45
0.0
1001
ACAD
1000
AcDbSavedByObjectVersion
1070
     0
  0
VISUALSTYLE
  5
2C
102
{ACAD_REACTORS
330
2A
102
}
102
{ACAD_XDICTIONARY
360
5EC
102
}
330
2A
100
AcDbVisualStyle
  2
FlatWithEdges
 70
     1
 71
     2
 72
     1
 73
     1
 90
        2
 40
-0.6
 41
30.0
 62
     5
 63
     7
421
 16777215
 74
     1
 91
        4
 64
     7
 65
   257
 75
     1
175
     1
 42
1.0
 92
        0
 66
   257
 43
1.0
 76
     1
 77
     6
 78
     2
 67
     7
 79
     5
170
     0
171
     0
290
     0
174
     0
 93
       13
 44
0.0
173
     0
291
     1
 45
0.0
1001
ACAD
1000
AcDbSavedByObjectVersion
1070
     0
  0
VISUALSTYLE
  5
2D
102
{ACAD_REACTORS
330
2A
102
}
102
{ACAD_XDICTIONARY
360
5EE
102
}
330
2A
100
AcDbVisualStyle
  2
Gouraud
 70
     2
 71
     2
 72
     2
 73
     1
 90
        2
 40
-0.6
 41
30.0
 62
     5
 63
     7
421
 16777215
 74
     0
 91
        4
 64
     7
 65
   257
 75
     1
175
     1
 42
1.0
 92
        0
 66
     7
 43
1.0
 76
     1
 77
     6
 78
     2
 67
     7
 79
     5
170
     0
171
     0
290
     0
174
     0
 93
       13
 44
0.0
173
     0
291
     1
 45
0.0
1001
ACAD
1000
AcDbSavedByObjectVersion
1070
     0
  0
VISUALSTYLE
  5
2E
102
{ACAD_REACTORS
330
2A
102
}
102
{ACAD_XDICTIONARY
360
5F0
102
}
330
2A
100
AcDbVisualStyle
  2
GouraudWithEdges
 70
     3
 71
     2
 72
     2
 73
     1
 90
        2
 40
-0.6
 41
30.0
 62
     5
 63
     7
421
 16777215
 74
     1
 91
        4
 64
     7
 65
   257
 75
     1
175
     1
 42
1.0
 92
        0
 66
   257
 43
1.0
 76
     1
 77
     6
 78
     2
 67
     7
 79
     5
170
     0
171
     0
290
     0
174
     0
 93
       13
 44
0.0
173
     0
291
     1
 45
0.0
1001
ACAD
1000
AcDbSavedByObjectVersion
1070
     0
  0
VISUALSTYLE
  5
38
102
{ACAD_REACTORS
330
2A
102
}
102
{ACAD_XDICTIONARY
360
604
102
}
330
2A
100
AcDbVisualStyle
  2
Linepattern
 70
    14
 71
     2
 72
     2
 73
     0
 90
        0
 40
-0.6
 41
-30.0
 62
     5
 63
     7
421
 16777215
 74
     1
 91
        4
 64
     7
 65
   257
 75
     7
175
     7
 42
1.0
 92
        8
 66
     7
 43
1.0
 76
     1
 77
     6
 78
     2
 67
     7
 79
     5
170
     0
171
     0
290
     0
174
     0
 93
        1
 44
0.0
173
     0
291
     1
 45
0.0
1001
ACAD
1000
AcDbSavedByObjectVersion
1070
     0
  0
VISUALSTYLE
  5
33
102
{ACAD_REACTORS
330
2A
102
}
102
{ACAD_XDICTIONARY
360
5FA
102
}
330
2A
100
AcDbVisualStyle
  2
Realistic
 70
     8
 71
     2
 72
     2
 73
     0
 90
        0
 40
-0.6
 41
-30.0
 62
     5
 63
     7
421
 16777215
 74
     1
 91
        0
 64
     7
 65
   257
 75
     1
175
     1
 42
1.0
 92
        8
 66
     8
424
  7895160
 43
1.0
 76
     1
 77
     6
 78
     2
 67
     7
 79
     5
170
     0
171
     0
290
     0
174
     0
 93
       13
 44
0.0
173
     0
291
     0
 45
0.0
1001
ACAD
1000
AcDbSavedByObjectVersion
1070
     0
  0
VISUALSTYLE
  5
37
102
{ACAD_REACTORS
330
2A
102
}
102
{ACAD_XDICTIONARY
360
602
102
}
330
2A
100
AcDbVisualStyle
  2
Thicken
 70
    13
 71
     2
 72
     2
 73
     0
 90
        0
 40
-0.6
 41
-30.0
 62
     5
 63
     7
421
 16777215
 74
     1
 91
        4
 64
     7
 65
   257
 75
     1
175
     1
 42
1.0
 92
       12
 66
     7
 43
1.0
 76
     1
 77
     6
 78
     2
 67
     7
 79
     5
170
     0
171
     0
290
     0
174
     0
 93
        1
 44
0.0
173
     0
291
     1
 45
0.0
1001
ACAD
1000
AcDbSavedByObjectVersion
1070
     0
  0
DICTIONARY
  5
60C
330
3D
100
AcDbDictionary
280
     1
281
     1
  3
ACAD_XREC_ROUNDTRIP
360
60D
  0
DICTIONARY
  5
60A
330
3C
100
AcDbDictionary
280
     1
281
     1
  3
ACAD_XREC_ROUNDTRIP
360
60B
  0
DICTIONARY
  5
60E
330
3E
100
AcDbDictionary
280
     1
281
     1
  3
ACAD_XREC_ROUNDTRIP
360
60F
  0
DICTIONARY
  5
5F2
330
2F
100
AcDbDictionary
280
     1
281
     1
  3
ACAD_XREC_ROUNDTRIP
360
5F3
  0
DICTIONARY
  5
5F6
330
31
100
AcDbDictionary
280
     1
281
     1
  3
ACAD_XREC_ROUNDTRIP
360
5F7
  0
DICTIONARY
  5
5F4
330
30
100
AcDbDictionary
280
     1
281
     1
  3
ACAD_XREC_ROUNDTRIP
360
5F5
  0
DICTIONARY
  5
5F8
330
32
100
AcDbDictionary
280
     1
281
     1
  3
ACAD_XREC_ROUNDTRIP
360
5F9
  0
DICTIONARY
  5
600
330
36
100
AcDbDictionary
280
     1
281
     1
  3
ACAD_XREC_ROUNDTRIP
360
601
  0
DICTIONARY
  5
608
330
3A
100
AcDbDictionary
280
     1
281
     1
  3
ACAD_XREC_ROUNDTRIP
360
609
  0
DICTIONARY
  5
5FC
330
34
100
AcDbDictionary
280
     1
281
     1
  3
ACAD_XREC_ROUNDTRIP
360
5FD
  0
DICTIONARY
  5
5FE
330
35
100
AcDbDictionary
280
     1
281
     1
  3
ACAD_XREC_ROUNDTRIP
360
5FF
  0
DICTIONARY
  5
606
330
39
100
AcDbDictionary
280
     1
281
     1
  3
ACAD_XREC_ROUNDTRIP
360
607
  0
DICTIONARY
  5
5EA
330
2B
100
AcDbDictionary
280
     1
281
     1
  3
ACAD_XREC_ROUNDTRIP
360
5EB
  0
DICTIONARY
  5
5EC
330
2C
100
AcDbDictionary
280
     1
281
     1
  3
ACAD_XREC_ROUNDTRIP
360
5ED
  0
DICTIONARY
  5
5EE
330
2D
100
AcDbDictionary
280
     1
281
     1
  3
ACAD_XREC_ROUNDTRIP
360
5EF
  0
DICTIONARY
  5
5F0
330
2E
100
AcDbDictionary
280
     1
281
     1
  3
ACAD_XREC_ROUNDTRIP
360
5F1
  0
DICTIONARY
  5
604
330
38
100
AcDbDictionary
280
     1
281
     1
  3
ACAD_XREC_ROUNDTRIP
360
605
  0
DICTIONARY
  5
5FA
330
33
100
AcDbDictionary
280
     1
281
     1
  3
ACAD_XREC_ROUNDTRIP
360
5FB
  0
DICTIONARY
  5
602
330
37
100
AcDbDictionary
280
     1
281
     1
  3
ACAD_XREC_ROUNDTRIP
360
603
  0
XRECORD
  5
60D
102
{ACAD_REACTORS
330
60C
102
}
330
60C
100
AcDbXrecord
280
     1
102
MATERIAL
148
0.0
149
0.0
149
0.0
 93
        0
 94
      127
282
     0
 72
     1
 77
     1
171
     1
175
     1
179
     1
273
     0
  0
XRECORD
  5
60B
102
{ACAD_REACTORS
330
60A
102
}
330
60A
100
AcDbXrecord
280
     1
102
MATERIAL
148
0.0
149
0.0
149
0.0
 93
        0
 94
      127
282
     0
 72
     1
 77
     1
171
     1
175
     1
179
     1
273
     0
  0
XRECORD
  5
60F
102
{ACAD_REACTORS
330
60E
102
}
330
60E
100
AcDbXrecord
280
     1
102
MATERIAL
148
0.0
149
0.0
149
0.0
 93
        0
 94
      127
282
     0
 72
     1
 77
     1
171
     1
175
     1
179
     1
273
     0
  0
XRECORD
  5
5F3
102
{ACAD_REACTORS
330
5F2
102
}
330
5F2
100
AcDbXrecord
280
     1
102
RTVSPropertyOp0
 70
     1
102
RTVSPropertyOp1
 70
     1
102
RTVSPropertyOp2
 70
     1
102
RTVSPropertyOp3
 70
     1
102
RTVSPropertyOp4
 70
     1
102
RTVSPropertyOp5
 70
     1
102
RTVSPropertyOp6
 70
     1
102
RTVSPropertyOp7
 70
     1
102
RTVSPropertyOp8
 70
     1
102
RTVSPropertyOp9
 70
     1
102
RTVSPropertyOp10
 70
     1
102
RTVSPropertyOp11
 70
     1
102
RTVSPropertyOp12
 70
     1
102
RTVSPropertyOp13
 70
     1
102
RTVSPropertyOp14
 70
     1
102
RTVSPropertyOp15
 70
     1
102
RTVSPropertyOp16
 70
     1
102
RTVSPropertyOp17
 70
     1
102
RTVSPropertyOp18
 70
     1
102
RTVSPropertyOp19
 70
     1
102
RTVSPropertyOp20
 70
     1
102
RTVSPropertyOp21
 70
     1
102
RTVSPropertyOp22
 70
     1
102
RTVSPropertyOp23
 70
     1
102
RTVSPropertyOp24
 70
     1
102
RTVSPropertyOp25
 70
     1
102
RTVSPropertyOp26
 70
     1
102
RTVSPropertyOp27
 70
     1
102
RTVSPropertyOp28
 70
     1
102
RTVSPropertyOp29
 70
     1
102
RTVSPropertyOp30
 70
     1
102
RTVSPropertyOp31
 70
     1
102
RTVSPropertyOp32
 70
     1
  0
XRECORD
  5
5F7
102
{ACAD_REACTORS
330
5F6
102
}
330
5F6
100
AcDbXrecord
280
     1
102
RTVSPropertyOp0
 70
     1
102
RTVSPropertyOp1
 70
     1
102
RTVSPropertyOp2
 70
     1
102
RTVSPropertyOp3
 70
     1
102
RTVSPropertyOp4
 70
     1
102
RTVSPropertyOp5
 70
     1
102
RTVSPropertyOp6
 70
     1
102
RTVSPropertyOp7
 70
     1
102
RTVSPropertyOp8
 70
     1
102
RTVSPropertyOp9
 70
     1
102
RTVSPropertyOp10
 70
     1
102
RTVSPropertyOp11
 70
     1
102
RTVSPropertyOp12
 70
     1
102
RTVSPropertyOp13
 70
     1
102
RTVSPropertyOp14
 70
     1
102
RTVSPropertyOp15
 70
     1
102
RTVSPropertyOp16
 70
     1
102
RTVSPropertyOp17
 70
     1
102
RTVSPropertyOp18
 70
     1
102
RTVSPropertyOp19
 70
     1
102
RTVSPropertyOp20
 70
     1
102
RTVSPropertyOp21
 70
     1
102
RTVSPropertyOp22
 70
     1
102
RTVSPropertyOp23
 70
     1
102
RTVSPropertyOp24
 70
     1
102
RTVSPropertyOp25
 70
     1
102
RTVSPropertyOp26
 70
     1
102
RTVSPropertyOp27
 70
     1
102
RTVSPropertyOp28
 70
     1
102
RTVSPropertyOp29
 70
     1
102
RTVSPropertyOp30
 70
     1
102
RTVSPropertyOp31
 70
     1
102
RTVSPropertyOp32
 70
     1
  0
XRECORD
  5
5F5
102
{ACAD_REACTORS
330
5F4
102
}
330
5F4
100
AcDbXrecord
280
     1
102
RTVSPropertyOp0
 70
     1
102
RTVSPropertyOp1
 70
     1
102
RTVSPropertyOp2
 70
     1
102
RTVSPropertyOp3
 70
     1
102
RTVSPropertyOp4
 70
     1
102
RTVSPropertyOp5
 70
     1
102
RTVSPropertyOp6
 70
     1
102
RTVSPropertyOp7
 70
     1
102
RTVSPropertyOp8
 70
     1
102
RTVSPropertyOp9
 70
     1
102
RTVSPropertyOp10
 70
     1
102
RTVSPropertyOp11
 70
     1
102
RTVSPropertyOp12
 70
     1
102
RTVSPropertyOp13
 70
     1
102
RTVSPropertyOp14
 70
     1
102
RTVSPropertyOp15
 70
     1
102
RTVSPropertyOp16
 70
     1
102
RTVSPropertyOp17
 70
     1
102
RTVSPropertyOp18
 70
     1
102
RTVSPropertyOp19
 70
     1
102
RTVSPropertyOp20
 70
     1
102
RTVSPropertyOp21
 70
     1
102
RTVSPropertyOp22
 70
     1
102
RTVSPropertyOp23
 70
     1
102
RTVSPropertyOp24
 70
     1
102
RTVSPropertyOp25
 70
     1
102
RTVSPropertyOp26
 70
     1
102
RTVSPropertyOp27
 70
     1
102
RTVSPropertyOp28
 70
     1
102
RTVSPropertyOp29
 70
     1
102
RTVSPropertyOp30
 70
     1
102
RTVSPropertyOp31
 70
     1
102
RTVSPropertyOp32
 70
     1
  0
XRECORD
  5
5F9
102
{ACAD_REACTORS
330
5F8
102
}
330
5F8
100
AcDbXrecord
280
     1
102
RTVSPropertyOp0
 70
     1
102
RTVSPropertyOp1
 70
     1
102
RTVSPropertyOp2
 70
     1
102
RTVSPropertyOp3
 70
     1
102
RTVSPropertyOp4
 70
     1
102
RTVSPropertyOp5
 70
     1
102
RTVSPropertyOp6
 70
     1
102
RTVSPropertyOp7
 70
     1
102
RTVSPropertyOp8
 70
     1
102
RTVSPropertyOp9
 70
     1
102
RTVSPropertyOp10
 70
     1
102
RTVSPropertyOp11
 70
     1
102
RTVSPropertyOp12
 70
     1
102
RTVSPropertyOp13
 70
     1
102
RTVSPropertyOp14
 70
     1
102
RTVSPropertyOp15
 70
     1
102
RTVSPropertyOp16
 70
     1
102
RTVSPropertyOp17
 70
     1
102
RTVSPropertyOp18
 70
     1
102
RTVSPropertyOp19
 70
     1
102
RTVSPropertyOp20
 70
     1
102
RTVSPropertyOp21
 70
     1
102
RTVSPropertyOp22
 70
     1
102
RTVSPropertyOp23
 70
     1
102
RTVSPropertyOp24
 70
     1
102
RTVSPropertyOp25
 70
     1
102
RTVSPropertyOp26
 70
     1
102
RTVSPropertyOp27
 70
     1
102
RTVSPropertyOp28
 70
     1
102
RTVSPropertyOp29
 70
     1
102
RTVSPropertyOp30
 70
     1
102
RTVSPropertyOp31
 70
     1
102
RTVSPropertyOp32
 70
     1
  0
XRECORD
  5
601
102
{ACAD_REACTORS
330
600
102
}
330
600
100
AcDbXrecord
280
     1
102
RTVSPropertyOp0
 70
     1
102
RTVSPropertyOp1
 70
     1
102
RTVSPropertyOp2
 70
     1
102
RTVSPropertyOp3
 70
     1
102
RTVSPropertyOp4
 70
     1
102
RTVSPropertyOp5
 70
     1
102
RTVSPropertyOp6
 70
     1
102
RTVSPropertyOp7
 70
     1
102
RTVSPropertyOp8
 70
     1
102
RTVSPropertyOp9
 70
     1
102
RTVSPropertyOp10
 70
     1
102
RTVSPropertyOp11
 70
     1
102
RTVSPropertyOp12
 70
     1
102
RTVSPropertyOp13
 70
     1
102
RTVSPropertyOp14
 70
     1
102
RTVSPropertyOp15
 70
     1
102
RTVSPropertyOp16
 70
     1
102
RTVSPropertyOp17
 70
     1
102
RTVSPropertyOp18
 70
     1
102
RTVSPropertyOp19
 70
     1
102
RTVSPropertyOp20
 70
     1
102
RTVSPropertyOp21
 70
     1
102
RTVSPropertyOp22
 70
     1
102
RTVSPropertyOp23
 70
     1
102
RTVSPropertyOp24
 70
     1
102
RTVSPropertyOp25
 70
     1
102
RTVSPropertyOp26
 70
     1
102
RTVSPropertyOp27
 70
     1
102
RTVSPropertyOp28
 70
     1
102
RTVSPropertyOp29
 70
     1
102
RTVSPropertyOp30
 70
     1
102
RTVSPropertyOp31
 70
     1
102
RTVSPropertyOp32
 70
     1
  0
XRECORD
  5
609
102
{ACAD_REACTORS
330
608
102
}
330
608
100
AcDbXrecord
280
     1
102
RTVSPropertyOp0
 70
     1
102
RTVSPropertyOp1
 70
     1
102
RTVSPropertyOp2
 70
     1
102
RTVSPropertyOp3
 70
     1
102
RTVSPropertyOp4
 70
     1
102
RTVSPropertyOp5
 70
     1
102
RTVSPropertyOp6
 70
     1
102
RTVSPropertyOp7
 70
     1
102
RTVSPropertyOp8
 70
     1
102
RTVSPropertyOp9
 70
     1
102
RTVSPropertyOp10
 70
     1
102
RTVSPropertyOp11
 70
     1
102
RTVSPropertyOp12
 70
     1
102
RTVSPropertyOp13
 70
     1
102
RTVSPropertyOp14
 70
     1
102
RTVSPropertyOp15
 70
     1
102
RTVSPropertyOp16
 70
     1
102
RTVSPropertyOp17
 70
     1
102
RTVSPropertyOp18
 70
     1
102
RTVSPropertyOp19
 70
     1
102
RTVSPropertyOp20
 70
     1
102
RTVSPropertyOp21
 70
     1
102
RTVSPropertyOp22
 70
     1
102
RTVSPropertyOp23
 70
     1
102
RTVSPropertyOp24
 70
     1
102
RTVSPropertyOp25
 70
     1
102
RTVSPropertyOp26
 70
     1
102
RTVSPropertyOp27
 70
     1
102
RTVSPropertyOp28
 70
     1
102
RTVSPropertyOp29
 70
     1
102
RTVSPropertyOp30
 70
     1
102
RTVSPropertyOp31
 70
     1
102
RTVSPropertyOp32
 70
     1
  0
XRECORD
  5
5FD
102
{ACAD_REACTORS
330
5FC
102
}
330
5FC
100
AcDbXrecord
280
     1
102
RTVSPropertyOp0
 70
     1
102
RTVSPropertyOp1
 70
     1
102
RTVSPropertyOp2
 70
     1
102
RTVSPropertyOp3
 70
     1
102
RTVSPropertyOp4
 70
     1
102
RTVSPropertyOp5
 70
     1
102
RTVSPropertyOp6
 70
     1
102
RTVSPropertyOp7
 70
     1
102
RTVSPropertyOp8
 70
     1
102
RTVSPropertyOp9
 70
     1
102
RTVSPropertyOp10
 70
     1
102
RTVSPropertyOp11
 70
     1
102
RTVSPropertyOp12
 70
     1
102
RTVSPropertyOp13
 70
     1
102
RTVSPropertyOp14
 70
     1
102
RTVSPropertyOp15
 70
     1
102
RTVSPropertyOp16
 70
     1
102
RTVSPropertyOp17
 70
     1
102
RTVSPropertyOp18
 70
     1
102
RTVSPropertyOp19
 70
     1
102
RTVSPropertyOp20
 70
     1
102
RTVSPropertyOp21
 70
     1
102
RTVSPropertyOp22
 70
     1
102
RTVSPropertyOp23
 70
     1
102
RTVSPropertyOp24
 70
     1
102
RTVSPropertyOp25
 70
     1
102
RTVSPropertyOp26
 70
     1
102
RTVSPropertyOp27
 70
     1
102
RTVSPropertyOp28
 70
     1
102
RTVSPropertyOp29
 70
     1
102
RTVSPropertyOp30
 70
     1
102
RTVSPropertyOp31
 70
     1
102
RTVSPropertyOp32
 70
     1
  0
XRECORD
  5
5FF
102
{ACAD_REACTORS
330
5FE
102
}
330
5FE
100
AcDbXrecord
280
     1
102
RTVSPropertyOp0
 70
     1
102
RTVSPropertyOp1
 70
     1
102
RTVSPropertyOp2
 70
     1
102
RTVSPropertyOp3
 70
     1
102
RTVSPropertyOp4
 70
     1
102
RTVSPropertyOp5
 70
     1
102
RTVSPropertyOp6
 70
     1
102
RTVSPropertyOp7
 70
     1
102
RTVSPropertyOp8
 70
     1
102
RTVSPropertyOp9
 70
     1
102
RTVSPropertyOp10
 70
     1
102
RTVSPropertyOp11
 70
     1
102
RTVSPropertyOp12
 70
     1
102
RTVSPropertyOp13
 70
     1
102
RTVSPropertyOp14
 70
     1
102
RTVSPropertyOp15
 70
     1
102
RTVSPropertyOp16
 70
     1
102
RTVSPropertyOp17
 70
     1
102
RTVSPropertyOp18
 70
     1
102
RTVSPropertyOp19
 70
     1
102
RTVSPropertyOp20
 70
     1
102
RTVSPropertyOp21
 70
     1
102
RTVSPropertyOp22
 70
     1
102
RTVSPropertyOp23
 70
     1
102
RTVSPropertyOp24
 70
     1
102
RTVSPropertyOp25
 70
     1
102
RTVSPropertyOp26
 70
     1
102
RTVSPropertyOp27
 70
     1
102
RTVSPropertyOp28
 70
     1
102
RTVSPropertyOp29
 70
     1
102
RTVSPropertyOp30
 70
     1
102
RTVSPropertyOp31
 70
     1
102
RTVSPropertyOp32
 70
     1
  0
XRECORD
  5
607
102
{ACAD_REACTORS
330
606
102
}
330
606
100
AcDbXrecord
280
     1
102
RTVSPropertyOp0
 70
     1
102
RTVSPropertyOp1
 70
     1
102
RTVSPropertyOp2
 70
     1
102
RTVSPropertyOp3
 70
     1
102
RTVSPropertyOp4
 70
     1
102
RTVSPropertyOp5
 70
     1
102
RTVSPropertyOp6
 70
     1
102
RTVSPropertyOp7
 70
     1
102
RTVSPropertyOp8
 70
     1
102
RTVSPropertyOp9
 70
     1
102
RTVSPropertyOp10
 70
     1
102
RTVSPropertyOp11
 70
     1
102
RTVSPropertyOp12
 70
     1
102
RTVSPropertyOp13
 70
     1
102
RTVSPropertyOp14
 70
     1
102
RTVSPropertyOp15
 70
     1
102
RTVSPropertyOp16
 70
     1
102
RTVSPropertyOp17
 70
     1
102
RTVSPropertyOp18
 70
     1
102
RTVSPropertyOp19
 70
     1
102
RTVSPropertyOp20
 70
     1
102
RTVSPropertyOp21
 70
     1
102
RTVSPropertyOp22
 70
     1
102
RTVSPropertyOp23
 70
     1
102
RTVSPropertyOp24
 70
     1
102
RTVSPropertyOp25
 70
     1
102
RTVSPropertyOp26
 70
     1
102
RTVSPropertyOp27
 70
     1
102
RTVSPropertyOp28
 70
     1
102
RTVSPropertyOp29
 70
     1
102
RTVSPropertyOp30
 70
     1
102
RTVSPropertyOp31
 70
     1
102
RTVSPropertyOp32
 70
     1
  0
XRECORD
  5
5EB
102
{ACAD_REACTORS
330
5EA
102
}
330
5EA
100
AcDbXrecord
280
     1
102
RTVSPropertyOp0
 70
     1
102
RTVSPropertyOp1
 70
     1
102
RTVSPropertyOp2
 70
     1
102
RTVSPropertyOp3
 70
     1
102
RTVSPropertyOp4
 70
     1
102
RTVSPropertyOp5
 70
     1
102
RTVSPropertyOp6
 70
     1
102
RTVSPropertyOp7
 70
     1
102
RTVSPropertyOp8
 70
     1
102
RTVSPropertyOp9
 70
     1
102
RTVSPropertyOp10
 70
     1
102
RTVSPropertyOp11
 70
     1
102
RTVSPropertyOp12
 70
     1
102
RTVSPropertyOp13
 70
     1
102
RTVSPropertyOp14
 70
     1
102
RTVSPropertyOp15
 70
     1
102
RTVSPropertyOp16
 70
     1
102
RTVSPropertyOp17
 70
     1
102
RTVSPropertyOp18
 70
     1
102
RTVSPropertyOp19
 70
     1
102
RTVSPropertyOp20
 70
     1
102
RTVSPropertyOp21
 70
     1
102
RTVSPropertyOp22
 70
     1
102
RTVSPropertyOp23
 70
     1
102
RTVSPropertyOp24
 70
     1
102
RTVSPropertyOp25
 70
     1
102
RTVSPropertyOp26
 70
     1
102
RTVSPropertyOp27
 70
     1
102
RTVSPropertyOp28
 70
     1
102
RTVSPropertyOp29
 70
     1
102
RTVSPropertyOp30
 70
     1
102
RTVSPropertyOp31
 70
     1
102
RTVSPropertyOp32
 70
     1
  0
XRECORD
  5
5ED
102
{ACAD_REACTORS
330
5EC
102
}
330
5EC
100
AcDbXrecord
280
     1
102
RTVSPropertyOp0
 70
     1
102
RTVSPropertyOp1
 70
     1
102
RTVSPropertyOp2
 70
     1
102
RTVSPropertyOp3
 70
     1
102
RTVSPropertyOp4
 70
     1
102
RTVSPropertyOp5
 70
     1
102
RTVSPropertyOp6
 70
     1
102
RTVSPropertyOp7
 70
     1
102
RTVSPropertyOp8
 70
     1
102
RTVSPropertyOp9
 70
     1
102
RTVSPropertyOp10
 70
     1
102
RTVSPropertyOp11
 70
     1
102
RTVSPropertyOp12
 70
     1
102
RTVSPropertyOp13
 70
     1
102
RTVSPropertyOp14
 70
     1
102
RTVSPropertyOp15
 70
     1
102
RTVSPropertyOp16
 70
     1
102
RTVSPropertyOp17
 70
     1
102
RTVSPropertyOp18
 70
     1
102
RTVSPropertyOp19
 70
     1
102
RTVSPropertyOp20
 70
     1
102
RTVSPropertyOp21
 70
     1
102
RTVSPropertyOp22
 70
     1
102
RTVSPropertyOp23
 70
     1
102
RTVSPropertyOp24
 70
     1
102
RTVSPropertyOp25
 70
     1
102
RTVSPropertyOp26
 70
     1
102
RTVSPropertyOp27
 70
     1
102
RTVSPropertyOp28
 70
     1
102
RTVSPropertyOp29
 70
     1
102
RTVSPropertyOp30
 70
     1
102
RTVSPropertyOp31
 70
     1
102
RTVSPropertyOp32
 70
     1
  0
XRECORD
  5
5EF
102
{ACAD_REACTORS
330
5EE
102
}
330
5EE
100
AcDbXrecord
280
     1
102
RTVSPropertyOp0
 70
     1
102
RTVSPropertyOp1
 70
     1
102
RTVSPropertyOp2
 70
     1
102
RTVSPropertyOp3
 70
     1
102
RTVSPropertyOp4
 70
     1
102
RTVSPropertyOp5
 70
     1
102
RTVSPropertyOp6
 70
     1
102
RTVSPropertyOp7
 70
     1
102
RTVSPropertyOp8
 70
     1
102
RTVSPropertyOp9
 70
     1
102
RTVSPropertyOp10
 70
     1
102
RTVSPropertyOp11
 70
     1
102
RTVSPropertyOp12
 70
     1
102
RTVSPropertyOp13
 70
     1
102
RTVSPropertyOp14
 70
     1
102
RTVSPropertyOp15
 70
     1
102
RTVSPropertyOp16
 70
     1
102
RTVSPropertyOp17
 70
     1
102
RTVSPropertyOp18
 70
     1
102
RTVSPropertyOp19
 70
     1
102
RTVSPropertyOp20
 70
     1
102
RTVSPropertyOp21
 70
     1
102
RTVSPropertyOp22
 70
     1
102
RTVSPropertyOp23
 70
     1
102
RTVSPropertyOp24
 70
     1
102
RTVSPropertyOp25
 70
     1
102
RTVSPropertyOp26
 70
     1
102
RTVSPropertyOp27
 70
     1
102
RTVSPropertyOp28
 70
     1
102
RTVSPropertyOp29
 70
     1
102
RTVSPropertyOp30
 70
     1
102
RTVSPropertyOp31
 70
     1
102
RTVSPropertyOp32
 70
     1
  0
XRECORD
  5
5F1
102
{ACAD_REACTORS
330
5F0
102
}
330
5F0
100
AcDbXrecord
280
     1
102
RTVSPropertyOp0
 70
     1
102
RTVSPropertyOp1
 70
     1
102
RTVSPropertyOp2
 70
     1
102
RTVSPropertyOp3
 70
     1
102
RTVSPropertyOp4
 70
     1
102
RTVSPropertyOp5
 70
     1
102
RTVSPropertyOp6
 70
     1
102
RTVSPropertyOp7
 70
     1
102
RTVSPropertyOp8
 70
     1
102
RTVSPropertyOp9
 70
     1
102
RTVSPropertyOp10
 70
     1
102
RTVSPropertyOp11
 70
     1
102
RTVSPropertyOp12
 70
     1
102
RTVSPropertyOp13
 70
     1
102
RTVSPropertyOp14
 70
     1
102
RTVSPropertyOp15
 70
     1
102
RTVSPropertyOp16
 70
     1
102
RTVSPropertyOp17
 70
     1
102
RTVSPropertyOp18
 70
     1
102
RTVSPropertyOp19
 70
     1
102
RTVSPropertyOp20
 70
     1
102
RTVSPropertyOp21
 70
     1
102
RTVSPropertyOp22
 70
     1
102
RTVSPropertyOp23
 70
     1
102
RTVSPropertyOp24
 70
     1
102
RTVSPropertyOp25
 70
     1
102
RTVSPropertyOp26
 70
     1
102
RTVSPropertyOp27
 70
     1
102
RTVSPropertyOp28
 70
     1
102
RTVSPropertyOp29
 70
     1
102
RTVSPropertyOp30
 70
     1
102
RTVSPropertyOp31
 70
     1
102
RTVSPropertyOp32
 70
     1
  0
XRECORD
  5
605
102
{ACAD_REACTORS
330
604
102
}
330
604
100
AcDbXrecord
280
     1
102
RTVSPropertyOp0
 70
     1
102
RTVSPropertyOp1
 70
     1
102
RTVSPropertyOp2
 70
     1
102
RTVSPropertyOp3
 70
     1
102
RTVSPropertyOp4
 70
     1
102
RTVSPropertyOp5
 70
     1
102
RTVSPropertyOp6
 70
     1
102
RTVSPropertyOp7
 70
     1
102
RTVSPropertyOp8
 70
     1
102
RTVSPropertyOp9
 70
     1
102
RTVSPropertyOp10
 70
     1
102
RTVSPropertyOp11
 70
     1
102
RTVSPropertyOp12
 70
     1
102
RTVSPropertyOp13
 70
     1
102
RTVSPropertyOp14
 70
     1
102
RTVSPropertyOp15
 70
     1
102
RTVSPropertyOp16
 70
     1
102
RTVSPropertyOp17
 70
     1
102
RTVSPropertyOp18
 70
     1
102
RTVSPropertyOp19
 70
     1
102
RTVSPropertyOp20
 70
     1
102
RTVSPropertyOp21
 70
     1
102
RTVSPropertyOp22
 70
     1
102
RTVSPropertyOp23
 70
     1
102
RTVSPropertyOp24
 70
     1
102
RTVSPropertyOp25
 70
     1
102
RTVSPropertyOp26
 70
     1
102
RTVSPropertyOp27
 70
     1
102
RTVSPropertyOp28
 70
     1
102
RTVSPropertyOp29
 70
     1
102
RTVSPropertyOp30
 70
     1
102
RTVSPropertyOp31
 70
     1
102
RTVSPropertyOp32
 70
     1
  0
XRECORD
  5
5FB
102
{ACAD_REACTORS
330
5FA
102
}
330
5FA
100
AcDbXrecord
280
     1
102
RTVSPropertyOp0
 70
     1
102
RTVSPropertyOp1
 70
     1
102
RTVSPropertyOp2
 70
     1
102
RTVSPropertyOp3
 70
     1
102
RTVSPropertyOp4
 70
     1
102
RTVSPropertyOp5
 70
     1
102
RTVSPropertyOp6
 70
     1
102
RTVSPropertyOp7
 70
     1
102
RTVSPropertyOp8
 70
     1
102
RTVSPropertyOp9
 70
     1
102
RTVSPropertyOp10
 70
     1
102
RTVSPropertyOp11
 70
     1
102
RTVSPropertyOp12
 70
     1
102
RTVSPropertyOp13
 70
     1
102
RTVSPropertyOp14
 70
     1
102
RTVSPropertyOp15
 70
     1
102
RTVSPropertyOp16
 70
     1
102
RTVSPropertyOp17
 70
     1
102
RTVSPropertyOp18
 70
     1
102
RTVSPropertyOp19
 70
     1
102
RTVSPropertyOp20
 70
     1
102
RTVSPropertyOp21
 70
     1
102
RTVSPropertyOp22
 70
     1
102
RTVSPropertyOp23
 70
     1
102
RTVSPropertyOp24
 70
     1
102
RTVSPropertyOp25
 70
     1
102
RTVSPropertyOp26
 70
     1
102
RTVSPropertyOp27
 70
     1
102
RTVSPropertyOp28
 70
     1
102
RTVSPropertyOp29
 70
     1
102
RTVSPropertyOp30
 70
     1
102
RTVSPropertyOp31
 70
     1
102
RTVSPropertyOp32
 70
     1
  0
XRECORD
  5
603
102
{ACAD_REACTORS
330
602
102
}
330
602
100
AcDbXrecord
280
     1
102
RTVSPropertyOp0
 70
     1
102
RTVSPropertyOp1
 70
     1
102
RTVSPropertyOp2
 70
     1
102
RTVSPropertyOp3
 70
     1
102
RTVSPropertyOp4
 70
     1
102
RTVSPropertyOp5
 70
     1
102
RTVSPropertyOp6
 70
     1
102
RTVSPropertyOp7
 70
     1
102
RTVSPropertyOp8
 70
     1
102
RTVSPropertyOp9
 70
     1
102
RTVSPropertyOp10
 70
     1
102
RTVSPropertyOp11
 70
     1
102
RTVSPropertyOp12
 70
     1
102
RTVSPropertyOp13
 70
     1
102
RTVSPropertyOp14
 70
     1
102
RTVSPropertyOp15
 70
     1
102
RTVSPropertyOp16
 70
     1
102
RTVSPropertyOp17
 70
     1
102
RTVSPropertyOp18
 70
     1
102
RTVSPropertyOp19
 70
     1
102
RTVSPropertyOp20
 70
     1
102
RTVSPropertyOp21
 70
     1
102
RTVSPropertyOp22
 70
     1
102
RTVSPropertyOp23
 70
     1
102
RTVSPropertyOp24
 70
     1
102
RTVSPropertyOp25
 70
     1
102
RTVSPropertyOp26
 70
     1
102
RTVSPropertyOp27
 70
     1
102
RTVSPropertyOp28
 70
     1
102
RTVSPropertyOp29
 70
     1
102
RTVSPropertyOp30
 70
     1
102
RTVSPropertyOp31
 70
     1
102
RTVSPropertyOp32
 70
     1
  0
ENDSEC
  0
EOF
