  0
SECTION
  2
HEADER
  9
$ACADVER
  1
AC1018
  9
$ACADMAINTVER
 70
     0
  9
$DWGCODEPAGE
  3
ANSI_1252
  9
$INSBASE
 10
0.0
 20
0.0
 30
0.0
  9
$EXTMIN
 10
-120.831000186276
 20
3.587866071429
 30
0.0
  9
$EXTMAX
 10
302.888622667784
 20
157.136866071429
 30
0.0
  9
$LIMMIN
 10
0.0
 20
0.0
  9
$LIMMAX
 10
420.0
 20
297.0
  9
$ORTHOMODE
 70
     0
  9
$REGENMODE
 70
     1
  9
$FILLMODE
 70
     1
  9
$QTEXTMODE
 70
     0
  9
$MIRRTEXT
 70
     1
  9
$LTSCALE
 40
5.0
  9
$ATTMODE
 70
     1
  9
$TEXTSIZE
 40
2.5
  9
$TRACEWID
 40
1.0
  9
$TEXTSTYLE
  7
Standard
  9
$CLAYER
  8
0
  9
$CELTYPE
  6
ByLayer
  9
$CECOLOR
 62
   256
  9
$CELTSCALE
 40
1.0
  9
$DISPSILH
 70
     0
  9
$DIMSCALE
 40
1.0
  9
$DIMASZ
 40
2.5
  9
$DIMEXO
 40
0.625
  9
$DIMDLI
 40
3.75
  9
$DIMRND
 40
0.0
  9
$DIMDLE
 40
0.0
  9
$DIMEXE
 40
1.25
  9
$DIMTP
 40
0.0
  9
$DIMTM
 40
0.0
  9
$DIMTXT
 40
2.5
  9
$DIMCEN
 40
2.5
  9
$DIMTSZ
 40
0.0
  9
$DIMTOL
 70
     0
  9
$DIMLIM
 70
     0
  9
$DIMTIH
 70
     0
  9
$DIMTOH
 70
     0
  9
$DIMSE1
 70
     0
  9
$DIMSE2
 70
     0
  9
$DIMTAD
 70
     1
  9
$DIMZIN
 70
     8
  9
$DIMBLK
  1

  9
$DIMASO
 70
     1
  9
$DIMSHO
 70
     1
  9
$DIMPOST
  1

  9
$DIMAPOST
  1

  9
$DIMALT
 70
     0
  9
$DIMALTD
 70
     3
  9
$DIMALTF
 40
0.03937007874
  9
$DIMLFAC
 40
1.0
  9
$DIMTOFL
 70
     1
  9
$DIMTVP
 40
0.0
  9
$DIMTIX
 70
     0
  9
$DIMSOXD
 70
     0
  9
$DIMSAH
 70
     0
  9
$DIMBLK1
  1

  9
$DIMBLK2
  1

  9
$DIMSTYLE
  2
ISO-25
  9
$DIMCLRD
 70
     0
  9
$DIMCLRE
 70
     0
  9
$DIMCLRT
 70
     0
  9
$DIMTFAC
 40
1.0
  9
$DIMGAP
 40
0.625
  9
$DIMJUST
 70
     0
  9
$DIMSD1
 70
     0
  9
$DIMSD2
 70
     0
  9
$DIMTOLJ
 70
     0
  9
$DIMTZIN
 70
     8
  9
$DIMALTZ
 70
     0
  9
$DIMALTTZ
 70
     0
  9
$DIMUPT
 70
     0
  9
$DIMDEC
 70
     2
  9
$DIMTDEC
 70
     2
  9
$DIMALTU
 70
     2
  9
$DIMALTTD
 70
     3
  9
$DIMTXSTY
  7
Standard
  9
$DIMAUNIT
 70
     0
  9
$DIMADEC
 70
     0
  9
$DIMALTRND
 40
0.0
  9
$DIMAZIN
 70
     0
  9
$DIMDSEP
 70
    44
  9
$DIMATFIT
 70
     3
  9
$DIMFRAC
 70
     0
  9
$DIMLDRBLK
  1

  9
$DIMLUNIT
 70
     2
  9
$DIMLWD
 70
    -2
  9
$DIMLWE
 70
    -2
  9
$DIMTMOVE
 70
     0
  9
$LUNITS
 70
     2
  9
$LUPREC
 70
     4
  9
$SKETCHINC
 40
1.0
  9
$FILLETRAD
 40
10.0
  9
$AUNITS
 70
     0
  9
$AUPREC
 70
     0
  9
$MENU
  1
.
  9
$ELEVATION
 40
0.0
  9
$PELEVATION
 40
0.0
  9
$THICKNESS
 40
0.0
  9
$LIMCHECK
 70
     0
  9
$CHAMFERA
 40
10.0
  9
$CHAMFERB
 40
10.0
  9
$CHAMFERC
 40
20.0
  9
$CHAMFERD
 40
0.0
  9
$SKPOLY
 70
     0
  9
$TDCREATE
 40
2458717.620861157
  9
$TDUCREATE
 40
2458717.537527824
  9
$TDUPDATE
 40
2458717.620873831
  9
$TDUUPDATE
 40
2458717.537540498
  9
$TDINDWG
 40
0.0000000116
  9
$TDUSRTIMER
 40
0.0000000116
  9
$USRTIMER
 70
     1
  9
$ANGBASE
 50
0.0
  9
$ANGDIR
 70
     0
  9
$PDMODE
 70
     2
  9
$PDSIZE
 40
1.0
  9
$PLINEWID
 40
0.0
  9
$SPLFRAME
 70
     0
  9
$SPLINETYPE
 70
     6
  9
$SPLINESEGS
 70
     8
  9
$HANDSEED
  5
57F
  9
$SURFTAB1
 70
     6
  9
$SURFTAB2
 70
     6
  9
$SURFTYPE
 70
     6
  9
$SURFU
 70
     6
  9
$SURFV
 70
     6
  9
$UCSBASE
  2

  9
$UCSNAME
  2

  9
$UCSORG
 10
0.0
 20
0.0
 30
0.0
  9
$UCSXDIR
 10
1.0
 20
0.0
 30
0.0
  9
$UCSYDIR
 10
0.0
 20
1.0
 30
0.0
  9
$UCSORTHOREF
  2

  9
$UCSORTHOVIEW
 70
     0
  9
$UCSORGTOP
 10
0.0
 20
0.0
 30
0.0
  9
$UCSORGBOTTOM
 10
0.0
 20
0.0
 30
0.0
  9
$UCSORGLEFT
 10
0.0
 20
0.0
 30
0.0
  9
$UCSORGRIGHT
 10
0.0
 20
0.0
 30
0.0
  9
$UCSORGFRONT
 10
0.0
 20
0.0
 30
0.0
  9
$UCSORGBACK
 10
0.0
 20
0.0
 30
0.0
  9
$PUCSBASE
  2

  9
$PUCSNAME
  2

  9
$PUCSORG
 10
0.0
 20
0.0
 30
0.0
  9
$PUCSXDIR
 10
1.0
 20
0.0
 30
0.0
  9
$PUCSYDIR
 10
0.0
 20
1.0
 30
0.0
  9
$PUCSORTHOREF
  2

  9
$PUCSORTHOVIEW
 70
     0
  9
$PUCSORGTOP
 10
0.0
 20
0.0
 30
0.0
  9
$PUCSORGBOTTOM
 10
0.0
 20
0.0
 30
0.0
  9
$PUCSORGLEFT
 10
0.0
 20
0.0
 30
0.0
  9
$PUCSORGRIGHT
 10
0.0
 20
0.0
 30
0.0
  9
$PUCSORGFRONT
 10
0.0
 20
0.0
 30
0.0
  9
$PUCSORGBACK
 10
0.0
 20
0.0
 30
0.0
  9
$USERI1
 70
     0
  9
$USERI2
 70
     0
  9
$USERI3
 70
     0
  9
$USERI4
 70
     0
  9
$USERI5
 70
     0
  9
$USERR1
 40
0.0
  9
$USERR2
 40
0.0
  9
$USERR3
 40
0.0
  9
$USERR4
 40
0.0
  9
$USERR5
 40
0.0
  9
$WORLDVIEW
 70
     1
  9
$SHADEDGE
 70
     3
  9
$SHADEDIF
 70
    70
  9
$TILEMODE
 70
     1
  9
$MAXACTVP
 70
    64
  9
$PINSBASE
 10
0.0
 20
0.0
 30
0.0
  9
$PLIMCHECK
 70
     0
  9
$PEXTMIN
 10
1.000000000000E+20
 20
1.000000000000E+20
 30
1.000000000000E+20
  9
$PEXTMAX
 10
-1.000000000000E+20
 20
-1.000000000000E+20
 30
-1.000000000000E+20
  9
$PLIMMIN
 10
0.0
 20
0.0
  9
$PLIMMAX
 10
420.0
 20
297.0
  9
$UNITMODE
 70
     0
  9
$VISRETAIN
 70
     1
  9
$PLINEGEN
 70
     0
  9
$PSLTSCALE
 70
     1
  9
$TREEDEPTH
 70
  3020
  9
$CMLSTYLE
  2
Standard
  9
$CMLJUST
 70
     0
  9
$CMLSCALE
 40
20.0
  9
$PROXYGRAPHICS
 70
     1
  9
$MEASUREMENT
 70
     1
  9
$CELWEIGHT
370
    -1
  9
$ENDCAPS
280
     0
  9
$JOINSTYLE
280
     0
  9
$LWDISPLAY
290
     0
  9
$INSUNITS
 70
     4
  9
$HYPERLINKBASE
  1

  9
$STYLESHEET
  1

  9
$XEDIT
290
     1
  9
$CEPSNTYPE
380
     0
  9
$PSTYLEMODE
290
     1
  9
$FINGERPRINTGUID
  2
{DD573F59-ED87-4108-90C9-764E2FB50B0E}
  9
$VERSIONGUID
  2
{FAEB1C32-E019-11D5-929B-00C0DF256EC4}
  9
$EXTNAMES
290
     1
  9
$PSVPSCALE
 40
0.0
  9
$OLESTARTUP
290
     0
  9
$SORTENTS
280
   127
  9
$INDEXCTL
280
     0
  9
$HIDETEXT
280
     1
  9
$XCLIPFRAME
290
     0
  9
$HALOGAP
280
     0
  9
$OBSCOLOR
 70
   257
  9
$OBSLTYPE
280
     0
  9
$INTERSECTIONDISPLAY
280
     0
  9
$INTERSECTIONCOLOR
 70
   257
  9
$DIMASSOC
280
     2
  9
$PROJECTNAME
  1

  0
ENDSEC
  0
SECTION
  2
CLASSES
  0
CLASS
  1
ACDBDICTIONARYWDFLT
  2
AcDbDictionaryWithDefault
  3
ObjectDBX Classes
 90
        0
 91
        4
280
     0
281
     0
  0
CLASS
  1
VISUALSTYLE
  2
AcDbVisualStyle
  3
ObjectDBX Classes
 90
     4095
 91
        4
280
     0
281
     0
  0
CLASS
  1
MATERIAL
  2
AcDbMaterial
  3
ObjectDBX Classes
 90
     1153
 91
        4
280
     0
281
     0
  0
CLASS
  1
WIPEOUTVARIABLES
  2
AcDbWipeoutVariables
  3
WipeOut|AutoCAD Express Tool|expresstools@autodesk.com
 90
        0
 91
        4
280
     0
281
     0
  0
ENDSEC
  0
SECTION
  2
TABLES
  0
TABLE
  2
VPORT
  5
8
330
0
100
AcDbSymbolTable
 70
     1
  0
VPORT
  5
29
330
8
100
AcDbSymbolTableRecord
100
AcDbViewportTableRecord
  2
*Active
 70
     0
 10
0.0
 20
0.0
 11
1.0
 21
1.0
 12
91.028811240754
 22
80.362366071429
 13
0.0
 23
0.0
 14
10.0
 24
10.0
 15
10.0
 25
10.0
 16
0.0
 26
0.0
 36
1.0
 17
0.0
 27
0.0
 37
0.0
 40
153.549
 41
2.75950753736
 42
50.0
 43
0.0
 44
0.0
 50
0.0
 51
0.0
 71
     0
 72
   100
 73
     1
 74
     3
 75
     0
 76
     0
 77
     0
 78
     0
281
     0
 65
     1
110
0.0
120
0.0
130
0.0
111
1.0
121
0.0
131
0.0
112
0.0
122
1.0
132
0.0
 79
     0
146
0.0
  0
ENDTAB
  0
TABLE
  2
LTYPE
  5
5
330
0
100
AcDbSymbolTable
 70
     3
  0
LTYPE
  5
14
330
5
100
AcDbSymbolTableRecord
100
AcDbLinetypeTableRecord
  2
ByBlock
 70
     0
  3

 72
    65
 73
     0
 40
0.0
  0
LTYPE
  5
15
330
5
100
AcDbSymbolTableRecord
100
AcDbLinetypeTableRecord
  2
ByLayer
 70
     0
  3

 72
    65
 73
     0
 40
0.0
  0
LTYPE
  5
16
330
5
100
AcDbSymbolTableRecord
100
AcDbLinetypeTableRecord
  2
Continuous
 70
     0
  3
Solid line
 72
    65
 73
     0
 40
0.0
  0
LTYPE
  5
40
330
5
100
AcDbSymbolTableRecord
100
AcDbLinetypeTableRecord
  2
DASHDOT
 70
     0
  3

 72
    65
 73
     4
 40
1.0
 49
0.5
 74
     0
 49
-0.25
 74
     0
 49
0.0
 74
     0
 49
-0.25
 74
     0
  0
LTYPE
  5
41
330
5
100
AcDbSymbolTableRecord
100
AcDbLinetypeTableRecord
  2
AUSGEZOGEN
 70
     0
  3

 72
    65
 73
     0
 40
0.0
  0
ENDTAB
  0
TABLE
  2
LAYER
  5
2
330
0
100
AcDbSymbolTable
 70
   257
  0
LAYER
  5
10
330
2
100
AcDbSymbolTableRecord
100
AcDbLayerTableRecord
  2
0
 70
     0
 62
     7
  6
Continuous
370
    -3
390
F
  0
LAYER
  5
45
330
2
100
AcDbSymbolTableRecord
100
AcDbLayerTableRecord
  2
Layer0
 70
     0
 62
     7
  6
Continuous
370
    -3
390
F
  0
LAYER
  5
46
330
2
100
AcDbSymbolTableRecord
100
AcDbLayerTableRecord
  2
Stammform
 70
     0
 62
     7
  6
Continuous
370
    -3
390
F
  0
LAYER
  5
47
330
2
100
AcDbSymbolTableRecord
100
AcDbLayerTableRecord
  2
Layer2
 70
     0
 62
     7
  6
Continuous
370
    -3
390
F
  0
LAYER
  5
48
330
2
100
AcDbSymbolTableRecord
100
AcDbLayerTableRecord
  2
Layer3
 70
     0
 62
     7
  6
Continuous
370
    -3
390
F
  0
LAYER
  5
49
330
2
100
AcDbSymbolTableRecord
100
AcDbLayerTableRecord
  2
Layer4
 70
     0
 62
     7
  6
Continuous
370
    -3
390
F
  0
LAYER
  5
4A
330
2
100
AcDbSymbolTableRecord
100
AcDbLayerTableRecord
  2
Layer5
 70
     0
 62
     7
  6
Continuous
370
    -3
390
F
  0
LAYER
  5
4B
330
2
100
AcDbSymbolTableRecord
100
AcDbLayerTableRecord
  2
Layer6
 70
     0
 62
     7
  6
Continuous
370
    -3
390
F
  0
LAYER
  5
4C
330
2
100
AcDbSymbolTableRecord
100
AcDbLayerTableRecord
  2
Layer7
 70
     0
 62
     7
  6
Continuous
370
    -3
390
F
  0
LAYER
  5
4D
330
2
100
AcDbSymbolTableRecord
100
AcDbLayerTableRecord
  2
Layer8
 70
     0
 62
     7
  6
Continuous
370
    -3
390
F
  0
LAYER
  5
4E
330
2
100
AcDbSymbolTableRecord
100
AcDbLayerTableRecord
  2
Layer9
 70
     0
 62
     7
  6
Continuous
370
    -3
390
F
  0
LAYER
  5
4F
330
2
100
AcDbSymbolTableRecord
100
AcDbLayerTableRecord
  2
Formtei
 70
     0
 62
     7
  6
Continuous
370
    -3
390
F
  0
LAYER
  5
50
330
2
100
AcDbSymbolTableRecord
100
AcDbLayerTableRecord
  2
Layer11
 70
     0
 62
     7
  6
Continuous
370
    -3
390
F
  0
LAYER
  5
51
330
2
100
AcDbSymbolTableRecord
100
AcDbLayerTableRecord
  2
Layer12
 70
     0
 62
     7
  6
Continuous
370
    -3
390
F
  0
LAYER
  5
52
330
2
100
AcDbSymbolTableRecord
100
AcDbLayerTableRecord
  2
Layer13
 70
     0
 62
     7
  6
Continuous
370
    -3
390
F
  0
LAYER
  5
53
330
2
100
AcDbSymbolTableRecord
100
AcDbLayerTableRecord
  2
Layer14
 70
     0
 62
     7
  6
Continuous
370
    -3
390
F
  0
LAYER
  5
54
330
2
100
AcDbSymbolTableRecord
100
AcDbLayerTableRecord
  2
Layer15
 70
     0
 62
     7
  6
Continuous
370
    -3
390
F
  0
LAYER
  5
55
330
2
100
AcDbSymbolTableRecord
100
AcDbLayerTableRecord
  2
Layer16
 70
     0
 62
     7
  6
Continuous
370
    -3
390
F
  0
LAYER
  5
56
330
2
100
AcDbSymbolTableRecord
100
AcDbLayerTableRecord
  2
Layer17
 70
     0
 62
     7
  6
Continuous
370
    -3
390
F
  0
LAYER
  5
57
330
2
100
AcDbSymbolTableRecord
100
AcDbLayerTableRecord
  2
Layer18
 70
     0
 62
     7
  6
Continuous
370
    -3
390
F
  0
LAYER
  5
58
330
2
100
AcDbSymbolTableRecord
100
AcDbLayerTableRecord
  2
Layer19
 70
     0
 62
     7
  6
Continuous
370
    -3
390
F
  0
LAYER
  5
59
330
2
100
AcDbSymbolTableRecord
100
AcDbLayerTableRecord
  2
Kühlung
 70
     0
 62
     7
  6
Continuous
370
    -3
390
F
  0
LAYER
  5
5A
330
2
100
AcDbSymbolTableRecord
100
AcDbLayerTableRecord
  2
Layer21
 70
     0
 62
     7
  6
Continuous
370
    -3
390
F
  0
LAYER
  5
5B
330
2
100
AcDbSymbolTableRecord
100
AcDbLayerTableRecord
  2
Layer22
 70
     0
 62
     7
  6
Continuous
370
    -3
390
F
  0
LAYER
  5
5C
330
2
100
AcDbSymbolTableRecord
100
AcDbLayerTableRecord
  2
Layer23
 70
     0
 62
     7
  6
Continuous
370
    -3
390
F
  0
LAYER
  5
5D
330
2
100
AcDbSymbolTableRecord
100
AcDbLayerTableRecord
  2
Layer24
 70
     0
 62
     7
  6
Continuous
370
    -3
390
F
  0
LAYER
  5
5E
330
2
100
AcDbSymbolTableRecord
100
AcDbLayerTableRecord
  2
Layer25
 70
     0
 62
     7
  6
Continuous
370
    -3
390
F
  0
LAYER
  5
5F
330
2
100
AcDbSymbolTableRecord
100
AcDbLayerTableRecord
  2
Layer26
 70
     0
 62
     7
  6
Continuous
370
    -3
390
F
  0
LAYER
  5
60
330
2
100
AcDbSymbolTableRecord
100
AcDbLayerTableRecord
  2
Layer27
 70
     0
 62
     7
  6
Continuous
370
    -3
390
F
  0
LAYER
  5
61
330
2
100
AcDbSymbolTableRecord
100
AcDbLayerTableRecord
  2
Layer28
 70
     0
 62
     7
  6
Continuous
370
    -3
390
F
  0
LAYER
  5
62
330
2
100
AcDbSymbolTableRecord
100
AcDbLayerTableRecord
  2
Layer29
 70
     0
 62
     7
  6
Continuous
370
    -3
390
F
  0
LAYER
  5
63
330
2
100
AcDbSymbolTableRecord
100
AcDbLayerTableRecord
  2
Auswerfer
 70
     0
 62
     7
  6
Continuous
370
    -3
390
F
  0
LAYER
  5
64
330
2
100
AcDbSymbolTableRecord
100
AcDbLayerTableRecord
  2
Layer31
 70
     0
 62
     7
  6
Continuous
370
    -3
390
F
  0
LAYER
  5
65
330
2
100
AcDbSymbolTableRecord
100
AcDbLayerTableRecord
  2
Layer32
 70
     0
 62
     7
  6
Continuous
370
    -3
390
F
  0
LAYER
  5
66
330
2
100
AcDbSymbolTableRecord
100
AcDbLayerTableRecord
  2
Layer33
 70
     0
 62
     7
  6
Continuous
370
    -3
390
F
  0
LAYER
  5
67
330
2
100
AcDbSymbolTableRecord
100
AcDbLayerTableRecord
  2
Layer34
 70
     0
 62
     7
  6
Continuous
370
    -3
390
F
  0
LAYER
  5
68
330
2
100
AcDbSymbolTableRecord
100
AcDbLayerTableRecord
  2
Layer35
 70
     0
 62
     7
  6
Continuous
370
    -3
390
F
  0
LAYER
  5
69
330
2
100
AcDbSymbolTableRecord
100
AcDbLayerTableRecord
  2
Layer36
 70
     0
 62
     7
  6
Continuous
370
    -3
390
F
  0
LAYER
  5
6A
330
2
100
AcDbSymbolTableRecord
100
AcDbLayerTableRecord
  2
Layer37
 70
     0
 62
     7
  6
Continuous
370
    -3
390
F
  0
LAYER
  5
6B
330
2
100
AcDbSymbolTableRecord
100
AcDbLayerTableRecord
  2
Layer38
 70
     0
 62
     7
  6
Continuous
370
    -3
390
F
  0
LAYER
  5
6C
330
2
100
AcDbSymbolTableRecord
100
AcDbLayerTableRecord
  2
Layer39
 70
     0
 62
     7
  6
Continuous
370
    -3
390
F
  0
LAYER
  5
6D
330
2
100
AcDbSymbolTableRecord
100
AcDbLayerTableRecord
  2
Einsatz
 70
     0
 62
     7
  6
Continuous
370
    -3
390
F
  0
LAYER
  5
6E
330
2
100
AcDbSymbolTableRecord
100
AcDbLayerTableRecord
  2
Layer41
 70
     0
 62
     7
  6
Continuous
370
    -3
390
F
  0
LAYER
  5
6F
330
2
100
AcDbSymbolTableRecord
100
AcDbLayerTableRecord
  2
Layer42
 70
     0
 62
     7
  6
Continuous
370
    -3
390
F
  0
LAYER
  5
70
330
2
100
AcDbSymbolTableRecord
100
AcDbLayerTableRecord
  2
Layer43
 70
     0
 62
     7
  6
Continuous
370
    -3
390
F
  0
LAYER
  5
71
330
2
100
AcDbSymbolTableRecord
100
AcDbLayerTableRecord
  2
Layer44
 70
     0
 62
     7
  6
Continuous
370
    -3
390
F
  0
LAYER
  5
72
330
2
100
AcDbSymbolTableRecord
100
AcDbLayerTableRecord
  2
Layer45
 70
     0
 62
     7
  6
Continuous
370
    -3
390
F
  0
LAYER
  5
73
330
2
100
AcDbSymbolTableRecord
100
AcDbLayerTableRecord
  2
Layer46
 70
     0
 62
     7
  6
Continuous
370
    -3
390
F
  0
LAYER
  5
74
330
2
100
AcDbSymbolTableRecord
100
AcDbLayerTableRecord
  2
Layer47
 70
     0
 62
     7
  6
Continuous
370
    -3
390
F
  0
LAYER
  5
75
330
2
100
AcDbSymbolTableRecord
100
AcDbLayerTableRecord
  2
Layer48
 70
     0
 62
     7
  6
Continuous
370
    -3
390
F
  0
LAYER
  5
76
330
2
100
AcDbSymbolTableRecord
100
AcDbLayerTableRecord
  2
Layer49
 70
     0
 62
     7
  6
Continuous
370
    -3
390
F
  0
LAYER
  5
77
330
2
100
AcDbSymbolTableRecord
100
AcDbLayerTableRecord
  2
Text
 70
     0
 62
     7
  6
Continuous
370
    -3
390
F
  0
LAYER
  5
78
330
2
100
AcDbSymbolTableRecord
100
AcDbLayerTableRecord
  2
Layer51
 70
     0
 62
     7
  6
Continuous
370
    -3
390
F
  0
LAYER
  5
79
330
2
100
AcDbSymbolTableRecord
100
AcDbLayerTableRecord
  2
Layer52
 70
     0
 62
     7
  6
Continuous
370
    -3
390
F
  0
LAYER
  5
7A
330
2
100
AcDbSymbolTableRecord
100
AcDbLayerTableRecord
  2
Layer53
 70
     0
 62
     7
  6
Continuous
370
    -3
390
F
  0
LAYER
  5
7B
330
2
100
AcDbSymbolTableRecord
100
AcDbLayerTableRecord
  2
Layer54
 70
     0
 62
     7
  6
Continuous
370
    -3
390
F
  0
LAYER
  5
7C
330
2
100
AcDbSymbolTableRecord
100
AcDbLayerTableRecord
  2
Layer55
 70
     0
 62
     7
  6
Continuous
370
    -3
390
F
  0
LAYER
  5
7D
330
2
100
AcDbSymbolTableRecord
100
AcDbLayerTableRecord
  2
Layer56
 70
     0
 62
     7
  6
Continuous
370
    -3
390
F
  0
LAYER
  5
7E
330
2
100
AcDbSymbolTableRecord
100
AcDbLayerTableRecord
  2
Layer57
 70
     0
 62
     7
  6
Continuous
370
    -3
390
F
  0
LAYER
  5
7F
330
2
100
AcDbSymbolTableRecord
100
AcDbLayerTableRecord
  2
Layer58
 70
     0
 62
     7
  6
Continuous
370
    -3
390
F
  0
LAYER
  5
80
330
2
100
AcDbSymbolTableRecord
100
AcDbLayerTableRecord
  2
Layer59
 70
     0
 62
     7
  6
Continuous
370
    -3
390
F
  0
LAYER
  5
81
330
2
100
AcDbSymbolTableRecord
100
AcDbLayerTableRecord
  2
Schraffur
 70
     0
 62
     7
  6
Continuous
370
    -3
390
F
  0
LAYER
  5
82
330
2
100
AcDbSymbolTableRecord
100
AcDbLayerTableRecord
  2
Layer61
 70
     0
 62
     7
  6
Continuous
370
    -3
390
F
  0
LAYER
  5
83
330
2
100
AcDbSymbolTableRecord
100
AcDbLayerTableRecord
  2
Layer62
 70
     0
 62
     7
  6
Continuous
370
    -3
390
F
  0
LAYER
  5
84
330
2
100
AcDbSymbolTableRecord
100
AcDbLayerTableRecord
  2
Layer63
 70
     0
 62
     7
  6
Continuous
370
    -3
390
F
  0
LAYER
  5
85
330
2
100
AcDbSymbolTableRecord
100
AcDbLayerTableRecord
  2
Layer64
 70
     0
 62
     7
  6
Continuous
370
    -3
390
F
  0
LAYER
  5
86
330
2
100
AcDbSymbolTableRecord
100
AcDbLayerTableRecord
  2
Layer65
 70
     0
 62
     7
  6
Continuous
370
    -3
390
F
  0
LAYER
  5
87
330
2
100
AcDbSymbolTableRecord
100
AcDbLayerTableRecord
  2
Layer66
 70
     0
 62
     7
  6
Continuous
370
    -3
390
F
  0
LAYER
  5
88
330
2
100
AcDbSymbolTableRecord
100
AcDbLayerTableRecord
  2
Layer67
 70
     0
 62
     7
  6
Continuous
370
    -3
390
F
  0
LAYER
  5
89
330
2
100
AcDbSymbolTableRecord
100
AcDbLayerTableRecord
  2
Layer68
 70
     0
 62
     7
  6
Continuous
370
    -3
390
F
  0
LAYER
  5
8A
330
2
100
AcDbSymbolTableRecord
100
AcDbLayerTableRecord
  2
Layer69
 70
     0
 62
     7
  6
Continuous
370
    -3
390
F
  0
LAYER
  5
8B
330
2
100
AcDbSymbolTableRecord
100
AcDbLayerTableRecord
  2
Bemassung
 70
     0
 62
     7
  6
Continuous
370
    -3
390
F
  0
LAYER
  5
8C
330
2
100
AcDbSymbolTableRecord
100
AcDbLayerTableRecord
  2
Layer71
 70
     0
 62
     7
  6
Continuous
370
    -3
390
F
  0
LAYER
  5
8D
330
2
100
AcDbSymbolTableRecord
100
AcDbLayerTableRecord
  2
Layer72
 70
     0
 62
     7
  6
Continuous
370
    -3
390
F
  0
LAYER
  5
8E
330
2
100
AcDbSymbolTableRecord
100
AcDbLayerTableRecord
  2
Layer73
 70
     0
 62
     7
  6
Continuous
370
    -3
390
F
  0
LAYER
  5
8F
330
2
100
AcDbSymbolTableRecord
100
AcDbLayerTableRecord
  2
Layer74
 70
     0
 62
     7
  6
Continuous
370
    -3
390
F
  0
LAYER
  5
90
330
2
100
AcDbSymbolTableRecord
100
AcDbLayerTableRecord
  2
Layer75
 70
     0
 62
     7
  6
Continuous
370
    -3
390
F
  0
LAYER
  5
91
330
2
100
AcDbSymbolTableRecord
100
AcDbLayerTableRecord
  2
Layer76
 70
     0
 62
     7
  6
Continuous
370
    -3
390
F
  0
LAYER
  5
92
330
2
100
AcDbSymbolTableRecord
100
AcDbLayerTableRecord
  2
Layer77
 70
     0
 62
     7
  6
Continuous
370
    -3
390
F
  0
LAYER
  5
93
330
2
100
AcDbSymbolTableRecord
100
AcDbLayerTableRecord
  2
Layer78
 70
     0
 62
     7
  6
Continuous
370
    -3
390
F
  0
LAYER
  5
94
330
2
100
AcDbSymbolTableRecord
100
AcDbLayerTableRecord
  2
Layer79
 70
     0
 62
     7
  6
Continuous
370
    -3
390
F
  0
LAYER
  5
95
330
2
100
AcDbSymbolTableRecord
100
AcDbLayerTableRecord
  2
Heisskanal
 70
     0
 62
     7
  6
Continuous
370
    -3
390
F
  0
LAYER
  5
96
330
2
100
AcDbSymbolTableRecord
100
AcDbLayerTableRecord
  2
Layer81
 70
     0
 62
     7
  6
Continuous
370
    -3
390
F
  0
LAYER
  5
97
330
2
100
AcDbSymbolTableRecord
100
AcDbLayerTableRecord
  2
Layer82
 70
     0
 62
     7
  6
Continuous
370
    -3
390
F
  0
LAYER
  5
98
330
2
100
AcDbSymbolTableRecord
100
AcDbLayerTableRecord
  2
Layer83
 70
     0
 62
     7
  6
Continuous
370
    -3
390
F
  0
LAYER
  5
99
330
2
100
AcDbSymbolTableRecord
100
AcDbLayerTableRecord
  2
Layer84
 70
     0
 62
     7
  6
Continuous
370
    -3
390
F
  0
LAYER
  5
9A
330
2
100
AcDbSymbolTableRecord
100
AcDbLayerTableRecord
  2
Layer85
 70
     0
 62
     7
  6
Continuous
370
    -3
390
F
  0
LAYER
  5
9B
330
2
100
AcDbSymbolTableRecord
100
AcDbLayerTableRecord
  2
Layer86
 70
     0
 62
     7
  6
Continuous
370
    -3
390
F
  0
LAYER
  5
9C
330
2
100
AcDbSymbolTableRecord
100
AcDbLayerTableRecord
  2
Layer87
 70
     0
 62
     7
  6
Continuous
370
    -3
390
F
  0
LAYER
  5
9D
330
2
100
AcDbSymbolTableRecord
100
AcDbLayerTableRecord
  2
Layer88
 70
     0
 62
     7
  6
Continuous
370
    -3
390
F
  0
LAYER
  5
9E
330
2
100
AcDbSymbolTableRecord
100
AcDbLayerTableRecord
  2
Layer89
 70
     0
 62
     7
  6
Continuous
370
    -3
390
F
  0
LAYER
  5
9F
330
2
100
AcDbSymbolTableRecord
100
AcDbLayerTableRecord
  2
Layer90
 70
     0
 62
     7
  6
Continuous
370
    -3
390
F
  0
LAYER
  5
A0
330
2
100
AcDbSymbolTableRecord
100
AcDbLayerTableRecord
  2
Layer91
 70
     0
 62
     7
  6
Continuous
370
    -3
390
F
  0
LAYER
  5
A1
330
2
100
AcDbSymbolTableRecord
100
AcDbLayerTableRecord
  2
Layer92
 70
     0
 62
     7
  6
Continuous
370
    -3
390
F
  0
LAYER
  5
A2
330
2
100
AcDbSymbolTableRecord
100
AcDbLayerTableRecord
  2
Layer93
 70
     0
 62
     7
  6
Continuous
370
    -3
390
F
  0
LAYER
  5
A3
330
2
100
AcDbSymbolTableRecord
100
AcDbLayerTableRecord
  2
Layer94
 70
     0
 62
     7
  6
Continuous
370
    -3
390
F
  0
LAYER
  5
A4
330
2
100
AcDbSymbolTableRecord
100
AcDbLayerTableRecord
  2
Layer95
 70
     0
 62
     7
  6
Continuous
370
    -3
390
F
  0
LAYER
  5
A5
330
2
100
AcDbSymbolTableRecord
100
AcDbLayerTableRecord
  2
Layer96
 70
     0
 62
     7
  6
Continuous
370
    -3
390
F
  0
LAYER
  5
A6
330
2
100
AcDbSymbolTableRecord
100
AcDbLayerTableRecord
  2
Layer97
 70
     0
 62
     7
  6
Continuous
370
    -3
390
F
  0
LAYER
  5
A7
330
2
100
AcDbSymbolTableRecord
100
AcDbLayerTableRecord
  2
Layer98
 70
     0
 62
     7
  6
Continuous
370
    -3
390
F
  0
LAYER
  5
A8
330
2
100
AcDbSymbolTableRecord
100
AcDbLayerTableRecord
  2
Layer99
 70
     0
 62
     7
  6
Continuous
370
    -3
390
F
  0
LAYER
  5
A9
330
2
100
AcDbSymbolTableRecord
100
AcDbLayerTableRecord
  2
Layer100
 70
     0
 62
     7
  6
Continuous
370
    -3
390
F
  0
LAYER
  5
AA
330
2
100
AcDbSymbolTableRecord
100
AcDbLayerTableRecord
  2
Layer101
 70
     0
 62
     7
  6
Continuous
370
    -3
390
F
  0
LAYER
  5
AB
330
2
100
AcDbSymbolTableRecord
100
AcDbLayerTableRecord
  2
Layer102
 70
     0
 62
     7
  6
Continuous
370
    -3
390
F
  0
LAYER
  5
AC
330
2
100
AcDbSymbolTableRecord
100
AcDbLayerTableRecord
  2
Layer103
 70
     0
 62
     7
  6
Continuous
370
    -3
390
F
  0
LAYER
  5
AD
330
2
100
AcDbSymbolTableRecord
100
AcDbLayerTableRecord
  2
Layer104
 70
     0
 62
     7
  6
Continuous
370
    -3
390
F
  0
LAYER
  5
AE
330
2
100
AcDbSymbolTableRecord
100
AcDbLayerTableRecord
  2
Layer105
 70
     0
 62
     7
  6
Continuous
370
    -3
390
F
  0
LAYER
  5
AF
330
2
100
AcDbSymbolTableRecord
100
AcDbLayerTableRecord
  2
Layer106
 70
     0
 62
     7
  6
Continuous
370
    -3
390
F
  0
LAYER
  5
B0
330
2
100
AcDbSymbolTableRecord
100
AcDbLayerTableRecord
  2
Layer107
 70
     0
 62
     7
  6
Continuous
370
    -3
390
F
  0
LAYER
  5
B1
330
2
100
AcDbSymbolTableRecord
100
AcDbLayerTableRecord
  2
Layer108
 70
     0
 62
     7
  6
Continuous
370
    -3
390
F
  0
LAYER
  5
B2
330
2
100
AcDbSymbolTableRecord
100
AcDbLayerTableRecord
  2
Layer109
 70
     0
 62
     7
  6
Continuous
370
    -3
390
F
  0
LAYER
  5
B3
330
2
100
AcDbSymbolTableRecord
100
AcDbLayerTableRecord
  2
Layer110
 70
     0
 62
     7
  6
Continuous
370
    -3
390
F
  0
LAYER
  5
B4
330
2
100
AcDbSymbolTableRecord
100
AcDbLayerTableRecord
  2
Layer111
 70
     0
 62
     7
  6
Continuous
370
    -3
390
F
  0
LAYER
  5
B5
330
2
100
AcDbSymbolTableRecord
100
AcDbLayerTableRecord
  2
Layer112
 70
     0
 62
     7
  6
Continuous
370
    -3
390
F
  0
LAYER
  5
B6
330
2
100
AcDbSymbolTableRecord
100
AcDbLayerTableRecord
  2
Layer113
 70
     0
 62
     7
  6
Continuous
370
    -3
390
F
  0
LAYER
  5
B7
330
2
100
AcDbSymbolTableRecord
100
AcDbLayerTableRecord
  2
Layer114
 70
     0
 62
     7
  6
Continuous
370
    -3
390
F
  0
LAYER
  5
B8
330
2
100
AcDbSymbolTableRecord
100
AcDbLayerTableRecord
  2
Layer115
 70
     0
 62
     7
  6
Continuous
370
    -3
390
F
  0
LAYER
  5
B9
330
2
100
AcDbSymbolTableRecord
100
AcDbLayerTableRecord
  2
Layer116
 70
     0
 62
     7
  6
Continuous
370
    -3
390
F
  0
LAYER
  5
BA
330
2
100
AcDbSymbolTableRecord
100
AcDbLayerTableRecord
  2
Layer117
 70
     0
 62
     7
  6
Continuous
370
    -3
390
F
  0
LAYER
  5
BB
330
2
100
AcDbSymbolTableRecord
100
AcDbLayerTableRecord
  2
Layer118
 70
     0
 62
     7
  6
Continuous
370
    -3
390
F
  0
LAYER
  5
BC
330
2
100
AcDbSymbolTableRecord
100
AcDbLayerTableRecord
  2
Layer119
 70
     0
 62
     7
  6
Continuous
370
    -3
390
F
  0
LAYER
  5
BD
330
2
100
AcDbSymbolTableRecord
100
AcDbLayerTableRecord
  2
Layer120
 70
     0
 62
     7
  6
Continuous
370
    -3
390
F
  0
LAYER
  5
BE
330
2
100
AcDbSymbolTableRecord
100
AcDbLayerTableRecord
  2
Layer121
 70
     0
 62
     7
  6
Continuous
370
    -3
390
F
  0
LAYER
  5
BF
330
2
100
AcDbSymbolTableRecord
100
AcDbLayerTableRecord
  2
Layer122
 70
     0
 62
     7
  6
Continuous
370
    -3
390
F
  0
LAYER
  5
C0
330
2
100
AcDbSymbolTableRecord
100
AcDbLayerTableRecord
  2
Layer123
 70
     0
 62
     7
  6
Continuous
370
    -3
390
F
  0
LAYER
  5
C1
330
2
100
AcDbSymbolTableRecord
100
AcDbLayerTableRecord
  2
Layer124
 70
     0
 62
     7
  6
Continuous
370
    -3
390
F
  0
LAYER
  5
C2
330
2
100
AcDbSymbolTableRecord
100
AcDbLayerTableRecord
  2
Layer125
 70
     0
 62
     7
  6
Continuous
370
    -3
390
F
  0
LAYER
  5
C3
330
2
100
AcDbSymbolTableRecord
100
AcDbLayerTableRecord
  2
Layer126
 70
     0
 62
     7
  6
Continuous
370
    -3
390
F
  0
LAYER
  5
C4
330
2
100
AcDbSymbolTableRecord
100
AcDbLayerTableRecord
  2
Layer127
 70
     0
 62
     7
  6
Continuous
370
    -3
390
F
  0
LAYER
  5
C5
330
2
100
AcDbSymbolTableRecord
100
AcDbLayerTableRecord
  2
Layer128
 70
     0
 62
     7
  6
Continuous
370
    -3
390
F
  0
LAYER
  5
C6
330
2
100
AcDbSymbolTableRecord
100
AcDbLayerTableRecord
  2
Layer129
 70
     0
 62
     7
  6
Continuous
370
    -3
390
F
  0
LAYER
  5
C7
330
2
100
AcDbSymbolTableRecord
100
AcDbLayerTableRecord
  2
Layer130
 70
     0
 62
     7
  6
Continuous
370
    -3
390
F
  0
LAYER
  5
C8
330
2
100
AcDbSymbolTableRecord
100
AcDbLayerTableRecord
  2
Layer131
 70
     0
 62
     7
  6
Continuous
370
    -3
390
F
  0
LAYER
  5
C9
330
2
100
AcDbSymbolTableRecord
100
AcDbLayerTableRecord
  2
Layer132
 70
     0
 62
     7
  6
Continuous
370
    -3
390
F
  0
LAYER
  5
CA
330
2
100
AcDbSymbolTableRecord
100
AcDbLayerTableRecord
  2
Layer133
 70
     0
 62
     7
  6
Continuous
370
    -3
390
F
  0
LAYER
  5
CB
330
2
100
AcDbSymbolTableRecord
100
AcDbLayerTableRecord
  2
Layer134
 70
     0
 62
     7
  6
Continuous
370
    -3
390
F
  0
LAYER
  5
CC
330
2
100
AcDbSymbolTableRecord
100
AcDbLayerTableRecord
  2
Layer135
 70
     0
 62
     7
  6
Continuous
370
    -3
390
F
  0
LAYER
  5
CD
330
2
100
AcDbSymbolTableRecord
100
AcDbLayerTableRecord
  2
Layer136
 70
     0
 62
     7
  6
Continuous
370
    -3
390
F
  0
LAYER
  5
CE
330
2
100
AcDbSymbolTableRecord
100
AcDbLayerTableRecord
  2
Layer137
 70
     0
 62
     7
  6
Continuous
370
    -3
390
F
  0
LAYER
  5
CF
330
2
100
AcDbSymbolTableRecord
100
AcDbLayerTableRecord
  2
Layer138
 70
     0
 62
     7
  6
Continuous
370
    -3
390
F
  0
LAYER
  5
D0
330
2
100
AcDbSymbolTableRecord
100
AcDbLayerTableRecord
  2
Layer139
 70
     0
 62
     7
  6
Continuous
370
    -3
390
F
  0
LAYER
  5
D1
330
2
100
AcDbSymbolTableRecord
100
AcDbLayerTableRecord
  2
Layer140
 70
     0
 62
     7
  6
Continuous
370
    -3
390
F
  0
LAYER
  5
D2
330
2
100
AcDbSymbolTableRecord
100
AcDbLayerTableRecord
  2
Layer141
 70
     0
 62
     7
  6
Continuous
370
    -3
390
F
  0
LAYER
  5
D3
330
2
100
AcDbSymbolTableRecord
100
AcDbLayerTableRecord
  2
Layer142
 70
     0
 62
     7
  6
Continuous
370
    -3
390
F
  0
LAYER
  5
D4
330
2
100
AcDbSymbolTableRecord
100
AcDbLayerTableRecord
  2
Layer143
 70
     0
 62
     7
  6
Continuous
370
    -3
390
F
  0
LAYER
  5
D5
330
2
100
AcDbSymbolTableRecord
100
AcDbLayerTableRecord
  2
Layer144
 70
     0
 62
     7
  6
Continuous
370
    -3
390
F
  0
LAYER
  5
D6
330
2
100
AcDbSymbolTableRecord
100
AcDbLayerTableRecord
  2
Layer145
 70
     0
 62
     7
  6
Continuous
370
    -3
390
F
  0
LAYER
  5
D7
330
2
100
AcDbSymbolTableRecord
100
AcDbLayerTableRecord
  2
Layer146
 70
     0
 62
     7
  6
Continuous
370
    -3
390
F
  0
LAYER
  5
D8
330
2
100
AcDbSymbolTableRecord
100
AcDbLayerTableRecord
  2
Layer147
 70
     0
 62
     7
  6
Continuous
370
    -3
390
F
  0
LAYER
  5
D9
330
2
100
AcDbSymbolTableRecord
100
AcDbLayerTableRecord
  2
Layer148
 70
     0
 62
     7
  6
Continuous
370
    -3
390
F
  0
LAYER
  5
DA
330
2
100
AcDbSymbolTableRecord
100
AcDbLayerTableRecord
  2
Layer149
 70
     0
 62
     7
  6
Continuous
370
    -3
390
F
  0
LAYER
  5
DB
330
2
100
AcDbSymbolTableRecord
100
AcDbLayerTableRecord
  2
Layer150
 70
     0
 62
     7
  6
Continuous
370
    -3
390
F
  0
LAYER
  5
DC
330
2
100
AcDbSymbolTableRecord
100
AcDbLayerTableRecord
  2
Layer151
 70
     0
 62
     7
  6
Continuous
370
    -3
390
F
  0
LAYER
  5
DD
330
2
100
AcDbSymbolTableRecord
100
AcDbLayerTableRecord
  2
Layer152
 70
     0
 62
     7
  6
Continuous
370
    -3
390
F
  0
LAYER
  5
DE
330
2
100
AcDbSymbolTableRecord
100
AcDbLayerTableRecord
  2
Layer153
 70
     0
 62
     7
  6
Continuous
370
    -3
390
F
  0
LAYER
  5
DF
330
2
100
AcDbSymbolTableRecord
100
AcDbLayerTableRecord
  2
Layer154
 70
     0
 62
     7
  6
Continuous
370
    -3
390
F
  0
LAYER
  5
E0
330
2
100
AcDbSymbolTableRecord
100
AcDbLayerTableRecord
  2
Layer155
 70
     0
 62
     7
  6
Continuous
370
    -3
390
F
  0
LAYER
  5
E1
330
2
100
AcDbSymbolTableRecord
100
AcDbLayerTableRecord
  2
Layer156
 70
     0
 62
     7
  6
Continuous
370
    -3
390
F
  0
LAYER
  5
E2
330
2
100
AcDbSymbolTableRecord
100
AcDbLayerTableRecord
  2
Layer157
 70
     0
 62
     7
  6
Continuous
370
    -3
390
F
  0
LAYER
  5
E3
330
2
100
AcDbSymbolTableRecord
100
AcDbLayerTableRecord
  2
Layer158
 70
     0
 62
     7
  6
Continuous
370
    -3
390
F
  0
LAYER
  5
E4
330
2
100
AcDbSymbolTableRecord
100
AcDbLayerTableRecord
  2
Layer159
 70
     0
 62
     7
  6
Continuous
370
    -3
390
F
  0
LAYER
  5
E5
330
2
100
AcDbSymbolTableRecord
100
AcDbLayerTableRecord
  2
Layer160
 70
     0
 62
     7
  6
Continuous
370
    -3
390
F
  0
LAYER
  5
E6
330
2
100
AcDbSymbolTableRecord
100
AcDbLayerTableRecord
  2
Layer161
 70
     0
 62
     7
  6
Continuous
370
    -3
390
F
  0
LAYER
  5
E7
330
2
100
AcDbSymbolTableRecord
100
AcDbLayerTableRecord
  2
Layer162
 70
     0
 62
     7
  6
Continuous
370
    -3
390
F
  0
LAYER
  5
E8
330
2
100
AcDbSymbolTableRecord
100
AcDbLayerTableRecord
  2
Layer163
 70
     0
 62
     7
  6
Continuous
370
    -3
390
F
  0
LAYER
  5
E9
330
2
100
AcDbSymbolTableRecord
100
AcDbLayerTableRecord
  2
Layer164
 70
     0
 62
     7
  6
Continuous
370
    -3
390
F
  0
LAYER
  5
EA
330
2
100
AcDbSymbolTableRecord
100
AcDbLayerTableRecord
  2
Layer165
 70
     0
 62
     7
  6
Continuous
370
    -3
390
F
  0
LAYER
  5
EB
330
2
100
AcDbSymbolTableRecord
100
AcDbLayerTableRecord
  2
Layer166
 70
     0
 62
     7
  6
Continuous
370
    -3
390
F
  0
LAYER
  5
EC
330
2
100
AcDbSymbolTableRecord
100
AcDbLayerTableRecord
  2
Layer167
 70
     0
 62
     7
  6
Continuous
370
    -3
390
F
  0
LAYER
  5
ED
330
2
100
AcDbSymbolTableRecord
100
AcDbLayerTableRecord
  2
Layer168
 70
     0
 62
     7
  6
Continuous
370
    -3
390
F
  0
LAYER
  5
EE
330
2
100
AcDbSymbolTableRecord
100
AcDbLayerTableRecord
  2
Layer169
 70
     0
 62
     7
  6
Continuous
370
    -3
390
F
  0
LAYER
  5
EF
330
2
100
AcDbSymbolTableRecord
100
AcDbLayerTableRecord
  2
Layer170
 70
     0
 62
     7
  6
Continuous
370
    -3
390
F
  0
LAYER
  5
F0
330
2
100
AcDbSymbolTableRecord
100
AcDbLayerTableRecord
  2
Layer171
 70
     0
 62
     7
  6
Continuous
370
    -3
390
F
  0
LAYER
  5
F1
330
2
100
AcDbSymbolTableRecord
100
AcDbLayerTableRecord
  2
Layer172
 70
     0
 62
     7
  6
Continuous
370
    -3
390
F
  0
LAYER
  5
F2
330
2
100
AcDbSymbolTableRecord
100
AcDbLayerTableRecord
  2
Layer173
 70
     0
 62
     7
  6
Continuous
370
    -3
390
F
  0
LAYER
  5
F3
330
2
100
AcDbSymbolTableRecord
100
AcDbLayerTableRecord
  2
Layer174
 70
     0
 62
     7
  6
Continuous
370
    -3
390
F
  0
LAYER
  5
F4
330
2
100
AcDbSymbolTableRecord
100
AcDbLayerTableRecord
  2
Layer175
 70
     0
 62
     7
  6
Continuous
370
    -3
390
F
  0
LAYER
  5
F5
330
2
100
AcDbSymbolTableRecord
100
AcDbLayerTableRecord
  2
Layer176
 70
     0
 62
     7
  6
Continuous
370
    -3
390
F
  0
LAYER
  5
F6
330
2
100
AcDbSymbolTableRecord
100
AcDbLayerTableRecord
  2
Layer177
 70
     0
 62
     7
  6
Continuous
370
    -3
390
F
  0
LAYER
  5
F7
330
2
100
AcDbSymbolTableRecord
100
AcDbLayerTableRecord
  2
Layer178
 70
     0
 62
     7
  6
Continuous
370
    -3
390
F
  0
LAYER
  5
F8
330
2
100
AcDbSymbolTableRecord
100
AcDbLayerTableRecord
  2
Layer179
 70
     0
 62
     7
  6
Continuous
370
    -3
390
F
  0
LAYER
  5
F9
330
2
100
AcDbSymbolTableRecord
100
AcDbLayerTableRecord
  2
Layer180
 70
     0
 62
     7
  6
Continuous
370
    -3
390
F
  0
LAYER
  5
FA
330
2
100
AcDbSymbolTableRecord
100
AcDbLayerTableRecord
  2
Layer181
 70
     0
 62
     7
  6
Continuous
370
    -3
390
F
  0
LAYER
  5
FB
330
2
100
AcDbSymbolTableRecord
100
AcDbLayerTableRecord
  2
Layer182
 70
     0
 62
     7
  6
Continuous
370
    -3
390
F
  0
LAYER
  5
FC
330
2
100
AcDbSymbolTableRecord
100
AcDbLayerTableRecord
  2
Layer183
 70
     0
 62
     7
  6
Continuous
370
    -3
390
F
  0
LAYER
  5
FD
330
2
100
AcDbSymbolTableRecord
100
AcDbLayerTableRecord
  2
Layer184
 70
     0
 62
     7
  6
Continuous
370
    -3
390
F
  0
LAYER
  5
FE
330
2
100
AcDbSymbolTableRecord
100
AcDbLayerTableRecord
  2
Layer185
 70
     0
 62
     7
  6
Continuous
370
    -3
390
F
  0
LAYER
  5
FF
330
2
100
AcDbSymbolTableRecord
100
AcDbLayerTableRecord
  2
Layer186
 70
     0
 62
     7
  6
Continuous
370
    -3
390
F
  0
LAYER
  5
100
330
2
100
AcDbSymbolTableRecord
100
AcDbLayerTableRecord
  2
Layer187
 70
     0
 62
     7
  6
Continuous
370
    -3
390
F
  0
LAYER
  5
101
330
2
100
AcDbSymbolTableRecord
100
AcDbLayerTableRecord
  2
Layer188
 70
     0
 62
     7
  6
Continuous
370
    -3
390
F
  0
LAYER
  5
102
330
2
100
AcDbSymbolTableRecord
100
AcDbLayerTableRecord
  2
Layer189
 70
     0
 62
     7
  6
Continuous
370
    -3
390
F
  0
LAYER
  5
103
330
2
100
AcDbSymbolTableRecord
100
AcDbLayerTableRecord
  2
Layer190
 70
     0
 62
     7
  6
Continuous
370
    -3
390
F
  0
LAYER
  5
104
330
2
100
AcDbSymbolTableRecord
100
AcDbLayerTableRecord
  2
Layer191
 70
     0
 62
     7
  6
Continuous
370
    -3
390
F
  0
LAYER
  5
105
330
2
100
AcDbSymbolTableRecord
100
AcDbLayerTableRecord
  2
Layer192
 70
     0
 62
     7
  6
Continuous
370
    -3
390
F
  0
LAYER
  5
106
330
2
100
AcDbSymbolTableRecord
100
AcDbLayerTableRecord
  2
Layer193
 70
     0
 62
     7
  6
Continuous
370
    -3
390
F
  0
LAYER
  5
107
330
2
100
AcDbSymbolTableRecord
100
AcDbLayerTableRecord
  2
Layer194
 70
     0
 62
     7
  6
Continuous
370
    -3
390
F
  0
LAYER
  5
108
330
2
100
AcDbSymbolTableRecord
100
AcDbLayerTableRecord
  2
Layer195
 70
     0
 62
     7
  6
Continuous
370
    -3
390
F
  0
LAYER
  5
109
330
2
100
AcDbSymbolTableRecord
100
AcDbLayerTableRecord
  2
Layer196
 70
     0
 62
     7
  6
Continuous
370
    -3
390
F
  0
LAYER
  5
10A
330
2
100
AcDbSymbolTableRecord
100
AcDbLayerTableRecord
  2
Layer197
 70
     0
 62
     7
  6
Continuous
370
    -3
390
F
  0
LAYER
  5
10B
330
2
100
AcDbSymbolTableRecord
100
AcDbLayerTableRecord
  2
Layer198
 70
     0
 62
     7
  6
Continuous
370
    -3
390
F
  0
LAYER
  5
10C
330
2
100
AcDbSymbolTableRecord
100
AcDbLayerTableRecord
  2
Layer199
 70
     0
 62
     7
  6
Continuous
370
    -3
390
F
  0
LAYER
  5
10D
330
2
100
AcDbSymbolTableRecord
100
AcDbLayerTableRecord
  2
Layer200
 70
     0
 62
    -7
  6
Continuous
370
    -3
390
F
  0
LAYER
  5
10E
330
2
100
AcDbSymbolTableRecord
100
AcDbLayerTableRecord
  2
Layer201
 70
     0
 62
     7
  6
Continuous
370
    -3
390
F
  0
LAYER
  5
10F
330
2
100
AcDbSymbolTableRecord
100
AcDbLayerTableRecord
  2
Layer202
 70
     0
 62
     7
  6
Continuous
370
    -3
390
F
  0
LAYER
  5
110
330
2
100
AcDbSymbolTableRecord
100
AcDbLayerTableRecord
  2
Layer203
 70
     0
 62
     7
  6
Continuous
370
    -3
390
F
  0
LAYER
  5
111
330
2
100
AcDbSymbolTableRecord
100
AcDbLayerTableRecord
  2
Layer204
 70
     0
 62
     7
  6
Continuous
370
    -3
390
F
  0
LAYER
  5
112
330
2
100
AcDbSymbolTableRecord
100
AcDbLayerTableRecord
  2
Layer205
 70
     0
 62
     7
  6
Continuous
370
    -3
390
F
  0
LAYER
  5
113
330
2
100
AcDbSymbolTableRecord
100
AcDbLayerTableRecord
  2
Layer206
 70
     0
 62
     7
  6
Continuous
370
    -3
390
F
  0
LAYER
  5
114
330
2
100
AcDbSymbolTableRecord
100
AcDbLayerTableRecord
  2
Layer207
 70
     0
 62
     7
  6
Continuous
370
    -3
390
F
  0
LAYER
  5
115
330
2
100
AcDbSymbolTableRecord
100
AcDbLayerTableRecord
  2
Layer208
 70
     0
 62
     7
  6
Continuous
370
    -3
390
F
  0
LAYER
  5
116
330
2
100
AcDbSymbolTableRecord
100
AcDbLayerTableRecord
  2
Layer209
 70
     0
 62
     7
  6
Continuous
370
    -3
390
F
  0
LAYER
  5
117
330
2
100
AcDbSymbolTableRecord
100
AcDbLayerTableRecord
  2
Layer210
 70
     0
 62
     7
  6
Continuous
370
    -3
390
F
  0
LAYER
  5
118
330
2
100
AcDbSymbolTableRecord
100
AcDbLayerTableRecord
  2
Layer211
 70
     0
 62
     7
  6
Continuous
370
    -3
390
F
  0
LAYER
  5
119
330
2
100
AcDbSymbolTableRecord
100
AcDbLayerTableRecord
  2
Layer212
 70
     0
 62
     7
  6
Continuous
370
    -3
390
F
  0
LAYER
  5
11A
330
2
100
AcDbSymbolTableRecord
100
AcDbLayerTableRecord
  2
Layer213
 70
     0
 62
     7
  6
Continuous
370
    -3
390
F
  0
LAYER
  5
11B
330
2
100
AcDbSymbolTableRecord
100
AcDbLayerTableRecord
  2
Layer214
 70
     0
 62
     7
  6
Continuous
370
    -3
390
F
  0
LAYER
  5
11C
330
2
100
AcDbSymbolTableRecord
100
AcDbLayerTableRecord
  2
Layer215
 70
     0
 62
     7
  6
Continuous
370
    -3
390
F
  0
LAYER
  5
11D
330
2
100
AcDbSymbolTableRecord
100
AcDbLayerTableRecord
  2
Layer216
 70
     0
 62
     7
  6
Continuous
370
    -3
390
F
  0
LAYER
  5
11E
330
2
100
AcDbSymbolTableRecord
100
AcDbLayerTableRecord
  2
Layer217
 70
     0
 62
     7
  6
Continuous
370
    -3
390
F
  0
LAYER
  5
11F
330
2
100
AcDbSymbolTableRecord
100
AcDbLayerTableRecord
  2
Layer218
 70
     0
 62
     7
  6
Continuous
370
    -3
390
F
  0
LAYER
  5
120
330
2
100
AcDbSymbolTableRecord
100
AcDbLayerTableRecord
  2
Layer219
 70
     0
 62
     7
  6
Continuous
370
    -3
390
F
  0
LAYER
  5
121
330
2
100
AcDbSymbolTableRecord
100
AcDbLayerTableRecord
  2
Layer220
 70
     0
 62
     7
  6
Continuous
370
    -3
390
F
  0
LAYER
  5
122
330
2
100
AcDbSymbolTableRecord
100
AcDbLayerTableRecord
  2
Layer221
 70
     0
 62
     7
  6
Continuous
370
    -3
390
F
  0
LAYER
  5
123
330
2
100
AcDbSymbolTableRecord
100
AcDbLayerTableRecord
  2
Layer222
 70
     0
 62
     7
  6
Continuous
370
    -3
390
F
  0
LAYER
  5
124
330
2
100
AcDbSymbolTableRecord
100
AcDbLayerTableRecord
  2
Layer223
 70
     0
 62
     7
  6
Continuous
370
    -3
390
F
  0
LAYER
  5
125
330
2
100
AcDbSymbolTableRecord
100
AcDbLayerTableRecord
  2
Layer224
 70
     0
 62
     7
  6
Continuous
370
    -3
390
F
  0
LAYER
  5
126
330
2
100
AcDbSymbolTableRecord
100
AcDbLayerTableRecord
  2
Layer225
 70
     0
 62
     7
  6
Continuous
370
    -3
390
F
  0
LAYER
  5
127
330
2
100
AcDbSymbolTableRecord
100
AcDbLayerTableRecord
  2
Layer226
 70
     0
 62
     7
  6
Continuous
370
    -3
390
F
  0
LAYER
  5
128
330
2
100
AcDbSymbolTableRecord
100
AcDbLayerTableRecord
  2
Layer227
 70
     0
 62
     7
  6
Continuous
370
    -3
390
F
  0
LAYER
  5
129
330
2
100
AcDbSymbolTableRecord
100
AcDbLayerTableRecord
  2
Layer228
 70
     0
 62
     7
  6
Continuous
370
    -3
390
F
  0
LAYER
  5
12A
330
2
100
AcDbSymbolTableRecord
100
AcDbLayerTableRecord
  2
Layer229
 70
     0
 62
     7
  6
Continuous
370
    -3
390
F
  0
LAYER
  5
12B
330
2
100
AcDbSymbolTableRecord
100
AcDbLayerTableRecord
  2
Layer230
 70
     0
 62
     7
  6
Continuous
370
    -3
390
F
  0
LAYER
  5
12C
330
2
100
AcDbSymbolTableRecord
100
AcDbLayerTableRecord
  2
Layer231
 70
     0
 62
     7
  6
Continuous
370
    -3
390
F
  0
LAYER
  5
12D
330
2
100
AcDbSymbolTableRecord
100
AcDbLayerTableRecord
  2
Layer232
 70
     0
 62
     7
  6
Continuous
370
    -3
390
F
  0
LAYER
  5
12E
330
2
100
AcDbSymbolTableRecord
100
AcDbLayerTableRecord
  2
Layer233
 70
     0
 62
     7
  6
Continuous
370
    -3
390
F
  0
LAYER
  5
12F
330
2
100
AcDbSymbolTableRecord
100
AcDbLayerTableRecord
  2
Layer234
 70
     0
 62
     7
  6
Continuous
370
    -3
390
F
  0
LAYER
  5
130
330
2
100
AcDbSymbolTableRecord
100
AcDbLayerTableRecord
  2
Layer235
 70
     0
 62
     7
  6
Continuous
370
    -3
390
F
  0
LAYER
  5
131
330
2
100
AcDbSymbolTableRecord
100
AcDbLayerTableRecord
  2
Layer236
 70
     0
 62
     7
  6
Continuous
370
    -3
390
F
  0
LAYER
  5
132
330
2
100
AcDbSymbolTableRecord
100
AcDbLayerTableRecord
  2
Layer237
 70
     0
 62
     7
  6
Continuous
370
    -3
390
F
  0
LAYER
  5
133
330
2
100
AcDbSymbolTableRecord
100
AcDbLayerTableRecord
  2
Layer238
 70
     0
 62
     7
  6
Continuous
370
    -3
390
F
  0
LAYER
  5
134
330
2
100
AcDbSymbolTableRecord
100
AcDbLayerTableRecord
  2
Layer239
 70
     0
 62
     7
  6
Continuous
370
    -3
390
F
  0
LAYER
  5
135
330
2
100
AcDbSymbolTableRecord
100
AcDbLayerTableRecord
  2
Layer240
 70
     0
 62
     7
  6
Continuous
370
    -3
390
F
  0
LAYER
  5
136
330
2
100
AcDbSymbolTableRecord
100
AcDbLayerTableRecord
  2
Layer241
 70
     0
 62
     7
  6
Continuous
370
    -3
390
F
  0
LAYER
  5
137
330
2
100
AcDbSymbolTableRecord
100
AcDbLayerTableRecord
  2
Layer242
 70
     0
 62
     7
  6
Continuous
370
    -3
390
F
  0
LAYER
  5
138
330
2
100
AcDbSymbolTableRecord
100
AcDbLayerTableRecord
  2
Layer243
 70
     0
 62
     7
  6
Continuous
370
    -3
390
F
  0
LAYER
  5
139
330
2
100
AcDbSymbolTableRecord
100
AcDbLayerTableRecord
  2
Layer244
 70
     0
 62
     7
  6
Continuous
370
    -3
390
F
  0
LAYER
  5
13A
330
2
100
AcDbSymbolTableRecord
100
AcDbLayerTableRecord
  2
Layer245
 70
     0
 62
     7
  6
Continuous
370
    -3
390
F
  0
LAYER
  5
13B
330
2
100
AcDbSymbolTableRecord
100
AcDbLayerTableRecord
  2
Layer246
 70
     0
 62
     7
  6
Continuous
370
    -3
390
F
  0
LAYER
  5
13C
330
2
100
AcDbSymbolTableRecord
100
AcDbLayerTableRecord
  2
Layer247
 70
     0
 62
     7
  6
Continuous
370
    -3
390
F
  0
LAYER
  5
13D
330
2
100
AcDbSymbolTableRecord
100
AcDbLayerTableRecord
  2
Layer248
 70
     0
 62
     7
  6
Continuous
370
    -3
390
F
  0
LAYER
  5
13E
330
2
100
AcDbSymbolTableRecord
100
AcDbLayerTableRecord
  2
Layer249
 70
     0
 62
     7
  6
Continuous
370
    -3
390
F
  0
LAYER
  5
13F
330
2
100
AcDbSymbolTableRecord
100
AcDbLayerTableRecord
  2
Layer250
 70
     0
 62
     7
  6
Continuous
370
    -3
390
F
  0
LAYER
  5
140
330
2
100
AcDbSymbolTableRecord
100
AcDbLayerTableRecord
  2
Layer251
 70
     0
 62
     7
  6
Continuous
370
    -3
390
F
  0
LAYER
  5
141
330
2
100
AcDbSymbolTableRecord
100
AcDbLayerTableRecord
  2
Layer252
 70
     0
 62
     7
  6
Continuous
370
    -3
390
F
  0
LAYER
  5
142
330
2
100
AcDbSymbolTableRecord
100
AcDbLayerTableRecord
  2
Layer253
 70
     0
 62
     7
  6
Continuous
370
    -3
390
F
  0
LAYER
  5
143
330
2
100
AcDbSymbolTableRecord
100
AcDbLayerTableRecord
  2
Layer254
 70
     0
 62
     7
  6
Continuous
370
    -3
390
F
  0
LAYER
  5
144
330
2
100
AcDbSymbolTableRecord
100
AcDbLayerTableRecord
  2
Layer255
 70
     0
 62
     7
  6
Continuous
370
    -3
390
F
  0
ENDTAB
  0
TABLE
  2
STYLE
  5
3
330
0
100
AcDbSymbolTable
 70
     4
  0
STYLE
  5
11
330
3
100
AcDbSymbolTableRecord
100
AcDbTextStyleTableRecord
  2
Standard
 70
     0
 40
0.0
 41
1.0
 50
0.0
 71
     0
 42
2.5
  3
txt
  4

  0
STYLE
  5
42
330
3
100
AcDbSymbolTableRecord
100
AcDbTextStyleTableRecord
  2
Arial
 70
     0
 40
0.0
 41
1.0
 50
0.0
 71
     0
 42
0.2
  3
arial.ttf
  4

1001
ACAD
1000
Arial
1071
       34
  0
STYLE
  5
43
330
3
100
AcDbSymbolTableRecord
100
AcDbTextStyleTableRecord
  2
Arial Black
 70
     0
 40
0.0
 41
1.0
 50
0.0
 71
     0
 42
0.2
  3
ariblk.ttf
  4

1001
ACAD
1000
Arial Black
1071
       34
  0
STYLE
  5
44
330
3
100
AcDbSymbolTableRecord
100
AcDbTextStyleTableRecord
  2
Toleranzfont
 70
     0
 40
0.0
 41
1.0
 50
0.0
 71
     0
 42
0.2
  3
IGES1003.SHX
  4

  0
ENDTAB
  0
TABLE
  2
VIEW
  5
6
330
0
100
AcDbSymbolTable
 70
     0
  0
ENDTAB
  0
TABLE
  2
UCS
  5
7
330
0
100
AcDbSymbolTable
 70
     0
  0
ENDTAB
  0
TABLE
  2
APPID
  5
9
330
0
100
AcDbSymbolTable
 70
     1
  0
APPID
  5
12
330
9
100
AcDbSymbolTableRecord
100
AcDbRegAppTableRecord
  2
ACAD
 70
     0
  0
ENDTAB
  0
TABLE
  2
DIMSTYLE
  5
A
330
0
100
AcDbSymbolTable
 70
     1
100
AcDbDimStyleTable
  0
DIMSTYLE
105
27
102
{ACAD_REACTORS
330
4A5
330
4C3
330
4D5
330
550
102
}
330
A
100
AcDbSymbolTableRecord
100
AcDbDimStyleTableRecord
  2
ISO-25
 70
     0
 41
2.5
 42
0.625
 43
3.75
 44
1.25
 73
     0
 74
     0
 77
     1
 78
     8
140
2.5
141
2.5
143
0.03937007874
147
0.625
171
     3
172
     1
178
     0
271
     2
272
     2
274
     3
278
    44
283
     0
284
     8
340
11
  0
ENDTAB
  0
TABLE
  2
BLOCK_RECORD
  5
1
330
0
100
AcDbSymbolTable
 70
    13
  0
BLOCK_RECORD
  5
1F
330
1
100
AcDbSymbolTableRecord
100
AcDbBlockTableRecord
  2
*Model_Space
340
22
  0
BLOCK_RECORD
  5
1B
330
1
100
AcDbSymbolTableRecord
100
AcDbBlockTableRecord
  2
*Paper_Space
340
1E
  0
BLOCK_RECORD
  5
23
330
1
100
AcDbSymbolTableRecord
100
AcDbBlockTableRecord
  2
*Paper_Space0
340
26
  0
BLOCK_RECORD
  5
147
330
1
100
AcDbSymbolTableRecord
100
AcDbBlockTableRecord
  2
SECHSK1_nNn00
340
0
102
{BLKREFS
331
486
102
}
  0
BLOCK_RECORD
  5
498
330
1
100
AcDbSymbolTableRecord
100
AcDbBlockTableRecord
  2
*D2
340
0
  0
BLOCK_RECORD
  5
4A6
330
1
100
AcDbSymbolTableRecord
100
AcDbBlockTableRecord
  2
_CLOSED
340
0
  0
BLOCK_RECORD
  5
4B4
330
1
100
AcDbSymbolTableRecord
100
AcDbBlockTableRecord
  2
*D4
340
0
  0
BLOCK_RECORD
  5
4C8
330
1
100
AcDbSymbolTableRecord
100
AcDbBlockTableRecord
  2
*D5
340
0
  0
BLOCK_RECORD
  5
4D6
330
1
100
AcDbSymbolTableRecord
100
AcDbBlockTableRecord
  2
L1_nNn04
340
0
102
{BLKREFS
331
534
102
}
  0
BLOCK_RECORD
  5
4D9
330
1
100
AcDbSymbolTableRecord
100
AcDbBlockTableRecord
  2
Schriftfeld_nNn05
340
0
102
{BLKREFS
331
524
102
}
  0
BLOCK_RECORD
  5
505
330
1
100
AcDbSymbolTableRecord
100
AcDbBlockTableRecord
  2
ULTRAREFLEX_nNn06
340
0
102
{BLKREFS
331
51D
102
}
  0
BLOCK_RECORD
  5
52A
330
1
100
AcDbSymbolTableRecord
100
AcDbBlockTableRecord
  2
A4_nNn07
340
0
102
{BLKREFS
331
533
102
}
  0
BLOCK_RECORD
  5
535
330
1
100
AcDbSymbolTableRecord
100
AcDbBlockTableRecord
  2
QS_nNn08
340
0
102
{BLKREFS
331
53B
102
}
  0
BLOCK_RECORD
  5
53C
330
1
100
AcDbSymbolTableRecord
100
AcDbBlockTableRecord
  2
*D11
340
0
  0
BLOCK_RECORD
  5
551
330
1
100
AcDbSymbolTableRecord
100
AcDbBlockTableRecord
  2
L1_nNn010
340
0
102
{BLKREFS
331
556
102
}
  0
ENDTAB
  0
ENDSEC
  0
SECTION
  2
BLOCKS
  0
BLOCK
  5
20
330
1F
100
AcDbEntity
  8
0
100
AcDbBlockBegin
  2
*Model_Space
 70
     0
 10
0.0
 20
0.0
 30
0.0
  3
*Model_Space
  1

  0
ENDBLK
  5
21
330
1F
100
AcDbEntity
  8
0
100
AcDbBlockEnd
  0
BLOCK
  5
1C
330
1B
100
AcDbEntity
 67
     1
  8
0
100
AcDbBlockBegin
  2
*Paper_Space
 70
     0
 10
0.0
 20
0.0
 30
0.0
  3
*Paper_Space
  1

  0
ENDBLK
  5
1D
330
1B
100
AcDbEntity
 67
     1
  8
0
100
AcDbBlockEnd
  0
BLOCK
  5
24
330
23
100
AcDbEntity
  8
0
100
AcDbBlockBegin
  2
*Paper_Space0
 70
     0
 10
0.0
 20
0.0
 30
0.0
  3
*Paper_Space0
  1

  0
ENDBLK
  5
25
330
23
100
AcDbEntity
  8
0
100
AcDbBlockEnd
  0
BLOCK
  5
148
330
147
100
AcDbEntity
  8
0
100
AcDbBlockBegin
  2
SECHSK1_nNn00
 70
     0
 10
0.0
 20
0.0
 30
0.0
  3
SECHSK1_nNn00
  1

  0
LINE
  5
14A
330
147
100
AcDbEntity
  8
Stammform
  6
AUSGEZOGEN
 62
    56
370
    18
100
AcDbLine
 10
81.107347183197
 20
88.551163095431
 30
0.0
 11
81.75175743103
 21
88.551163095431
 31
0.0
  0
LINE
  5
14B
330
147
100
AcDbEntity
  8
Layer0
  6
AUSGEZOGEN
 62
     9
370
    18
100
AcDbLine
 10
81.297174840287
 20
87.763803425611
 30
0.0
 11
81.75175743103
 21
88.551163095431
 31
0.0
  0
LINE
  5
14C
330
147
100
AcDbEntity
  8
Layer0
  6
AUSGEZOGEN
 62
     9
370
    18
100
AcDbLine
 10
81.75175743103
 20
88.551163095431
 30
0.0
 11
81.087804222107
 21
89.701163095431
 31
0.0
  0
LINE
  5
14D
330
147
100
AcDbEntity
  8
Layer0
  6
AUSGEZOGEN
 62
     9
370
    18
100
AcDbLine
 10
81.087804222107
 20
89.701163095431
 30
0.0
 11
80.932644473274
 21
89.701163095431
 31
0.0
  0
LINE
  5
14E
330
147
100
AcDbEntity
  8
Layer0
  6
AUSGEZOGEN
 62
     9
370
    18
100
AcDbLine
 10
80.932644473274
 20
92.001163095431
 30
0.0
 11
81.087804222107
 21
92.001163095431
 31
0.0
  0
LINE
  5
14F
330
147
100
AcDbEntity
  8
Layer0
  6
AUSGEZOGEN
 62
     9
370
    18
100
AcDbLine
 10
81.087804222107
 20
92.001163095431
 30
0.0
 11
81.75175743103
 21
93.151163095431
 31
0.0
  0
LINE
  5
150
330
147
100
AcDbEntity
  8
Layer0
  6
AUSGEZOGEN
 62
     9
370
    18
100
AcDbLine
 10
81.75175743103
 20
93.151163095431
 30
0.0
 11
81.297174840287
 21
93.938522765252
 31
0.0
  0
LINE
  5
151
330
147
100
AcDbEntity
  8
Stammform
  6
AUSGEZOGEN
 62
    56
370
    18
100
AcDbLine
 10
81.107347183197
 20
93.151163095431
 30
0.0
 11
81.75175743103
 21
93.151163095431
 31
0.0
  0
LINE
  5
152
330
147
100
AcDbEntity
  8
Stammform
  6
AUSGEZOGEN
 62
    56
370
    18
100
AcDbLine
 10
80.423851013184
 20
90.851163095431
 30
0.0
 11
81.75175743103
 21
90.851163095431
 31
0.0
  0
LINE
  5
153
330
147
100
AcDbEntity
  8
Layer0
  6
AUSGEZOGEN
 62
     9
370
    18
100
AcDbLine
 10
81.087804222107
 20
89.701163095431
 30
0.0
 11
81.75175743103
 21
90.851163095431
 31
0.0
  0
LINE
  5
154
330
147
100
AcDbEntity
  8
Layer0
  6
AUSGEZOGEN
 62
     9
370
    18
100
AcDbLine
 10
81.75175743103
 20
90.851163095431
 30
0.0
 11
81.087804222107
 21
92.001163095431
 31
0.0
  0
LINE
  5
155
330
147
100
AcDbEntity
  8
Layer0
  6
AUSGEZOGEN
 62
     9
370
    18
100
AcDbLine
 10
83.743612670898
 20
87.401163095431
 30
0.0
 11
83.079659461975
 21
86.251163095431
 31
0.0
  0
LINE
  5
156
330
147
100
AcDbEntity
  8
Layer0
  6
AUSGEZOGEN
 62
     9
370
    18
100
AcDbLine
 10
83.079659461975
 20
86.251163095431
 30
0.0
 11
83.743612670898
 21
85.101163095431
 31
0.0
  0
LINE
  5
157
330
147
100
AcDbEntity
  8
Layer0
  6
AUSGEZOGEN
 62
     9
370
    18
100
AcDbLine
 10
83.743612670898
 20
85.101163095431
 30
0.0
 11
85.071519088745
 21
85.101163095431
 31
0.0
  0
LINE
  5
158
330
147
100
AcDbEntity
  8
Layer0
  6
AUSGEZOGEN
 62
     9
370
    18
100
AcDbLine
 10
85.071519088745
 20
85.101163095431
 30
0.0
 11
85.735472297668
 21
86.251163095431
 31
0.0
  0
LINE
  5
159
330
147
100
AcDbEntity
  8
Layer0
  6
AUSGEZOGEN
 62
     9
370
    18
100
AcDbLine
 10
85.735472297668
 20
86.251163095431
 30
0.0
 11
85.071519088745
 21
87.401163095431
 31
0.0
  0
LINE
  5
15A
330
147
100
AcDbEntity
  8
Layer0
  6
AUSGEZOGEN
 62
     9
370
    18
100
AcDbLine
 10
85.071519088745
 20
87.401163095431
 30
0.0
 11
83.743612670898
 21
87.401163095431
 31
0.0
  0
LINE
  5
15B
330
147
100
AcDbEntity
  8
Stammform
  6
AUSGEZOGEN
 62
    56
370
    18
100
AcDbLine
 10
83.743612670898
 20
87.401163095431
 30
0.0
 11
84.407565879822
 21
86.251163095431
 31
0.0
  0
LINE
  5
15C
330
147
100
AcDbEntity
  8
Stammform
  6
AUSGEZOGEN
 62
    56
370
    18
100
AcDbLine
 10
84.407565879822
 20
86.251163095431
 30
0.0
 11
85.735472297668
 21
86.251163095431
 31
0.0
  0
LINE
  5
15D
330
147
100
AcDbEntity
  8
Stammform
  6
AUSGEZOGEN
 62
    56
370
    18
100
AcDbLine
 10
84.407565879822
 20
86.251163095431
 30
0.0
 11
83.743612670898
 21
85.101163095431
 31
0.0
  0
LINE
  5
15E
330
147
100
AcDbEntity
  8
Stammform
  6
AUSGEZOGEN
 62
    56
370
    18
100
AcDbLine
 10
84.407565879822
 20
88.551163095431
 30
0.0
 11
83.743612670898
 21
87.401163095431
 31
0.0
  0
LINE
  5
15F
330
147
100
AcDbEntity
  8
Stammform
  6
AUSGEZOGEN
 62
    56
370
    18
100
AcDbLine
 10
84.407565879822
 20
88.551163095431
 30
0.0
 11
85.735472297668
 21
88.551163095431
 31
0.0
  0
LINE
  5
160
330
147
100
AcDbEntity
  8
Stammform
  6
AUSGEZOGEN
 62
    56
370
    18
100
AcDbLine
 10
83.743612670898
 20
89.701163095431
 30
0.0
 11
84.407565879822
 21
88.551163095431
 31
0.0
  0
LINE
  5
161
330
147
100
AcDbEntity
  8
Layer0
  6
AUSGEZOGEN
 62
     9
370
    18
100
AcDbLine
 10
83.743612670898
 20
89.701163095431
 30
0.0
 11
83.079659461975
 21
88.551163095431
 31
0.0
  0
LINE
  5
162
330
147
100
AcDbEntity
  8
Layer0
  6
AUSGEZOGEN
 62
     9
370
    18
100
AcDbLine
 10
83.079659461975
 20
88.551163095431
 30
0.0
 11
83.743612670898
 21
87.401163095431
 31
0.0
  0
LINE
  5
163
330
147
100
AcDbEntity
  8
Layer0
  6
AUSGEZOGEN
 62
     9
370
    18
100
AcDbLine
 10
83.743612670898
 20
87.401163095431
 30
0.0
 11
85.071519088745
 21
87.401163095431
 31
0.0
  0
LINE
  5
164
330
147
100
AcDbEntity
  8
Layer0
  6
AUSGEZOGEN
 62
     9
370
    18
100
AcDbLine
 10
85.071519088745
 20
87.401163095431
 30
0.0
 11
85.735472297668
 21
88.551163095431
 31
0.0
  0
LINE
  5
165
330
147
100
AcDbEntity
  8
Layer0
  6
AUSGEZOGEN
 62
     9
370
    18
100
AcDbLine
 10
85.735472297668
 20
88.551163095431
 30
0.0
 11
85.071519088745
 21
89.701163095431
 31
0.0
  0
LINE
  5
166
330
147
100
AcDbEntity
  8
Layer0
  6
AUSGEZOGEN
 62
     9
370
    18
100
AcDbLine
 10
85.071519088745
 20
89.701163095431
 30
0.0
 11
83.743612670898
 21
89.701163095431
 31
0.0
  0
LINE
  5
167
330
147
100
AcDbEntity
  8
Layer0
  6
AUSGEZOGEN
 62
     9
370
    18
100
AcDbLine
 10
83.743612670898
 20
94.301163095431
 30
0.0
 11
83.079659461975
 21
93.151163095431
 31
0.0
  0
LINE
  5
168
330
147
100
AcDbEntity
  8
Layer0
  6
AUSGEZOGEN
 62
     9
370
    18
100
AcDbLine
 10
83.079659461975
 20
93.151163095431
 30
0.0
 11
83.743612670898
 21
92.001163095431
 31
0.0
  0
LINE
  5
169
330
147
100
AcDbEntity
  8
Layer0
  6
AUSGEZOGEN
 62
     9
370
    18
100
AcDbLine
 10
83.743612670898
 20
92.001163095431
 30
0.0
 11
85.071519088745
 21
92.001163095431
 31
0.0
  0
LINE
  5
16A
330
147
100
AcDbEntity
  8
Layer0
  6
AUSGEZOGEN
 62
     9
370
    18
100
AcDbLine
 10
85.071519088745
 20
92.001163095431
 30
0.0
 11
85.735472297668
 21
93.151163095431
 31
0.0
  0
LINE
  5
16B
330
147
100
AcDbEntity
  8
Layer0
  6
AUSGEZOGEN
 62
     9
370
    18
100
AcDbLine
 10
85.735472297668
 20
93.151163095431
 30
0.0
 11
85.071519088745
 21
94.301163095431
 31
0.0
  0
LINE
  5
16C
330
147
100
AcDbEntity
  8
Layer0
  6
AUSGEZOGEN
 62
     9
370
    18
100
AcDbLine
 10
85.071519088745
 20
94.301163095431
 30
0.0
 11
83.743612670898
 21
94.301163095431
 31
0.0
  0
LINE
  5
16D
330
147
100
AcDbEntity
  8
Stammform
  6
AUSGEZOGEN
 62
    56
370
    18
100
AcDbLine
 10
83.743612670898
 20
94.301163095431
 30
0.0
 11
84.407565879822
 21
93.151163095431
 31
0.0
  0
LINE
  5
16E
330
147
100
AcDbEntity
  8
Stammform
  6
AUSGEZOGEN
 62
    56
370
    18
100
AcDbLine
 10
84.407565879822
 20
93.151163095431
 30
0.0
 11
85.735472297668
 21
93.151163095431
 31
0.0
  0
LINE
  5
16F
330
147
100
AcDbEntity
  8
Stammform
  6
AUSGEZOGEN
 62
    56
370
    18
100
AcDbLine
 10
84.407565879822
 20
93.151163095431
 30
0.0
 11
83.743612670898
 21
92.001163095431
 31
0.0
  0
LINE
  5
170
330
147
100
AcDbEntity
  8
Stammform
  6
AUSGEZOGEN
 62
    56
370
    18
100
AcDbLine
 10
84.407565879822
 20
90.851163095431
 30
0.0
 11
83.743612670898
 21
89.701163095431
 31
0.0
  0
LINE
  5
171
330
147
100
AcDbEntity
  8
Stammform
  6
AUSGEZOGEN
 62
    56
370
    18
100
AcDbLine
 10
84.407565879822
 20
90.851163095431
 30
0.0
 11
85.735472297668
 21
90.851163095431
 31
0.0
  0
LINE
  5
172
330
147
100
AcDbEntity
  8
Stammform
  6
AUSGEZOGEN
 62
    56
370
    18
100
AcDbLine
 10
83.743612670898
 20
92.001163095431
 30
0.0
 11
84.407565879822
 21
90.851163095431
 31
0.0
  0
LINE
  5
173
330
147
100
AcDbEntity
  8
Layer0
  6
AUSGEZOGEN
 62
     9
370
    18
100
AcDbLine
 10
83.743612670898
 20
92.001163095431
 30
0.0
 11
83.079659461975
 21
90.851163095431
 31
0.0
  0
LINE
  5
174
330
147
100
AcDbEntity
  8
Layer0
  6
AUSGEZOGEN
 62
     9
370
    18
100
AcDbLine
 10
83.079659461975
 20
90.851163095431
 30
0.0
 11
83.743612670898
 21
89.701163095431
 31
0.0
  0
LINE
  5
175
330
147
100
AcDbEntity
  8
Layer0
  6
AUSGEZOGEN
 62
     9
370
    18
100
AcDbLine
 10
83.743612670898
 20
89.701163095431
 30
0.0
 11
85.071519088745
 21
89.701163095431
 31
0.0
  0
LINE
  5
176
330
147
100
AcDbEntity
  8
Layer0
  6
AUSGEZOGEN
 62
     9
370
    18
100
AcDbLine
 10
85.071519088745
 20
89.701163095431
 30
0.0
 11
85.735472297668
 21
90.851163095431
 31
0.0
  0
LINE
  5
177
330
147
100
AcDbEntity
  8
Layer0
  6
AUSGEZOGEN
 62
     9
370
    18
100
AcDbLine
 10
85.735472297668
 20
90.851163095431
 30
0.0
 11
85.071519088745
 21
92.001163095431
 31
0.0
  0
LINE
  5
178
330
147
100
AcDbEntity
  8
Layer0
  6
AUSGEZOGEN
 62
     9
370
    18
100
AcDbLine
 10
85.071519088745
 20
92.001163095431
 30
0.0
 11
83.743612670898
 21
92.001163095431
 31
0.0
  0
LINE
  5
179
330
147
100
AcDbEntity
  8
Layer0
  6
AUSGEZOGEN
 62
     9
370
    18
100
AcDbLine
 10
83.743612670898
 20
96.601163095431
 30
0.0
 11
85.071519088745
 21
96.601163095431
 31
0.0
  0
LINE
  5
17A
330
147
100
AcDbEntity
  8
Layer0
  6
AUSGEZOGEN
 62
     9
370
    18
100
AcDbLine
 10
85.071519088745
 20
96.601163095431
 30
0.0
 11
85.735472297668
 21
97.751163095431
 31
0.0
  0
LINE
  5
17B
330
147
100
AcDbEntity
  8
Layer0
  6
AUSGEZOGEN
 62
     9
370
    18
100
AcDbLine
 10
85.735472297668
 20
97.751163095431
 30
0.0
 11
85.071519088745
 21
98.901163095431
 31
0.0
  0
LINE
  5
17C
330
147
100
AcDbEntity
  8
Layer0
  6
AUSGEZOGEN
 62
     9
370
    18
100
AcDbLine
 10
85.071519088745
 20
98.901163095431
 30
0.0
 11
84.162357307176
 21
98.901163095431
 31
0.0
  0
LINE
  5
17D
330
147
100
AcDbEntity
  8
Stammform
  6
AUSGEZOGEN
 62
    56
370
    18
100
AcDbLine
 10
83.902061513342
 20
98.62672181499
 30
0.0
 11
84.407565879822
 21
97.751163095431
 31
0.0
  0
LINE
  5
17E
330
147
100
AcDbEntity
  8
Stammform
  6
AUSGEZOGEN
 62
    56
370
    18
100
AcDbLine
 10
84.407565879822
 20
97.751163095431
 30
0.0
 11
85.735472297668
 21
97.751163095431
 31
0.0
  0
LINE
  5
17F
330
147
100
AcDbEntity
  8
Stammform
  6
AUSGEZOGEN
 62
    56
370
    18
100
AcDbLine
 10
84.407565879822
 20
97.751163095431
 30
0.0
 11
83.743612670898
 21
96.601163095431
 31
0.0
  0
LINE
  5
180
330
147
100
AcDbEntity
  8
Stammform
  6
AUSGEZOGEN
 62
    56
370
    18
100
AcDbLine
 10
84.407565879822
 20
95.451163095431
 30
0.0
 11
83.743612670898
 21
94.301163095431
 31
0.0
  0
LINE
  5
181
330
147
100
AcDbEntity
  8
Stammform
  6
AUSGEZOGEN
 62
    56
370
    18
100
AcDbLine
 10
84.407565879822
 20
95.451163095431
 30
0.0
 11
85.735472297668
 21
95.451163095431
 31
0.0
  0
LINE
  5
182
330
147
100
AcDbEntity
  8
Stammform
  6
AUSGEZOGEN
 62
    56
370
    18
100
AcDbLine
 10
83.743612670898
 20
96.601163095431
 30
0.0
 11
84.407565879822
 21
95.451163095431
 31
0.0
  0
LINE
  5
183
330
147
100
AcDbEntity
  8
Layer0
  6
AUSGEZOGEN
 62
     9
370
    18
100
AcDbLine
 10
83.743612670898
 20
96.601163095431
 30
0.0
 11
83.079659461975
 21
95.451163095431
 31
0.0
  0
LINE
  5
184
330
147
100
AcDbEntity
  8
Layer0
  6
AUSGEZOGEN
 62
     9
370
    18
100
AcDbLine
 10
83.079659461975
 20
95.451163095431
 30
0.0
 11
83.743612670898
 21
94.301163095431
 31
0.0
  0
LINE
  5
185
330
147
100
AcDbEntity
  8
Layer0
  6
AUSGEZOGEN
 62
     9
370
    18
100
AcDbLine
 10
83.743612670898
 20
94.301163095431
 30
0.0
 11
85.071519088745
 21
94.301163095431
 31
0.0
  0
LINE
  5
186
330
147
100
AcDbEntity
  8
Layer0
  6
AUSGEZOGEN
 62
     9
370
    18
100
AcDbLine
 10
85.071519088745
 20
94.301163095431
 30
0.0
 11
85.735472297668
 21
95.451163095431
 31
0.0
  0
LINE
  5
187
330
147
100
AcDbEntity
  8
Layer0
  6
AUSGEZOGEN
 62
     9
370
    18
100
AcDbLine
 10
85.735472297668
 20
95.451163095431
 30
0.0
 11
85.071519088745
 21
96.601163095431
 31
0.0
  0
LINE
  5
188
330
147
100
AcDbEntity
  8
Layer0
  6
AUSGEZOGEN
 62
     9
370
    18
100
AcDbLine
 10
85.071519088745
 20
96.601163095431
 30
0.0
 11
83.743612670898
 21
96.601163095431
 31
0.0
  0
LINE
  5
189
330
147
100
AcDbEntity
  8
Stammform
  6
AUSGEZOGEN
 62
    56
370
    18
100
AcDbLine
 10
85.475
 20
100.051163095431
 30
0.0
 11
85.735472297668
 21
100.051163095431
 31
0.0
  0
LINE
  5
18A
330
147
100
AcDbEntity
  8
Layer0
  6
AUSGEZOGEN
 62
     9
370
    18
100
AcDbLine
 10
85.071519088745
 20
98.901163095431
 30
0.0
 11
85.735472297668
 21
100.051163095431
 31
0.0
  0
LINE
  5
18B
330
147
100
AcDbEntity
  8
Layer0
  6
AUSGEZOGEN
 62
     9
370
    18
100
AcDbLine
 10
85.657893267212
 20
81.516792353901
 30
0.0
 11
85.735472297668
 21
81.651163095431
 31
0.0
  0
LINE
  5
18C
330
147
100
AcDbEntity
  8
Layer0
  6
AUSGEZOGEN
 62
     9
370
    18
100
AcDbLine
 10
85.735472297668
 20
81.651163095431
 30
0.0
 11
85.071519088745
 21
82.801163095431
 31
0.0
  0
LINE
  5
18D
330
147
100
AcDbEntity
  8
Layer0
  6
AUSGEZOGEN
 62
     9
370
    18
100
AcDbLine
 10
85.071519088745
 20
82.801163095431
 30
0.0
 11
84.162357307176
 21
82.801163095431
 31
0.0
  0
LINE
  5
18E
330
147
100
AcDbEntity
  8
Stammform
  6
AUSGEZOGEN
 62
    56
370
    18
100
AcDbLine
 10
85.475
 20
81.651163095431
 30
0.0
 11
85.735472297668
 21
81.651163095431
 31
0.0
  0
LINE
  5
18F
330
147
100
AcDbEntity
  8
Stammform
  6
AUSGEZOGEN
 62
    56
370
    18
100
AcDbLine
 10
84.407565879822
 20
83.951163095431
 30
0.0
 11
83.902061513342
 21
83.075604375873
 31
0.0
  0
LINE
  5
190
330
147
100
AcDbEntity
  8
Stammform
  6
AUSGEZOGEN
 62
    56
370
    18
100
AcDbLine
 10
84.407565879822
 20
83.951163095431
 30
0.0
 11
85.735472297668
 21
83.951163095431
 31
0.0
  0
LINE
  5
191
330
147
100
AcDbEntity
  8
Stammform
  6
AUSGEZOGEN
 62
    56
370
    18
100
AcDbLine
 10
83.743612670898
 20
85.101163095431
 30
0.0
 11
84.407565879822
 21
83.951163095431
 31
0.0
  0
LINE
  5
192
330
147
100
AcDbEntity
  8
Layer0
  6
AUSGEZOGEN
 62
     9
370
    18
100
AcDbLine
 10
83.743612670898
 20
85.101163095431
 30
0.0
 11
83.121320431945
 21
84.023321968709
 31
0.0
  0
LINE
  5
193
330
147
100
AcDbEntity
  8
Layer0
  6
AUSGEZOGEN
 62
     9
370
    18
100
AcDbLine
 10
85.071519088745
 20
82.801163095431
 30
0.0
 11
85.735472297668
 21
83.951163095431
 31
0.0
  0
LINE
  5
194
330
147
100
AcDbEntity
  8
Layer0
  6
AUSGEZOGEN
 62
     9
370
    18
100
AcDbLine
 10
85.735472297668
 20
83.951163095431
 30
0.0
 11
85.071519088745
 21
85.101163095431
 31
0.0
  0
LINE
  5
195
330
147
100
AcDbEntity
  8
Layer0
  6
AUSGEZOGEN
 62
     9
370
    18
100
AcDbLine
 10
85.071519088745
 20
85.101163095431
 30
0.0
 11
83.743612670898
 21
85.101163095431
 31
0.0
  0
LINE
  5
196
330
147
100
AcDbEntity
  8
Layer0
  6
AUSGEZOGEN
 62
     9
370
    18
100
AcDbLine
 10
81.75175743103
 20
93.151163095431
 30
0.0
 11
83.079659461975
 21
93.151163095431
 31
0.0
  0
LINE
  5
197
330
147
100
AcDbEntity
  8
Layer0
  6
AUSGEZOGEN
 62
     9
370
    18
100
AcDbLine
 10
83.079659461975
 20
93.151163095431
 30
0.0
 11
83.743612670898
 21
94.301163095431
 31
0.0
  0
LINE
  5
198
330
147
100
AcDbEntity
  8
Layer0
  6
AUSGEZOGEN
 62
     9
370
    18
100
AcDbLine
 10
83.743612670898
 20
94.301163095431
 30
0.0
 11
83.079659461975
 21
95.451163095431
 31
0.0
  0
LINE
  5
199
330
147
100
AcDbEntity
  8
Layer0
  6
AUSGEZOGEN
 62
     9
370
    18
100
AcDbLine
 10
83.079659461975
 20
95.451163095431
 30
0.0
 11
81.835075901602
 21
95.451163095431
 31
0.0
  0
LINE
  5
19A
330
147
100
AcDbEntity
  8
Stammform
  6
AUSGEZOGEN
 62
    56
370
    18
100
AcDbLine
 10
81.799425605971
 20
95.368598898668
 30
0.0
 11
82.415706253052
 21
94.301163095431
 31
0.0
  0
LINE
  5
19B
330
147
100
AcDbEntity
  8
Stammform
  6
AUSGEZOGEN
 62
    56
370
    18
100
AcDbLine
 10
82.415706253052
 20
94.301163095431
 30
0.0
 11
83.743612670898
 21
94.301163095431
 31
0.0
  0
LINE
  5
19C
330
147
100
AcDbEntity
  8
Stammform
  6
AUSGEZOGEN
 62
    56
370
    18
100
AcDbLine
 10
82.415706253052
 20
94.301163095431
 30
0.0
 11
81.75175743103
 21
93.151163095431
 31
0.0
  0
LINE
  5
19D
330
147
100
AcDbEntity
  8
Stammform
  6
AUSGEZOGEN
 62
    56
370
    18
100
AcDbLine
 10
82.415707856479
 20
96.601163095431
 30
0.0
 11
83.743612670898
 21
96.601163095431
 31
0.0
  0
LINE
  5
19E
330
147
100
AcDbEntity
  8
Layer0
  6
AUSGEZOGEN
 62
     9
370
    18
100
AcDbLine
 10
83.079659461975
 20
95.451163095431
 30
0.0
 11
83.743612670898
 21
96.601163095431
 31
0.0
  0
LINE
  5
19F
330
147
100
AcDbEntity
  8
Layer0
  6
AUSGEZOGEN
 62
     9
370
    18
100
AcDbLine
 10
83.743612670898
 20
96.601163095431
 30
0.0
 11
83.121320431945
 21
97.679004222154
 31
0.0
  0
LINE
  5
1A0
330
147
100
AcDbEntity
  8
Layer0
  6
AUSGEZOGEN
 62
     9
370
    18
100
AcDbLine
 10
81.75175743103
 20
90.851163095431
 30
0.0
 11
81.087804222107
 21
89.701163095431
 31
0.0
  0
LINE
  5
1A1
330
147
100
AcDbEntity
  8
Layer0
  6
AUSGEZOGEN
 62
     9
370
    18
100
AcDbLine
 10
81.087804222107
 20
89.701163095431
 30
0.0
 11
81.75175743103
 21
88.551163095431
 31
0.0
  0
LINE
  5
1A2
330
147
100
AcDbEntity
  8
Layer0
  6
AUSGEZOGEN
 62
     9
370
    18
100
AcDbLine
 10
81.75175743103
 20
88.551163095431
 30
0.0
 11
83.079659461975
 21
88.551163095431
 31
0.0
  0
LINE
  5
1A3
330
147
100
AcDbEntity
  8
Layer0
  6
AUSGEZOGEN
 62
     9
370
    18
100
AcDbLine
 10
83.079659461975
 20
88.551163095431
 30
0.0
 11
83.743612670898
 21
89.701163095431
 31
0.0
  0
LINE
  5
1A4
330
147
100
AcDbEntity
  8
Layer0
  6
AUSGEZOGEN
 62
     9
370
    18
100
AcDbLine
 10
83.743612670898
 20
89.701163095431
 30
0.0
 11
83.079659461975
 21
90.851163095431
 31
0.0
  0
LINE
  5
1A5
330
147
100
AcDbEntity
  8
Layer0
  6
AUSGEZOGEN
 62
     9
370
    18
100
AcDbLine
 10
83.079659461975
 20
90.851163095431
 30
0.0
 11
81.75175743103
 21
90.851163095431
 31
0.0
  0
LINE
  5
1A6
330
147
100
AcDbEntity
  8
Stammform
  6
AUSGEZOGEN
 62
    56
370
    18
100
AcDbLine
 10
81.75175743103
 20
90.851163095431
 30
0.0
 11
82.415706253052
 21
89.701163095431
 31
0.0
  0
LINE
  5
1A7
330
147
100
AcDbEntity
  8
Stammform
  6
AUSGEZOGEN
 62
    56
370
    18
100
AcDbLine
 10
82.415706253052
 20
89.701163095431
 30
0.0
 11
83.743612670898
 21
89.701163095431
 31
0.0
  0
LINE
  5
1A8
330
147
100
AcDbEntity
  8
Stammform
  6
AUSGEZOGEN
 62
    56
370
    18
100
AcDbLine
 10
82.415706253052
 20
89.701163095431
 30
0.0
 11
81.75175743103
 21
88.551163095431
 31
0.0
  0
LINE
  5
1A9
330
147
100
AcDbEntity
  8
Stammform
  6
AUSGEZOGEN
 62
    56
370
    18
100
AcDbLine
 10
82.415706253052
 20
92.001163095431
 30
0.0
 11
81.75175743103
 21
90.851163095431
 31
0.0
  0
LINE
  5
1AA
330
147
100
AcDbEntity
  8
Stammform
  6
AUSGEZOGEN
 62
    56
370
    18
100
AcDbLine
 10
82.415706253052
 20
92.001163095431
 30
0.0
 11
83.743612670898
 21
92.001163095431
 31
0.0
  0
LINE
  5
1AB
330
147
100
AcDbEntity
  8
Stammform
  6
AUSGEZOGEN
 62
    56
370
    18
100
AcDbLine
 10
81.75175743103
 20
93.151163095431
 30
0.0
 11
82.415706253052
 21
92.001163095431
 31
0.0
  0
LINE
  5
1AC
330
147
100
AcDbEntity
  8
Layer0
  6
AUSGEZOGEN
 62
     9
370
    18
100
AcDbLine
 10
81.75175743103
 20
93.151163095431
 30
0.0
 11
81.087804222107
 21
92.001163095431
 31
0.0
  0
LINE
  5
1AD
330
147
100
AcDbEntity
  8
Layer0
  6
AUSGEZOGEN
 62
     9
370
    18
100
AcDbLine
 10
81.087804222107
 20
92.001163095431
 30
0.0
 11
81.75175743103
 21
90.851163095431
 31
0.0
  0
LINE
  5
1AE
330
147
100
AcDbEntity
  8
Layer0
  6
AUSGEZOGEN
 62
     9
370
    18
100
AcDbLine
 10
81.75175743103
 20
90.851163095431
 30
0.0
 11
83.079659461975
 21
90.851163095431
 31
0.0
  0
LINE
  5
1AF
330
147
100
AcDbEntity
  8
Layer0
  6
AUSGEZOGEN
 62
     9
370
    18
100
AcDbLine
 10
83.079659461975
 20
90.851163095431
 30
0.0
 11
83.743612670898
 21
92.001163095431
 31
0.0
  0
LINE
  5
1B0
330
147
100
AcDbEntity
  8
Layer0
  6
AUSGEZOGEN
 62
     9
370
    18
100
AcDbLine
 10
83.743612670898
 20
92.001163095431
 30
0.0
 11
83.079659461975
 21
93.151163095431
 31
0.0
  0
LINE
  5
1B1
330
147
100
AcDbEntity
  8
Layer0
  6
AUSGEZOGEN
 62
     9
370
    18
100
AcDbLine
 10
83.079659461975
 20
93.151163095431
 30
0.0
 11
81.75175743103
 21
93.151163095431
 31
0.0
  0
LINE
  5
1B2
330
147
100
AcDbEntity
  8
Layer0
  6
AUSGEZOGEN
 62
     9
370
    18
100
AcDbLine
 10
81.835075901602
 20
86.251163095431
 30
0.0
 11
83.079659461975
 21
86.251163095431
 31
0.0
  0
LINE
  5
1B3
330
147
100
AcDbEntity
  8
Layer0
  6
AUSGEZOGEN
 62
     9
370
    18
100
AcDbLine
 10
83.079659461975
 20
86.251163095431
 30
0.0
 11
83.743612670898
 21
87.401163095431
 31
0.0
  0
LINE
  5
1B4
330
147
100
AcDbEntity
  8
Layer0
  6
AUSGEZOGEN
 62
     9
370
    18
100
AcDbLine
 10
83.743612670898
 20
87.401163095431
 30
0.0
 11
83.079659461975
 21
88.551163095431
 31
0.0
  0
LINE
  5
1B5
330
147
100
AcDbEntity
  8
Layer0
  6
AUSGEZOGEN
 62
     9
370
    18
100
AcDbLine
 10
83.079659461975
 20
88.551163095431
 30
0.0
 11
81.75175743103
 21
88.551163095431
 31
0.0
  0
LINE
  5
1B6
330
147
100
AcDbEntity
  8
Stammform
  6
AUSGEZOGEN
 62
    56
370
    18
100
AcDbLine
 10
81.75175743103
 20
88.551163095431
 30
0.0
 11
82.415706253052
 21
87.401163095431
 31
0.0
  0
LINE
  5
1B7
330
147
100
AcDbEntity
  8
Stammform
  6
AUSGEZOGEN
 62
    56
370
    18
100
AcDbLine
 10
82.415706253052
 20
87.401163095431
 30
0.0
 11
83.743612670898
 21
87.401163095431
 31
0.0
  0
LINE
  5
1B8
330
147
100
AcDbEntity
  8
Stammform
  6
AUSGEZOGEN
 62
    56
370
    18
100
AcDbLine
 10
82.415706253052
 20
87.401163095431
 30
0.0
 11
81.799425605971
 21
86.333727292195
 31
0.0
  0
LINE
  5
1B9
330
147
100
AcDbEntity
  8
Stammform
  6
AUSGEZOGEN
 62
    56
370
    18
100
AcDbLine
 10
82.415706253052
 20
85.101163095431
 30
0.0
 11
83.743612670898
 21
85.101163095431
 31
0.0
  0
LINE
  5
1BA
330
147
100
AcDbEntity
  8
Layer0
  6
AUSGEZOGEN
 62
     9
370
    18
100
AcDbLine
 10
83.743612670898
 20
85.101163095431
 30
0.0
 11
83.079659461975
 21
86.251163095431
 31
0.0
  0
LINE
  5
1BB
330
147
100
AcDbEntity
  8
Layer0
  6
AUSGEZOGEN
 62
     9
370
    18
100
AcDbLine
 10
83.079659461975
 20
86.251163095431
 30
0.0
 11
81.75175743103
 21
86.251163095431
 31
0.0
  0
LINE
  5
1BC
330
147
100
AcDbEntity
  8
Layer0
  6
AUSGEZOGEN
 62
     9
370
    18
100
AcDbLine
 10
87.727331924438
 20
87.401163095431
 30
0.0
 11
87.063378715515
 21
86.251163095431
 31
0.0
  0
LINE
  5
1BD
330
147
100
AcDbEntity
  8
Layer0
  6
AUSGEZOGEN
 62
     9
370
    18
100
AcDbLine
 10
87.063378715515
 20
86.251163095431
 30
0.0
 11
87.727331924438
 21
85.101163095431
 31
0.0
  0
LINE
  5
1BE
330
147
100
AcDbEntity
  8
Layer0
  6
AUSGEZOGEN
 62
     9
370
    18
100
AcDbLine
 10
87.727331924438
 20
85.101163095431
 30
0.0
 11
89.055238342285
 21
85.101163095431
 31
0.0
  0
LINE
  5
1BF
330
147
100
AcDbEntity
  8
Layer0
  6
AUSGEZOGEN
 62
     9
370
    18
100
AcDbLine
 10
89.055238342285
 20
85.101163095431
 30
0.0
 11
89.719187164307
 21
86.251163095431
 31
0.0
  0
LINE
  5
1C0
330
147
100
AcDbEntity
  8
Layer0
  6
AUSGEZOGEN
 62
     9
370
    18
100
AcDbLine
 10
89.719187164307
 20
86.251163095431
 30
0.0
 11
89.055238342285
 21
87.401163095431
 31
0.0
  0
LINE
  5
1C1
330
147
100
AcDbEntity
  8
Layer0
  6
AUSGEZOGEN
 62
     9
370
    18
100
AcDbLine
 10
89.055238342285
 20
87.401163095431
 30
0.0
 11
87.727331924438
 21
87.401163095431
 31
0.0
  0
LINE
  5
1C2
330
147
100
AcDbEntity
  8
Stammform
  6
AUSGEZOGEN
 62
    56
370
    18
100
AcDbLine
 10
87.727331924438
 20
87.401163095431
 30
0.0
 11
88.391285133362
 21
86.251163095431
 31
0.0
  0
LINE
  5
1C3
330
147
100
AcDbEntity
  8
Stammform
  6
AUSGEZOGEN
 62
    56
370
    18
100
AcDbLine
 10
88.391285133362
 20
86.251163095431
 30
0.0
 11
89.719187164307
 21
86.251163095431
 31
0.0
  0
LINE
  5
1C4
330
147
100
AcDbEntity
  8
Stammform
  6
AUSGEZOGEN
 62
    56
370
    18
100
AcDbLine
 10
88.391285133362
 20
86.251163095431
 30
0.0
 11
87.727331924438
 21
85.101163095431
 31
0.0
  0
LINE
  5
1C5
330
147
100
AcDbEntity
  8
Stammform
  6
AUSGEZOGEN
 62
    56
370
    18
100
AcDbLine
 10
88.391285133362
 20
88.551163095431
 30
0.0
 11
87.727331924438
 21
87.401163095431
 31
0.0
  0
LINE
  5
1C6
330
147
100
AcDbEntity
  8
Stammform
  6
AUSGEZOGEN
 62
    56
370
    18
100
AcDbLine
 10
88.391285133362
 20
88.551163095431
 30
0.0
 11
89.719187164307
 21
88.551163095431
 31
0.0
  0
LINE
  5
1C7
330
147
100
AcDbEntity
  8
Stammform
  6
AUSGEZOGEN
 62
    56
370
    18
100
AcDbLine
 10
87.727331924438
 20
89.701163095431
 30
0.0
 11
88.391285133362
 21
88.551163095431
 31
0.0
  0
LINE
  5
1C8
330
147
100
AcDbEntity
  8
Layer0
  6
AUSGEZOGEN
 62
     9
370
    18
100
AcDbLine
 10
87.727331924438
 20
89.701163095431
 30
0.0
 11
87.063378715515
 21
88.551163095431
 31
0.0
  0
LINE
  5
1C9
330
147
100
AcDbEntity
  8
Layer0
  6
AUSGEZOGEN
 62
     9
370
    18
100
AcDbLine
 10
87.063378715515
 20
88.551163095431
 30
0.0
 11
87.727331924438
 21
87.401163095431
 31
0.0
  0
LINE
  5
1CA
330
147
100
AcDbEntity
  8
Layer0
  6
AUSGEZOGEN
 62
     9
370
    18
100
AcDbLine
 10
87.727331924438
 20
87.401163095431
 30
0.0
 11
89.055238342285
 21
87.401163095431
 31
0.0
  0
LINE
  5
1CB
330
147
100
AcDbEntity
  8
Layer0
  6
AUSGEZOGEN
 62
     9
370
    18
100
AcDbLine
 10
89.055238342285
 20
87.401163095431
 30
0.0
 11
89.719187164307
 21
88.551163095431
 31
0.0
  0
LINE
  5
1CC
330
147
100
AcDbEntity
  8
Layer0
  6
AUSGEZOGEN
 62
     9
370
    18
100
AcDbLine
 10
89.719187164307
 20
88.551163095431
 30
0.0
 11
89.055238342285
 21
89.701163095431
 31
0.0
  0
LINE
  5
1CD
330
147
100
AcDbEntity
  8
Layer0
  6
AUSGEZOGEN
 62
     9
370
    18
100
AcDbLine
 10
89.055238342285
 20
89.701163095431
 30
0.0
 11
87.727331924438
 21
89.701163095431
 31
0.0
  0
LINE
  5
1CE
330
147
100
AcDbEntity
  8
Layer0
  6
AUSGEZOGEN
 62
     9
370
    18
100
AcDbLine
 10
87.727331924438
 20
94.301163095431
 30
0.0
 11
87.063378715515
 21
93.151163095431
 31
0.0
  0
LINE
  5
1CF
330
147
100
AcDbEntity
  8
Layer0
  6
AUSGEZOGEN
 62
     9
370
    18
100
AcDbLine
 10
87.063378715515
 20
93.151163095431
 30
0.0
 11
87.727331924438
 21
92.001163095431
 31
0.0
  0
LINE
  5
1D0
330
147
100
AcDbEntity
  8
Layer0
  6
AUSGEZOGEN
 62
     9
370
    18
100
AcDbLine
 10
87.727331924438
 20
92.001163095431
 30
0.0
 11
89.055238342285
 21
92.001163095431
 31
0.0
  0
LINE
  5
1D1
330
147
100
AcDbEntity
  8
Layer0
  6
AUSGEZOGEN
 62
     9
370
    18
100
AcDbLine
 10
89.055238342285
 20
92.001163095431
 30
0.0
 11
89.719187164307
 21
93.151163095431
 31
0.0
  0
LINE
  5
1D2
330
147
100
AcDbEntity
  8
Layer0
  6
AUSGEZOGEN
 62
     9
370
    18
100
AcDbLine
 10
89.719187164307
 20
93.151163095431
 30
0.0
 11
89.055238342285
 21
94.301163095431
 31
0.0
  0
LINE
  5
1D3
330
147
100
AcDbEntity
  8
Layer0
  6
AUSGEZOGEN
 62
     9
370
    18
100
AcDbLine
 10
89.055238342285
 20
94.301163095431
 30
0.0
 11
87.727331924438
 21
94.301163095431
 31
0.0
  0
LINE
  5
1D4
330
147
100
AcDbEntity
  8
Stammform
  6
AUSGEZOGEN
 62
    56
370
    18
100
AcDbLine
 10
87.727331924438
 20
94.301163095431
 30
0.0
 11
88.391285133362
 21
93.151163095431
 31
0.0
  0
LINE
  5
1D5
330
147
100
AcDbEntity
  8
Stammform
  6
AUSGEZOGEN
 62
    56
370
    18
100
AcDbLine
 10
88.391285133362
 20
93.151163095431
 30
0.0
 11
89.719187164307
 21
93.151163095431
 31
0.0
  0
LINE
  5
1D6
330
147
100
AcDbEntity
  8
Stammform
  6
AUSGEZOGEN
 62
    56
370
    18
100
AcDbLine
 10
88.391285133362
 20
93.151163095431
 30
0.0
 11
87.727331924438
 21
92.001163095431
 31
0.0
  0
LINE
  5
1D7
330
147
100
AcDbEntity
  8
Stammform
  6
AUSGEZOGEN
 62
    56
370
    18
100
AcDbLine
 10
88.391285133362
 20
90.851163095431
 30
0.0
 11
87.727331924438
 21
89.701163095431
 31
0.0
  0
LINE
  5
1D8
330
147
100
AcDbEntity
  8
Stammform
  6
AUSGEZOGEN
 62
    56
370
    18
100
AcDbLine
 10
88.391285133362
 20
90.851163095431
 30
0.0
 11
89.719187164307
 21
90.851163095431
 31
0.0
  0
LINE
  5
1D9
330
147
100
AcDbEntity
  8
Stammform
  6
AUSGEZOGEN
 62
    56
370
    18
100
AcDbLine
 10
87.727331924438
 20
92.001163095431
 30
0.0
 11
88.391285133362
 21
90.851163095431
 31
0.0
  0
LINE
  5
1DA
330
147
100
AcDbEntity
  8
Layer0
  6
AUSGEZOGEN
 62
     9
370
    18
100
AcDbLine
 10
87.727331924438
 20
92.001163095431
 30
0.0
 11
87.063378715515
 21
90.851163095431
 31
0.0
  0
LINE
  5
1DB
330
147
100
AcDbEntity
  8
Layer0
  6
AUSGEZOGEN
 62
     9
370
    18
100
AcDbLine
 10
87.063378715515
 20
90.851163095431
 30
0.0
 11
87.727331924438
 21
89.701163095431
 31
0.0
  0
LINE
  5
1DC
330
147
100
AcDbEntity
  8
Layer0
  6
AUSGEZOGEN
 62
     9
370
    18
100
AcDbLine
 10
87.727331924438
 20
89.701163095431
 30
0.0
 11
89.055238342285
 21
89.701163095431
 31
0.0
  0
LINE
  5
1DD
330
147
100
AcDbEntity
  8
Layer0
  6
AUSGEZOGEN
 62
     9
370
    18
100
AcDbLine
 10
89.055238342285
 20
89.701163095431
 30
0.0
 11
89.719187164307
 21
90.851163095431
 31
0.0
  0
LINE
  5
1DE
330
147
100
AcDbEntity
  8
Layer0
  6
AUSGEZOGEN
 62
     9
370
    18
100
AcDbLine
 10
89.719187164307
 20
90.851163095431
 30
0.0
 11
89.055238342285
 21
92.001163095431
 31
0.0
  0
LINE
  5
1DF
330
147
100
AcDbEntity
  8
Layer0
  6
AUSGEZOGEN
 62
     9
370
    18
100
AcDbLine
 10
89.055238342285
 20
92.001163095431
 30
0.0
 11
87.727331924438
 21
92.001163095431
 31
0.0
  0
LINE
  5
1E0
330
147
100
AcDbEntity
  8
Layer0
  6
AUSGEZOGEN
 62
     9
370
    18
100
AcDbLine
 10
87.727331924438
 20
98.901163095431
 30
0.0
 11
87.063378715515
 21
97.751163095431
 31
0.0
  0
LINE
  5
1E1
330
147
100
AcDbEntity
  8
Layer0
  6
AUSGEZOGEN
 62
     9
370
    18
100
AcDbLine
 10
87.063378715515
 20
97.751163095431
 30
0.0
 11
87.727331924438
 21
96.601163095431
 31
0.0
  0
LINE
  5
1E2
330
147
100
AcDbEntity
  8
Layer0
  6
AUSGEZOGEN
 62
     9
370
    18
100
AcDbLine
 10
87.727331924438
 20
96.601163095431
 30
0.0
 11
89.055238342285
 21
96.601163095431
 31
0.0
  0
LINE
  5
1E3
330
147
100
AcDbEntity
  8
Layer0
  6
AUSGEZOGEN
 62
     9
370
    18
100
AcDbLine
 10
89.055238342285
 20
96.601163095431
 30
0.0
 11
89.719187164307
 21
97.751163095431
 31
0.0
  0
LINE
  5
1E4
330
147
100
AcDbEntity
  8
Layer0
  6
AUSGEZOGEN
 62
     9
370
    18
100
AcDbLine
 10
89.719187164307
 20
97.751163095431
 30
0.0
 11
89.055238342285
 21
98.901163095431
 31
0.0
  0
LINE
  5
1E5
330
147
100
AcDbEntity
  8
Layer0
  6
AUSGEZOGEN
 62
     9
370
    18
100
AcDbLine
 10
89.055238342285
 20
98.901163095431
 30
0.0
 11
87.727331924438
 21
98.901163095431
 31
0.0
  0
LINE
  5
1E6
330
147
100
AcDbEntity
  8
Stammform
  6
AUSGEZOGEN
 62
    56
370
    18
100
AcDbLine
 10
87.727331924438
 20
98.901163095431
 30
0.0
 11
88.391285133362
 21
97.751163095431
 31
0.0
  0
LINE
  5
1E7
330
147
100
AcDbEntity
  8
Stammform
  6
AUSGEZOGEN
 62
    56
370
    18
100
AcDbLine
 10
88.391285133362
 20
97.751163095431
 30
0.0
 11
89.719187164307
 21
97.751163095431
 31
0.0
  0
LINE
  5
1E8
330
147
100
AcDbEntity
  8
Stammform
  6
AUSGEZOGEN
 62
    56
370
    18
100
AcDbLine
 10
88.391285133362
 20
97.751163095431
 30
0.0
 11
87.727331924438
 21
96.601163095431
 31
0.0
  0
LINE
  5
1E9
330
147
100
AcDbEntity
  8
Stammform
  6
AUSGEZOGEN
 62
    56
370
    18
100
AcDbLine
 10
88.391285133362
 20
95.451163095431
 30
0.0
 11
87.727331924438
 21
94.301163095431
 31
0.0
  0
LINE
  5
1EA
330
147
100
AcDbEntity
  8
Stammform
  6
AUSGEZOGEN
 62
    56
370
    18
100
AcDbLine
 10
88.391285133362
 20
95.451163095431
 30
0.0
 11
89.719187164307
 21
95.451163095431
 31
0.0
  0
LINE
  5
1EB
330
147
100
AcDbEntity
  8
Stammform
  6
AUSGEZOGEN
 62
    56
370
    18
100
AcDbLine
 10
87.727331924438
 20
96.601163095431
 30
0.0
 11
88.391285133362
 21
95.451163095431
 31
0.0
  0
LINE
  5
1EC
330
147
100
AcDbEntity
  8
Layer0
  6
AUSGEZOGEN
 62
     9
370
    18
100
AcDbLine
 10
87.727331924438
 20
96.601163095431
 30
0.0
 11
87.063378715515
 21
95.451163095431
 31
0.0
  0
LINE
  5
1ED
330
147
100
AcDbEntity
  8
Layer0
  6
AUSGEZOGEN
 62
     9
370
    18
100
AcDbLine
 10
87.063378715515
 20
95.451163095431
 30
0.0
 11
87.727331924438
 21
94.301163095431
 31
0.0
  0
LINE
  5
1EE
330
147
100
AcDbEntity
  8
Layer0
  6
AUSGEZOGEN
 62
     9
370
    18
100
AcDbLine
 10
87.727331924438
 20
94.301163095431
 30
0.0
 11
89.055238342285
 21
94.301163095431
 31
0.0
  0
LINE
  5
1EF
330
147
100
AcDbEntity
  8
Layer0
  6
AUSGEZOGEN
 62
     9
370
    18
100
AcDbLine
 10
89.055238342285
 20
94.301163095431
 30
0.0
 11
89.719187164307
 21
95.451163095431
 31
0.0
  0
LINE
  5
1F0
330
147
100
AcDbEntity
  8
Layer0
  6
AUSGEZOGEN
 62
     9
370
    18
100
AcDbLine
 10
89.719187164307
 20
95.451163095431
 30
0.0
 11
89.055238342285
 21
96.601163095431
 31
0.0
  0
LINE
  5
1F1
330
147
100
AcDbEntity
  8
Layer0
  6
AUSGEZOGEN
 62
     9
370
    18
100
AcDbLine
 10
89.055238342285
 20
96.601163095431
 30
0.0
 11
87.727331924438
 21
96.601163095431
 31
0.0
  0
LINE
  5
1F2
330
147
100
AcDbEntity
  8
Layer0
  6
AUSGEZOGEN
 62
     9
370
    18
100
AcDbLine
 10
87.727331924438
 20
101.201163095431
 30
0.0
 11
89.055238342285
 21
101.201163095431
 31
0.0
  0
LINE
  5
1F3
330
147
100
AcDbEntity
  8
Layer0
  6
AUSGEZOGEN
 62
     9
370
    18
100
AcDbLine
 10
89.055238342285
 20
101.201163095431
 30
0.0
 11
89.50981644666
 21
101.988520196902
 31
0.0
  0
LINE
  5
1F4
330
147
100
AcDbEntity
  8
Stammform
  6
AUSGEZOGEN
 62
    56
370
    18
100
AcDbLine
 10
87.857568501526
 20
101.426739328271
 30
0.0
 11
87.727331924438
 21
101.201163095431
 31
0.0
  0
LINE
  5
1F5
330
147
100
AcDbEntity
  8
Stammform
  6
AUSGEZOGEN
 62
    56
370
    18
100
AcDbLine
 10
88.391285133362
 20
100.051163095431
 30
0.0
 11
87.727331924438
 21
98.901163095431
 31
0.0
  0
LINE
  5
1F6
330
147
100
AcDbEntity
  8
Stammform
  6
AUSGEZOGEN
 62
    56
370
    18
100
AcDbLine
 10
88.391285133362
 20
100.051163095431
 30
0.0
 11
89.719187164307
 21
100.051163095431
 31
0.0
  0
LINE
  5
1F7
330
147
100
AcDbEntity
  8
Stammform
  6
AUSGEZOGEN
 62
    56
370
    18
100
AcDbLine
 10
87.727331924438
 20
101.201163095431
 30
0.0
 11
88.391285133362
 21
100.051163095431
 31
0.0
  0
LINE
  5
1F8
330
147
100
AcDbEntity
  8
Layer0
  6
AUSGEZOGEN
 62
     9
370
    18
100
AcDbLine
 10
87.727331924438
 20
101.201163095431
 30
0.0
 11
87.063378715515
 21
100.051163095431
 31
0.0
  0
LINE
  5
1F9
330
147
100
AcDbEntity
  8
Layer0
  6
AUSGEZOGEN
 62
     9
370
    18
100
AcDbLine
 10
87.063378715515
 20
100.051163095431
 30
0.0
 11
87.727331924438
 21
98.901163095431
 31
0.0
  0
LINE
  5
1FA
330
147
100
AcDbEntity
  8
Layer0
  6
AUSGEZOGEN
 62
     9
370
    18
100
AcDbLine
 10
87.727331924438
 20
98.901163095431
 30
0.0
 11
89.055238342285
 21
98.901163095431
 31
0.0
  0
LINE
  5
1FB
330
147
100
AcDbEntity
  8
Layer0
  6
AUSGEZOGEN
 62
     9
370
    18
100
AcDbLine
 10
89.055238342285
 20
98.901163095431
 30
0.0
 11
89.719187164307
 21
100.051163095431
 31
0.0
  0
LINE
  5
1FC
330
147
100
AcDbEntity
  8
Layer0
  6
AUSGEZOGEN
 62
     9
370
    18
100
AcDbLine
 10
89.719187164307
 20
100.051163095431
 30
0.0
 11
89.055238342285
 21
101.201163095431
 31
0.0
  0
LINE
  5
1FD
330
147
100
AcDbEntity
  8
Layer0
  6
AUSGEZOGEN
 62
     9
370
    18
100
AcDbLine
 10
89.055238342285
 20
101.201163095431
 30
0.0
 11
87.727331924438
 21
101.201163095431
 31
0.0
  0
LINE
  5
1FE
330
147
100
AcDbEntity
  8
Layer0
  6
AUSGEZOGEN
 62
     9
370
    18
100
AcDbLine
 10
87.727331924438
 20
82.801163095431
 30
0.0
 11
87.063378715515
 21
81.651163095431
 31
0.0
  0
LINE
  5
1FF
330
147
100
AcDbEntity
  8
Layer0
  6
AUSGEZOGEN
 62
     9
370
    18
100
AcDbLine
 10
87.063378715515
 20
81.651163095431
 30
0.0
 11
87.727331924438
 21
80.501163095431
 31
0.0
  0
LINE
  5
200
330
147
100
AcDbEntity
  8
Layer0
  6
AUSGEZOGEN
 62
     9
370
    18
100
AcDbLine
 10
87.727331924438
 20
80.501163095431
 30
0.0
 11
89.055238342285
 21
80.501163095431
 31
0.0
  0
LINE
  5
201
330
147
100
AcDbEntity
  8
Layer0
  6
AUSGEZOGEN
 62
     9
370
    18
100
AcDbLine
 10
89.055238342285
 20
80.501163095431
 30
0.0
 11
89.719187164307
 21
81.651163095431
 31
0.0
  0
LINE
  5
202
330
147
100
AcDbEntity
  8
Layer0
  6
AUSGEZOGEN
 62
     9
370
    18
100
AcDbLine
 10
89.719187164307
 20
81.651163095431
 30
0.0
 11
89.055238342285
 21
82.801163095431
 31
0.0
  0
LINE
  5
203
330
147
100
AcDbEntity
  8
Layer0
  6
AUSGEZOGEN
 62
     9
370
    18
100
AcDbLine
 10
89.055238342285
 20
82.801163095431
 30
0.0
 11
87.727331924438
 21
82.801163095431
 31
0.0
  0
LINE
  5
204
330
147
100
AcDbEntity
  8
Stammform
  6
AUSGEZOGEN
 62
    56
370
    18
100
AcDbLine
 10
87.727331924438
 20
82.801163095431
 30
0.0
 11
88.391285133362
 21
81.651163095431
 31
0.0
  0
LINE
  5
205
330
147
100
AcDbEntity
  8
Stammform
  6
AUSGEZOGEN
 62
    56
370
    18
100
AcDbLine
 10
88.391285133362
 20
81.651163095431
 30
0.0
 11
89.719187164307
 21
81.651163095431
 31
0.0
  0
LINE
  5
206
330
147
100
AcDbEntity
  8
Stammform
  6
AUSGEZOGEN
 62
    56
370
    18
100
AcDbLine
 10
88.391285133362
 20
81.651163095431
 30
0.0
 11
87.727331924438
 21
80.501163095431
 31
0.0
  0
LINE
  5
207
330
147
100
AcDbEntity
  8
Stammform
  6
AUSGEZOGEN
 62
    56
370
    18
100
AcDbLine
 10
88.391285133362
 20
83.951163095431
 30
0.0
 11
87.727331924438
 21
82.801163095431
 31
0.0
  0
LINE
  5
208
330
147
100
AcDbEntity
  8
Stammform
  6
AUSGEZOGEN
 62
    56
370
    18
100
AcDbLine
 10
88.391285133362
 20
83.951163095431
 30
0.0
 11
89.719187164307
 21
83.951163095431
 31
0.0
  0
LINE
  5
209
330
147
100
AcDbEntity
  8
Stammform
  6
AUSGEZOGEN
 62
    56
370
    18
100
AcDbLine
 10
87.727331924438
 20
85.101163095431
 30
0.0
 11
88.391285133362
 21
83.951163095431
 31
0.0
  0
LINE
  5
20A
330
147
100
AcDbEntity
  8
Layer0
  6
AUSGEZOGEN
 62
     9
370
    18
100
AcDbLine
 10
87.727331924438
 20
85.101163095431
 30
0.0
 11
87.063378715515
 21
83.951163095431
 31
0.0
  0
LINE
  5
20B
330
147
100
AcDbEntity
  8
Layer0
  6
AUSGEZOGEN
 62
     9
370
    18
100
AcDbLine
 10
87.063378715515
 20
83.951163095431
 30
0.0
 11
87.727331924438
 21
82.801163095431
 31
0.0
  0
LINE
  5
20C
330
147
100
AcDbEntity
  8
Layer0
  6
AUSGEZOGEN
 62
     9
370
    18
100
AcDbLine
 10
87.727331924438
 20
82.801163095431
 30
0.0
 11
89.055238342285
 21
82.801163095431
 31
0.0
  0
LINE
  5
20D
330
147
100
AcDbEntity
  8
Layer0
  6
AUSGEZOGEN
 62
     9
370
    18
100
AcDbLine
 10
89.055238342285
 20
82.801163095431
 30
0.0
 11
89.719187164307
 21
83.951163095431
 31
0.0
  0
LINE
  5
20E
330
147
100
AcDbEntity
  8
Layer0
  6
AUSGEZOGEN
 62
     9
370
    18
100
AcDbLine
 10
89.719187164307
 20
83.951163095431
 30
0.0
 11
89.055238342285
 21
85.101163095431
 31
0.0
  0
LINE
  5
20F
330
147
100
AcDbEntity
  8
Layer0
  6
AUSGEZOGEN
 62
     9
370
    18
100
AcDbLine
 10
89.055238342285
 20
85.101163095431
 30
0.0
 11
87.727331924438
 21
85.101163095431
 31
0.0
  0
LINE
  5
210
330
147
100
AcDbEntity
  8
Stammform
  6
AUSGEZOGEN
 62
    56
370
    18
100
AcDbLine
 10
87.727331924438
 20
80.501163095431
 30
0.0
 11
87.857568501526
 21
80.275586862592
 31
0.0
  0
LINE
  5
211
330
147
100
AcDbEntity
  8
Layer0
  6
AUSGEZOGEN
 62
     9
370
    18
100
AcDbLine
 10
89.50981644666
 20
79.713805993961
 30
0.0
 11
89.055238342285
 21
80.501163095431
 31
0.0
  0
LINE
  5
212
330
147
100
AcDbEntity
  8
Layer0
  6
AUSGEZOGEN
 62
     9
370
    18
100
AcDbLine
 10
89.055238342285
 20
80.501163095431
 30
0.0
 11
87.727331924438
 21
80.501163095431
 31
0.0
  0
LINE
  5
213
330
147
100
AcDbEntity
  8
Layer0
  6
AUSGEZOGEN
 62
     9
370
    18
100
AcDbLine
 10
85.735472297668
 20
83.951163095431
 30
0.0
 11
85.071519088745
 21
82.801163095431
 31
0.0
  0
LINE
  5
214
330
147
100
AcDbEntity
  8
Layer0
  6
AUSGEZOGEN
 62
     9
370
    18
100
AcDbLine
 10
85.071519088745
 20
82.801163095431
 30
0.0
 11
85.735472297668
 21
81.651163095431
 31
0.0
  0
LINE
  5
215
330
147
100
AcDbEntity
  8
Layer0
  6
AUSGEZOGEN
 62
     9
370
    18
100
AcDbLine
 10
85.735472297668
 20
81.651163095431
 30
0.0
 11
87.063378715515
 21
81.651163095431
 31
0.0
  0
LINE
  5
216
330
147
100
AcDbEntity
  8
Layer0
  6
AUSGEZOGEN
 62
     9
370
    18
100
AcDbLine
 10
87.063378715515
 20
81.651163095431
 30
0.0
 11
87.727331924438
 21
82.801163095431
 31
0.0
  0
LINE
  5
217
330
147
100
AcDbEntity
  8
Layer0
  6
AUSGEZOGEN
 62
     9
370
    18
100
AcDbLine
 10
87.727331924438
 20
82.801163095431
 30
0.0
 11
87.063378715515
 21
83.951163095431
 31
0.0
  0
LINE
  5
218
330
147
100
AcDbEntity
  8
Layer0
  6
AUSGEZOGEN
 62
     9
370
    18
100
AcDbLine
 10
87.063378715515
 20
83.951163095431
 30
0.0
 11
85.735472297668
 21
83.951163095431
 31
0.0
  0
LINE
  5
219
330
147
100
AcDbEntity
  8
Stammform
  6
AUSGEZOGEN
 62
    56
370
    18
100
AcDbLine
 10
85.735472297668
 20
83.951163095431
 30
0.0
 11
86.399425506592
 21
82.801163095431
 31
0.0
  0
LINE
  5
21A
330
147
100
AcDbEntity
  8
Stammform
  6
AUSGEZOGEN
 62
    56
370
    18
100
AcDbLine
 10
86.399425506592
 20
82.801163095431
 30
0.0
 11
87.727331924438
 21
82.801163095431
 31
0.0
  0
LINE
  5
21B
330
147
100
AcDbEntity
  8
Stammform
  6
AUSGEZOGEN
 62
    56
370
    18
100
AcDbLine
 10
86.399425506592
 20
82.801163095431
 30
0.0
 11
85.735472297668
 21
81.651163095431
 31
0.0
  0
LINE
  5
21C
330
147
100
AcDbEntity
  8
Stammform
  6
AUSGEZOGEN
 62
    56
370
    18
100
AcDbLine
 10
87.362266214928
 20
80.501163095431
 30
0.0
 11
87.727331924438
 21
80.501163095431
 31
0.0
  0
LINE
  5
21D
330
147
100
AcDbEntity
  8
Stammform
  6
AUSGEZOGEN
 62
    56
370
    18
100
AcDbLine
 10
85.735472297668
 20
81.651163095431
 30
0.0
 11
85.918004790557
 21
81.335007733877
 31
0.0
  0
LINE
  5
21E
330
147
100
AcDbEntity
  8
Layer0
  6
AUSGEZOGEN
 62
     9
370
    18
100
AcDbLine
 10
87.64975267678
 20
80.366791977696
 30
0.0
 11
87.727331924438
 21
80.501163095431
 31
0.0
  0
LINE
  5
21F
330
147
100
AcDbEntity
  8
Layer0
  6
AUSGEZOGEN
 62
     9
370
    18
100
AcDbLine
 10
87.727331924438
 20
80.501163095431
 30
0.0
 11
87.063378715515
 21
81.651163095431
 31
0.0
  0
LINE
  5
220
330
147
100
AcDbEntity
  8
Layer0
  6
AUSGEZOGEN
 62
     9
370
    18
100
AcDbLine
 10
87.063378715515
 20
81.651163095431
 30
0.0
 11
85.735472297668
 21
81.651163095431
 31
0.0
  0
LINE
  5
221
330
147
100
AcDbEntity
  8
Layer0
  6
AUSGEZOGEN
 62
     9
370
    18
100
AcDbLine
 10
85.735472297668
 20
100.051163095431
 30
0.0
 11
85.071519088745
 21
98.901163095431
 31
0.0
  0
LINE
  5
222
330
147
100
AcDbEntity
  8
Layer0
  6
AUSGEZOGEN
 62
     9
370
    18
100
AcDbLine
 10
85.071519088745
 20
98.901163095431
 30
0.0
 11
85.735472297668
 21
97.751163095431
 31
0.0
  0
LINE
  5
223
330
147
100
AcDbEntity
  8
Layer0
  6
AUSGEZOGEN
 62
     9
370
    18
100
AcDbLine
 10
85.735472297668
 20
97.751163095431
 30
0.0
 11
87.063378715515
 21
97.751163095431
 31
0.0
  0
LINE
  5
224
330
147
100
AcDbEntity
  8
Layer0
  6
AUSGEZOGEN
 62
     9
370
    18
100
AcDbLine
 10
87.063378715515
 20
97.751163095431
 30
0.0
 11
87.727331924438
 21
98.901163095431
 31
0.0
  0
LINE
  5
225
330
147
100
AcDbEntity
  8
Layer0
  6
AUSGEZOGEN
 62
     9
370
    18
100
AcDbLine
 10
87.727331924438
 20
98.901163095431
 30
0.0
 11
87.063378715515
 21
100.051163095431
 31
0.0
  0
LINE
  5
226
330
147
100
AcDbEntity
  8
Layer0
  6
AUSGEZOGEN
 62
     9
370
    18
100
AcDbLine
 10
87.063378715515
 20
100.051163095431
 30
0.0
 11
85.735472297668
 21
100.051163095431
 31
0.0
  0
LINE
  5
227
330
147
100
AcDbEntity
  8
Stammform
  6
AUSGEZOGEN
 62
    56
370
    18
100
AcDbLine
 10
85.735472297668
 20
100.051163095431
 30
0.0
 11
86.399425506592
 21
98.901163095431
 31
0.0
  0
LINE
  5
228
330
147
100
AcDbEntity
  8
Stammform
  6
AUSGEZOGEN
 62
    56
370
    18
100
AcDbLine
 10
86.399425506592
 20
98.901163095431
 30
0.0
 11
87.727331924438
 21
98.901163095431
 31
0.0
  0
LINE
  5
229
330
147
100
AcDbEntity
  8
Stammform
  6
AUSGEZOGEN
 62
    56
370
    18
100
AcDbLine
 10
86.399425506592
 20
98.901163095431
 30
0.0
 11
85.735472297668
 21
97.751163095431
 31
0.0
  0
LINE
  5
22A
330
147
100
AcDbEntity
  8
Stammform
  6
AUSGEZOGEN
 62
    56
370
    18
100
AcDbLine
 10
85.918004790557
 20
100.367318456985
 30
0.0
 11
85.735472297668
 21
100.051163095431
 31
0.0
  0
LINE
  5
22B
330
147
100
AcDbEntity
  8
Stammform
  6
AUSGEZOGEN
 62
    56
370
    18
100
AcDbLine
 10
87.362266214928
 20
101.201163095431
 30
0.0
 11
87.727331924438
 21
101.201163095431
 31
0.0
  0
LINE
  5
22C
330
147
100
AcDbEntity
  8
Layer0
  6
AUSGEZOGEN
 62
     9
370
    18
100
AcDbLine
 10
85.657893267212
 20
100.185533836962
 30
0.0
 11
85.735472297668
 21
100.051163095431
 31
0.0
  0
LINE
  5
22D
330
147
100
AcDbEntity
  8
Layer0
  6
AUSGEZOGEN
 62
     9
370
    18
100
AcDbLine
 10
85.735472297668
 20
100.051163095431
 30
0.0
 11
87.063378715515
 21
100.051163095431
 31
0.0
  0
LINE
  5
22E
330
147
100
AcDbEntity
  8
Layer0
  6
AUSGEZOGEN
 62
     9
370
    18
100
AcDbLine
 10
87.063378715515
 20
100.051163095431
 30
0.0
 11
87.727331924438
 21
101.201163095431
 31
0.0
  0
LINE
  5
22F
330
147
100
AcDbEntity
  8
Layer0
  6
AUSGEZOGEN
 62
     9
370
    18
100
AcDbLine
 10
87.727331924438
 20
101.201163095431
 30
0.0
 11
87.64975267678
 21
101.335534213167
 31
0.0
  0
LINE
  5
230
330
147
100
AcDbEntity
  8
Layer0
  6
AUSGEZOGEN
 62
     9
370
    18
100
AcDbLine
 10
85.735472297668
 20
95.451163095431
 30
0.0
 11
85.071519088745
 21
94.301163095431
 31
0.0
  0
LINE
  5
231
330
147
100
AcDbEntity
  8
Layer0
  6
AUSGEZOGEN
 62
     9
370
    18
100
AcDbLine
 10
85.071519088745
 20
94.301163095431
 30
0.0
 11
85.735472297668
 21
93.151163095431
 31
0.0
  0
LINE
  5
232
330
147
100
AcDbEntity
  8
Layer0
  6
AUSGEZOGEN
 62
     9
370
    18
100
AcDbLine
 10
85.735472297668
 20
93.151163095431
 30
0.0
 11
87.063378715515
 21
93.151163095431
 31
0.0
  0
LINE
  5
233
330
147
100
AcDbEntity
  8
Layer0
  6
AUSGEZOGEN
 62
     9
370
    18
100
AcDbLine
 10
87.063378715515
 20
93.151163095431
 30
0.0
 11
87.727331924438
 21
94.301163095431
 31
0.0
  0
LINE
  5
234
330
147
100
AcDbEntity
  8
Layer0
  6
AUSGEZOGEN
 62
     9
370
    18
100
AcDbLine
 10
87.727331924438
 20
94.301163095431
 30
0.0
 11
87.063378715515
 21
95.451163095431
 31
0.0
  0
LINE
  5
235
330
147
100
AcDbEntity
  8
Layer0
  6
AUSGEZOGEN
 62
     9
370
    18
100
AcDbLine
 10
87.063378715515
 20
95.451163095431
 30
0.0
 11
85.735472297668
 21
95.451163095431
 31
0.0
  0
LINE
  5
236
330
147
100
AcDbEntity
  8
Stammform
  6
AUSGEZOGEN
 62
    56
370
    18
100
AcDbLine
 10
85.735472297668
 20
95.451163095431
 30
0.0
 11
86.399425506592
 21
94.301163095431
 31
0.0
  0
LINE
  5
237
330
147
100
AcDbEntity
  8
Stammform
  6
AUSGEZOGEN
 62
    56
370
    18
100
AcDbLine
 10
86.399425506592
 20
94.301163095431
 30
0.0
 11
87.727331924438
 21
94.301163095431
 31
0.0
  0
LINE
  5
238
330
147
100
AcDbEntity
  8
Stammform
  6
AUSGEZOGEN
 62
    56
370
    18
100
AcDbLine
 10
86.399425506592
 20
94.301163095431
 30
0.0
 11
85.735472297668
 21
93.151163095431
 31
0.0
  0
LINE
  5
239
330
147
100
AcDbEntity
  8
Stammform
  6
AUSGEZOGEN
 62
    56
370
    18
100
AcDbLine
 10
86.399425506592
 20
96.601163095431
 30
0.0
 11
85.735472297668
 21
95.451163095431
 31
0.0
  0
LINE
  5
23A
330
147
100
AcDbEntity
  8
Stammform
  6
AUSGEZOGEN
 62
    56
370
    18
100
AcDbLine
 10
86.399425506592
 20
96.601163095431
 30
0.0
 11
87.727331924438
 21
96.601163095431
 31
0.0
  0
LINE
  5
23B
330
147
100
AcDbEntity
  8
Stammform
  6
AUSGEZOGEN
 62
    56
370
    18
100
AcDbLine
 10
85.735472297668
 20
97.751163095431
 30
0.0
 11
86.399425506592
 21
96.601163095431
 31
0.0
  0
LINE
  5
23C
330
147
100
AcDbEntity
  8
Layer0
  6
AUSGEZOGEN
 62
     9
370
    18
100
AcDbLine
 10
85.735472297668
 20
97.751163095431
 30
0.0
 11
85.071519088745
 21
96.601163095431
 31
0.0
  0
LINE
  5
23D
330
147
100
AcDbEntity
  8
Layer0
  6
AUSGEZOGEN
 62
     9
370
    18
100
AcDbLine
 10
85.071519088745
 20
96.601163095431
 30
0.0
 11
85.735472297668
 21
95.451163095431
 31
0.0
  0
LINE
  5
23E
330
147
100
AcDbEntity
  8
Layer0
  6
AUSGEZOGEN
 62
     9
370
    18
100
AcDbLine
 10
85.735472297668
 20
95.451163095431
 30
0.0
 11
87.063378715515
 21
95.451163095431
 31
0.0
  0
LINE
  5
23F
330
147
100
AcDbEntity
  8
Layer0
  6
AUSGEZOGEN
 62
     9
370
    18
100
AcDbLine
 10
87.063378715515
 20
95.451163095431
 30
0.0
 11
87.727331924438
 21
96.601163095431
 31
0.0
  0
LINE
  5
240
330
147
100
AcDbEntity
  8
Layer0
  6
AUSGEZOGEN
 62
     9
370
    18
100
AcDbLine
 10
87.727331924438
 20
96.601163095431
 30
0.0
 11
87.063378715515
 21
97.751163095431
 31
0.0
  0
LINE
  5
241
330
147
100
AcDbEntity
  8
Layer0
  6
AUSGEZOGEN
 62
     9
370
    18
100
AcDbLine
 10
87.063378715515
 20
97.751163095431
 30
0.0
 11
85.735472297668
 21
97.751163095431
 31
0.0
  0
LINE
  5
242
330
147
100
AcDbEntity
  8
Layer0
  6
AUSGEZOGEN
 62
     9
370
    18
100
AcDbLine
 10
85.735472297668
 20
90.851163095431
 30
0.0
 11
85.071519088745
 21
89.701163095431
 31
0.0
  0
LINE
  5
243
330
147
100
AcDbEntity
  8
Layer0
  6
AUSGEZOGEN
 62
     9
370
    18
100
AcDbLine
 10
85.071519088745
 20
89.701163095431
 30
0.0
 11
85.735472297668
 21
88.551163095431
 31
0.0
  0
LINE
  5
244
330
147
100
AcDbEntity
  8
Layer0
  6
AUSGEZOGEN
 62
     9
370
    18
100
AcDbLine
 10
85.735472297668
 20
88.551163095431
 30
0.0
 11
87.063378715515
 21
88.551163095431
 31
0.0
  0
LINE
  5
245
330
147
100
AcDbEntity
  8
Layer0
  6
AUSGEZOGEN
 62
     9
370
    18
100
AcDbLine
 10
87.063378715515
 20
88.551163095431
 30
0.0
 11
87.727331924438
 21
89.701163095431
 31
0.0
  0
LINE
  5
246
330
147
100
AcDbEntity
  8
Layer0
  6
AUSGEZOGEN
 62
     9
370
    18
100
AcDbLine
 10
87.727331924438
 20
89.701163095431
 30
0.0
 11
87.063378715515
 21
90.851163095431
 31
0.0
  0
LINE
  5
247
330
147
100
AcDbEntity
  8
Layer0
  6
AUSGEZOGEN
 62
     9
370
    18
100
AcDbLine
 10
87.063378715515
 20
90.851163095431
 30
0.0
 11
85.735472297668
 21
90.851163095431
 31
0.0
  0
LINE
  5
248
330
147
100
AcDbEntity
  8
Stammform
  6
AUSGEZOGEN
 62
    56
370
    18
100
AcDbLine
 10
85.735472297668
 20
90.851163095431
 30
0.0
 11
86.399425506592
 21
89.701163095431
 31
0.0
  0
LINE
  5
249
330
147
100
AcDbEntity
  8
Stammform
  6
AUSGEZOGEN
 62
    56
370
    18
100
AcDbLine
 10
86.399425506592
 20
89.701163095431
 30
0.0
 11
87.727331924438
 21
89.701163095431
 31
0.0
  0
LINE
  5
24A
330
147
100
AcDbEntity
  8
Stammform
  6
AUSGEZOGEN
 62
    56
370
    18
100
AcDbLine
 10
86.399425506592
 20
89.701163095431
 30
0.0
 11
85.735472297668
 21
88.551163095431
 31
0.0
  0
LINE
  5
24B
330
147
100
AcDbEntity
  8
Stammform
  6
AUSGEZOGEN
 62
    56
370
    18
100
AcDbLine
 10
86.399425506592
 20
92.001163095431
 30
0.0
 11
85.735472297668
 21
90.851163095431
 31
0.0
  0
LINE
  5
24C
330
147
100
AcDbEntity
  8
Stammform
  6
AUSGEZOGEN
 62
    56
370
    18
100
AcDbLine
 10
86.399425506592
 20
92.001163095431
 30
0.0
 11
87.727331924438
 21
92.001163095431
 31
0.0
  0
LINE
  5
24D
330
147
100
AcDbEntity
  8
Stammform
  6
AUSGEZOGEN
 62
    56
370
    18
100
AcDbLine
 10
85.735472297668
 20
93.151163095431
 30
0.0
 11
86.399425506592
 21
92.001163095431
 31
0.0
  0
LINE
  5
24E
330
147
100
AcDbEntity
  8
Layer0
  6
AUSGEZOGEN
 62
     9
370
    18
100
AcDbLine
 10
85.735472297668
 20
93.151163095431
 30
0.0
 11
85.071519088745
 21
92.001163095431
 31
0.0
  0
LINE
  5
24F
330
147
100
AcDbEntity
  8
Layer0
  6
AUSGEZOGEN
 62
     9
370
    18
100
AcDbLine
 10
85.071519088745
 20
92.001163095431
 30
0.0
 11
85.735472297668
 21
90.851163095431
 31
0.0
  0
LINE
  5
250
330
147
100
AcDbEntity
  8
Layer0
  6
AUSGEZOGEN
 62
     9
370
    18
100
AcDbLine
 10
85.735472297668
 20
90.851163095431
 30
0.0
 11
87.063378715515
 21
90.851163095431
 31
0.0
  0
LINE
  5
251
330
147
100
AcDbEntity
  8
Layer0
  6
AUSGEZOGEN
 62
     9
370
    18
100
AcDbLine
 10
87.063378715515
 20
90.851163095431
 30
0.0
 11
87.727331924438
 21
92.001163095431
 31
0.0
  0
LINE
  5
252
330
147
100
AcDbEntity
  8
Layer0
  6
AUSGEZOGEN
 62
     9
370
    18
100
AcDbLine
 10
87.727331924438
 20
92.001163095431
 30
0.0
 11
87.063378715515
 21
93.151163095431
 31
0.0
  0
LINE
  5
253
330
147
100
AcDbEntity
  8
Layer0
  6
AUSGEZOGEN
 62
     9
370
    18
100
AcDbLine
 10
87.063378715515
 20
93.151163095431
 30
0.0
 11
85.735472297668
 21
93.151163095431
 31
0.0
  0
LINE
  5
254
330
147
100
AcDbEntity
  8
Layer0
  6
AUSGEZOGEN
 62
     9
370
    18
100
AcDbLine
 10
85.735472297668
 20
88.551163095431
 30
0.0
 11
85.071519088745
 21
87.401163095431
 31
0.0
  0
LINE
  5
255
330
147
100
AcDbEntity
  8
Layer0
  6
AUSGEZOGEN
 62
     9
370
    18
100
AcDbLine
 10
85.071519088745
 20
87.401163095431
 30
0.0
 11
85.735472297668
 21
86.251163095431
 31
0.0
  0
LINE
  5
256
330
147
100
AcDbEntity
  8
Layer0
  6
AUSGEZOGEN
 62
     9
370
    18
100
AcDbLine
 10
85.735472297668
 20
86.251163095431
 30
0.0
 11
87.063378715515
 21
86.251163095431
 31
0.0
  0
LINE
  5
257
330
147
100
AcDbEntity
  8
Layer0
  6
AUSGEZOGEN
 62
     9
370
    18
100
AcDbLine
 10
87.063378715515
 20
86.251163095431
 30
0.0
 11
87.727331924438
 21
87.401163095431
 31
0.0
  0
LINE
  5
258
330
147
100
AcDbEntity
  8
Layer0
  6
AUSGEZOGEN
 62
     9
370
    18
100
AcDbLine
 10
87.727331924438
 20
87.401163095431
 30
0.0
 11
87.063378715515
 21
88.551163095431
 31
0.0
  0
LINE
  5
259
330
147
100
AcDbEntity
  8
Layer0
  6
AUSGEZOGEN
 62
     9
370
    18
100
AcDbLine
 10
87.063378715515
 20
88.551163095431
 30
0.0
 11
85.735472297668
 21
88.551163095431
 31
0.0
  0
LINE
  5
25A
330
147
100
AcDbEntity
  8
Stammform
  6
AUSGEZOGEN
 62
    56
370
    18
100
AcDbLine
 10
85.735472297668
 20
88.551163095431
 30
0.0
 11
86.399425506592
 21
87.401163095431
 31
0.0
  0
LINE
  5
25B
330
147
100
AcDbEntity
  8
Stammform
  6
AUSGEZOGEN
 62
    56
370
    18
100
AcDbLine
 10
86.399425506592
 20
87.401163095431
 30
0.0
 11
87.727331924438
 21
87.401163095431
 31
0.0
  0
LINE
  5
25C
330
147
100
AcDbEntity
  8
Stammform
  6
AUSGEZOGEN
 62
    56
370
    18
100
AcDbLine
 10
86.399425506592
 20
87.401163095431
 30
0.0
 11
85.735472297668
 21
86.251163095431
 31
0.0
  0
LINE
  5
25D
330
147
100
AcDbEntity
  8
Stammform
  6
AUSGEZOGEN
 62
    56
370
    18
100
AcDbLine
 10
86.399425506592
 20
85.101163095431
 30
0.0
 11
85.735472297668
 21
83.951163095431
 31
0.0
  0
LINE
  5
25E
330
147
100
AcDbEntity
  8
Stammform
  6
AUSGEZOGEN
 62
    56
370
    18
100
AcDbLine
 10
86.399425506592
 20
85.101163095431
 30
0.0
 11
87.727331924438
 21
85.101163095431
 31
0.0
  0
LINE
  5
25F
330
147
100
AcDbEntity
  8
Stammform
  6
AUSGEZOGEN
 62
    56
370
    18
100
AcDbLine
 10
85.735472297668
 20
86.251163095431
 30
0.0
 11
86.399425506592
 21
85.101163095431
 31
0.0
  0
LINE
  5
260
330
147
100
AcDbEntity
  8
Layer0
  6
AUSGEZOGEN
 62
     9
370
    18
100
AcDbLine
 10
85.735472297668
 20
86.251163095431
 30
0.0
 11
85.071519088745
 21
85.101163095431
 31
0.0
  0
LINE
  5
261
330
147
100
AcDbEntity
  8
Layer0
  6
AUSGEZOGEN
 62
     9
370
    18
100
AcDbLine
 10
85.071519088745
 20
85.101163095431
 30
0.0
 11
85.735472297668
 21
83.951163095431
 31
0.0
  0
LINE
  5
262
330
147
100
AcDbEntity
  8
Layer0
  6
AUSGEZOGEN
 62
     9
370
    18
100
AcDbLine
 10
85.735472297668
 20
83.951163095431
 30
0.0
 11
87.063378715515
 21
83.951163095431
 31
0.0
  0
LINE
  5
263
330
147
100
AcDbEntity
  8
Layer0
  6
AUSGEZOGEN
 62
     9
370
    18
100
AcDbLine
 10
87.063378715515
 20
83.951163095431
 30
0.0
 11
87.727331924438
 21
85.101163095431
 31
0.0
  0
LINE
  5
264
330
147
100
AcDbEntity
  8
Layer0
  6
AUSGEZOGEN
 62
     9
370
    18
100
AcDbLine
 10
87.727331924438
 20
85.101163095431
 30
0.0
 11
87.063378715515
 21
86.251163095431
 31
0.0
  0
LINE
  5
265
330
147
100
AcDbEntity
  8
Layer0
  6
AUSGEZOGEN
 62
     9
370
    18
100
AcDbLine
 10
87.063378715515
 20
86.251163095431
 30
0.0
 11
85.735472297668
 21
86.251163095431
 31
0.0
  0
LINE
  5
266
330
147
100
AcDbEntity
  8
Layer0
  6
AUSGEZOGEN
 62
     9
370
    18
100
AcDbLine
 10
91.711046791077
 20
87.401163095431
 30
0.0
 11
91.047093582153
 21
86.251163095431
 31
0.0
  0
LINE
  5
267
330
147
100
AcDbEntity
  8
Layer0
  6
AUSGEZOGEN
 62
     9
370
    18
100
AcDbLine
 10
91.047093582153
 20
86.251163095431
 30
0.0
 11
91.711046791077
 21
85.101163095431
 31
0.0
  0
LINE
  5
268
330
147
100
AcDbEntity
  8
Layer0
  6
AUSGEZOGEN
 62
     9
370
    18
100
AcDbLine
 10
91.711046791077
 20
85.101163095431
 30
0.0
 11
93.038953208923
 21
85.101163095431
 31
0.0
  0
LINE
  5
269
330
147
100
AcDbEntity
  8
Layer0
  6
AUSGEZOGEN
 62
     9
370
    18
100
AcDbLine
 10
93.038953208923
 20
85.101163095431
 30
0.0
 11
93.702906417847
 21
86.251163095431
 31
0.0
  0
LINE
  5
26A
330
147
100
AcDbEntity
  8
Layer0
  6
AUSGEZOGEN
 62
     9
370
    18
100
AcDbLine
 10
93.702906417847
 20
86.251163095431
 30
0.0
 11
93.038953208923
 21
87.401163095431
 31
0.0
  0
LINE
  5
26B
330
147
100
AcDbEntity
  8
Layer0
  6
AUSGEZOGEN
 62
     9
370
    18
100
AcDbLine
 10
93.038953208923
 20
87.401163095431
 30
0.0
 11
91.711046791077
 21
87.401163095431
 31
0.0
  0
LINE
  5
26C
330
147
100
AcDbEntity
  8
Stammform
  6
AUSGEZOGEN
 62
    56
370
    18
100
AcDbLine
 10
91.711046791077
 20
87.401163095431
 30
0.0
 11
92.375
 21
86.251163095431
 31
0.0
  0
LINE
  5
26D
330
147
100
AcDbEntity
  8
Stammform
  6
AUSGEZOGEN
 62
    56
370
    18
100
AcDbLine
 10
92.375
 20
86.251163095431
 30
0.0
 11
93.702906417847
 21
86.251163095431
 31
0.0
  0
LINE
  5
26E
330
147
100
AcDbEntity
  8
Stammform
  6
AUSGEZOGEN
 62
    56
370
    18
100
AcDbLine
 10
92.375
 20
86.251163095431
 30
0.0
 11
91.711046791077
 21
85.101163095431
 31
0.0
  0
LINE
  5
26F
330
147
100
AcDbEntity
  8
Stammform
  6
AUSGEZOGEN
 62
    56
370
    18
100
AcDbLine
 10
92.375
 20
88.551163095431
 30
0.0
 11
91.711046791077
 21
87.401163095431
 31
0.0
  0
LINE
  5
270
330
147
100
AcDbEntity
  8
Stammform
  6
AUSGEZOGEN
 62
    56
370
    18
100
AcDbLine
 10
92.375
 20
88.551163095431
 30
0.0
 11
93.702906417847
 21
88.551163095431
 31
0.0
  0
LINE
  5
271
330
147
100
AcDbEntity
  8
Stammform
  6
AUSGEZOGEN
 62
    56
370
    18
100
AcDbLine
 10
91.711046791077
 20
89.701163095431
 30
0.0
 11
92.375
 21
88.551163095431
 31
0.0
  0
LINE
  5
272
330
147
100
AcDbEntity
  8
Layer0
  6
AUSGEZOGEN
 62
     9
370
    18
100
AcDbLine
 10
91.711046791077
 20
89.701163095431
 30
0.0
 11
91.047093582153
 21
88.551163095431
 31
0.0
  0
LINE
  5
273
330
147
100
AcDbEntity
  8
Layer0
  6
AUSGEZOGEN
 62
     9
370
    18
100
AcDbLine
 10
91.047093582153
 20
88.551163095431
 30
0.0
 11
91.711046791077
 21
87.401163095431
 31
0.0
  0
LINE
  5
274
330
147
100
AcDbEntity
  8
Layer0
  6
AUSGEZOGEN
 62
     9
370
    18
100
AcDbLine
 10
91.711046791077
 20
87.401163095431
 30
0.0
 11
93.038953208923
 21
87.401163095431
 31
0.0
  0
LINE
  5
275
330
147
100
AcDbEntity
  8
Layer0
  6
AUSGEZOGEN
 62
     9
370
    18
100
AcDbLine
 10
93.038953208923
 20
87.401163095431
 30
0.0
 11
93.702906417847
 21
88.551163095431
 31
0.0
  0
LINE
  5
276
330
147
100
AcDbEntity
  8
Layer0
  6
AUSGEZOGEN
 62
     9
370
    18
100
AcDbLine
 10
93.702906417847
 20
88.551163095431
 30
0.0
 11
93.038953208923
 21
89.701163095431
 31
0.0
  0
LINE
  5
277
330
147
100
AcDbEntity
  8
Layer0
  6
AUSGEZOGEN
 62
     9
370
    18
100
AcDbLine
 10
93.038953208923
 20
89.701163095431
 30
0.0
 11
91.711046791077
 21
89.701163095431
 31
0.0
  0
LINE
  5
278
330
147
100
AcDbEntity
  8
Layer0
  6
AUSGEZOGEN
 62
     9
370
    18
100
AcDbLine
 10
91.711046791077
 20
94.301163095431
 30
0.0
 11
91.047093582153
 21
93.151163095431
 31
0.0
  0
LINE
  5
279
330
147
100
AcDbEntity
  8
Layer0
  6
AUSGEZOGEN
 62
     9
370
    18
100
AcDbLine
 10
91.047093582153
 20
93.151163095431
 30
0.0
 11
91.711046791077
 21
92.001163095431
 31
0.0
  0
LINE
  5
27A
330
147
100
AcDbEntity
  8
Layer0
  6
AUSGEZOGEN
 62
     9
370
    18
100
AcDbLine
 10
91.711046791077
 20
92.001163095431
 30
0.0
 11
93.038953208923
 21
92.001163095431
 31
0.0
  0
LINE
  5
27B
330
147
100
AcDbEntity
  8
Layer0
  6
AUSGEZOGEN
 62
     9
370
    18
100
AcDbLine
 10
93.038953208923
 20
92.001163095431
 30
0.0
 11
93.702906417847
 21
93.151163095431
 31
0.0
  0
LINE
  5
27C
330
147
100
AcDbEntity
  8
Layer0
  6
AUSGEZOGEN
 62
     9
370
    18
100
AcDbLine
 10
93.702906417847
 20
93.151163095431
 30
0.0
 11
93.038953208923
 21
94.301163095431
 31
0.0
  0
LINE
  5
27D
330
147
100
AcDbEntity
  8
Layer0
  6
AUSGEZOGEN
 62
     9
370
    18
100
AcDbLine
 10
93.038953208923
 20
94.301163095431
 30
0.0
 11
91.711046791077
 21
94.301163095431
 31
0.0
  0
LINE
  5
27E
330
147
100
AcDbEntity
  8
Stammform
  6
AUSGEZOGEN
 62
    56
370
    18
100
AcDbLine
 10
91.711046791077
 20
94.301163095431
 30
0.0
 11
92.375
 21
93.151163095431
 31
0.0
  0
LINE
  5
27F
330
147
100
AcDbEntity
  8
Stammform
  6
AUSGEZOGEN
 62
    56
370
    18
100
AcDbLine
 10
92.375
 20
93.151163095431
 30
0.0
 11
93.702906417847
 21
93.151163095431
 31
0.0
  0
LINE
  5
280
330
147
100
AcDbEntity
  8
Stammform
  6
AUSGEZOGEN
 62
    56
370
    18
100
AcDbLine
 10
92.375
 20
93.151163095431
 30
0.0
 11
91.711046791077
 21
92.001163095431
 31
0.0
  0
LINE
  5
281
330
147
100
AcDbEntity
  8
Stammform
  6
AUSGEZOGEN
 62
    56
370
    18
100
AcDbLine
 10
92.375
 20
90.851163095431
 30
0.0
 11
91.711046791077
 21
89.701163095431
 31
0.0
  0
LINE
  5
282
330
147
100
AcDbEntity
  8
Stammform
  6
AUSGEZOGEN
 62
    56
370
    18
100
AcDbLine
 10
92.375
 20
90.851163095431
 30
0.0
 11
93.702906417847
 21
90.851163095431
 31
0.0
  0
LINE
  5
283
330
147
100
AcDbEntity
  8
Stammform
  6
AUSGEZOGEN
 62
    56
370
    18
100
AcDbLine
 10
91.711046791077
 20
92.001163095431
 30
0.0
 11
92.375
 21
90.851163095431
 31
0.0
  0
LINE
  5
284
330
147
100
AcDbEntity
  8
Layer0
  6
AUSGEZOGEN
 62
     9
370
    18
100
AcDbLine
 10
91.711046791077
 20
92.001163095431
 30
0.0
 11
91.047093582153
 21
90.851163095431
 31
0.0
  0
LINE
  5
285
330
147
100
AcDbEntity
  8
Layer0
  6
AUSGEZOGEN
 62
     9
370
    18
100
AcDbLine
 10
91.047093582153
 20
90.851163095431
 30
0.0
 11
91.711046791077
 21
89.701163095431
 31
0.0
  0
LINE
  5
286
330
147
100
AcDbEntity
  8
Layer0
  6
AUSGEZOGEN
 62
     9
370
    18
100
AcDbLine
 10
91.711046791077
 20
89.701163095431
 30
0.0
 11
93.038953208923
 21
89.701163095431
 31
0.0
  0
LINE
  5
287
330
147
100
AcDbEntity
  8
Layer0
  6
AUSGEZOGEN
 62
     9
370
    18
100
AcDbLine
 10
93.038953208923
 20
89.701163095431
 30
0.0
 11
93.702906417847
 21
90.851163095431
 31
0.0
  0
LINE
  5
288
330
147
100
AcDbEntity
  8
Layer0
  6
AUSGEZOGEN
 62
     9
370
    18
100
AcDbLine
 10
93.702906417847
 20
90.851163095431
 30
0.0
 11
93.038953208923
 21
92.001163095431
 31
0.0
  0
LINE
  5
289
330
147
100
AcDbEntity
  8
Layer0
  6
AUSGEZOGEN
 62
     9
370
    18
100
AcDbLine
 10
93.038953208923
 20
92.001163095431
 30
0.0
 11
91.711046791077
 21
92.001163095431
 31
0.0
  0
LINE
  5
28A
330
147
100
AcDbEntity
  8
Layer0
  6
AUSGEZOGEN
 62
     9
370
    18
100
AcDbLine
 10
91.711046791077
 20
98.901163095431
 30
0.0
 11
91.047093582153
 21
97.751163095431
 31
0.0
  0
LINE
  5
28B
330
147
100
AcDbEntity
  8
Layer0
  6
AUSGEZOGEN
 62
     9
370
    18
100
AcDbLine
 10
91.047093582153
 20
97.751163095431
 30
0.0
 11
91.711046791077
 21
96.601163095431
 31
0.0
  0
LINE
  5
28C
330
147
100
AcDbEntity
  8
Layer0
  6
AUSGEZOGEN
 62
     9
370
    18
100
AcDbLine
 10
91.711046791077
 20
96.601163095431
 30
0.0
 11
93.038953208923
 21
96.601163095431
 31
0.0
  0
LINE
  5
28D
330
147
100
AcDbEntity
  8
Layer0
  6
AUSGEZOGEN
 62
     9
370
    18
100
AcDbLine
 10
93.038953208923
 20
96.601163095431
 30
0.0
 11
93.702906417847
 21
97.751163095431
 31
0.0
  0
LINE
  5
28E
330
147
100
AcDbEntity
  8
Layer0
  6
AUSGEZOGEN
 62
     9
370
    18
100
AcDbLine
 10
93.702906417847
 20
97.751163095431
 30
0.0
 11
93.038953208923
 21
98.901163095431
 31
0.0
  0
LINE
  5
28F
330
147
100
AcDbEntity
  8
Layer0
  6
AUSGEZOGEN
 62
     9
370
    18
100
AcDbLine
 10
93.038953208923
 20
98.901163095431
 30
0.0
 11
91.711046791077
 21
98.901163095431
 31
0.0
  0
LINE
  5
290
330
147
100
AcDbEntity
  8
Stammform
  6
AUSGEZOGEN
 62
    56
370
    18
100
AcDbLine
 10
91.711046791077
 20
98.901163095431
 30
0.0
 11
92.375
 21
97.751163095431
 31
0.0
  0
LINE
  5
291
330
147
100
AcDbEntity
  8
Stammform
  6
AUSGEZOGEN
 62
    56
370
    18
100
AcDbLine
 10
92.375
 20
97.751163095431
 30
0.0
 11
93.702906417847
 21
97.751163095431
 31
0.0
  0
LINE
  5
292
330
147
100
AcDbEntity
  8
Stammform
  6
AUSGEZOGEN
 62
    56
370
    18
100
AcDbLine
 10
92.375
 20
97.751163095431
 30
0.0
 11
91.711046791077
 21
96.601163095431
 31
0.0
  0
LINE
  5
293
330
147
100
AcDbEntity
  8
Stammform
  6
AUSGEZOGEN
 62
    56
370
    18
100
AcDbLine
 10
92.375
 20
95.451163095431
 30
0.0
 11
91.711046791077
 21
94.301163095431
 31
0.0
  0
LINE
  5
294
330
147
100
AcDbEntity
  8
Stammform
  6
AUSGEZOGEN
 62
    56
370
    18
100
AcDbLine
 10
92.375
 20
95.451163095431
 30
0.0
 11
93.702906417847
 21
95.451163095431
 31
0.0
  0
LINE
  5
295
330
147
100
AcDbEntity
  8
Stammform
  6
AUSGEZOGEN
 62
    56
370
    18
100
AcDbLine
 10
91.711046791077
 20
96.601163095431
 30
0.0
 11
92.375
 21
95.451163095431
 31
0.0
  0
LINE
  5
296
330
147
100
AcDbEntity
  8
Layer0
  6
AUSGEZOGEN
 62
     9
370
    18
100
AcDbLine
 10
91.711046791077
 20
96.601163095431
 30
0.0
 11
91.047093582153
 21
95.451163095431
 31
0.0
  0
LINE
  5
297
330
147
100
AcDbEntity
  8
Layer0
  6
AUSGEZOGEN
 62
     9
370
    18
100
AcDbLine
 10
91.047093582153
 20
95.451163095431
 30
0.0
 11
91.711046791077
 21
94.301163095431
 31
0.0
  0
LINE
  5
298
330
147
100
AcDbEntity
  8
Layer0
  6
AUSGEZOGEN
 62
     9
370
    18
100
AcDbLine
 10
91.711046791077
 20
94.301163095431
 30
0.0
 11
93.038953208923
 21
94.301163095431
 31
0.0
  0
LINE
  5
299
330
147
100
AcDbEntity
  8
Layer0
  6
AUSGEZOGEN
 62
     9
370
    18
100
AcDbLine
 10
93.038953208923
 20
94.301163095431
 30
0.0
 11
93.702906417847
 21
95.451163095431
 31
0.0
  0
LINE
  5
29A
330
147
100
AcDbEntity
  8
Layer0
  6
AUSGEZOGEN
 62
     9
370
    18
100
AcDbLine
 10
93.702906417847
 20
95.451163095431
 30
0.0
 11
93.038953208923
 21
96.601163095431
 31
0.0
  0
LINE
  5
29B
330
147
100
AcDbEntity
  8
Layer0
  6
AUSGEZOGEN
 62
     9
370
    18
100
AcDbLine
 10
93.038953208923
 20
96.601163095431
 30
0.0
 11
91.711046791077
 21
96.601163095431
 31
0.0
  0
LINE
  5
29C
330
147
100
AcDbEntity
  8
Layer0
  6
AUSGEZOGEN
 62
     9
370
    18
100
AcDbLine
 10
91.711046791077
 20
101.201163095431
 30
0.0
 11
93.038953208923
 21
101.201163095431
 31
0.0
  0
LINE
  5
29D
330
147
100
AcDbEntity
  8
Layer0
  6
AUSGEZOGEN
 62
     9
370
    18
100
AcDbLine
 10
93.038953208923
 20
101.201163095431
 30
0.0
 11
93.661245918237
 21
102.27900503684
 31
0.0
  0
LINE
  5
29E
330
147
100
AcDbEntity
  8
Stammform
  6
AUSGEZOGEN
 62
    56
370
    18
100
AcDbLine
 10
92.375
 20
102.351163095431
 30
0.0
 11
91.711046791077
 21
101.201163095431
 31
0.0
  0
LINE
  5
29F
330
147
100
AcDbEntity
  8
Stammform
  6
AUSGEZOGEN
 62
    56
370
    18
100
AcDbLine
 10
92.375
 20
100.051163095431
 30
0.0
 11
91.711046791077
 21
98.901163095431
 31
0.0
  0
LINE
  5
2A0
330
147
100
AcDbEntity
  8
Stammform
  6
AUSGEZOGEN
 62
    56
370
    18
100
AcDbLine
 10
92.375
 20
100.051163095431
 30
0.0
 11
93.702906417847
 21
100.051163095431
 31
0.0
  0
LINE
  5
2A1
330
147
100
AcDbEntity
  8
Stammform
  6
AUSGEZOGEN
 62
    56
370
    18
100
AcDbLine
 10
91.711046791077
 20
101.201163095431
 30
0.0
 11
92.375
 21
100.051163095431
 31
0.0
  0
LINE
  5
2A2
330
147
100
AcDbEntity
  8
Layer0
  6
AUSGEZOGEN
 62
     9
370
    18
100
AcDbLine
 10
91.711046791077
 20
101.201163095431
 30
0.0
 11
91.047093582153
 21
100.051163095431
 31
0.0
  0
LINE
  5
2A3
330
147
100
AcDbEntity
  8
Layer0
  6
AUSGEZOGEN
 62
     9
370
    18
100
AcDbLine
 10
91.047093582153
 20
100.051163095431
 30
0.0
 11
91.711046791077
 21
98.901163095431
 31
0.0
  0
LINE
  5
2A4
330
147
100
AcDbEntity
  8
Layer0
  6
AUSGEZOGEN
 62
     9
370
    18
100
AcDbLine
 10
91.711046791077
 20
98.901163095431
 30
0.0
 11
93.038953208923
 21
98.901163095431
 31
0.0
  0
LINE
  5
2A5
330
147
100
AcDbEntity
  8
Layer0
  6
AUSGEZOGEN
 62
     9
370
    18
100
AcDbLine
 10
93.038953208923
 20
98.901163095431
 30
0.0
 11
93.702906417847
 21
100.051163095431
 31
0.0
  0
LINE
  5
2A6
330
147
100
AcDbEntity
  8
Layer0
  6
AUSGEZOGEN
 62
     9
370
    18
100
AcDbLine
 10
93.702906417847
 20
100.051163095431
 30
0.0
 11
93.038953208923
 21
101.201163095431
 31
0.0
  0
LINE
  5
2A7
330
147
100
AcDbEntity
  8
Layer0
  6
AUSGEZOGEN
 62
     9
370
    18
100
AcDbLine
 10
93.038953208923
 20
101.201163095431
 30
0.0
 11
91.711046791077
 21
101.201163095431
 31
0.0
  0
LINE
  5
2A8
330
147
100
AcDbEntity
  8
Layer0
  6
AUSGEZOGEN
 62
     9
370
    18
100
AcDbLine
 10
91.711046791077
 20
82.801163095431
 30
0.0
 11
91.047093582153
 21
81.651163095431
 31
0.0
  0
LINE
  5
2A9
330
147
100
AcDbEntity
  8
Layer0
  6
AUSGEZOGEN
 62
     9
370
    18
100
AcDbLine
 10
91.047093582153
 20
81.651163095431
 30
0.0
 11
91.711046791077
 21
80.501163095431
 31
0.0
  0
LINE
  5
2AA
330
147
100
AcDbEntity
  8
Layer0
  6
AUSGEZOGEN
 62
     9
370
    18
100
AcDbLine
 10
91.711046791077
 20
80.501163095431
 30
0.0
 11
93.038953208923
 21
80.501163095431
 31
0.0
  0
LINE
  5
2AB
330
147
100
AcDbEntity
  8
Layer0
  6
AUSGEZOGEN
 62
     9
370
    18
100
AcDbLine
 10
93.038953208923
 20
80.501163095431
 30
0.0
 11
93.702906417847
 21
81.651163095431
 31
0.0
  0
LINE
  5
2AC
330
147
100
AcDbEntity
  8
Layer0
  6
AUSGEZOGEN
 62
     9
370
    18
100
AcDbLine
 10
93.702906417847
 20
81.651163095431
 30
0.0
 11
93.038953208923
 21
82.801163095431
 31
0.0
  0
LINE
  5
2AD
330
147
100
AcDbEntity
  8
Layer0
  6
AUSGEZOGEN
 62
     9
370
    18
100
AcDbLine
 10
93.038953208923
 20
82.801163095431
 30
0.0
 11
91.711046791077
 21
82.801163095431
 31
0.0
  0
LINE
  5
2AE
330
147
100
AcDbEntity
  8
Stammform
  6
AUSGEZOGEN
 62
    56
370
    18
100
AcDbLine
 10
91.711046791077
 20
82.801163095431
 30
0.0
 11
92.375
 21
81.651163095431
 31
0.0
  0
LINE
  5
2AF
330
147
100
AcDbEntity
  8
Stammform
  6
AUSGEZOGEN
 62
    56
370
    18
100
AcDbLine
 10
92.375
 20
81.651163095431
 30
0.0
 11
93.702906417847
 21
81.651163095431
 31
0.0
  0
LINE
  5
2B0
330
147
100
AcDbEntity
  8
Stammform
  6
AUSGEZOGEN
 62
    56
370
    18
100
AcDbLine
 10
92.375
 20
81.651163095431
 30
0.0
 11
91.711046791077
 21
80.501163095431
 31
0.0
  0
LINE
  5
2B1
330
147
100
AcDbEntity
  8
Stammform
  6
AUSGEZOGEN
 62
    56
370
    18
100
AcDbLine
 10
92.375
 20
83.951163095431
 30
0.0
 11
91.711046791077
 21
82.801163095431
 31
0.0
  0
LINE
  5
2B2
330
147
100
AcDbEntity
  8
Stammform
  6
AUSGEZOGEN
 62
    56
370
    18
100
AcDbLine
 10
92.375
 20
83.951163095431
 30
0.0
 11
93.702906417847
 21
83.951163095431
 31
0.0
  0
LINE
  5
2B3
330
147
100
AcDbEntity
  8
Stammform
  6
AUSGEZOGEN
 62
    56
370
    18
100
AcDbLine
 10
91.711046791077
 20
85.101163095431
 30
0.0
 11
92.375
 21
83.951163095431
 31
0.0
  0
LINE
  5
2B4
330
147
100
AcDbEntity
  8
Layer0
  6
AUSGEZOGEN
 62
     9
370
    18
100
AcDbLine
 10
91.711046791077
 20
85.101163095431
 30
0.0
 11
91.047093582153
 21
83.951163095431
 31
0.0
  0
LINE
  5
2B5
330
147
100
AcDbEntity
  8
Layer0
  6
AUSGEZOGEN
 62
     9
370
    18
100
AcDbLine
 10
91.047093582153
 20
83.951163095431
 30
0.0
 11
91.711046791077
 21
82.801163095431
 31
0.0
  0
LINE
  5
2B6
330
147
100
AcDbEntity
  8
Layer0
  6
AUSGEZOGEN
 62
     9
370
    18
100
AcDbLine
 10
91.711046791077
 20
82.801163095431
 30
0.0
 11
93.038953208923
 21
82.801163095431
 31
0.0
  0
LINE
  5
2B7
330
147
100
AcDbEntity
  8
Layer0
  6
AUSGEZOGEN
 62
     9
370
    18
100
AcDbLine
 10
93.038953208923
 20
82.801163095431
 30
0.0
 11
93.702906417847
 21
83.951163095431
 31
0.0
  0
LINE
  5
2B8
330
147
100
AcDbEntity
  8
Layer0
  6
AUSGEZOGEN
 62
     9
370
    18
100
AcDbLine
 10
93.702906417847
 20
83.951163095431
 30
0.0
 11
93.038953208923
 21
85.101163095431
 31
0.0
  0
LINE
  5
2B9
330
147
100
AcDbEntity
  8
Layer0
  6
AUSGEZOGEN
 62
     9
370
    18
100
AcDbLine
 10
93.038953208923
 20
85.101163095431
 30
0.0
 11
91.711046791077
 21
85.101163095431
 31
0.0
  0
LINE
  5
2BA
330
147
100
AcDbEntity
  8
Stammform
  6
AUSGEZOGEN
 62
    56
370
    18
100
AcDbLine
 10
91.711046791077
 20
80.501163095431
 30
0.0
 11
92.375
 21
79.351163095431
 31
0.0
  0
LINE
  5
2BB
330
147
100
AcDbEntity
  8
Layer0
  6
AUSGEZOGEN
 62
     9
370
    18
100
AcDbLine
 10
91.711046791077
 20
80.501163095431
 30
0.0
 11
91.047093582153
 21
79.351163095431
 31
0.0
  0
LINE
  5
2BC
330
147
100
AcDbEntity
  8
Layer0
  6
AUSGEZOGEN
 62
     9
370
    18
100
AcDbLine
 10
93.661245918237
 20
79.423321154023
 30
0.0
 11
93.038953208923
 21
80.501163095431
 31
0.0
  0
LINE
  5
2BD
330
147
100
AcDbEntity
  8
Layer0
  6
AUSGEZOGEN
 62
     9
370
    18
100
AcDbLine
 10
93.038953208923
 20
80.501163095431
 30
0.0
 11
91.711046791077
 21
80.501163095431
 31
0.0
  0
LINE
  5
2BE
330
147
100
AcDbEntity
  8
Layer0
  6
AUSGEZOGEN
 62
     9
370
    18
100
AcDbLine
 10
89.719187164307
 20
83.951163095431
 30
0.0
 11
89.055238342285
 21
82.801163095431
 31
0.0
  0
LINE
  5
2BF
330
147
100
AcDbEntity
  8
Layer0
  6
AUSGEZOGEN
 62
     9
370
    18
100
AcDbLine
 10
89.055238342285
 20
82.801163095431
 30
0.0
 11
89.719187164307
 21
81.651163095431
 31
0.0
  0
LINE
  5
2C0
330
147
100
AcDbEntity
  8
Layer0
  6
AUSGEZOGEN
 62
     9
370
    18
100
AcDbLine
 10
89.719187164307
 20
81.651163095431
 30
0.0
 11
91.047093582153
 21
81.651163095431
 31
0.0
  0
LINE
  5
2C1
330
147
100
AcDbEntity
  8
Layer0
  6
AUSGEZOGEN
 62
     9
370
    18
100
AcDbLine
 10
91.047093582153
 20
81.651163095431
 30
0.0
 11
91.711046791077
 21
82.801163095431
 31
0.0
  0
LINE
  5
2C2
330
147
100
AcDbEntity
  8
Layer0
  6
AUSGEZOGEN
 62
     9
370
    18
100
AcDbLine
 10
91.711046791077
 20
82.801163095431
 30
0.0
 11
91.047093582153
 21
83.951163095431
 31
0.0
  0
LINE
  5
2C3
330
147
100
AcDbEntity
  8
Layer0
  6
AUSGEZOGEN
 62
     9
370
    18
100
AcDbLine
 10
91.047093582153
 20
83.951163095431
 30
0.0
 11
89.719187164307
 21
83.951163095431
 31
0.0
  0
LINE
  5
2C4
330
147
100
AcDbEntity
  8
Stammform
  6
AUSGEZOGEN
 62
    56
370
    18
100
AcDbLine
 10
89.719187164307
 20
83.951163095431
 30
0.0
 11
90.38314037323
 21
82.801163095431
 31
0.0
  0
LINE
  5
2C5
330
147
100
AcDbEntity
  8
Stammform
  6
AUSGEZOGEN
 62
    56
370
    18
100
AcDbLine
 10
90.38314037323
 20
82.801163095431
 30
0.0
 11
91.711046791077
 21
82.801163095431
 31
0.0
  0
LINE
  5
2C6
330
147
100
AcDbEntity
  8
Stammform
  6
AUSGEZOGEN
 62
    56
370
    18
100
AcDbLine
 10
90.38314037323
 20
82.801163095431
 30
0.0
 11
89.719187164307
 21
81.651163095431
 31
0.0
  0
LINE
  5
2C7
330
147
100
AcDbEntity
  8
Stammform
  6
AUSGEZOGEN
 62
    56
370
    18
100
AcDbLine
 10
90.38314037323
 20
80.501163095431
 30
0.0
 11
89.877635903768
 21
79.625604197503
 31
0.0
  0
LINE
  5
2C8
330
147
100
AcDbEntity
  8
Stammform
  6
AUSGEZOGEN
 62
    56
370
    18
100
AcDbLine
 10
90.38314037323
 20
80.501163095431
 30
0.0
 11
91.711046791077
 21
80.501163095431
 31
0.0
  0
LINE
  5
2C9
330
147
100
AcDbEntity
  8
Stammform
  6
AUSGEZOGEN
 62
    56
370
    18
100
AcDbLine
 10
89.719187164307
 20
81.651163095431
 30
0.0
 11
90.38314037323
 21
80.501163095431
 31
0.0
  0
LINE
  5
2CA
330
147
100
AcDbEntity
  8
Layer0
  6
AUSGEZOGEN
 62
     9
370
    18
100
AcDbLine
 10
89.719187164307
 20
81.651163095431
 30
0.0
 11
89.055238342285
 21
80.501163095431
 31
0.0
  0
LINE
  5
2CB
330
147
100
AcDbEntity
  8
Layer0
  6
AUSGEZOGEN
 62
     9
370
    18
100
AcDbLine
 10
91.088754081763
 20
79.423321154023
 30
0.0
 11
91.711046791077
 21
80.501163095431
 31
0.0
  0
LINE
  5
2CC
330
147
100
AcDbEntity
  8
Layer0
  6
AUSGEZOGEN
 62
     9
370
    18
100
AcDbLine
 10
91.711046791077
 20
80.501163095431
 30
0.0
 11
91.047093582153
 21
81.651163095431
 31
0.0
  0
LINE
  5
2CD
330
147
100
AcDbEntity
  8
Layer0
  6
AUSGEZOGEN
 62
     9
370
    18
100
AcDbLine
 10
91.047093582153
 20
81.651163095431
 30
0.0
 11
89.719187164307
 21
81.651163095431
 31
0.0
  0
LINE
  5
2CE
330
147
100
AcDbEntity
  8
Layer0
  6
AUSGEZOGEN
 62
     9
370
    18
100
AcDbLine
 10
89.719187164307
 20
100.051163095431
 30
0.0
 11
89.055238342285
 21
98.901163095431
 31
0.0
  0
LINE
  5
2CF
330
147
100
AcDbEntity
  8
Layer0
  6
AUSGEZOGEN
 62
     9
370
    18
100
AcDbLine
 10
89.055238342285
 20
98.901163095431
 30
0.0
 11
89.719187164307
 21
97.751163095431
 31
0.0
  0
LINE
  5
2D0
330
147
100
AcDbEntity
  8
Layer0
  6
AUSGEZOGEN
 62
     9
370
    18
100
AcDbLine
 10
89.719187164307
 20
97.751163095431
 30
0.0
 11
91.047093582153
 21
97.751163095431
 31
0.0
  0
LINE
  5
2D1
330
147
100
AcDbEntity
  8
Layer0
  6
AUSGEZOGEN
 62
     9
370
    18
100
AcDbLine
 10
91.047093582153
 20
97.751163095431
 30
0.0
 11
91.711046791077
 21
98.901163095431
 31
0.0
  0
LINE
  5
2D2
330
147
100
AcDbEntity
  8
Layer0
  6
AUSGEZOGEN
 62
     9
370
    18
100
AcDbLine
 10
91.711046791077
 20
98.901163095431
 30
0.0
 11
91.047093582153
 21
100.051163095431
 31
0.0
  0
LINE
  5
2D3
330
147
100
AcDbEntity
  8
Layer0
  6
AUSGEZOGEN
 62
     9
370
    18
100
AcDbLine
 10
91.047093582153
 20
100.051163095431
 30
0.0
 11
89.719187164307
 21
100.051163095431
 31
0.0
  0
LINE
  5
2D4
330
147
100
AcDbEntity
  8
Stammform
  6
AUSGEZOGEN
 62
    56
370
    18
100
AcDbLine
 10
89.719187164307
 20
100.051163095431
 30
0.0
 11
90.38314037323
 21
98.901163095431
 31
0.0
  0
LINE
  5
2D5
330
147
100
AcDbEntity
  8
Stammform
  6
AUSGEZOGEN
 62
    56
370
    18
100
AcDbLine
 10
90.38314037323
 20
98.901163095431
 30
0.0
 11
91.711046791077
 21
98.901163095431
 31
0.0
  0
LINE
  5
2D6
330
147
100
AcDbEntity
  8
Stammform
  6
AUSGEZOGEN
 62
    56
370
    18
100
AcDbLine
 10
90.38314037323
 20
98.901163095431
 30
0.0
 11
89.719187164307
 21
97.751163095431
 31
0.0
  0
LINE
  5
2D7
330
147
100
AcDbEntity
  8
Stammform
  6
AUSGEZOGEN
 62
    56
370
    18
100
AcDbLine
 10
90.38314037323
 20
101.201163095431
 30
0.0
 11
89.719187164307
 21
100.051163095431
 31
0.0
  0
LINE
  5
2D8
330
147
100
AcDbEntity
  8
Stammform
  6
AUSGEZOGEN
 62
    56
370
    18
100
AcDbLine
 10
90.38314037323
 20
101.201163095431
 30
0.0
 11
91.711046791077
 21
101.201163095431
 31
0.0
  0
LINE
  5
2D9
330
147
100
AcDbEntity
  8
Stammform
  6
AUSGEZOGEN
 62
    56
370
    18
100
AcDbLine
 10
89.877635903768
 20
102.07672199336
 30
0.0
 11
90.38314037323
 21
101.201163095431
 31
0.0
  0
LINE
  5
2DA
330
147
100
AcDbEntity
  8
Layer0
  6
AUSGEZOGEN
 62
     9
370
    18
100
AcDbLine
 10
89.055238342285
 20
101.201163095431
 30
0.0
 11
89.719187164307
 21
100.051163095431
 31
0.0
  0
LINE
  5
2DB
330
147
100
AcDbEntity
  8
Layer0
  6
AUSGEZOGEN
 62
     9
370
    18
100
AcDbLine
 10
89.719187164307
 20
100.051163095431
 30
0.0
 11
91.047093582153
 21
100.051163095431
 31
0.0
  0
LINE
  5
2DC
330
147
100
AcDbEntity
  8
Layer0
  6
AUSGEZOGEN
 62
     9
370
    18
100
AcDbLine
 10
91.047093582153
 20
100.051163095431
 30
0.0
 11
91.711046791077
 21
101.201163095431
 31
0.0
  0
LINE
  5
2DD
330
147
100
AcDbEntity
  8
Layer0
  6
AUSGEZOGEN
 62
     9
370
    18
100
AcDbLine
 10
91.711046791077
 20
101.201163095431
 30
0.0
 11
91.088754081763
 21
102.27900503684
 31
0.0
  0
LINE
  5
2DE
330
147
100
AcDbEntity
  8
Layer0
  6
AUSGEZOGEN
 62
     9
370
    18
100
AcDbLine
 10
89.719187164307
 20
95.451163095431
 30
0.0
 11
89.055238342285
 21
94.301163095431
 31
0.0
  0
LINE
  5
2DF
330
147
100
AcDbEntity
  8
Layer0
  6
AUSGEZOGEN
 62
     9
370
    18
100
AcDbLine
 10
89.055238342285
 20
94.301163095431
 30
0.0
 11
89.719187164307
 21
93.151163095431
 31
0.0
  0
LINE
  5
2E0
330
147
100
AcDbEntity
  8
Layer0
  6
AUSGEZOGEN
 62
     9
370
    18
100
AcDbLine
 10
89.719187164307
 20
93.151163095431
 30
0.0
 11
91.047093582153
 21
93.151163095431
 31
0.0
  0
LINE
  5
2E1
330
147
100
AcDbEntity
  8
Layer0
  6
AUSGEZOGEN
 62
     9
370
    18
100
AcDbLine
 10
91.047093582153
 20
93.151163095431
 30
0.0
 11
91.711046791077
 21
94.301163095431
 31
0.0
  0
LINE
  5
2E2
330
147
100
AcDbEntity
  8
Layer0
  6
AUSGEZOGEN
 62
     9
370
    18
100
AcDbLine
 10
91.711046791077
 20
94.301163095431
 30
0.0
 11
91.047093582153
 21
95.451163095431
 31
0.0
  0
LINE
  5
2E3
330
147
100
AcDbEntity
  8
Layer0
  6
AUSGEZOGEN
 62
     9
370
    18
100
AcDbLine
 10
91.047093582153
 20
95.451163095431
 30
0.0
 11
89.719187164307
 21
95.451163095431
 31
0.0
  0
LINE
  5
2E4
330
147
100
AcDbEntity
  8
Stammform
  6
AUSGEZOGEN
 62
    56
370
    18
100
AcDbLine
 10
89.719187164307
 20
95.451163095431
 30
0.0
 11
90.38314037323
 21
94.301163095431
 31
0.0
  0
LINE
  5
2E5
330
147
100
AcDbEntity
  8
Stammform
  6
AUSGEZOGEN
 62
    56
370
    18
100
AcDbLine
 10
90.38314037323
 20
94.301163095431
 30
0.0
 11
91.711046791077
 21
94.301163095431
 31
0.0
  0
LINE
  5
2E6
330
147
100
AcDbEntity
  8
Stammform
  6
AUSGEZOGEN
 62
    56
370
    18
100
AcDbLine
 10
90.38314037323
 20
94.301163095431
 30
0.0
 11
89.719187164307
 21
93.151163095431
 31
0.0
  0
LINE
  5
2E7
330
147
100
AcDbEntity
  8
Stammform
  6
AUSGEZOGEN
 62
    56
370
    18
100
AcDbLine
 10
90.38314037323
 20
96.601163095431
 30
0.0
 11
89.719187164307
 21
95.451163095431
 31
0.0
  0
LINE
  5
2E8
330
147
100
AcDbEntity
  8
Stammform
  6
AUSGEZOGEN
 62
    56
370
    18
100
AcDbLine
 10
90.38314037323
 20
96.601163095431
 30
0.0
 11
91.711046791077
 21
96.601163095431
 31
0.0
  0
LINE
  5
2E9
330
147
100
AcDbEntity
  8
Stammform
  6
AUSGEZOGEN
 62
    56
370
    18
100
AcDbLine
 10
89.719187164307
 20
97.751163095431
 30
0.0
 11
90.38314037323
 21
96.601163095431
 31
0.0
  0
LINE
  5
2EA
330
147
100
AcDbEntity
  8
Layer0
  6
AUSGEZOGEN
 62
     9
370
    18
100
AcDbLine
 10
89.719187164307
 20
97.751163095431
 30
0.0
 11
89.055238342285
 21
96.601163095431
 31
0.0
  0
LINE
  5
2EB
330
147
100
AcDbEntity
  8
Layer0
  6
AUSGEZOGEN
 62
     9
370
    18
100
AcDbLine
 10
89.055238342285
 20
96.601163095431
 30
0.0
 11
89.719187164307
 21
95.451163095431
 31
0.0
  0
LINE
  5
2EC
330
147
100
AcDbEntity
  8
Layer0
  6
AUSGEZOGEN
 62
     9
370
    18
100
AcDbLine
 10
89.719187164307
 20
95.451163095431
 30
0.0
 11
91.047093582153
 21
95.451163095431
 31
0.0
  0
LINE
  5
2ED
330
147
100
AcDbEntity
  8
Layer0
  6
AUSGEZOGEN
 62
     9
370
    18
100
AcDbLine
 10
91.047093582153
 20
95.451163095431
 30
0.0
 11
91.711046791077
 21
96.601163095431
 31
0.0
  0
LINE
  5
2EE
330
147
100
AcDbEntity
  8
Layer0
  6
AUSGEZOGEN
 62
     9
370
    18
100
AcDbLine
 10
91.711046791077
 20
96.601163095431
 30
0.0
 11
91.047093582153
 21
97.751163095431
 31
0.0
  0
LINE
  5
2EF
330
147
100
AcDbEntity
  8
Layer0
  6
AUSGEZOGEN
 62
     9
370
    18
100
AcDbLine
 10
91.047093582153
 20
97.751163095431
 30
0.0
 11
89.719187164307
 21
97.751163095431
 31
0.0
  0
LINE
  5
2F0
330
147
100
AcDbEntity
  8
Layer0
  6
AUSGEZOGEN
 62
     9
370
    18
100
AcDbLine
 10
89.719187164307
 20
90.851163095431
 30
0.0
 11
89.055238342285
 21
89.701163095431
 31
0.0
  0
LINE
  5
2F1
330
147
100
AcDbEntity
  8
Layer0
  6
AUSGEZOGEN
 62
     9
370
    18
100
AcDbLine
 10
89.055238342285
 20
89.701163095431
 30
0.0
 11
89.719187164307
 21
88.551163095431
 31
0.0
  0
LINE
  5
2F2
330
147
100
AcDbEntity
  8
Layer0
  6
AUSGEZOGEN
 62
     9
370
    18
100
AcDbLine
 10
89.719187164307
 20
88.551163095431
 30
0.0
 11
91.047093582153
 21
88.551163095431
 31
0.0
  0
LINE
  5
2F3
330
147
100
AcDbEntity
  8
Layer0
  6
AUSGEZOGEN
 62
     9
370
    18
100
AcDbLine
 10
91.047093582153
 20
88.551163095431
 30
0.0
 11
91.711046791077
 21
89.701163095431
 31
0.0
  0
LINE
  5
2F4
330
147
100
AcDbEntity
  8
Layer0
  6
AUSGEZOGEN
 62
     9
370
    18
100
AcDbLine
 10
91.711046791077
 20
89.701163095431
 30
0.0
 11
91.047093582153
 21
90.851163095431
 31
0.0
  0
LINE
  5
2F5
330
147
100
AcDbEntity
  8
Layer0
  6
AUSGEZOGEN
 62
     9
370
    18
100
AcDbLine
 10
91.047093582153
 20
90.851163095431
 30
0.0
 11
89.719187164307
 21
90.851163095431
 31
0.0
  0
LINE
  5
2F6
330
147
100
AcDbEntity
  8
Stammform
  6
AUSGEZOGEN
 62
    56
370
    18
100
AcDbLine
 10
89.719187164307
 20
90.851163095431
 30
0.0
 11
90.38314037323
 21
89.701163095431
 31
0.0
  0
LINE
  5
2F7
330
147
100
AcDbEntity
  8
Stammform
  6
AUSGEZOGEN
 62
    56
370
    18
100
AcDbLine
 10
90.38314037323
 20
89.701163095431
 30
0.0
 11
91.711046791077
 21
89.701163095431
 31
0.0
  0
LINE
  5
2F8
330
147
100
AcDbEntity
  8
Stammform
  6
AUSGEZOGEN
 62
    56
370
    18
100
AcDbLine
 10
90.38314037323
 20
89.701163095431
 30
0.0
 11
89.719187164307
 21
88.551163095431
 31
0.0
  0
LINE
  5
2F9
330
147
100
AcDbEntity
  8
Stammform
  6
AUSGEZOGEN
 62
    56
370
    18
100
AcDbLine
 10
90.38314037323
 20
92.001163095431
 30
0.0
 11
89.719187164307
 21
90.851163095431
 31
0.0
  0
LINE
  5
2FA
330
147
100
AcDbEntity
  8
Stammform
  6
AUSGEZOGEN
 62
    56
370
    18
100
AcDbLine
 10
90.38314037323
 20
92.001163095431
 30
0.0
 11
91.711046791077
 21
92.001163095431
 31
0.0
  0
LINE
  5
2FB
330
147
100
AcDbEntity
  8
Stammform
  6
AUSGEZOGEN
 62
    56
370
    18
100
AcDbLine
 10
89.719187164307
 20
93.151163095431
 30
0.0
 11
90.38314037323
 21
92.001163095431
 31
0.0
  0
LINE
  5
2FC
330
147
100
AcDbEntity
  8
Layer0
  6
AUSGEZOGEN
 62
     9
370
    18
100
AcDbLine
 10
89.719187164307
 20
93.151163095431
 30
0.0
 11
89.055238342285
 21
92.001163095431
 31
0.0
  0
LINE
  5
2FD
330
147
100
AcDbEntity
  8
Layer0
  6
AUSGEZOGEN
 62
     9
370
    18
100
AcDbLine
 10
89.055238342285
 20
92.001163095431
 30
0.0
 11
89.719187164307
 21
90.851163095431
 31
0.0
  0
LINE
  5
2FE
330
147
100
AcDbEntity
  8
Layer0
  6
AUSGEZOGEN
 62
     9
370
    18
100
AcDbLine
 10
89.719187164307
 20
90.851163095431
 30
0.0
 11
91.047093582153
 21
90.851163095431
 31
0.0
  0
LINE
  5
2FF
330
147
100
AcDbEntity
  8
Layer0
  6
AUSGEZOGEN
 62
     9
370
    18
100
AcDbLine
 10
91.047093582153
 20
90.851163095431
 30
0.0
 11
91.711046791077
 21
92.001163095431
 31
0.0
  0
LINE
  5
300
330
147
100
AcDbEntity
  8
Layer0
  6
AUSGEZOGEN
 62
     9
370
    18
100
AcDbLine
 10
91.711046791077
 20
92.001163095431
 30
0.0
 11
91.047093582153
 21
93.151163095431
 31
0.0
  0
LINE
  5
301
330
147
100
AcDbEntity
  8
Layer0
  6
AUSGEZOGEN
 62
     9
370
    18
100
AcDbLine
 10
91.047093582153
 20
93.151163095431
 30
0.0
 11
89.719187164307
 21
93.151163095431
 31
0.0
  0
LINE
  5
302
330
147
100
AcDbEntity
  8
Layer0
  6
AUSGEZOGEN
 62
     9
370
    18
100
AcDbLine
 10
89.719187164307
 20
88.551163095431
 30
0.0
 11
89.055238342285
 21
87.401163095431
 31
0.0
  0
LINE
  5
303
330
147
100
AcDbEntity
  8
Layer0
  6
AUSGEZOGEN
 62
     9
370
    18
100
AcDbLine
 10
89.055238342285
 20
87.401163095431
 30
0.0
 11
89.719187164307
 21
86.251163095431
 31
0.0
  0
LINE
  5
304
330
147
100
AcDbEntity
  8
Layer0
  6
AUSGEZOGEN
 62
     9
370
    18
100
AcDbLine
 10
89.719187164307
 20
86.251163095431
 30
0.0
 11
91.047093582153
 21
86.251163095431
 31
0.0
  0
LINE
  5
305
330
147
100
AcDbEntity
  8
Layer0
  6
AUSGEZOGEN
 62
     9
370
    18
100
AcDbLine
 10
91.047093582153
 20
86.251163095431
 30
0.0
 11
91.711046791077
 21
87.401163095431
 31
0.0
  0
LINE
  5
306
330
147
100
AcDbEntity
  8
Layer0
  6
AUSGEZOGEN
 62
     9
370
    18
100
AcDbLine
 10
91.711046791077
 20
87.401163095431
 30
0.0
 11
91.047093582153
 21
88.551163095431
 31
0.0
  0
LINE
  5
307
330
147
100
AcDbEntity
  8
Layer0
  6
AUSGEZOGEN
 62
     9
370
    18
100
AcDbLine
 10
91.047093582153
 20
88.551163095431
 30
0.0
 11
89.719187164307
 21
88.551163095431
 31
0.0
  0
LINE
  5
308
330
147
100
AcDbEntity
  8
Stammform
  6
AUSGEZOGEN
 62
    56
370
    18
100
AcDbLine
 10
89.719187164307
 20
88.551163095431
 30
0.0
 11
90.38314037323
 21
87.401163095431
 31
0.0
  0
LINE
  5
309
330
147
100
AcDbEntity
  8
Stammform
  6
AUSGEZOGEN
 62
    56
370
    18
100
AcDbLine
 10
90.38314037323
 20
87.401163095431
 30
0.0
 11
91.711046791077
 21
87.401163095431
 31
0.0
  0
LINE
  5
30A
330
147
100
AcDbEntity
  8
Stammform
  6
AUSGEZOGEN
 62
    56
370
    18
100
AcDbLine
 10
90.38314037323
 20
87.401163095431
 30
0.0
 11
89.719187164307
 21
86.251163095431
 31
0.0
  0
LINE
  5
30B
330
147
100
AcDbEntity
  8
Stammform
  6
AUSGEZOGEN
 62
    56
370
    18
100
AcDbLine
 10
90.38314037323
 20
85.101163095431
 30
0.0
 11
89.719187164307
 21
83.951163095431
 31
0.0
  0
LINE
  5
30C
330
147
100
AcDbEntity
  8
Stammform
  6
AUSGEZOGEN
 62
    56
370
    18
100
AcDbLine
 10
90.38314037323
 20
85.101163095431
 30
0.0
 11
91.711046791077
 21
85.101163095431
 31
0.0
  0
LINE
  5
30D
330
147
100
AcDbEntity
  8
Stammform
  6
AUSGEZOGEN
 62
    56
370
    18
100
AcDbLine
 10
89.719187164307
 20
86.251163095431
 30
0.0
 11
90.38314037323
 21
85.101163095431
 31
0.0
  0
LINE
  5
30E
330
147
100
AcDbEntity
  8
Layer0
  6
AUSGEZOGEN
 62
     9
370
    18
100
AcDbLine
 10
89.719187164307
 20
86.251163095431
 30
0.0
 11
89.055238342285
 21
85.101163095431
 31
0.0
  0
LINE
  5
30F
330
147
100
AcDbEntity
  8
Layer0
  6
AUSGEZOGEN
 62
     9
370
    18
100
AcDbLine
 10
89.055238342285
 20
85.101163095431
 30
0.0
 11
89.719187164307
 21
83.951163095431
 31
0.0
  0
LINE
  5
310
330
147
100
AcDbEntity
  8
Layer0
  6
AUSGEZOGEN
 62
     9
370
    18
100
AcDbLine
 10
89.719187164307
 20
83.951163095431
 30
0.0
 11
91.047093582153
 21
83.951163095431
 31
0.0
  0
LINE
  5
311
330
147
100
AcDbEntity
  8
Layer0
  6
AUSGEZOGEN
 62
     9
370
    18
100
AcDbLine
 10
91.047093582153
 20
83.951163095431
 30
0.0
 11
91.711046791077
 21
85.101163095431
 31
0.0
  0
LINE
  5
312
330
147
100
AcDbEntity
  8
Layer0
  6
AUSGEZOGEN
 62
     9
370
    18
100
AcDbLine
 10
91.711046791077
 20
85.101163095431
 30
0.0
 11
91.047093582153
 21
86.251163095431
 31
0.0
  0
LINE
  5
313
330
147
100
AcDbEntity
  8
Layer0
  6
AUSGEZOGEN
 62
     9
370
    18
100
AcDbLine
 10
91.047093582153
 20
86.251163095431
 30
0.0
 11
89.719187164307
 21
86.251163095431
 31
0.0
  0
LINE
  5
314
330
147
100
AcDbEntity
  8
Layer0
  6
AUSGEZOGEN
 62
     9
370
    18
100
AcDbLine
 10
95.694766044617
 20
87.401163095431
 30
0.0
 11
95.030812835693
 21
86.251163095431
 31
0.0
  0
LINE
  5
315
330
147
100
AcDbEntity
  8
Layer0
  6
AUSGEZOGEN
 62
     9
370
    18
100
AcDbLine
 10
95.030812835693
 20
86.251163095431
 30
0.0
 11
95.694766044617
 21
85.101163095431
 31
0.0
  0
LINE
  5
316
330
147
100
AcDbEntity
  8
Layer0
  6
AUSGEZOGEN
 62
     9
370
    18
100
AcDbLine
 10
95.694766044617
 20
85.101163095431
 30
0.0
 11
97.022672462463
 21
85.101163095431
 31
0.0
  0
LINE
  5
317
330
147
100
AcDbEntity
  8
Layer0
  6
AUSGEZOGEN
 62
     9
370
    18
100
AcDbLine
 10
97.022672462463
 20
85.101163095431
 30
0.0
 11
97.686621284485
 21
86.251163095431
 31
0.0
  0
LINE
  5
318
330
147
100
AcDbEntity
  8
Layer0
  6
AUSGEZOGEN
 62
     9
370
    18
100
AcDbLine
 10
97.686621284485
 20
86.251163095431
 30
0.0
 11
97.022672462463
 21
87.401163095431
 31
0.0
  0
LINE
  5
319
330
147
100
AcDbEntity
  8
Layer0
  6
AUSGEZOGEN
 62
     9
370
    18
100
AcDbLine
 10
97.022672462463
 20
87.401163095431
 30
0.0
 11
95.694766044617
 21
87.401163095431
 31
0.0
  0
LINE
  5
31A
330
147
100
AcDbEntity
  8
Stammform
  6
AUSGEZOGEN
 62
    56
370
    18
100
AcDbLine
 10
95.694766044617
 20
87.401163095431
 30
0.0
 11
96.358714866638
 21
86.251163095431
 31
0.0
  0
LINE
  5
31B
330
147
100
AcDbEntity
  8
Stammform
  6
AUSGEZOGEN
 62
    56
370
    18
100
AcDbLine
 10
96.358714866638
 20
86.251163095431
 30
0.0
 11
97.686621284485
 21
86.251163095431
 31
0.0
  0
LINE
  5
31C
330
147
100
AcDbEntity
  8
Stammform
  6
AUSGEZOGEN
 62
    56
370
    18
100
AcDbLine
 10
96.358714866638
 20
86.251163095431
 30
0.0
 11
95.694766044617
 21
85.101163095431
 31
0.0
  0
LINE
  5
31D
330
147
100
AcDbEntity
  8
Stammform
  6
AUSGEZOGEN
 62
    56
370
    18
100
AcDbLine
 10
96.358714866638
 20
88.551163095431
 30
0.0
 11
95.694766044617
 21
87.401163095431
 31
0.0
  0
LINE
  5
31E
330
147
100
AcDbEntity
  8
Stammform
  6
AUSGEZOGEN
 62
    56
370
    18
100
AcDbLine
 10
96.358714866638
 20
88.551163095431
 30
0.0
 11
97.686621284485
 21
88.551163095431
 31
0.0
  0
LINE
  5
31F
330
147
100
AcDbEntity
  8
Stammform
  6
AUSGEZOGEN
 62
    56
370
    18
100
AcDbLine
 10
95.694766044617
 20
89.701163095431
 30
0.0
 11
96.358714866638
 21
88.551163095431
 31
0.0
  0
LINE
  5
320
330
147
100
AcDbEntity
  8
Layer0
  6
AUSGEZOGEN
 62
     9
370
    18
100
AcDbLine
 10
95.694766044617
 20
89.701163095431
 30
0.0
 11
95.030812835693
 21
88.551163095431
 31
0.0
  0
LINE
  5
321
330
147
100
AcDbEntity
  8
Layer0
  6
AUSGEZOGEN
 62
     9
370
    18
100
AcDbLine
 10
95.030812835693
 20
88.551163095431
 30
0.0
 11
95.694766044617
 21
87.401163095431
 31
0.0
  0
LINE
  5
322
330
147
100
AcDbEntity
  8
Layer0
  6
AUSGEZOGEN
 62
     9
370
    18
100
AcDbLine
 10
95.694766044617
 20
87.401163095431
 30
0.0
 11
97.022672462463
 21
87.401163095431
 31
0.0
  0
LINE
  5
323
330
147
100
AcDbEntity
  8
Layer0
  6
AUSGEZOGEN
 62
     9
370
    18
100
AcDbLine
 10
97.022672462463
 20
87.401163095431
 30
0.0
 11
97.686621284485
 21
88.551163095431
 31
0.0
  0
LINE
  5
324
330
147
100
AcDbEntity
  8
Layer0
  6
AUSGEZOGEN
 62
     9
370
    18
100
AcDbLine
 10
97.686621284485
 20
88.551163095431
 30
0.0
 11
97.022672462463
 21
89.701163095431
 31
0.0
  0
LINE
  5
325
330
147
100
AcDbEntity
  8
Layer0
  6
AUSGEZOGEN
 62
     9
370
    18
100
AcDbLine
 10
97.022672462463
 20
89.701163095431
 30
0.0
 11
95.694766044617
 21
89.701163095431
 31
0.0
  0
LINE
  5
326
330
147
100
AcDbEntity
  8
Layer0
  6
AUSGEZOGEN
 62
     9
370
    18
100
AcDbLine
 10
95.694766044617
 20
94.301163095431
 30
0.0
 11
95.030812835693
 21
93.151163095431
 31
0.0
  0
LINE
  5
327
330
147
100
AcDbEntity
  8
Layer0
  6
AUSGEZOGEN
 62
     9
370
    18
100
AcDbLine
 10
95.030812835693
 20
93.151163095431
 30
0.0
 11
95.694766044617
 21
92.001163095431
 31
0.0
  0
LINE
  5
328
330
147
100
AcDbEntity
  8
Layer0
  6
AUSGEZOGEN
 62
     9
370
    18
100
AcDbLine
 10
95.694766044617
 20
92.001163095431
 30
0.0
 11
97.022672462463
 21
92.001163095431
 31
0.0
  0
LINE
  5
329
330
147
100
AcDbEntity
  8
Layer0
  6
AUSGEZOGEN
 62
     9
370
    18
100
AcDbLine
 10
97.022672462463
 20
92.001163095431
 30
0.0
 11
97.686621284485
 21
93.151163095431
 31
0.0
  0
LINE
  5
32A
330
147
100
AcDbEntity
  8
Layer0
  6
AUSGEZOGEN
 62
     9
370
    18
100
AcDbLine
 10
97.686621284485
 20
93.151163095431
 30
0.0
 11
97.022672462463
 21
94.301163095431
 31
0.0
  0
LINE
  5
32B
330
147
100
AcDbEntity
  8
Layer0
  6
AUSGEZOGEN
 62
     9
370
    18
100
AcDbLine
 10
97.022672462463
 20
94.301163095431
 30
0.0
 11
95.694766044617
 21
94.301163095431
 31
0.0
  0
LINE
  5
32C
330
147
100
AcDbEntity
  8
Stammform
  6
AUSGEZOGEN
 62
    56
370
    18
100
AcDbLine
 10
95.694766044617
 20
94.301163095431
 30
0.0
 11
96.358714866638
 21
93.151163095431
 31
0.0
  0
LINE
  5
32D
330
147
100
AcDbEntity
  8
Stammform
  6
AUSGEZOGEN
 62
    56
370
    18
100
AcDbLine
 10
96.358714866638
 20
93.151163095431
 30
0.0
 11
97.686621284485
 21
93.151163095431
 31
0.0
  0
LINE
  5
32E
330
147
100
AcDbEntity
  8
Stammform
  6
AUSGEZOGEN
 62
    56
370
    18
100
AcDbLine
 10
96.358714866638
 20
93.151163095431
 30
0.0
 11
95.694766044617
 21
92.001163095431
 31
0.0
  0
LINE
  5
32F
330
147
100
AcDbEntity
  8
Stammform
  6
AUSGEZOGEN
 62
    56
370
    18
100
AcDbLine
 10
96.358714866638
 20
90.851163095431
 30
0.0
 11
95.694766044617
 21
89.701163095431
 31
0.0
  0
LINE
  5
330
330
147
100
AcDbEntity
  8
Stammform
  6
AUSGEZOGEN
 62
    56
370
    18
100
AcDbLine
 10
96.358714866638
 20
90.851163095431
 30
0.0
 11
97.686621284485
 21
90.851163095431
 31
0.0
  0
LINE
  5
331
330
147
100
AcDbEntity
  8
Stammform
  6
AUSGEZOGEN
 62
    56
370
    18
100
AcDbLine
 10
95.694766044617
 20
92.001163095431
 30
0.0
 11
96.358714866638
 21
90.851163095431
 31
0.0
  0
LINE
  5
332
330
147
100
AcDbEntity
  8
Layer0
  6
AUSGEZOGEN
 62
     9
370
    18
100
AcDbLine
 10
95.694766044617
 20
92.001163095431
 30
0.0
 11
95.030812835693
 21
90.851163095431
 31
0.0
  0
LINE
  5
333
330
147
100
AcDbEntity
  8
Layer0
  6
AUSGEZOGEN
 62
     9
370
    18
100
AcDbLine
 10
95.030812835693
 20
90.851163095431
 30
0.0
 11
95.694766044617
 21
89.701163095431
 31
0.0
  0
LINE
  5
334
330
147
100
AcDbEntity
  8
Layer0
  6
AUSGEZOGEN
 62
     9
370
    18
100
AcDbLine
 10
95.694766044617
 20
89.701163095431
 30
0.0
 11
97.022672462463
 21
89.701163095431
 31
0.0
  0
LINE
  5
335
330
147
100
AcDbEntity
  8
Layer0
  6
AUSGEZOGEN
 62
     9
370
    18
100
AcDbLine
 10
97.022672462463
 20
89.701163095431
 30
0.0
 11
97.686621284485
 21
90.851163095431
 31
0.0
  0
LINE
  5
336
330
147
100
AcDbEntity
  8
Layer0
  6
AUSGEZOGEN
 62
     9
370
    18
100
AcDbLine
 10
97.686621284485
 20
90.851163095431
 30
0.0
 11
97.022672462463
 21
92.001163095431
 31
0.0
  0
LINE
  5
337
330
147
100
AcDbEntity
  8
Layer0
  6
AUSGEZOGEN
 62
     9
370
    18
100
AcDbLine
 10
97.022672462463
 20
92.001163095431
 30
0.0
 11
95.694766044617
 21
92.001163095431
 31
0.0
  0
LINE
  5
338
330
147
100
AcDbEntity
  8
Layer0
  6
AUSGEZOGEN
 62
     9
370
    18
100
AcDbLine
 10
95.694766044617
 20
98.901163095431
 30
0.0
 11
95.030812835693
 21
97.751163095431
 31
0.0
  0
LINE
  5
339
330
147
100
AcDbEntity
  8
Layer0
  6
AUSGEZOGEN
 62
     9
370
    18
100
AcDbLine
 10
95.030812835693
 20
97.751163095431
 30
0.0
 11
95.694766044617
 21
96.601163095431
 31
0.0
  0
LINE
  5
33A
330
147
100
AcDbEntity
  8
Layer0
  6
AUSGEZOGEN
 62
     9
370
    18
100
AcDbLine
 10
95.694766044617
 20
96.601163095431
 30
0.0
 11
97.022672462463
 21
96.601163095431
 31
0.0
  0
LINE
  5
33B
330
147
100
AcDbEntity
  8
Layer0
  6
AUSGEZOGEN
 62
     9
370
    18
100
AcDbLine
 10
97.022672462463
 20
96.601163095431
 30
0.0
 11
97.686621284485
 21
97.751163095431
 31
0.0
  0
LINE
  5
33C
330
147
100
AcDbEntity
  8
Layer0
  6
AUSGEZOGEN
 62
     9
370
    18
100
AcDbLine
 10
97.686621284485
 20
97.751163095431
 30
0.0
 11
97.022672462463
 21
98.901163095431
 31
0.0
  0
LINE
  5
33D
330
147
100
AcDbEntity
  8
Layer0
  6
AUSGEZOGEN
 62
     9
370
    18
100
AcDbLine
 10
97.022672462463
 20
98.901163095431
 30
0.0
 11
95.694766044617
 21
98.901163095431
 31
0.0
  0
LINE
  5
33E
330
147
100
AcDbEntity
  8
Stammform
  6
AUSGEZOGEN
 62
    56
370
    18
100
AcDbLine
 10
95.694766044617
 20
98.901163095431
 30
0.0
 11
96.358714866638
 21
97.751163095431
 31
0.0
  0
LINE
  5
33F
330
147
100
AcDbEntity
  8
Stammform
  6
AUSGEZOGEN
 62
    56
370
    18
100
AcDbLine
 10
96.358714866638
 20
97.751163095431
 30
0.0
 11
97.686621284485
 21
97.751163095431
 31
0.0
  0
LINE
  5
340
330
147
100
AcDbEntity
  8
Stammform
  6
AUSGEZOGEN
 62
    56
370
    18
100
AcDbLine
 10
96.358714866638
 20
97.751163095431
 30
0.0
 11
95.694766044617
 21
96.601163095431
 31
0.0
  0
LINE
  5
341
330
147
100
AcDbEntity
  8
Stammform
  6
AUSGEZOGEN
 62
    56
370
    18
100
AcDbLine
 10
96.358714866638
 20
95.451163095431
 30
0.0
 11
95.694766044617
 21
94.301163095431
 31
0.0
  0
LINE
  5
342
330
147
100
AcDbEntity
  8
Stammform
  6
AUSGEZOGEN
 62
    56
370
    18
100
AcDbLine
 10
96.358714866638
 20
95.451163095431
 30
0.0
 11
97.686621284485
 21
95.451163095431
 31
0.0
  0
LINE
  5
343
330
147
100
AcDbEntity
  8
Stammform
  6
AUSGEZOGEN
 62
    56
370
    18
100
AcDbLine
 10
95.694766044617
 20
96.601163095431
 30
0.0
 11
96.358714866638
 21
95.451163095431
 31
0.0
  0
LINE
  5
344
330
147
100
AcDbEntity
  8
Layer0
  6
AUSGEZOGEN
 62
     9
370
    18
100
AcDbLine
 10
95.694766044617
 20
96.601163095431
 30
0.0
 11
95.030812835693
 21
95.451163095431
 31
0.0
  0
LINE
  5
345
330
147
100
AcDbEntity
  8
Layer0
  6
AUSGEZOGEN
 62
     9
370
    18
100
AcDbLine
 10
95.030812835693
 20
95.451163095431
 30
0.0
 11
95.694766044617
 21
94.301163095431
 31
0.0
  0
LINE
  5
346
330
147
100
AcDbEntity
  8
Layer0
  6
AUSGEZOGEN
 62
     9
370
    18
100
AcDbLine
 10
95.694766044617
 20
94.301163095431
 30
0.0
 11
97.022672462463
 21
94.301163095431
 31
0.0
  0
LINE
  5
347
330
147
100
AcDbEntity
  8
Layer0
  6
AUSGEZOGEN
 62
     9
370
    18
100
AcDbLine
 10
97.022672462463
 20
94.301163095431
 30
0.0
 11
97.686621284485
 21
95.451163095431
 31
0.0
  0
LINE
  5
348
330
147
100
AcDbEntity
  8
Layer0
  6
AUSGEZOGEN
 62
     9
370
    18
100
AcDbLine
 10
97.686621284485
 20
95.451163095431
 30
0.0
 11
97.022672462463
 21
96.601163095431
 31
0.0
  0
LINE
  5
349
330
147
100
AcDbEntity
  8
Layer0
  6
AUSGEZOGEN
 62
     9
370
    18
100
AcDbLine
 10
97.022672462463
 20
96.601163095431
 30
0.0
 11
95.694766044617
 21
96.601163095431
 31
0.0
  0
LINE
  5
34A
330
147
100
AcDbEntity
  8
Layer0
  6
AUSGEZOGEN
 62
     9
370
    18
100
AcDbLine
 10
95.240185178025
 20
101.988519778937
 30
0.0
 11
95.694766044617
 21
101.201163095431
 31
0.0
  0
LINE
  5
34B
330
147
100
AcDbEntity
  8
Layer0
  6
AUSGEZOGEN
 62
     9
370
    18
100
AcDbLine
 10
95.694766044617
 20
101.201163095431
 30
0.0
 11
97.022672462463
 21
101.201163095431
 31
0.0
  0
LINE
  5
34C
330
147
100
AcDbEntity
  8
Layer0
  6
AUSGEZOGEN
 62
     9
370
    18
100
AcDbLine
 10
97.022672462463
 20
101.201163095431
 30
0.0
 11
97.100250397569
 21
101.335532827574
 31
0.0
  0
LINE
  5
34D
330
147
100
AcDbEntity
  8
Stammform
  6
AUSGEZOGEN
 62
    56
370
    18
100
AcDbLine
 10
96.016968031421
 20
101.759236658536
 30
0.0
 11
95.694766044617
 21
101.201163095431
 31
0.0
  0
LINE
  5
34E
330
147
100
AcDbEntity
  8
Stammform
  6
AUSGEZOGEN
 62
    56
370
    18
100
AcDbLine
 10
96.358714866638
 20
100.051163095431
 30
0.0
 11
95.694766044617
 21
98.901163095431
 31
0.0
  0
LINE
  5
34F
330
147
100
AcDbEntity
  8
Stammform
  6
AUSGEZOGEN
 62
    56
370
    18
100
AcDbLine
 10
96.358714866638
 20
100.051163095431
 30
0.0
 11
97.686621284485
 21
100.051163095431
 31
0.0
  0
LINE
  5
350
330
147
100
AcDbEntity
  8
Stammform
  6
AUSGEZOGEN
 62
    56
370
    18
100
AcDbLine
 10
95.694766044617
 20
101.201163095431
 30
0.0
 11
96.358714866638
 21
100.051163095431
 31
0.0
  0
LINE
  5
351
330
147
100
AcDbEntity
  8
Layer0
  6
AUSGEZOGEN
 62
     9
370
    18
100
AcDbLine
 10
95.694766044617
 20
101.201163095431
 30
0.0
 11
95.030812835693
 21
100.051163095431
 31
0.0
  0
LINE
  5
352
330
147
100
AcDbEntity
  8
Layer0
  6
AUSGEZOGEN
 62
     9
370
    18
100
AcDbLine
 10
95.030812835693
 20
100.051163095431
 30
0.0
 11
95.694766044617
 21
98.901163095431
 31
0.0
  0
LINE
  5
353
330
147
100
AcDbEntity
  8
Layer0
  6
AUSGEZOGEN
 62
     9
370
    18
100
AcDbLine
 10
95.694766044617
 20
98.901163095431
 30
0.0
 11
97.022672462463
 21
98.901163095431
 31
0.0
  0
LINE
  5
354
330
147
100
AcDbEntity
  8
Layer0
  6
AUSGEZOGEN
 62
     9
370
    18
100
AcDbLine
 10
97.022672462463
 20
98.901163095431
 30
0.0
 11
97.686621284485
 21
100.051163095431
 31
0.0
  0
LINE
  5
355
330
147
100
AcDbEntity
  8
Layer0
  6
AUSGEZOGEN
 62
     9
370
    18
100
AcDbLine
 10
97.686621284485
 20
100.051163095431
 30
0.0
 11
97.022672462463
 21
101.201163095431
 31
0.0
  0
LINE
  5
356
330
147
100
AcDbEntity
  8
Layer0
  6
AUSGEZOGEN
 62
     9
370
    18
100
AcDbLine
 10
97.022672462463
 20
101.201163095431
 30
0.0
 11
95.694766044617
 21
101.201163095431
 31
0.0
  0
LINE
  5
357
330
147
100
AcDbEntity
  8
Layer0
  6
AUSGEZOGEN
 62
     9
370
    18
100
AcDbLine
 10
95.694766044617
 20
82.801163095431
 30
0.0
 11
95.030812835693
 21
81.651163095431
 31
0.0
  0
LINE
  5
358
330
147
100
AcDbEntity
  8
Layer0
  6
AUSGEZOGEN
 62
     9
370
    18
100
AcDbLine
 10
95.030812835693
 20
81.651163095431
 30
0.0
 11
95.694766044617
 21
80.501163095431
 31
0.0
  0
LINE
  5
359
330
147
100
AcDbEntity
  8
Layer0
  6
AUSGEZOGEN
 62
     9
370
    18
100
AcDbLine
 10
95.694766044617
 20
80.501163095431
 30
0.0
 11
97.022672462463
 21
80.501163095431
 31
0.0
  0
LINE
  5
35A
330
147
100
AcDbEntity
  8
Layer0
  6
AUSGEZOGEN
 62
     9
370
    18
100
AcDbLine
 10
97.022672462463
 20
80.501163095431
 30
0.0
 11
97.686621284485
 21
81.651163095431
 31
0.0
  0
LINE
  5
35B
330
147
100
AcDbEntity
  8
Layer0
  6
AUSGEZOGEN
 62
     9
370
    18
100
AcDbLine
 10
97.686621284485
 20
81.651163095431
 30
0.0
 11
97.022672462463
 21
82.801163095431
 31
0.0
  0
LINE
  5
35C
330
147
100
AcDbEntity
  8
Layer0
  6
AUSGEZOGEN
 62
     9
370
    18
100
AcDbLine
 10
97.022672462463
 20
82.801163095431
 30
0.0
 11
95.694766044617
 21
82.801163095431
 31
0.0
  0
LINE
  5
35D
330
147
100
AcDbEntity
  8
Stammform
  6
AUSGEZOGEN
 62
    56
370
    18
100
AcDbLine
 10
95.694766044617
 20
82.801163095431
 30
0.0
 11
96.358714866638
 21
81.651163095431
 31
0.0
  0
LINE
  5
35E
330
147
100
AcDbEntity
  8
Stammform
  6
AUSGEZOGEN
 62
    56
370
    18
100
AcDbLine
 10
96.358714866638
 20
81.651163095431
 30
0.0
 11
97.686621284485
 21
81.651163095431
 31
0.0
  0
LINE
  5
35F
330
147
100
AcDbEntity
  8
Stammform
  6
AUSGEZOGEN
 62
    56
370
    18
100
AcDbLine
 10
96.358714866638
 20
81.651163095431
 30
0.0
 11
95.694766044617
 21
80.501163095431
 31
0.0
  0
LINE
  5
360
330
147
100
AcDbEntity
  8
Stammform
  6
AUSGEZOGEN
 62
    56
370
    18
100
AcDbLine
 10
96.358714866638
 20
83.951163095431
 30
0.0
 11
95.694766044617
 21
82.801163095431
 31
0.0
  0
LINE
  5
361
330
147
100
AcDbEntity
  8
Stammform
  6
AUSGEZOGEN
 62
    56
370
    18
100
AcDbLine
 10
96.358714866638
 20
83.951163095431
 30
0.0
 11
97.686621284485
 21
83.951163095431
 31
0.0
  0
LINE
  5
362
330
147
100
AcDbEntity
  8
Stammform
  6
AUSGEZOGEN
 62
    56
370
    18
100
AcDbLine
 10
95.694766044617
 20
85.101163095431
 30
0.0
 11
96.358714866638
 21
83.951163095431
 31
0.0
  0
LINE
  5
363
330
147
100
AcDbEntity
  8
Layer0
  6
AUSGEZOGEN
 62
     9
370
    18
100
AcDbLine
 10
95.694766044617
 20
85.101163095431
 30
0.0
 11
95.030812835693
 21
83.951163095431
 31
0.0
  0
LINE
  5
364
330
147
100
AcDbEntity
  8
Layer0
  6
AUSGEZOGEN
 62
     9
370
    18
100
AcDbLine
 10
95.030812835693
 20
83.951163095431
 30
0.0
 11
95.694766044617
 21
82.801163095431
 31
0.0
  0
LINE
  5
365
330
147
100
AcDbEntity
  8
Layer0
  6
AUSGEZOGEN
 62
     9
370
    18
100
AcDbLine
 10
95.694766044617
 20
82.801163095431
 30
0.0
 11
97.022672462463
 21
82.801163095431
 31
0.0
  0
LINE
  5
366
330
147
100
AcDbEntity
  8
Layer0
  6
AUSGEZOGEN
 62
     9
370
    18
100
AcDbLine
 10
97.022672462463
 20
82.801163095431
 30
0.0
 11
97.686621284485
 21
83.951163095431
 31
0.0
  0
LINE
  5
367
330
147
100
AcDbEntity
  8
Layer0
  6
AUSGEZOGEN
 62
     9
370
    18
100
AcDbLine
 10
97.686621284485
 20
83.951163095431
 30
0.0
 11
97.022672462463
 21
85.101163095431
 31
0.0
  0
LINE
  5
368
330
147
100
AcDbEntity
  8
Layer0
  6
AUSGEZOGEN
 62
     9
370
    18
100
AcDbLine
 10
97.022672462463
 20
85.101163095431
 30
0.0
 11
95.694766044617
 21
85.101163095431
 31
0.0
  0
LINE
  5
369
330
147
100
AcDbEntity
  8
Stammform
  6
AUSGEZOGEN
 62
    56
370
    18
100
AcDbLine
 10
95.694766044617
 20
80.501163095431
 30
0.0
 11
96.016968031421
 21
79.943089532327
 31
0.0
  0
LINE
  5
36A
330
147
100
AcDbEntity
  8
Layer0
  6
AUSGEZOGEN
 62
     9
370
    18
100
AcDbLine
 10
95.694766044617
 20
80.501163095431
 30
0.0
 11
95.240185178025
 21
79.713806411926
 31
0.0
  0
LINE
  5
36B
330
147
100
AcDbEntity
  8
Layer0
  6
AUSGEZOGEN
 62
     9
370
    18
100
AcDbLine
 10
97.100250397569
 20
80.366793363289
 30
0.0
 11
97.022672462463
 21
80.501163095431
 31
0.0
  0
LINE
  5
36C
330
147
100
AcDbEntity
  8
Layer0
  6
AUSGEZOGEN
 62
     9
370
    18
100
AcDbLine
 10
97.022672462463
 20
80.501163095431
 30
0.0
 11
95.694766044617
 21
80.501163095431
 31
0.0
  0
LINE
  5
36D
330
147
100
AcDbEntity
  8
Layer0
  6
AUSGEZOGEN
 62
     9
370
    18
100
AcDbLine
 10
93.702906417847
 20
83.951163095431
 30
0.0
 11
93.038953208923
 21
82.801163095431
 31
0.0
  0
LINE
  5
36E
330
147
100
AcDbEntity
  8
Layer0
  6
AUSGEZOGEN
 62
     9
370
    18
100
AcDbLine
 10
93.038953208923
 20
82.801163095431
 30
0.0
 11
93.702906417847
 21
81.651163095431
 31
0.0
  0
LINE
  5
36F
330
147
100
AcDbEntity
  8
Layer0
  6
AUSGEZOGEN
 62
     9
370
    18
100
AcDbLine
 10
93.702906417847
 20
81.651163095431
 30
0.0
 11
95.030812835693
 21
81.651163095431
 31
0.0
  0
LINE
  5
370
330
147
100
AcDbEntity
  8
Layer0
  6
AUSGEZOGEN
 62
     9
370
    18
100
AcDbLine
 10
95.030812835693
 20
81.651163095431
 30
0.0
 11
95.694766044617
 21
82.801163095431
 31
0.0
  0
LINE
  5
371
330
147
100
AcDbEntity
  8
Layer0
  6
AUSGEZOGEN
 62
     9
370
    18
100
AcDbLine
 10
95.694766044617
 20
82.801163095431
 30
0.0
 11
95.030812835693
 21
83.951163095431
 31
0.0
  0
LINE
  5
372
330
147
100
AcDbEntity
  8
Layer0
  6
AUSGEZOGEN
 62
     9
370
    18
100
AcDbLine
 10
95.030812835693
 20
83.951163095431
 30
0.0
 11
93.702906417847
 21
83.951163095431
 31
0.0
  0
LINE
  5
373
330
147
100
AcDbEntity
  8
Stammform
  6
AUSGEZOGEN
 62
    56
370
    18
100
AcDbLine
 10
93.702906417847
 20
83.951163095431
 30
0.0
 11
94.36685962677
 21
82.801163095431
 31
0.0
  0
LINE
  5
374
330
147
100
AcDbEntity
  8
Stammform
  6
AUSGEZOGEN
 62
    56
370
    18
100
AcDbLine
 10
94.36685962677
 20
82.801163095431
 30
0.0
 11
95.694766044617
 21
82.801163095431
 31
0.0
  0
LINE
  5
375
330
147
100
AcDbEntity
  8
Stammform
  6
AUSGEZOGEN
 62
    56
370
    18
100
AcDbLine
 10
94.36685962677
 20
82.801163095431
 30
0.0
 11
93.702906417847
 21
81.651163095431
 31
0.0
  0
LINE
  5
376
330
147
100
AcDbEntity
  8
Stammform
  6
AUSGEZOGEN
 62
    56
370
    18
100
AcDbLine
 10
94.36685962677
 20
80.501163095431
 30
0.0
 11
93.75057617535
 21
79.43372948775
 31
0.0
  0
LINE
  5
377
330
147
100
AcDbEntity
  8
Stammform
  6
AUSGEZOGEN
 62
    56
370
    18
100
AcDbLine
 10
94.36685962677
 20
80.501163095431
 30
0.0
 11
95.694766044617
 21
80.501163095431
 31
0.0
  0
LINE
  5
378
330
147
100
AcDbEntity
  8
Stammform
  6
AUSGEZOGEN
 62
    56
370
    18
100
AcDbLine
 10
93.702906417847
 20
81.651163095431
 30
0.0
 11
94.36685962677
 21
80.501163095431
 31
0.0
  0
LINE
  5
379
330
147
100
AcDbEntity
  8
Layer0
  6
AUSGEZOGEN
 62
     9
370
    18
100
AcDbLine
 10
93.702906417847
 20
81.651163095431
 30
0.0
 11
93.038953208923
 21
80.501163095431
 31
0.0
  0
LINE
  5
37A
330
147
100
AcDbEntity
  8
Layer0
  6
AUSGEZOGEN
 62
     9
370
    18
100
AcDbLine
 10
93.038953208923
 20
80.501163095431
 30
0.0
 11
93.702906417847
 21
79.351163095431
 31
0.0
  0
LINE
  5
37B
330
147
100
AcDbEntity
  8
Layer0
  6
AUSGEZOGEN
 62
     9
370
    18
100
AcDbLine
 10
95.694766044617
 20
80.501163095431
 30
0.0
 11
95.030812835693
 21
81.651163095431
 31
0.0
  0
LINE
  5
37C
330
147
100
AcDbEntity
  8
Layer0
  6
AUSGEZOGEN
 62
     9
370
    18
100
AcDbLine
 10
95.030812835693
 20
81.651163095431
 30
0.0
 11
93.702906417847
 21
81.651163095431
 31
0.0
  0
LINE
  5
37D
330
147
100
AcDbEntity
  8
Layer0
  6
AUSGEZOGEN
 62
     9
370
    18
100
AcDbLine
 10
93.702906417847
 20
100.051163095431
 30
0.0
 11
93.038953208923
 21
98.901163095431
 31
0.0
  0
LINE
  5
37E
330
147
100
AcDbEntity
  8
Layer0
  6
AUSGEZOGEN
 62
     9
370
    18
100
AcDbLine
 10
93.038953208923
 20
98.901163095431
 30
0.0
 11
93.702906417847
 21
97.751163095431
 31
0.0
  0
LINE
  5
37F
330
147
100
AcDbEntity
  8
Layer0
  6
AUSGEZOGEN
 62
     9
370
    18
100
AcDbLine
 10
93.702906417847
 20
97.751163095431
 30
0.0
 11
95.030812835693
 21
97.751163095431
 31
0.0
  0
LINE
  5
380
330
147
100
AcDbEntity
  8
Layer0
  6
AUSGEZOGEN
 62
     9
370
    18
100
AcDbLine
 10
95.030812835693
 20
97.751163095431
 30
0.0
 11
95.694766044617
 21
98.901163095431
 31
0.0
  0
LINE
  5
381
330
147
100
AcDbEntity
  8
Layer0
  6
AUSGEZOGEN
 62
     9
370
    18
100
AcDbLine
 10
95.694766044617
 20
98.901163095431
 30
0.0
 11
95.030812835693
 21
100.051163095431
 31
0.0
  0
LINE
  5
382
330
147
100
AcDbEntity
  8
Layer0
  6
AUSGEZOGEN
 62
     9
370
    18
100
AcDbLine
 10
95.030812835693
 20
100.051163095431
 30
0.0
 11
93.702906417847
 21
100.051163095431
 31
0.0
  0
LINE
  5
383
330
147
100
AcDbEntity
  8
Stammform
  6
AUSGEZOGEN
 62
    56
370
    18
100
AcDbLine
 10
93.702906417847
 20
100.051163095431
 30
0.0
 11
94.36685962677
 21
98.901163095431
 31
0.0
  0
LINE
  5
384
330
147
100
AcDbEntity
  8
Stammform
  6
AUSGEZOGEN
 62
    56
370
    18
100
AcDbLine
 10
94.36685962677
 20
98.901163095431
 30
0.0
 11
95.694766044617
 21
98.901163095431
 31
0.0
  0
LINE
  5
385
330
147
100
AcDbEntity
  8
Stammform
  6
AUSGEZOGEN
 62
    56
370
    18
100
AcDbLine
 10
94.36685962677
 20
98.901163095431
 30
0.0
 11
93.702906417847
 21
97.751163095431
 31
0.0
  0
LINE
  5
386
330
147
100
AcDbEntity
  8
Stammform
  6
AUSGEZOGEN
 62
    56
370
    18
100
AcDbLine
 10
94.36685962677
 20
101.201163095431
 30
0.0
 11
93.702906417847
 21
100.051163095431
 31
0.0
  0
LINE
  5
387
330
147
100
AcDbEntity
  8
Stammform
  6
AUSGEZOGEN
 62
    56
370
    18
100
AcDbLine
 10
94.36685962677
 20
101.201163095431
 30
0.0
 11
95.694766044617
 21
101.201163095431
 31
0.0
  0
LINE
  5
388
330
147
100
AcDbEntity
  8
Stammform
  6
AUSGEZOGEN
 62
    56
370
    18
100
AcDbLine
 10
93.75057617535
 20
102.268596703113
 30
0.0
 11
94.36685962677
 21
101.201163095431
 31
0.0
  0
LINE
  5
389
330
147
100
AcDbEntity
  8
Layer0
  6
AUSGEZOGEN
 62
     9
370
    18
100
AcDbLine
 10
93.038953208923
 20
101.201163095431
 30
0.0
 11
93.702906417847
 21
100.051163095431
 31
0.0
  0
LINE
  5
38A
330
147
100
AcDbEntity
  8
Layer0
  6
AUSGEZOGEN
 62
     9
370
    18
100
AcDbLine
 10
93.702906417847
 20
100.051163095431
 30
0.0
 11
95.030812835693
 21
100.051163095431
 31
0.0
  0
LINE
  5
38B
330
147
100
AcDbEntity
  8
Layer0
  6
AUSGEZOGEN
 62
     9
370
    18
100
AcDbLine
 10
95.030812835693
 20
100.051163095431
 30
0.0
 11
95.694766044617
 21
101.201163095431
 31
0.0
  0
LINE
  5
38C
330
147
100
AcDbEntity
  8
Layer0
  6
AUSGEZOGEN
 62
     9
370
    18
100
AcDbLine
 10
93.702906417847
 20
95.451163095431
 30
0.0
 11
93.038953208923
 21
94.301163095431
 31
0.0
  0
LINE
  5
38D
330
147
100
AcDbEntity
  8
Layer0
  6
AUSGEZOGEN
 62
     9
370
    18
100
AcDbLine
 10
93.038953208923
 20
94.301163095431
 30
0.0
 11
93.702906417847
 21
93.151163095431
 31
0.0
  0
LINE
  5
38E
330
147
100
AcDbEntity
  8
Layer0
  6
AUSGEZOGEN
 62
     9
370
    18
100
AcDbLine
 10
93.702906417847
 20
93.151163095431
 30
0.0
 11
95.030812835693
 21
93.151163095431
 31
0.0
  0
LINE
  5
38F
330
147
100
AcDbEntity
  8
Layer0
  6
AUSGEZOGEN
 62
     9
370
    18
100
AcDbLine
 10
95.030812835693
 20
93.151163095431
 30
0.0
 11
95.694766044617
 21
94.301163095431
 31
0.0
  0
LINE
  5
390
330
147
100
AcDbEntity
  8
Layer0
  6
AUSGEZOGEN
 62
     9
370
    18
100
AcDbLine
 10
95.694766044617
 20
94.301163095431
 30
0.0
 11
95.030812835693
 21
95.451163095431
 31
0.0
  0
LINE
  5
391
330
147
100
AcDbEntity
  8
Layer0
  6
AUSGEZOGEN
 62
     9
370
    18
100
AcDbLine
 10
95.030812835693
 20
95.451163095431
 30
0.0
 11
93.702906417847
 21
95.451163095431
 31
0.0
  0
LINE
  5
392
330
147
100
AcDbEntity
  8
Stammform
  6
AUSGEZOGEN
 62
    56
370
    18
100
AcDbLine
 10
93.702906417847
 20
95.451163095431
 30
0.0
 11
94.36685962677
 21
94.301163095431
 31
0.0
  0
LINE
  5
393
330
147
100
AcDbEntity
  8
Stammform
  6
AUSGEZOGEN
 62
    56
370
    18
100
AcDbLine
 10
94.36685962677
 20
94.301163095431
 30
0.0
 11
95.694766044617
 21
94.301163095431
 31
0.0
  0
LINE
  5
394
330
147
100
AcDbEntity
  8
Stammform
  6
AUSGEZOGEN
 62
    56
370
    18
100
AcDbLine
 10
94.36685962677
 20
94.301163095431
 30
0.0
 11
93.702906417847
 21
93.151163095431
 31
0.0
  0
LINE
  5
395
330
147
100
AcDbEntity
  8
Stammform
  6
AUSGEZOGEN
 62
    56
370
    18
100
AcDbLine
 10
94.36685962677
 20
96.601163095431
 30
0.0
 11
93.702906417847
 21
95.451163095431
 31
0.0
  0
LINE
  5
396
330
147
100
AcDbEntity
  8
Stammform
  6
AUSGEZOGEN
 62
    56
370
    18
100
AcDbLine
 10
94.36685962677
 20
96.601163095431
 30
0.0
 11
95.694766044617
 21
96.601163095431
 31
0.0
  0
LINE
  5
397
330
147
100
AcDbEntity
  8
Stammform
  6
AUSGEZOGEN
 62
    56
370
    18
100
AcDbLine
 10
93.702906417847
 20
97.751163095431
 30
0.0
 11
94.36685962677
 21
96.601163095431
 31
0.0
  0
LINE
  5
398
330
147
100
AcDbEntity
  8
Layer0
  6
AUSGEZOGEN
 62
     9
370
    18
100
AcDbLine
 10
93.702906417847
 20
97.751163095431
 30
0.0
 11
93.038953208923
 21
96.601163095431
 31
0.0
  0
LINE
  5
399
330
147
100
AcDbEntity
  8
Layer0
  6
AUSGEZOGEN
 62
     9
370
    18
100
AcDbLine
 10
93.038953208923
 20
96.601163095431
 30
0.0
 11
93.702906417847
 21
95.451163095431
 31
0.0
  0
LINE
  5
39A
330
147
100
AcDbEntity
  8
Layer0
  6
AUSGEZOGEN
 62
     9
370
    18
100
AcDbLine
 10
93.702906417847
 20
95.451163095431
 30
0.0
 11
95.030812835693
 21
95.451163095431
 31
0.0
  0
LINE
  5
39B
330
147
100
AcDbEntity
  8
Layer0
  6
AUSGEZOGEN
 62
     9
370
    18
100
AcDbLine
 10
95.030812835693
 20
95.451163095431
 30
0.0
 11
95.694766044617
 21
96.601163095431
 31
0.0
  0
LINE
  5
39C
330
147
100
AcDbEntity
  8
Layer0
  6
AUSGEZOGEN
 62
     9
370
    18
100
AcDbLine
 10
95.694766044617
 20
96.601163095431
 30
0.0
 11
95.030812835693
 21
97.751163095431
 31
0.0
  0
LINE
  5
39D
330
147
100
AcDbEntity
  8
Layer0
  6
AUSGEZOGEN
 62
     9
370
    18
100
AcDbLine
 10
95.030812835693
 20
97.751163095431
 30
0.0
 11
93.702906417847
 21
97.751163095431
 31
0.0
  0
LINE
  5
39E
330
147
100
AcDbEntity
  8
Layer0
  6
AUSGEZOGEN
 62
     9
370
    18
100
AcDbLine
 10
93.702906417847
 20
90.851163095431
 30
0.0
 11
93.038953208923
 21
89.701163095431
 31
0.0
  0
LINE
  5
39F
330
147
100
AcDbEntity
  8
Layer0
  6
AUSGEZOGEN
 62
     9
370
    18
100
AcDbLine
 10
93.038953208923
 20
89.701163095431
 30
0.0
 11
93.702906417847
 21
88.551163095431
 31
0.0
  0
LINE
  5
3A0
330
147
100
AcDbEntity
  8
Layer0
  6
AUSGEZOGEN
 62
     9
370
    18
100
AcDbLine
 10
93.702906417847
 20
88.551163095431
 30
0.0
 11
95.030812835693
 21
88.551163095431
 31
0.0
  0
LINE
  5
3A1
330
147
100
AcDbEntity
  8
Layer0
  6
AUSGEZOGEN
 62
     9
370
    18
100
AcDbLine
 10
95.030812835693
 20
88.551163095431
 30
0.0
 11
95.694766044617
 21
89.701163095431
 31
0.0
  0
LINE
  5
3A2
330
147
100
AcDbEntity
  8
Layer0
  6
AUSGEZOGEN
 62
     9
370
    18
100
AcDbLine
 10
95.694766044617
 20
89.701163095431
 30
0.0
 11
95.030812835693
 21
90.851163095431
 31
0.0
  0
LINE
  5
3A3
330
147
100
AcDbEntity
  8
Layer0
  6
AUSGEZOGEN
 62
     9
370
    18
100
AcDbLine
 10
95.030812835693
 20
90.851163095431
 30
0.0
 11
93.702906417847
 21
90.851163095431
 31
0.0
  0
LINE
  5
3A4
330
147
100
AcDbEntity
  8
Stammform
  6
AUSGEZOGEN
 62
    56
370
    18
100
AcDbLine
 10
93.702906417847
 20
90.851163095431
 30
0.0
 11
94.36685962677
 21
89.701163095431
 31
0.0
  0
LINE
  5
3A5
330
147
100
AcDbEntity
  8
Stammform
  6
AUSGEZOGEN
 62
    56
370
    18
100
AcDbLine
 10
94.36685962677
 20
89.701163095431
 30
0.0
 11
95.694766044617
 21
89.701163095431
 31
0.0
  0
LINE
  5
3A6
330
147
100
AcDbEntity
  8
Stammform
  6
AUSGEZOGEN
 62
    56
370
    18
100
AcDbLine
 10
94.36685962677
 20
89.701163095431
 30
0.0
 11
93.702906417847
 21
88.551163095431
 31
0.0
  0
LINE
  5
3A7
330
147
100
AcDbEntity
  8
Stammform
  6
AUSGEZOGEN
 62
    56
370
    18
100
AcDbLine
 10
94.36685962677
 20
92.001163095431
 30
0.0
 11
93.702906417847
 21
90.851163095431
 31
0.0
  0
LINE
  5
3A8
330
147
100
AcDbEntity
  8
Stammform
  6
AUSGEZOGEN
 62
    56
370
    18
100
AcDbLine
 10
94.36685962677
 20
92.001163095431
 30
0.0
 11
95.694766044617
 21
92.001163095431
 31
0.0
  0
LINE
  5
3A9
330
147
100
AcDbEntity
  8
Stammform
  6
AUSGEZOGEN
 62
    56
370
    18
100
AcDbLine
 10
93.702906417847
 20
93.151163095431
 30
0.0
 11
94.36685962677
 21
92.001163095431
 31
0.0
  0
LINE
  5
3AA
330
147
100
AcDbEntity
  8
Layer0
  6
AUSGEZOGEN
 62
     9
370
    18
100
AcDbLine
 10
93.702906417847
 20
93.151163095431
 30
0.0
 11
93.038953208923
 21
92.001163095431
 31
0.0
  0
LINE
  5
3AB
330
147
100
AcDbEntity
  8
Layer0
  6
AUSGEZOGEN
 62
     9
370
    18
100
AcDbLine
 10
93.038953208923
 20
92.001163095431
 30
0.0
 11
93.702906417847
 21
90.851163095431
 31
0.0
  0
LINE
  5
3AC
330
147
100
AcDbEntity
  8
Layer0
  6
AUSGEZOGEN
 62
     9
370
    18
100
AcDbLine
 10
93.702906417847
 20
90.851163095431
 30
0.0
 11
95.030812835693
 21
90.851163095431
 31
0.0
  0
LINE
  5
3AD
330
147
100
AcDbEntity
  8
Layer0
  6
AUSGEZOGEN
 62
     9
370
    18
100
AcDbLine
 10
95.030812835693
 20
90.851163095431
 30
0.0
 11
95.694766044617
 21
92.001163095431
 31
0.0
  0
LINE
  5
3AE
330
147
100
AcDbEntity
  8
Layer0
  6
AUSGEZOGEN
 62
     9
370
    18
100
AcDbLine
 10
95.694766044617
 20
92.001163095431
 30
0.0
 11
95.030812835693
 21
93.151163095431
 31
0.0
  0
LINE
  5
3AF
330
147
100
AcDbEntity
  8
Layer0
  6
AUSGEZOGEN
 62
     9
370
    18
100
AcDbLine
 10
95.030812835693
 20
93.151163095431
 30
0.0
 11
93.702906417847
 21
93.151163095431
 31
0.0
  0
LINE
  5
3B0
330
147
100
AcDbEntity
  8
Layer0
  6
AUSGEZOGEN
 62
     9
370
    18
100
AcDbLine
 10
93.702906417847
 20
88.551163095431
 30
0.0
 11
93.038953208923
 21
87.401163095431
 31
0.0
  0
LINE
  5
3B1
330
147
100
AcDbEntity
  8
Layer0
  6
AUSGEZOGEN
 62
     9
370
    18
100
AcDbLine
 10
93.038953208923
 20
87.401163095431
 30
0.0
 11
93.702906417847
 21
86.251163095431
 31
0.0
  0
LINE
  5
3B2
330
147
100
AcDbEntity
  8
Layer0
  6
AUSGEZOGEN
 62
     9
370
    18
100
AcDbLine
 10
93.702906417847
 20
86.251163095431
 30
0.0
 11
95.030812835693
 21
86.251163095431
 31
0.0
  0
LINE
  5
3B3
330
147
100
AcDbEntity
  8
Layer0
  6
AUSGEZOGEN
 62
     9
370
    18
100
AcDbLine
 10
95.030812835693
 20
86.251163095431
 30
0.0
 11
95.694766044617
 21
87.401163095431
 31
0.0
  0
LINE
  5
3B4
330
147
100
AcDbEntity
  8
Layer0
  6
AUSGEZOGEN
 62
     9
370
    18
100
AcDbLine
 10
95.694766044617
 20
87.401163095431
 30
0.0
 11
95.030812835693
 21
88.551163095431
 31
0.0
  0
LINE
  5
3B5
330
147
100
AcDbEntity
  8
Layer0
  6
AUSGEZOGEN
 62
     9
370
    18
100
AcDbLine
 10
95.030812835693
 20
88.551163095431
 30
0.0
 11
93.702906417847
 21
88.551163095431
 31
0.0
  0
LINE
  5
3B6
330
147
100
AcDbEntity
  8
Stammform
  6
AUSGEZOGEN
 62
    56
370
    18
100
AcDbLine
 10
93.702906417847
 20
88.551163095431
 30
0.0
 11
94.36685962677
 21
87.401163095431
 31
0.0
  0
LINE
  5
3B7
330
147
100
AcDbEntity
  8
Stammform
  6
AUSGEZOGEN
 62
    56
370
    18
100
AcDbLine
 10
94.36685962677
 20
87.401163095431
 30
0.0
 11
95.694766044617
 21
87.401163095431
 31
0.0
  0
LINE
  5
3B8
330
147
100
AcDbEntity
  8
Stammform
  6
AUSGEZOGEN
 62
    56
370
    18
100
AcDbLine
 10
94.36685962677
 20
87.401163095431
 30
0.0
 11
93.702906417847
 21
86.251163095431
 31
0.0
  0
LINE
  5
3B9
330
147
100
AcDbEntity
  8
Stammform
  6
AUSGEZOGEN
 62
    56
370
    18
100
AcDbLine
 10
94.36685962677
 20
85.101163095431
 30
0.0
 11
93.702906417847
 21
83.951163095431
 31
0.0
  0
LINE
  5
3BA
330
147
100
AcDbEntity
  8
Stammform
  6
AUSGEZOGEN
 62
    56
370
    18
100
AcDbLine
 10
94.36685962677
 20
85.101163095431
 30
0.0
 11
95.694766044617
 21
85.101163095431
 31
0.0
  0
LINE
  5
3BB
330
147
100
AcDbEntity
  8
Stammform
  6
AUSGEZOGEN
 62
    56
370
    18
100
AcDbLine
 10
93.702906417847
 20
86.251163095431
 30
0.0
 11
94.36685962677
 21
85.101163095431
 31
0.0
  0
LINE
  5
3BC
330
147
100
AcDbEntity
  8
Layer0
  6
AUSGEZOGEN
 62
     9
370
    18
100
AcDbLine
 10
93.702906417847
 20
86.251163095431
 30
0.0
 11
93.038953208923
 21
85.101163095431
 31
0.0
  0
LINE
  5
3BD
330
147
100
AcDbEntity
  8
Layer0
  6
AUSGEZOGEN
 62
     9
370
    18
100
AcDbLine
 10
93.038953208923
 20
85.101163095431
 30
0.0
 11
93.702906417847
 21
83.951163095431
 31
0.0
  0
LINE
  5
3BE
330
147
100
AcDbEntity
  8
Layer0
  6
AUSGEZOGEN
 62
     9
370
    18
100
AcDbLine
 10
93.702906417847
 20
83.951163095431
 30
0.0
 11
95.030812835693
 21
83.951163095431
 31
0.0
  0
LINE
  5
3BF
330
147
100
AcDbEntity
  8
Layer0
  6
AUSGEZOGEN
 62
     9
370
    18
100
AcDbLine
 10
95.030812835693
 20
83.951163095431
 30
0.0
 11
95.694766044617
 21
85.101163095431
 31
0.0
  0
LINE
  5
3C0
330
147
100
AcDbEntity
  8
Layer0
  6
AUSGEZOGEN
 62
     9
370
    18
100
AcDbLine
 10
95.694766044617
 20
85.101163095431
 30
0.0
 11
95.030812835693
 21
86.251163095431
 31
0.0
  0
LINE
  5
3C1
330
147
100
AcDbEntity
  8
Layer0
  6
AUSGEZOGEN
 62
     9
370
    18
100
AcDbLine
 10
95.030812835693
 20
86.251163095431
 30
0.0
 11
93.702906417847
 21
86.251163095431
 31
0.0
  0
LINE
  5
3C2
330
147
100
AcDbEntity
  8
Layer0
  6
AUSGEZOGEN
 62
     9
370
    18
100
AcDbLine
 10
99.678485298157
 20
87.401163095431
 30
0.0
 11
99.014527702332
 21
86.251163095431
 31
0.0
  0
LINE
  5
3C3
330
147
100
AcDbEntity
  8
Layer0
  6
AUSGEZOGEN
 62
     9
370
    18
100
AcDbLine
 10
99.014527702332
 20
86.251163095431
 30
0.0
 11
99.678485298157
 21
85.101163095431
 31
0.0
  0
LINE
  5
3C4
330
147
100
AcDbEntity
  8
Layer0
  6
AUSGEZOGEN
 62
     9
370
    18
100
AcDbLine
 10
99.678485298157
 20
85.101163095431
 30
0.0
 11
101.0063829422
 21
85.101163095431
 31
0.0
  0
LINE
  5
3C5
330
147
100
AcDbEntity
  8
Layer0
  6
AUSGEZOGEN
 62
     9
370
    18
100
AcDbLine
 10
101.0063829422
 20
85.101163095431
 30
0.0
 11
101.670340538025
 21
86.251163095431
 31
0.0
  0
LINE
  5
3C6
330
147
100
AcDbEntity
  8
Layer0
  6
AUSGEZOGEN
 62
     9
370
    18
100
AcDbLine
 10
101.670340538025
 20
86.251163095431
 30
0.0
 11
101.0063829422
 21
87.401163095431
 31
0.0
  0
LINE
  5
3C7
330
147
100
AcDbEntity
  8
Layer0
  6
AUSGEZOGEN
 62
     9
370
    18
100
AcDbLine
 10
101.0063829422
 20
87.401163095431
 30
0.0
 11
99.678485298157
 21
87.401163095431
 31
0.0
  0
LINE
  5
3C8
330
147
100
AcDbEntity
  8
Stammform
  6
AUSGEZOGEN
 62
    56
370
    18
100
AcDbLine
 10
99.678485298157
 20
87.401163095431
 30
0.0
 11
100.342434120178
 21
86.251163095431
 31
0.0
  0
LINE
  5
3C9
330
147
100
AcDbEntity
  8
Stammform
  6
AUSGEZOGEN
 62
    56
370
    18
100
AcDbLine
 10
100.342434120178
 20
86.251163095431
 30
0.0
 11
101.670340538025
 21
86.251163095431
 31
0.0
  0
LINE
  5
3CA
330
147
100
AcDbEntity
  8
Stammform
  6
AUSGEZOGEN
 62
    56
370
    18
100
AcDbLine
 10
100.342434120178
 20
86.251163095431
 30
0.0
 11
99.678485298157
 21
85.101163095431
 31
0.0
  0
LINE
  5
3CB
330
147
100
AcDbEntity
  8
Stammform
  6
AUSGEZOGEN
 62
    56
370
    18
100
AcDbLine
 10
100.342434120178
 20
88.551163095431
 30
0.0
 11
99.678485298157
 21
87.401163095431
 31
0.0
  0
LINE
  5
3CC
330
147
100
AcDbEntity
  8
Stammform
  6
AUSGEZOGEN
 62
    56
370
    18
100
AcDbLine
 10
100.342434120178
 20
88.551163095431
 30
0.0
 11
101.670340538025
 21
88.551163095431
 31
0.0
  0
LINE
  5
3CD
330
147
100
AcDbEntity
  8
Stammform
  6
AUSGEZOGEN
 62
    56
370
    18
100
AcDbLine
 10
99.678485298157
 20
89.701163095431
 30
0.0
 11
100.342434120178
 21
88.551163095431
 31
0.0
  0
LINE
  5
3CE
330
147
100
AcDbEntity
  8
Layer0
  6
AUSGEZOGEN
 62
     9
370
    18
100
AcDbLine
 10
99.678485298157
 20
89.701163095431
 30
0.0
 11
99.014527702332
 21
88.551163095431
 31
0.0
  0
LINE
  5
3CF
330
147
100
AcDbEntity
  8
Layer0
  6
AUSGEZOGEN
 62
     9
370
    18
100
AcDbLine
 10
99.014527702332
 20
88.551163095431
 30
0.0
 11
99.678485298157
 21
87.401163095431
 31
0.0
  0
LINE
  5
3D0
330
147
100
AcDbEntity
  8
Layer0
  6
AUSGEZOGEN
 62
     9
370
    18
100
AcDbLine
 10
99.678485298157
 20
87.401163095431
 30
0.0
 11
101.0063829422
 21
87.401163095431
 31
0.0
  0
LINE
  5
3D1
330
147
100
AcDbEntity
  8
Layer0
  6
AUSGEZOGEN
 62
     9
370
    18
100
AcDbLine
 10
101.0063829422
 20
87.401163095431
 30
0.0
 11
101.670340538025
 21
88.551163095431
 31
0.0
  0
LINE
  5
3D2
330
147
100
AcDbEntity
  8
Layer0
  6
AUSGEZOGEN
 62
     9
370
    18
100
AcDbLine
 10
101.670340538025
 20
88.551163095431
 30
0.0
 11
101.0063829422
 21
89.701163095431
 31
0.0
  0
LINE
  5
3D3
330
147
100
AcDbEntity
  8
Layer0
  6
AUSGEZOGEN
 62
     9
370
    18
100
AcDbLine
 10
101.0063829422
 20
89.701163095431
 30
0.0
 11
99.678485298157
 21
89.701163095431
 31
0.0
  0
LINE
  5
3D4
330
147
100
AcDbEntity
  8
Layer0
  6
AUSGEZOGEN
 62
     9
370
    18
100
AcDbLine
 10
99.678485298157
 20
94.301163095431
 30
0.0
 11
99.014527702332
 21
93.151163095431
 31
0.0
  0
LINE
  5
3D5
330
147
100
AcDbEntity
  8
Layer0
  6
AUSGEZOGEN
 62
     9
370
    18
100
AcDbLine
 10
99.014527702332
 20
93.151163095431
 30
0.0
 11
99.678485298157
 21
92.001163095431
 31
0.0
  0
LINE
  5
3D6
330
147
100
AcDbEntity
  8
Layer0
  6
AUSGEZOGEN
 62
     9
370
    18
100
AcDbLine
 10
99.678485298157
 20
92.001163095431
 30
0.0
 11
101.0063829422
 21
92.001163095431
 31
0.0
  0
LINE
  5
3D7
330
147
100
AcDbEntity
  8
Layer0
  6
AUSGEZOGEN
 62
     9
370
    18
100
AcDbLine
 10
101.0063829422
 20
92.001163095431
 30
0.0
 11
101.670340538025
 21
93.151163095431
 31
0.0
  0
LINE
  5
3D8
330
147
100
AcDbEntity
  8
Layer0
  6
AUSGEZOGEN
 62
     9
370
    18
100
AcDbLine
 10
101.670340538025
 20
93.151163095431
 30
0.0
 11
101.0063829422
 21
94.301163095431
 31
0.0
  0
LINE
  5
3D9
330
147
100
AcDbEntity
  8
Layer0
  6
AUSGEZOGEN
 62
     9
370
    18
100
AcDbLine
 10
101.0063829422
 20
94.301163095431
 30
0.0
 11
99.678485298157
 21
94.301163095431
 31
0.0
  0
LINE
  5
3DA
330
147
100
AcDbEntity
  8
Stammform
  6
AUSGEZOGEN
 62
    56
370
    18
100
AcDbLine
 10
99.678485298157
 20
94.301163095431
 30
0.0
 11
100.342434120178
 21
93.151163095431
 31
0.0
  0
LINE
  5
3DB
330
147
100
AcDbEntity
  8
Stammform
  6
AUSGEZOGEN
 62
    56
370
    18
100
AcDbLine
 10
100.342434120178
 20
93.151163095431
 30
0.0
 11
101.670340538025
 21
93.151163095431
 31
0.0
  0
LINE
  5
3DC
330
147
100
AcDbEntity
  8
Stammform
  6
AUSGEZOGEN
 62
    56
370
    18
100
AcDbLine
 10
100.342434120178
 20
93.151163095431
 30
0.0
 11
99.678485298157
 21
92.001163095431
 31
0.0
  0
LINE
  5
3DD
330
147
100
AcDbEntity
  8
Stammform
  6
AUSGEZOGEN
 62
    56
370
    18
100
AcDbLine
 10
100.342434120178
 20
90.851163095431
 30
0.0
 11
99.678485298157
 21
89.701163095431
 31
0.0
  0
LINE
  5
3DE
330
147
100
AcDbEntity
  8
Stammform
  6
AUSGEZOGEN
 62
    56
370
    18
100
AcDbLine
 10
100.342434120178
 20
90.851163095431
 30
0.0
 11
101.670340538025
 21
90.851163095431
 31
0.0
  0
LINE
  5
3DF
330
147
100
AcDbEntity
  8
Stammform
  6
AUSGEZOGEN
 62
    56
370
    18
100
AcDbLine
 10
99.678485298157
 20
92.001163095431
 30
0.0
 11
100.342434120178
 21
90.851163095431
 31
0.0
  0
LINE
  5
3E0
330
147
100
AcDbEntity
  8
Layer0
  6
AUSGEZOGEN
 62
     9
370
    18
100
AcDbLine
 10
99.678485298157
 20
92.001163095431
 30
0.0
 11
99.014527702332
 21
90.851163095431
 31
0.0
  0
LINE
  5
3E1
330
147
100
AcDbEntity
  8
Layer0
  6
AUSGEZOGEN
 62
     9
370
    18
100
AcDbLine
 10
99.014527702332
 20
90.851163095431
 30
0.0
 11
99.678485298157
 21
89.701163095431
 31
0.0
  0
LINE
  5
3E2
330
147
100
AcDbEntity
  8
Layer0
  6
AUSGEZOGEN
 62
     9
370
    18
100
AcDbLine
 10
99.678485298157
 20
89.701163095431
 30
0.0
 11
101.0063829422
 21
89.701163095431
 31
0.0
  0
LINE
  5
3E3
330
147
100
AcDbEntity
  8
Layer0
  6
AUSGEZOGEN
 62
     9
370
    18
100
AcDbLine
 10
101.0063829422
 20
89.701163095431
 30
0.0
 11
101.670340538025
 21
90.851163095431
 31
0.0
  0
LINE
  5
3E4
330
147
100
AcDbEntity
  8
Layer0
  6
AUSGEZOGEN
 62
     9
370
    18
100
AcDbLine
 10
101.670340538025
 20
90.851163095431
 30
0.0
 11
101.0063829422
 21
92.001163095431
 31
0.0
  0
LINE
  5
3E5
330
147
100
AcDbEntity
  8
Layer0
  6
AUSGEZOGEN
 62
     9
370
    18
100
AcDbLine
 10
101.0063829422
 20
92.001163095431
 30
0.0
 11
99.678485298157
 21
92.001163095431
 31
0.0
  0
LINE
  5
3E6
330
147
100
AcDbEntity
  8
Layer0
  6
AUSGEZOGEN
 62
     9
370
    18
100
AcDbLine
 10
99.678485298157
 20
98.901163095431
 30
0.0
 11
99.014527702332
 21
97.751163095431
 31
0.0
  0
LINE
  5
3E7
330
147
100
AcDbEntity
  8
Layer0
  6
AUSGEZOGEN
 62
     9
370
    18
100
AcDbLine
 10
99.014527702332
 20
97.751163095431
 30
0.0
 11
99.678485298157
 21
96.601163095431
 31
0.0
  0
LINE
  5
3E8
330
147
100
AcDbEntity
  8
Layer0
  6
AUSGEZOGEN
 62
     9
370
    18
100
AcDbLine
 10
99.678485298157
 20
96.601163095431
 30
0.0
 11
101.0063829422
 21
96.601163095431
 31
0.0
  0
LINE
  5
3E9
330
147
100
AcDbEntity
  8
Layer0
  6
AUSGEZOGEN
 62
     9
370
    18
100
AcDbLine
 10
101.0063829422
 20
96.601163095431
 30
0.0
 11
101.670340538025
 21
97.751163095431
 31
0.0
  0
LINE
  5
3EA
330
147
100
AcDbEntity
  8
Layer0
  6
AUSGEZOGEN
 62
     9
370
    18
100
AcDbLine
 10
100.587642692824
 20
98.901163095431
 30
0.0
 11
99.678485298157
 21
98.901163095431
 31
0.0
  0
LINE
  5
3EB
330
147
100
AcDbEntity
  8
Stammform
  6
AUSGEZOGEN
 62
    56
370
    18
100
AcDbLine
 10
99.678485298157
 20
98.901163095431
 30
0.0
 11
100.342434120178
 21
97.751163095431
 31
0.0
  0
LINE
  5
3EC
330
147
100
AcDbEntity
  8
Stammform
  6
AUSGEZOGEN
 62
    56
370
    18
100
AcDbLine
 10
100.342434120178
 20
97.751163095431
 30
0.0
 11
101.575
 21
97.751163095431
 31
0.0
  0
LINE
  5
3ED
330
147
100
AcDbEntity
  8
Stammform
  6
AUSGEZOGEN
 62
    56
370
    18
100
AcDbLine
 10
100.342434120178
 20
97.751163095431
 30
0.0
 11
99.678485298157
 21
96.601163095431
 31
0.0
  0
LINE
  5
3EE
330
147
100
AcDbEntity
  8
Stammform
  6
AUSGEZOGEN
 62
    56
370
    18
100
AcDbLine
 10
100.342434120178
 20
95.451163095431
 30
0.0
 11
99.678485298157
 21
94.301163095431
 31
0.0
  0
LINE
  5
3EF
330
147
100
AcDbEntity
  8
Stammform
  6
AUSGEZOGEN
 62
    56
370
    18
100
AcDbLine
 10
100.342434120178
 20
95.451163095431
 30
0.0
 11
101.670340538025
 21
95.451163095431
 31
0.0
  0
LINE
  5
3F0
330
147
100
AcDbEntity
  8
Stammform
  6
AUSGEZOGEN
 62
    56
370
    18
100
AcDbLine
 10
99.678485298157
 20
96.601163095431
 30
0.0
 11
100.342434120178
 21
95.451163095431
 31
0.0
  0
LINE
  5
3F1
330
147
100
AcDbEntity
  8
Layer0
  6
AUSGEZOGEN
 62
     9
370
    18
100
AcDbLine
 10
99.678485298157
 20
96.601163095431
 30
0.0
 11
99.014527702332
 21
95.451163095431
 31
0.0
  0
LINE
  5
3F2
330
147
100
AcDbEntity
  8
Layer0
  6
AUSGEZOGEN
 62
     9
370
    18
100
AcDbLine
 10
99.014527702332
 20
95.451163095431
 30
0.0
 11
99.678485298157
 21
94.301163095431
 31
0.0
  0
LINE
  5
3F3
330
147
100
AcDbEntity
  8
Layer0
  6
AUSGEZOGEN
 62
     9
370
    18
100
AcDbLine
 10
99.678485298157
 20
94.301163095431
 30
0.0
 11
101.0063829422
 21
94.301163095431
 31
0.0
  0
LINE
  5
3F4
330
147
100
AcDbEntity
  8
Layer0
  6
AUSGEZOGEN
 62
     9
370
    18
100
AcDbLine
 10
101.0063829422
 20
94.301163095431
 30
0.0
 11
101.670340538025
 21
95.451163095431
 31
0.0
  0
LINE
  5
3F5
330
147
100
AcDbEntity
  8
Layer0
  6
AUSGEZOGEN
 62
     9
370
    18
100
AcDbLine
 10
101.670340538025
 20
95.451163095431
 30
0.0
 11
101.0063829422
 21
96.601163095431
 31
0.0
  0
LINE
  5
3F6
330
147
100
AcDbEntity
  8
Layer0
  6
AUSGEZOGEN
 62
     9
370
    18
100
AcDbLine
 10
101.0063829422
 20
96.601163095431
 30
0.0
 11
99.678485298157
 21
96.601163095431
 31
0.0
  0
LINE
  5
3F7
330
147
100
AcDbEntity
  8
Stammform
  6
AUSGEZOGEN
 62
    56
370
    18
100
AcDbLine
 10
100.000686463235
 20
99.459235235257
 30
0.0
 11
99.678485298157
 21
98.901163095431
 31
0.0
  0
LINE
  5
3F8
330
147
100
AcDbEntity
  8
Layer0
  6
AUSGEZOGEN
 62
     9
370
    18
100
AcDbLine
 10
99.092107094917
 20
100.18553357637
 30
0.0
 11
99.014527702332
 21
100.051163095431
 31
0.0
  0
LINE
  5
3F9
330
147
100
AcDbEntity
  8
Layer0
  6
AUSGEZOGEN
 62
     9
370
    18
100
AcDbLine
 10
99.014527702332
 20
100.051163095431
 30
0.0
 11
99.678485298157
 21
98.901163095431
 31
0.0
  0
LINE
  5
3FA
330
147
100
AcDbEntity
  8
Layer0
  6
AUSGEZOGEN
 62
     9
370
    18
100
AcDbLine
 10
99.678485298157
 20
82.801163095431
 30
0.0
 11
99.014527702332
 21
81.651163095431
 31
0.0
  0
LINE
  5
3FB
330
147
100
AcDbEntity
  8
Layer0
  6
AUSGEZOGEN
 62
     9
370
    18
100
AcDbLine
 10
100.587642692824
 20
82.801163095431
 30
0.0
 11
99.678485298157
 21
82.801163095431
 31
0.0
  0
LINE
  5
3FC
330
147
100
AcDbEntity
  8
Stammform
  6
AUSGEZOGEN
 62
    56
370
    18
100
AcDbLine
 10
99.678485298157
 20
82.801163095431
 30
0.0
 11
100.000686463235
 21
82.243090955606
 31
0.0
  0
LINE
  5
3FD
330
147
100
AcDbEntity
  8
Stammform
  6
AUSGEZOGEN
 62
    56
370
    18
100
AcDbLine
 10
100.342434120178
 20
83.951163095431
 30
0.0
 11
99.678485298157
 21
82.801163095431
 31
0.0
  0
LINE
  5
3FE
330
147
100
AcDbEntity
  8
Stammform
  6
AUSGEZOGEN
 62
    56
370
    18
100
AcDbLine
 10
100.342434120178
 20
83.951163095431
 30
0.0
 11
101.575
 21
83.951163095431
 31
0.0
  0
LINE
  5
3FF
330
147
100
AcDbEntity
  8
Stammform
  6
AUSGEZOGEN
 62
    56
370
    18
100
AcDbLine
 10
99.678485298157
 20
85.101163095431
 30
0.0
 11
100.342434120178
 21
83.951163095431
 31
0.0
  0
LINE
  5
400
330
147
100
AcDbEntity
  8
Layer0
  6
AUSGEZOGEN
 62
     9
370
    18
100
AcDbLine
 10
99.678485298157
 20
85.101163095431
 30
0.0
 11
99.014527702332
 21
83.951163095431
 31
0.0
  0
LINE
  5
401
330
147
100
AcDbEntity
  8
Layer0
  6
AUSGEZOGEN
 62
     9
370
    18
100
AcDbLine
 10
99.014527702332
 20
83.951163095431
 30
0.0
 11
99.678485298157
 21
82.801163095431
 31
0.0
  0
LINE
  5
402
330
147
100
AcDbEntity
  8
Layer0
  6
AUSGEZOGEN
 62
     9
370
    18
100
AcDbLine
 10
101.628679413628
 20
84.023321759416
 30
0.0
 11
101.0063829422
 21
85.101163095431
 31
0.0
  0
LINE
  5
403
330
147
100
AcDbEntity
  8
Layer0
  6
AUSGEZOGEN
 62
     9
370
    18
100
AcDbLine
 10
101.0063829422
 20
85.101163095431
 30
0.0
 11
99.678485298157
 21
85.101163095431
 31
0.0
  0
LINE
  5
404
330
147
100
AcDbEntity
  8
Layer0
  6
AUSGEZOGEN
 62
     9
370
    18
100
AcDbLine
 10
97.686621284485
 20
83.951163095431
 30
0.0
 11
97.022672462463
 21
82.801163095431
 31
0.0
  0
LINE
  5
405
330
147
100
AcDbEntity
  8
Layer0
  6
AUSGEZOGEN
 62
     9
370
    18
100
AcDbLine
 10
97.022672462463
 20
82.801163095431
 30
0.0
 11
97.686621284485
 21
81.651163095431
 31
0.0
  0
LINE
  5
406
330
147
100
AcDbEntity
  8
Layer0
  6
AUSGEZOGEN
 62
     9
370
    18
100
AcDbLine
 10
97.686621284485
 20
81.651163095431
 30
0.0
 11
99.014527702332
 21
81.651163095431
 31
0.0
  0
LINE
  5
407
330
147
100
AcDbEntity
  8
Layer0
  6
AUSGEZOGEN
 62
     9
370
    18
100
AcDbLine
 10
99.014527702332
 20
81.651163095431
 30
0.0
 11
99.678485298157
 21
82.801163095431
 31
0.0
  0
LINE
  5
408
330
147
100
AcDbEntity
  8
Layer0
  6
AUSGEZOGEN
 62
     9
370
    18
100
AcDbLine
 10
99.678485298157
 20
82.801163095431
 30
0.0
 11
99.014527702332
 21
83.951163095431
 31
0.0
  0
LINE
  5
409
330
147
100
AcDbEntity
  8
Layer0
  6
AUSGEZOGEN
 62
     9
370
    18
100
AcDbLine
 10
99.014527702332
 20
83.951163095431
 30
0.0
 11
97.686621284485
 21
83.951163095431
 31
0.0
  0
LINE
  5
40A
330
147
100
AcDbEntity
  8
Stammform
  6
AUSGEZOGEN
 62
    56
370
    18
100
AcDbLine
 10
97.686621284485
 20
83.951163095431
 30
0.0
 11
98.35057888031
 21
82.801163095431
 31
0.0
  0
LINE
  5
40B
330
147
100
AcDbEntity
  8
Stammform
  6
AUSGEZOGEN
 62
    56
370
    18
100
AcDbLine
 10
98.35057888031
 20
82.801163095431
 30
0.0
 11
99.678485298157
 21
82.801163095431
 31
0.0
  0
LINE
  5
40C
330
147
100
AcDbEntity
  8
Stammform
  6
AUSGEZOGEN
 62
    56
370
    18
100
AcDbLine
 10
98.35057888031
 20
82.801163095431
 30
0.0
 11
97.686621284485
 21
81.651163095431
 31
0.0
  0
LINE
  5
40D
330
147
100
AcDbEntity
  8
Stammform
  6
AUSGEZOGEN
 62
    56
370
    18
100
AcDbLine
 10
97.686621284485
 20
81.651163095431
 30
0.0
 11
98.125001476062
 21
80.891871804115
 31
0.0
  0
LINE
  5
40E
330
147
100
AcDbEntity
  8
Layer0
  6
AUSGEZOGEN
 62
     9
370
    18
100
AcDbLine
 10
97.686621284485
 20
81.651163095431
 30
0.0
 11
97.022672462463
 21
80.501163095431
 31
0.0
  0
LINE
  5
40F
330
147
100
AcDbEntity
  8
Layer0
  6
AUSGEZOGEN
 62
     9
370
    18
100
AcDbLine
 10
99.092107094917
 20
81.516792614493
 30
0.0
 11
99.014527702332
 21
81.651163095431
 31
0.0
  0
LINE
  5
410
330
147
100
AcDbEntity
  8
Layer0
  6
AUSGEZOGEN
 62
     9
370
    18
100
AcDbLine
 10
99.014527702332
 20
81.651163095431
 30
0.0
 11
97.686621284485
 21
81.651163095431
 31
0.0
  0
LINE
  5
411
330
147
100
AcDbEntity
  8
Layer0
  6
AUSGEZOGEN
 62
     9
370
    18
100
AcDbLine
 10
97.686621284485
 20
100.051163095431
 30
0.0
 11
97.022672462463
 21
98.901163095431
 31
0.0
  0
LINE
  5
412
330
147
100
AcDbEntity
  8
Layer0
  6
AUSGEZOGEN
 62
     9
370
    18
100
AcDbLine
 10
97.022672462463
 20
98.901163095431
 30
0.0
 11
97.686621284485
 21
97.751163095431
 31
0.0
  0
LINE
  5
413
330
147
100
AcDbEntity
  8
Layer0
  6
AUSGEZOGEN
 62
     9
370
    18
100
AcDbLine
 10
97.686621284485
 20
97.751163095431
 30
0.0
 11
99.014527702332
 21
97.751163095431
 31
0.0
  0
LINE
  5
414
330
147
100
AcDbEntity
  8
Layer0
  6
AUSGEZOGEN
 62
     9
370
    18
100
AcDbLine
 10
99.014527702332
 20
97.751163095431
 30
0.0
 11
99.678485298157
 21
98.901163095431
 31
0.0
  0
LINE
  5
415
330
147
100
AcDbEntity
  8
Layer0
  6
AUSGEZOGEN
 62
     9
370
    18
100
AcDbLine
 10
99.678485298157
 20
98.901163095431
 30
0.0
 11
99.014527702332
 21
100.051163095431
 31
0.0
  0
LINE
  5
416
330
147
100
AcDbEntity
  8
Layer0
  6
AUSGEZOGEN
 62
     9
370
    18
100
AcDbLine
 10
99.014527702332
 20
100.051163095431
 30
0.0
 11
97.686621284485
 21
100.051163095431
 31
0.0
  0
LINE
  5
417
330
147
100
AcDbEntity
  8
Stammform
  6
AUSGEZOGEN
 62
    56
370
    18
100
AcDbLine
 10
97.686621284485
 20
100.051163095431
 30
0.0
 11
98.35057888031
 21
98.901163095431
 31
0.0
  0
LINE
  5
418
330
147
100
AcDbEntity
  8
Stammform
  6
AUSGEZOGEN
 62
    56
370
    18
100
AcDbLine
 10
98.35057888031
 20
98.901163095431
 30
0.0
 11
99.678485298157
 21
98.901163095431
 31
0.0
  0
LINE
  5
419
330
147
100
AcDbEntity
  8
Stammform
  6
AUSGEZOGEN
 62
    56
370
    18
100
AcDbLine
 10
98.35057888031
 20
98.901163095431
 30
0.0
 11
97.686621284485
 21
97.751163095431
 31
0.0
  0
LINE
  5
41A
330
147
100
AcDbEntity
  8
Stammform
  6
AUSGEZOGEN
 62
    56
370
    18
100
AcDbLine
 10
98.125001476062
 20
100.810454386748
 30
0.0
 11
97.686621284485
 21
100.051163095431
 31
0.0
  0
LINE
  5
41B
330
147
100
AcDbEntity
  8
Layer0
  6
AUSGEZOGEN
 62
     9
370
    18
100
AcDbLine
 10
97.022672462463
 20
101.201163095431
 30
0.0
 11
97.686621284485
 21
100.051163095431
 31
0.0
  0
LINE
  5
41C
330
147
100
AcDbEntity
  8
Layer0
  6
AUSGEZOGEN
 62
     9
370
    18
100
AcDbLine
 10
97.686621284485
 20
100.051163095431
 30
0.0
 11
99.014527702332
 21
100.051163095431
 31
0.0
  0
LINE
  5
41D
330
147
100
AcDbEntity
  8
Layer0
  6
AUSGEZOGEN
 62
     9
370
    18
100
AcDbLine
 10
97.686621284485
 20
95.451163095431
 30
0.0
 11
97.022672462463
 21
94.301163095431
 31
0.0
  0
LINE
  5
41E
330
147
100
AcDbEntity
  8
Layer0
  6
AUSGEZOGEN
 62
     9
370
    18
100
AcDbLine
 10
97.022672462463
 20
94.301163095431
 30
0.0
 11
97.686621284485
 21
93.151163095431
 31
0.0
  0
LINE
  5
41F
330
147
100
AcDbEntity
  8
Layer0
  6
AUSGEZOGEN
 62
     9
370
    18
100
AcDbLine
 10
97.686621284485
 20
93.151163095431
 30
0.0
 11
99.014527702332
 21
93.151163095431
 31
0.0
  0
LINE
  5
420
330
147
100
AcDbEntity
  8
Layer0
  6
AUSGEZOGEN
 62
     9
370
    18
100
AcDbLine
 10
99.014527702332
 20
93.151163095431
 30
0.0
 11
99.678485298157
 21
94.301163095431
 31
0.0
  0
LINE
  5
421
330
147
100
AcDbEntity
  8
Layer0
  6
AUSGEZOGEN
 62
     9
370
    18
100
AcDbLine
 10
99.678485298157
 20
94.301163095431
 30
0.0
 11
99.014527702332
 21
95.451163095431
 31
0.0
  0
LINE
  5
422
330
147
100
AcDbEntity
  8
Layer0
  6
AUSGEZOGEN
 62
     9
370
    18
100
AcDbLine
 10
99.014527702332
 20
95.451163095431
 30
0.0
 11
97.686621284485
 21
95.451163095431
 31
0.0
  0
LINE
  5
423
330
147
100
AcDbEntity
  8
Stammform
  6
AUSGEZOGEN
 62
    56
370
    18
100
AcDbLine
 10
97.686621284485
 20
95.451163095431
 30
0.0
 11
98.35057888031
 21
94.301163095431
 31
0.0
  0
LINE
  5
424
330
147
100
AcDbEntity
  8
Stammform
  6
AUSGEZOGEN
 62
    56
370
    18
100
AcDbLine
 10
98.35057888031
 20
94.301163095431
 30
0.0
 11
99.678485298157
 21
94.301163095431
 31
0.0
  0
LINE
  5
425
330
147
100
AcDbEntity
  8
Stammform
  6
AUSGEZOGEN
 62
    56
370
    18
100
AcDbLine
 10
98.35057888031
 20
94.301163095431
 30
0.0
 11
97.686621284485
 21
93.151163095431
 31
0.0
  0
LINE
  5
426
330
147
100
AcDbEntity
  8
Stammform
  6
AUSGEZOGEN
 62
    56
370
    18
100
AcDbLine
 10
98.35057888031
 20
96.601163095431
 30
0.0
 11
97.686621284485
 21
95.451163095431
 31
0.0
  0
LINE
  5
427
330
147
100
AcDbEntity
  8
Stammform
  6
AUSGEZOGEN
 62
    56
370
    18
100
AcDbLine
 10
98.35057888031
 20
96.601163095431
 30
0.0
 11
99.678485298157
 21
96.601163095431
 31
0.0
  0
LINE
  5
428
330
147
100
AcDbEntity
  8
Stammform
  6
AUSGEZOGEN
 62
    56
370
    18
100
AcDbLine
 10
97.686621284485
 20
97.751163095431
 30
0.0
 11
98.35057888031
 21
96.601163095431
 31
0.0
  0
LINE
  5
429
330
147
100
AcDbEntity
  8
Layer0
  6
AUSGEZOGEN
 62
     9
370
    18
100
AcDbLine
 10
97.686621284485
 20
97.751163095431
 30
0.0
 11
97.022672462463
 21
96.601163095431
 31
0.0
  0
LINE
  5
42A
330
147
100
AcDbEntity
  8
Layer0
  6
AUSGEZOGEN
 62
     9
370
    18
100
AcDbLine
 10
97.022672462463
 20
96.601163095431
 30
0.0
 11
97.686621284485
 21
95.451163095431
 31
0.0
  0
LINE
  5
42B
330
147
100
AcDbEntity
  8
Layer0
  6
AUSGEZOGEN
 62
     9
370
    18
100
AcDbLine
 10
97.686621284485
 20
95.451163095431
 30
0.0
 11
99.014527702332
 21
95.451163095431
 31
0.0
  0
LINE
  5
42C
330
147
100
AcDbEntity
  8
Layer0
  6
AUSGEZOGEN
 62
     9
370
    18
100
AcDbLine
 10
99.014527702332
 20
95.451163095431
 30
0.0
 11
99.678485298157
 21
96.601163095431
 31
0.0
  0
LINE
  5
42D
330
147
100
AcDbEntity
  8
Layer0
  6
AUSGEZOGEN
 62
     9
370
    18
100
AcDbLine
 10
99.678485298157
 20
96.601163095431
 30
0.0
 11
99.014527702332
 21
97.751163095431
 31
0.0
  0
LINE
  5
42E
330
147
100
AcDbEntity
  8
Layer0
  6
AUSGEZOGEN
 62
     9
370
    18
100
AcDbLine
 10
99.014527702332
 20
97.751163095431
 30
0.0
 11
97.686621284485
 21
97.751163095431
 31
0.0
  0
LINE
  5
42F
330
147
100
AcDbEntity
  8
Layer0
  6
AUSGEZOGEN
 62
     9
370
    18
100
AcDbLine
 10
97.686621284485
 20
90.851163095431
 30
0.0
 11
97.022672462463
 21
89.701163095431
 31
0.0
  0
LINE
  5
430
330
147
100
AcDbEntity
  8
Layer0
  6
AUSGEZOGEN
 62
     9
370
    18
100
AcDbLine
 10
97.022672462463
 20
89.701163095431
 30
0.0
 11
97.686621284485
 21
88.551163095431
 31
0.0
  0
LINE
  5
431
330
147
100
AcDbEntity
  8
Layer0
  6
AUSGEZOGEN
 62
     9
370
    18
100
AcDbLine
 10
97.686621284485
 20
88.551163095431
 30
0.0
 11
99.014527702332
 21
88.551163095431
 31
0.0
  0
LINE
  5
432
330
147
100
AcDbEntity
  8
Layer0
  6
AUSGEZOGEN
 62
     9
370
    18
100
AcDbLine
 10
99.014527702332
 20
88.551163095431
 30
0.0
 11
99.678485298157
 21
89.701163095431
 31
0.0
  0
LINE
  5
433
330
147
100
AcDbEntity
  8
Layer0
  6
AUSGEZOGEN
 62
     9
370
    18
100
AcDbLine
 10
99.678485298157
 20
89.701163095431
 30
0.0
 11
99.014527702332
 21
90.851163095431
 31
0.0
  0
LINE
  5
434
330
147
100
AcDbEntity
  8
Layer0
  6
AUSGEZOGEN
 62
     9
370
    18
100
AcDbLine
 10
99.014527702332
 20
90.851163095431
 30
0.0
 11
97.686621284485
 21
90.851163095431
 31
0.0
  0
LINE
  5
435
330
147
100
AcDbEntity
  8
Stammform
  6
AUSGEZOGEN
 62
    56
370
    18
100
AcDbLine
 10
97.686621284485
 20
90.851163095431
 30
0.0
 11
98.35057888031
 21
89.701163095431
 31
0.0
  0
LINE
  5
436
330
147
100
AcDbEntity
  8
Stammform
  6
AUSGEZOGEN
 62
    56
370
    18
100
AcDbLine
 10
98.35057888031
 20
89.701163095431
 30
0.0
 11
99.678485298157
 21
89.701163095431
 31
0.0
  0
LINE
  5
437
330
147
100
AcDbEntity
  8
Stammform
  6
AUSGEZOGEN
 62
    56
370
    18
100
AcDbLine
 10
98.35057888031
 20
89.701163095431
 30
0.0
 11
97.686621284485
 21
88.551163095431
 31
0.0
  0
LINE
  5
438
330
147
100
AcDbEntity
  8
Stammform
  6
AUSGEZOGEN
 62
    56
370
    18
100
AcDbLine
 10
98.35057888031
 20
92.001163095431
 30
0.0
 11
97.686621284485
 21
90.851163095431
 31
0.0
  0
LINE
  5
439
330
147
100
AcDbEntity
  8
Stammform
  6
AUSGEZOGEN
 62
    56
370
    18
100
AcDbLine
 10
98.35057888031
 20
92.001163095431
 30
0.0
 11
99.678485298157
 21
92.001163095431
 31
0.0
  0
LINE
  5
43A
330
147
100
AcDbEntity
  8
Stammform
  6
AUSGEZOGEN
 62
    56
370
    18
100
AcDbLine
 10
97.686621284485
 20
93.151163095431
 30
0.0
 11
98.35057888031
 21
92.001163095431
 31
0.0
  0
LINE
  5
43B
330
147
100
AcDbEntity
  8
Layer0
  6
AUSGEZOGEN
 62
     9
370
    18
100
AcDbLine
 10
97.686621284485
 20
93.151163095431
 30
0.0
 11
97.022672462463
 21
92.001163095431
 31
0.0
  0
LINE
  5
43C
330
147
100
AcDbEntity
  8
Layer0
  6
AUSGEZOGEN
 62
     9
370
    18
100
AcDbLine
 10
97.022672462463
 20
92.001163095431
 30
0.0
 11
97.686621284485
 21
90.851163095431
 31
0.0
  0
LINE
  5
43D
330
147
100
AcDbEntity
  8
Layer0
  6
AUSGEZOGEN
 62
     9
370
    18
100
AcDbLine
 10
97.686621284485
 20
90.851163095431
 30
0.0
 11
99.014527702332
 21
90.851163095431
 31
0.0
  0
LINE
  5
43E
330
147
100
AcDbEntity
  8
Layer0
  6
AUSGEZOGEN
 62
     9
370
    18
100
AcDbLine
 10
99.014527702332
 20
90.851163095431
 30
0.0
 11
99.678485298157
 21
92.001163095431
 31
0.0
  0
LINE
  5
43F
330
147
100
AcDbEntity
  8
Layer0
  6
AUSGEZOGEN
 62
     9
370
    18
100
AcDbLine
 10
99.678485298157
 20
92.001163095431
 30
0.0
 11
99.014527702332
 21
93.151163095431
 31
0.0
  0
LINE
  5
440
330
147
100
AcDbEntity
  8
Layer0
  6
AUSGEZOGEN
 62
     9
370
    18
100
AcDbLine
 10
99.014527702332
 20
93.151163095431
 30
0.0
 11
97.686621284485
 21
93.151163095431
 31
0.0
  0
LINE
  5
441
330
147
100
AcDbEntity
  8
Layer0
  6
AUSGEZOGEN
 62
     9
370
    18
100
AcDbLine
 10
97.686621284485
 20
88.551163095431
 30
0.0
 11
97.022672462463
 21
87.401163095431
 31
0.0
  0
LINE
  5
442
330
147
100
AcDbEntity
  8
Layer0
  6
AUSGEZOGEN
 62
     9
370
    18
100
AcDbLine
 10
97.022672462463
 20
87.401163095431
 30
0.0
 11
97.686621284485
 21
86.251163095431
 31
0.0
  0
LINE
  5
443
330
147
100
AcDbEntity
  8
Layer0
  6
AUSGEZOGEN
 62
     9
370
    18
100
AcDbLine
 10
97.686621284485
 20
86.251163095431
 30
0.0
 11
99.014527702332
 21
86.251163095431
 31
0.0
  0
LINE
  5
444
330
147
100
AcDbEntity
  8
Layer0
  6
AUSGEZOGEN
 62
     9
370
    18
100
AcDbLine
 10
99.014527702332
 20
86.251163095431
 30
0.0
 11
99.678485298157
 21
87.401163095431
 31
0.0
  0
LINE
  5
445
330
147
100
AcDbEntity
  8
Layer0
  6
AUSGEZOGEN
 62
     9
370
    18
100
AcDbLine
 10
99.678485298157
 20
87.401163095431
 30
0.0
 11
99.014527702332
 21
88.551163095431
 31
0.0
  0
LINE
  5
446
330
147
100
AcDbEntity
  8
Layer0
  6
AUSGEZOGEN
 62
     9
370
    18
100
AcDbLine
 10
99.014527702332
 20
88.551163095431
 30
0.0
 11
97.686621284485
 21
88.551163095431
 31
0.0
  0
LINE
  5
447
330
147
100
AcDbEntity
  8
Stammform
  6
AUSGEZOGEN
 62
    56
370
    18
100
AcDbLine
 10
97.686621284485
 20
88.551163095431
 30
0.0
 11
98.35057888031
 21
87.401163095431
 31
0.0
  0
LINE
  5
448
330
147
100
AcDbEntity
  8
Stammform
  6
AUSGEZOGEN
 62
    56
370
    18
100
AcDbLine
 10
98.35057888031
 20
87.401163095431
 30
0.0
 11
99.678485298157
 21
87.401163095431
 31
0.0
  0
LINE
  5
449
330
147
100
AcDbEntity
  8
Stammform
  6
AUSGEZOGEN
 62
    56
370
    18
100
AcDbLine
 10
98.35057888031
 20
87.401163095431
 30
0.0
 11
97.686621284485
 21
86.251163095431
 31
0.0
  0
LINE
  5
44A
330
147
100
AcDbEntity
  8
Stammform
  6
AUSGEZOGEN
 62
    56
370
    18
100
AcDbLine
 10
98.35057888031
 20
85.101163095431
 30
0.0
 11
97.686621284485
 21
83.951163095431
 31
0.0
  0
LINE
  5
44B
330
147
100
AcDbEntity
  8
Stammform
  6
AUSGEZOGEN
 62
    56
370
    18
100
AcDbLine
 10
98.35057888031
 20
85.101163095431
 30
0.0
 11
99.678485298157
 21
85.101163095431
 31
0.0
  0
LINE
  5
44C
330
147
100
AcDbEntity
  8
Stammform
  6
AUSGEZOGEN
 62
    56
370
    18
100
AcDbLine
 10
97.686621284485
 20
86.251163095431
 30
0.0
 11
98.35057888031
 21
85.101163095431
 31
0.0
  0
LINE
  5
44D
330
147
100
AcDbEntity
  8
Layer0
  6
AUSGEZOGEN
 62
     9
370
    18
100
AcDbLine
 10
97.686621284485
 20
86.251163095431
 30
0.0
 11
97.022672462463
 21
85.101163095431
 31
0.0
  0
LINE
  5
44E
330
147
100
AcDbEntity
  8
Layer0
  6
AUSGEZOGEN
 62
     9
370
    18
100
AcDbLine
 10
97.022672462463
 20
85.101163095431
 30
0.0
 11
97.686621284485
 21
83.951163095431
 31
0.0
  0
LINE
  5
44F
330
147
100
AcDbEntity
  8
Layer0
  6
AUSGEZOGEN
 62
     9
370
    18
100
AcDbLine
 10
97.686621284485
 20
83.951163095431
 30
0.0
 11
99.014527702332
 21
83.951163095431
 31
0.0
  0
LINE
  5
450
330
147
100
AcDbEntity
  8
Layer0
  6
AUSGEZOGEN
 62
     9
370
    18
100
AcDbLine
 10
99.014527702332
 20
83.951163095431
 30
0.0
 11
99.678485298157
 21
85.101163095431
 31
0.0
  0
LINE
  5
451
330
147
100
AcDbEntity
  8
Layer0
  6
AUSGEZOGEN
 62
     9
370
    18
100
AcDbLine
 10
99.678485298157
 20
85.101163095431
 30
0.0
 11
99.014527702332
 21
86.251163095431
 31
0.0
  0
LINE
  5
452
330
147
100
AcDbEntity
  8
Layer0
  6
AUSGEZOGEN
 62
     9
370
    18
100
AcDbLine
 10
99.014527702332
 20
86.251163095431
 30
0.0
 11
97.686621284485
 21
86.251163095431
 31
0.0
  0
LINE
  5
453
330
147
100
AcDbEntity
  8
Stammform
  6
AUSGEZOGEN
 62
    56
370
    18
100
AcDbLine
 10
103.662195777893
 20
89.701163095431
 30
0.0
 11
103.792433534239
 21
89.4755863105
 31
0.0
  0
LINE
  5
454
330
147
100
AcDbEntity
  8
Layer0
  6
AUSGEZOGEN
 62
     9
370
    18
100
AcDbLine
 10
103.662195777893
 20
89.701163095431
 30
0.0
 11
102.998246955872
 21
88.551163095431
 31
0.0
  0
LINE
  5
455
330
147
100
AcDbEntity
  8
Layer0
  6
AUSGEZOGEN
 62
     9
370
    18
100
AcDbLine
 10
102.998246955872
 20
88.551163095431
 30
0.0
 11
103.452825610086
 21
87.763805041606
 31
0.0
  0
LINE
  5
456
330
147
100
AcDbEntity
  8
Layer0
  6
AUSGEZOGEN
 62
     9
370
    18
100
AcDbLine
 10
103.817355526726
 20
89.701163095431
 30
0.0
 11
103.662195777893
 21
89.701163095431
 31
0.0
  0
LINE
  5
457
330
147
100
AcDbEntity
  8
Layer0
  6
AUSGEZOGEN
 62
     9
370
    18
100
AcDbLine
 10
103.452825610086
 20
93.938521149257
 30
0.0
 11
102.998246955872
 21
93.151163095431
 31
0.0
  0
LINE
  5
458
330
147
100
AcDbEntity
  8
Layer0
  6
AUSGEZOGEN
 62
     9
370
    18
100
AcDbLine
 10
102.998246955872
 20
93.151163095431
 30
0.0
 11
103.662195777893
 21
92.001163095431
 31
0.0
  0
LINE
  5
459
330
147
100
AcDbEntity
  8
Layer0
  6
AUSGEZOGEN
 62
     9
370
    18
100
AcDbLine
 10
103.662195777893
 20
92.001163095431
 30
0.0
 11
103.817355526726
 21
92.001163095431
 31
0.0
  0
LINE
  5
45A
330
147
100
AcDbEntity
  8
Stammform
  6
AUSGEZOGEN
 62
    56
370
    18
100
AcDbLine
 10
103.792433534239
 20
92.226739880363
 30
0.0
 11
103.662195777893
 21
92.001163095431
 31
0.0
  0
LINE
  5
45B
330
147
100
AcDbEntity
  8
Stammform
  6
AUSGEZOGEN
 62
    56
370
    18
100
AcDbLine
 10
103.844729918071
 20
90.017319221251
 30
0.0
 11
103.662195777893
 21
89.701163095431
 31
0.0
  0
LINE
  5
45C
330
147
100
AcDbEntity
  8
Stammform
  6
AUSGEZOGEN
 62
    56
370
    18
100
AcDbLine
 10
103.662195777893
 20
92.001163095431
 30
0.0
 11
103.844729918071
 21
91.685006969612
 31
0.0
  0
LINE
  5
45D
330
147
100
AcDbEntity
  8
Layer0
  6
AUSGEZOGEN
 62
     9
370
    18
100
AcDbLine
 10
103.662195777893
 20
92.001163095431
 30
0.0
 11
102.998246955872
 21
90.851163095431
 31
0.0
  0
LINE
  5
45E
330
147
100
AcDbEntity
  8
Layer0
  6
AUSGEZOGEN
 62
     9
370
    18
100
AcDbLine
 10
102.998246955872
 20
90.851163095431
 30
0.0
 11
103.662195777893
 21
89.701163095431
 31
0.0
  0
LINE
  5
45F
330
147
100
AcDbEntity
  8
Layer0
  6
AUSGEZOGEN
 62
     9
370
    18
100
AcDbLine
 10
101.670340538025
 20
95.451163095431
 30
0.0
 11
101.0063829422
 21
94.301163095431
 31
0.0
  0
LINE
  5
460
330
147
100
AcDbEntity
  8
Layer0
  6
AUSGEZOGEN
 62
     9
370
    18
100
AcDbLine
 10
101.0063829422
 20
94.301163095431
 30
0.0
 11
101.670340538025
 21
93.151163095431
 31
0.0
  0
LINE
  5
461
330
147
100
AcDbEntity
  8
Layer0
  6
AUSGEZOGEN
 62
     9
370
    18
100
AcDbLine
 10
101.670340538025
 20
93.151163095431
 30
0.0
 11
102.998246955872
 21
93.151163095431
 31
0.0
  0
LINE
  5
462
330
147
100
AcDbEntity
  8
Layer0
  6
AUSGEZOGEN
 62
     9
370
    18
100
AcDbLine
 10
102.914924098398
 20
95.451163095431
 30
0.0
 11
101.670340538025
 21
95.451163095431
 31
0.0
  0
LINE
  5
463
330
147
100
AcDbEntity
  8
Stammform
  6
AUSGEZOGEN
 62
    56
370
    18
100
AcDbLine
 10
101.670340538025
 20
95.451163095431
 30
0.0
 11
102.334289360046
 21
94.301163095431
 31
0.0
  0
LINE
  5
464
330
147
100
AcDbEntity
  8
Stammform
  6
AUSGEZOGEN
 62
    56
370
    18
100
AcDbLine
 10
102.334289360046
 20
94.301163095431
 30
0.0
 11
103.345300816295
 21
94.301163095431
 31
0.0
  0
LINE
  5
465
330
147
100
AcDbEntity
  8
Stammform
  6
AUSGEZOGEN
 62
    56
370
    18
100
AcDbLine
 10
102.334289360046
 20
94.301163095431
 30
0.0
 11
101.670340538025
 21
93.151163095431
 31
0.0
  0
LINE
  5
466
330
147
100
AcDbEntity
  8
Stammform
  6
AUSGEZOGEN
 62
    56
370
    18
100
AcDbLine
 10
102.334290751779
 20
96.601165505998
 30
0.0
 11
101.670340538025
 21
95.451163095431
 31
0.0
  0
LINE
  5
467
330
147
100
AcDbEntity
  8
Layer0
  6
AUSGEZOGEN
 62
     9
370
    18
100
AcDbLine
 10
101.628679413628
 20
97.679004431447
 30
0.0
 11
101.0063829422
 21
96.601163095431
 31
0.0
  0
LINE
  5
468
330
147
100
AcDbEntity
  8
Layer0
  6
AUSGEZOGEN
 62
     9
370
    18
100
AcDbLine
 10
101.0063829422
 20
96.601163095431
 30
0.0
 11
101.670340538025
 21
95.451163095431
 31
0.0
  0
LINE
  5
469
330
147
100
AcDbEntity
  8
Layer0
  6
AUSGEZOGEN
 62
     9
370
    18
100
AcDbLine
 10
101.670340538025
 20
95.451163095431
 30
0.0
 11
102.998246955872
 21
95.451163095431
 31
0.0
  0
LINE
  5
46A
330
147
100
AcDbEntity
  8
Layer0
  6
AUSGEZOGEN
 62
     9
370
    18
100
AcDbLine
 10
101.670340538025
 20
90.851163095431
 30
0.0
 11
101.0063829422
 21
89.701163095431
 31
0.0
  0
LINE
  5
46B
330
147
100
AcDbEntity
  8
Layer0
  6
AUSGEZOGEN
 62
     9
370
    18
100
AcDbLine
 10
101.0063829422
 20
89.701163095431
 30
0.0
 11
101.670340538025
 21
88.551163095431
 31
0.0
  0
LINE
  5
46C
330
147
100
AcDbEntity
  8
Layer0
  6
AUSGEZOGEN
 62
     9
370
    18
100
AcDbLine
 10
101.670340538025
 20
88.551163095431
 30
0.0
 11
102.998246955872
 21
88.551163095431
 31
0.0
  0
LINE
  5
46D
330
147
100
AcDbEntity
  8
Layer0
  6
AUSGEZOGEN
 62
     9
370
    18
100
AcDbLine
 10
102.998246955872
 20
88.551163095431
 30
0.0
 11
103.662195777893
 21
89.701163095431
 31
0.0
  0
LINE
  5
46E
330
147
100
AcDbEntity
  8
Layer0
  6
AUSGEZOGEN
 62
     9
370
    18
100
AcDbLine
 10
103.662195777893
 20
89.701163095431
 30
0.0
 11
102.998246955872
 21
90.851163095431
 31
0.0
  0
LINE
  5
46F
330
147
100
AcDbEntity
  8
Layer0
  6
AUSGEZOGEN
 62
     9
370
    18
100
AcDbLine
 10
102.998246955872
 20
90.851163095431
 30
0.0
 11
101.670340538025
 21
90.851163095431
 31
0.0
  0
LINE
  5
470
330
147
100
AcDbEntity
  8
Stammform
  6
AUSGEZOGEN
 62
    56
370
    18
100
AcDbLine
 10
101.670340538025
 20
90.851163095431
 30
0.0
 11
102.334289360046
 21
89.701163095431
 31
0.0
  0
LINE
  5
471
330
147
100
AcDbEntity
  8
Stammform
  6
AUSGEZOGEN
 62
    56
370
    18
100
AcDbLine
 10
102.334289360046
 20
89.701163095431
 30
0.0
 11
103.662195777893
 21
89.701163095431
 31
0.0
  0
LINE
  5
472
330
147
100
AcDbEntity
  8
Stammform
  6
AUSGEZOGEN
 62
    56
370
    18
100
AcDbLine
 10
102.334289360046
 20
89.701163095431
 30
0.0
 11
101.670340538025
 21
88.551163095431
 31
0.0
  0
LINE
  5
473
330
147
100
AcDbEntity
  8
Stammform
  6
AUSGEZOGEN
 62
    56
370
    18
100
AcDbLine
 10
102.334289360046
 20
92.001163095431
 30
0.0
 11
101.670340538025
 21
90.851163095431
 31
0.0
  0
LINE
  5
474
330
147
100
AcDbEntity
  8
Stammform
  6
AUSGEZOGEN
 62
    56
370
    18
100
AcDbLine
 10
102.334289360046
 20
92.001163095431
 30
0.0
 11
103.662195777893
 21
92.001163095431
 31
0.0
  0
LINE
  5
475
330
147
100
AcDbEntity
  8
Stammform
  6
AUSGEZOGEN
 62
    56
370
    18
100
AcDbLine
 10
101.670340538025
 20
93.151163095431
 30
0.0
 11
102.334289360046
 21
92.001163095431
 31
0.0
  0
LINE
  5
476
330
147
100
AcDbEntity
  8
Layer0
  6
AUSGEZOGEN
 62
     9
370
    18
100
AcDbLine
 10
101.670340538025
 20
93.151163095431
 30
0.0
 11
101.0063829422
 21
92.001163095431
 31
0.0
  0
LINE
  5
477
330
147
100
AcDbEntity
  8
Layer0
  6
AUSGEZOGEN
 62
     9
370
    18
100
AcDbLine
 10
101.0063829422
 20
92.001163095431
 30
0.0
 11
101.670340538025
 21
90.851163095431
 31
0.0
  0
LINE
  5
478
330
147
100
AcDbEntity
  8
Layer0
  6
AUSGEZOGEN
 62
     9
370
    18
100
AcDbLine
 10
101.670340538025
 20
90.851163095431
 30
0.0
 11
102.998246955872
 21
90.851163095431
 31
0.0
  0
LINE
  5
479
330
147
100
AcDbEntity
  8
Layer0
  6
AUSGEZOGEN
 62
     9
370
    18
100
AcDbLine
 10
102.998246955872
 20
90.851163095431
 30
0.0
 11
103.662195777893
 21
92.001163095431
 31
0.0
  0
LINE
  5
47A
330
147
100
AcDbEntity
  8
Layer0
  6
AUSGEZOGEN
 62
     9
370
    18
100
AcDbLine
 10
103.662195777893
 20
92.001163095431
 30
0.0
 11
102.998246955872
 21
93.151163095431
 31
0.0
  0
LINE
  5
47B
330
147
100
AcDbEntity
  8
Layer0
  6
AUSGEZOGEN
 62
     9
370
    18
100
AcDbLine
 10
102.998246955872
 20
93.151163095431
 30
0.0
 11
101.670340538025
 21
93.151163095431
 31
0.0
  0
LINE
  5
47C
330
147
100
AcDbEntity
  8
Layer0
  6
AUSGEZOGEN
 62
     9
370
    18
100
AcDbLine
 10
101.670340538025
 20
88.551163095431
 30
0.0
 11
101.0063829422
 21
87.401163095431
 31
0.0
  0
LINE
  5
47D
330
147
100
AcDbEntity
  8
Layer0
  6
AUSGEZOGEN
 62
     9
370
    18
100
AcDbLine
 10
101.0063829422
 20
87.401163095431
 30
0.0
 11
101.670340538025
 21
86.251163095431
 31
0.0
  0
LINE
  5
47E
330
147
100
AcDbEntity
  8
Layer0
  6
AUSGEZOGEN
 62
     9
370
    18
100
AcDbLine
 10
101.670340538025
 20
86.251163095431
 30
0.0
 11
102.914924098398
 21
86.251163095431
 31
0.0
  0
LINE
  5
47F
330
147
100
AcDbEntity
  8
Layer0
  6
AUSGEZOGEN
 62
     9
370
    18
100
AcDbLine
 10
102.998246955872
 20
88.551163095431
 30
0.0
 11
101.670340538025
 21
88.551163095431
 31
0.0
  0
LINE
  5
480
330
147
100
AcDbEntity
  8
Stammform
  6
AUSGEZOGEN
 62
    56
370
    18
100
AcDbLine
 10
101.670340538025
 20
88.551163095431
 30
0.0
 11
102.334289360046
 21
87.401163095431
 31
0.0
  0
LINE
  5
481
330
147
100
AcDbEntity
  8
Stammform
  6
AUSGEZOGEN
 62
    56
370
    18
100
AcDbLine
 10
102.334289360046
 20
87.401163095431
 30
0.0
 11
103.345300816295
 21
87.401163095431
 31
0.0
  0
LINE
  5
482
330
147
100
AcDbEntity
  8
Stammform
  6
AUSGEZOGEN
 62
    56
370
    18
100
AcDbLine
 10
102.334289360046
 20
87.401163095431
 30
0.0
 11
101.670340538025
 21
86.251163095431
 31
0.0
  0
LINE
  5
483
330
147
100
AcDbEntity
  8
Stammform
  6
AUSGEZOGEN
 62
    56
370
    18
100
AcDbLine
 10
101.670340538025
 20
86.251163095431
 30
0.0
 11
102.334290751779
 21
85.101160684865
 31
0.0
  0
LINE
  5
484
330
147
100
AcDbEntity
  8
Layer0
  6
AUSGEZOGEN
 62
     9
370
    18
100
AcDbLine
 10
101.670340538025
 20
86.251163095431
 30
0.0
 11
101.0063829422
 21
85.101163095431
 31
0.0
  0
LINE
  5
485
330
147
100
AcDbEntity
  8
Layer0
  6
AUSGEZOGEN
 62
     9
370
    18
100
AcDbLine
 10
101.0063829422
 20
85.101163095431
 30
0.0
 11
101.670340538025
 21
83.951163095431
 31
0.0
  0
ENDBLK
  5
149
330
147
100
AcDbEntity
  8
0
100
AcDbBlockEnd
  0
BLOCK
  5
499
330
498
100
AcDbEntity
  8
0
100
AcDbBlockBegin
  2
*D2
 70
     1
 10
0.0
 20
0.0
 30
0.0
  3
*D2
  1

  0
LINE
  5
49B
330
498
100
AcDbEntity
  8
Bemassung
  6
AUSGEZOGEN
 62
   136
370
    18
100
AcDbLine
 10
102.625
 20
73.574401648826
 30
0.0
 11
102.625
 21
73.074401648826
 31
0.0
  0
LINE
  5
49C
330
498
100
AcDbEntity
  8
Bemassung
  6
AUSGEZOGEN
 62
   136
370
    18
100
AcDbLine
 10
102.625
 20
73.574401648826
 30
0.0
 11
103.875
 21
73.324401648826
 31
0.0
  0
LINE
  5
49D
330
498
100
AcDbEntity
  8
Bemassung
  6
AUSGEZOGEN
 62
   136
370
    18
100
AcDbLine
 10
103.875
 20
73.324401648826
 30
0.0
 11
102.625
 21
73.074401648826
 31
0.0
  0
LINE
  5
49E
330
498
100
AcDbEntity
  8
Bemassung
  6
AUSGEZOGEN
 62
   136
370
    18
100
AcDbLine
 10
82.125
 20
73.074401648826
 30
0.0
 11
82.125
 21
73.574401648826
 31
0.0
  0
LINE
  5
49F
330
498
100
AcDbEntity
  8
Bemassung
  6
AUSGEZOGEN
 62
   136
370
    18
100
AcDbLine
 10
82.125
 20
73.074401648826
 30
0.0
 11
80.875
 21
73.324401648826
 31
0.0
  0
LINE
  5
4A0
330
498
100
AcDbEntity
  8
Bemassung
  6
AUSGEZOGEN
 62
   136
370
    18
100
AcDbLine
 10
80.875
 20
73.324401648826
 30
0.0
 11
82.125
 21
73.574401648826
 31
0.0
  0
LINE
  5
4A1
330
498
100
AcDbEntity
  8
Bemassung
  6
AUSGEZOGEN
 62
   136
370
    18
100
AcDbLine
 10
80.875
 20
73.324401648826
 30
0.0
 11
103.875
 21
73.324401648826
 31
0.0
  0
LINE
  5
4A2
330
498
100
AcDbEntity
  8
Bemassung
  6
AUSGEZOGEN
 62
   136
370
    18
100
AcDbLine
 10
80.875
 20
90.851163095431
 30
0.0
 11
80.875
 21
72.61011593454
 31
0.0
  0
LINE
  5
4A3
330
498
100
AcDbEntity
  8
Bemassung
  6
AUSGEZOGEN
 62
   136
370
    18
100
AcDbLine
 10
103.875
 20
90.851163095431
 30
0.0
 11
103.875
 21
72.61011593454
 31
0.0
  0
TEXT
  5
4A4
330
498
100
AcDbEntity
  8
Bemassung
  6
AUSGEZOGEN
 62
   136
370
    18
100
AcDbText
 10
91.502046516761
 20
74.199401648826
 30
0.0
 40
1.25
  1
23
 41
1.131075166857
  7
Arial
 72
     5
 11
93.696332340464
 21
74.199401648826
 31
0.0
100
AcDbText
  0
ENDBLK
  5
49A
330
498
100
AcDbEntity
  8
0
100
AcDbBlockEnd
  0
BLOCK
  5
4A7
330
4A6
100
AcDbEntity
  8
0
100
AcDbBlockBegin
  2
_CLOSED
 70
     0
 10
0.0
 20
0.0
 30
0.0
  3
_CLOSED
  1

  0
LINE
  5
4A9
330
4A6
100
AcDbEntity
  8
0
  6
ByBlock
 62
     0
370
    -2
100
AcDbLine
 10
-1.0
 20
0.166667
 30
0.0
 11
0.0
 21
0.0
 31
0.0
  0
LINE
  5
4AA
330
4A6
100
AcDbEntity
  8
0
  6
ByBlock
 62
     0
370
    -2
100
AcDbLine
 10
0.0
 20
0.0
 30
0.0
 11
-1.0
 21
-0.166667
 31
0.0
  0
LINE
  5
4AB
330
4A6
100
AcDbEntity
  8
0
  6
ByBlock
 62
     0
370
    -2
100
AcDbLine
 10
-1.0
 20
0.166667
 30
0.0
 11
-1.0
 21
-0.166667
 31
0.0
  0
LINE
  5
4AC
330
4A6
100
AcDbEntity
  8
0
  6
ByBlock
 62
     0
370
    -2
100
AcDbLine
 10
0.0
 20
0.0
 30
0.0
 11
-1.0
 21
0.0
 31
0.0
  0
ENDBLK
  5
4A8
330
4A6
100
AcDbEntity
  8
0
100
AcDbBlockEnd
  0
BLOCK
  5
4B5
330
4B4
100
AcDbEntity
  8
0
100
AcDbBlockBegin
  2
*D4
 70
     1
 10
0.0
 20
0.0
 30
0.0
  3
*D4
  1

  0
LINE
  5
4B7
330
4B4
100
AcDbEntity
  8
Bemassung
  6
AUSGEZOGEN
 62
   136
370
    18
100
AcDbLine
 10
112.046523236847
 20
125.807843677494
 30
0.0
 11
112.546523236847
 21
125.807843677494
 31
0.0
  0
LINE
  5
4B8
330
4B4
100
AcDbEntity
  8
Bemassung
  6
AUSGEZOGEN
 62
   136
370
    18
100
AcDbLine
 10
112.046523236847
 20
125.807843677494
 30
0.0
 11
112.296523236847
 21
127.057843677494
 31
0.0
  0
LINE
  5
4B9
330
4B4
100
AcDbEntity
  8
Bemassung
  6
AUSGEZOGEN
 62
   136
370
    18
100
AcDbLine
 10
112.296523236847
 20
127.057843677494
 30
0.0
 11
112.546523236847
 21
125.807843677494
 31
0.0
  0
LINE
  5
4BA
330
4B4
100
AcDbEntity
  8
Bemassung
  6
AUSGEZOGEN
 62
   136
370
    18
100
AcDbLine
 10
112.546523236847
 20
122.607843677494
 30
0.0
 11
112.046523236847
 21
122.607843677494
 31
0.0
  0
LINE
  5
4BB
330
4B4
100
AcDbEntity
  8
Bemassung
  6
AUSGEZOGEN
 62
   136
370
    18
100
AcDbLine
 10
112.546523236847
 20
122.607843677494
 30
0.0
 11
112.296523236847
 21
121.357843677494
 31
0.0
  0
LINE
  5
4BC
330
4B4
100
AcDbEntity
  8
Bemassung
  6
AUSGEZOGEN
 62
   136
370
    18
100
AcDbLine
 10
112.296523236847
 20
121.357843677494
 30
0.0
 11
112.046523236847
 21
122.607843677494
 31
0.0
  0
LINE
  5
4BD
330
4B4
100
AcDbEntity
  8
Bemassung
  6
AUSGEZOGEN
 62
   136
370
    18
100
AcDbLine
 10
112.296523236847
 20
121.357843677494
 30
0.0
 11
112.296523236847
 21
127.057843677494
 31
0.0
  0
LINE
  5
4BE
330
4B4
100
AcDbEntity
  8
Bemassung
  6
AUSGEZOGEN
 62
   136
370
    18
100
AcDbLine
 10
112.296523236847
 20
127.057843677494
 30
0.0
 11
112.296523236847
 21
133.748840602646
 31
0.0
  0
LINE
  5
4BF
330
4B4
100
AcDbEntity
  8
Bemassung
  6
AUSGEZOGEN
 62
   136
370
    18
100
AcDbLine
 10
105.475
 20
121.357843677494
 30
0.0
 11
113.010808951133
 21
121.357843677494
 31
0.0
  0
LINE
  5
4C0
330
4B4
100
AcDbEntity
  8
Bemassung
  6
AUSGEZOGEN
 62
   136
370
    18
100
AcDbLine
 10
105.375
 20
127.057843677494
 30
0.0
 11
113.010808951133
 21
127.057843677494
 31
0.0
  0
TEXT
  5
4C1
330
4B4
100
AcDbEntity
  8
Bemassung
  6
AUSGEZOGEN
 62
   136
370
    18
100
AcDbText
 10
111.296523236847
 20
127.46648318101
 30
0.0
 40
1.25
  1
5.7
 50
90.0
 41
1.197349099769
  7
Arial
 72
     5
 11
111.296523236847
 21
130.370054747949
 31
0.0
100
AcDbText
  0
TEXT
  5
4C2
330
4B4
100
AcDbEntity
  8
Bemassung
  6
AUSGEZOGEN
 62
   136
370
    18
100
AcDbText
 10
111.109023236847
 20
130.584340464363
 30
0.0
 40
0.875
  1
%%p0.3
 50
90.0
 41
1.291250039099
  7
Arial
 72
     5
 11
111.109023236847
 21
133.641697744439
 31
0.0
100
AcDbText
  0
ENDBLK
  5
4B6
330
4B4
100
AcDbEntity
  8
0
100
AcDbBlockEnd
  0
BLOCK
  5
4C9
330
4C8
100
AcDbEntity
  8
0
100
AcDbBlockBegin
  2
*D5
 70
     1
 10
0.0
 20
0.0
 30
0.0
  3
*D5
  1

  0
LINE
  5
4CB
330
4C8
100
AcDbEntity
  8
Bemassung
  6
AUSGEZOGEN
 62
   136
370
    18
100
AcDbLine
 10
104.325
 20
70.75
 30
0.0
 11
104.325
 21
70.25
 31
0.0
  0
LINE
  5
4CC
330
4C8
100
AcDbEntity
  8
Bemassung
  6
AUSGEZOGEN
 62
   136
370
    18
100
AcDbLine
 10
104.325
 20
70.75
 30
0.0
 11
105.575
 21
70.5
 31
0.0
  0
LINE
  5
4CD
330
4C8
100
AcDbEntity
  8
Bemassung
  6
AUSGEZOGEN
 62
   136
370
    18
100
AcDbLine
 10
105.575
 20
70.5
 30
0.0
 11
104.325
 21
70.25
 31
0.0
  0
LINE
  5
4CE
330
4C8
100
AcDbEntity
  8
Bemassung
  6
AUSGEZOGEN
 62
   136
370
    18
100
AcDbLine
 10
80.425
 20
70.25
 30
0.0
 11
80.425
 21
70.75
 31
0.0
  0
LINE
  5
4CF
330
4C8
100
AcDbEntity
  8
Bemassung
  6
AUSGEZOGEN
 62
   136
370
    18
100
AcDbLine
 10
80.425
 20
70.25
 30
0.0
 11
79.175
 21
70.5
 31
0.0
  0
LINE
  5
4D0
330
4C8
100
AcDbEntity
  8
Bemassung
  6
AUSGEZOGEN
 62
   136
370
    18
100
AcDbLine
 10
79.175
 20
70.5
 30
0.0
 11
80.425
 21
70.75
 31
0.0
  0
LINE
  5
4D1
330
4C8
100
AcDbEntity
  8
Bemassung
  6
AUSGEZOGEN
 62
   136
370
    18
100
AcDbLine
 10
79.175
 20
70.5
 30
0.0
 11
105.575
 21
70.5
 31
0.0
  0
LINE
  5
4D2
330
4C8
100
AcDbEntity
  8
Bemassung
  6
AUSGEZOGEN
 62
   136
370
    18
100
AcDbLine
 10
79.175
 20
90.851163095431
 30
0.0
 11
79.175
 21
69.785714285714
 31
0.0
  0
LINE
  5
4D3
330
4C8
100
AcDbEntity
  8
Bemassung
  6
AUSGEZOGEN
 62
   136
370
    18
100
AcDbLine
 10
105.575
 20
90.851163095431
 30
0.0
 11
105.575
 21
69.785714285714
 31
0.0
  0
TEXT
  5
4D4
330
4C8
100
AcDbEntity
  8
Bemassung
  6
AUSGEZOGEN
 62
   136
370
    18
100
AcDbText
 10
90.5
 20
71.0
 30
0.0
 40
1.25
  1
26.4
 41
1.209972706038
  7
Arial
 72
     5
 11
94.607857336998
 21
71.0
 31
0.0
100
AcDbText
  0
ENDBLK
  5
4CA
330
4C8
100
AcDbEntity
  8
0
100
AcDbBlockEnd
  0
BLOCK
  5
4D7
330
4D6
100
AcDbEntity
  8
0
100
AcDbBlockBegin
  2
L1_nNn04
 70
     0
 10
0.0
 20
0.0
 30
0.0
  3
L1_nNn04
  1

  0
INSERT
  5
524
330
4D6
100
AcDbEntity
  8
0
100
AcDbBlockReference
  2
Schriftfeld_nNn05
 10
0.0
 20
0.0
 30
0.0
  0
LINE
  5
525
330
4D6
100
AcDbEntity
  8
Layer99
  6
AUSGEZOGEN
 62
     9
370
    18
100
AcDbLine
 10
44.028811240754
 20
12.917366071429
 30
0.0
 11
138.028811240754
 21
12.917366071429
 31
0.0
  0
LINE
  5
526
330
4D6
100
AcDbEntity
  8
Layer0
  6
AUSGEZOGEN
 62
    56
370
    18
100
AcDbLine
 10
41.678811240754
 20
10.567366071429
 30
0.0
 11
140.378811240754
 21
10.567366071429
 31
0.0
  0
TEXT
  5
527
330
4D6
100
AcDbEntity
  8
Text
  6
AUSGEZOGEN
 62
     9
370
    18
100
AcDbText
 10
99.527969173735
 20
25.557509202821
 30
0.0
 40
2.35
  1
Reflektor 26D
 41
1.261321634323
  7
Arial
 72
     5
 11
124.820684312081
 21
25.557509202821
 31
0.0
100
AcDbText
  0
TEXT
  5
528
330
4D6
100
AcDbEntity
  8
Text
  6
AUSGEZOGEN
 62
     9
370
    18
100
AcDbText
 10
106.468491451596
 20
16.83763678142
 30
0.0
 40
2.35
  1
02354500k
 41
1.218898721598
  7
Arial
 72
     5
 11
126.250120694284
 21
16.83763678142
 31
0.0
100
AcDbText
  0
TEXT
  5
529
330
4D6
100
AcDbEntity
  8
Layer0
  6
AUSGEZOGEN
 62
   136
370
    18
100
AcDbText
 10
51.449969462182
 20
40.605847955338
 30
0.0
 40
1.25
  1
Reflexionswerte werden gesondert vereinbart
 41
1.135633657373
  7
Arial
 72
     5
 11
91.314969462182
 21
40.605847955338
 31
0.0
100
AcDbText
  0
INSERT
  5
533
330
4D6
100
AcDbEntity
  8
0
100
AcDbBlockReference
  2
A4_nNn07
 10
0.0
 20
0.0
 30
0.0
  0
ENDBLK
  5
4D8
330
4D6
100
AcDbEntity
  8
0
100
AcDbBlockEnd
  0
BLOCK
  5
4DA
330
4D9
100
AcDbEntity
  8
0
100
AcDbBlockBegin
  2
Schriftfeld_nNn05
 70
     0
 10
0.0
 20
0.0
 30
0.0
  3
Schriftfeld_nNn05
  1

  0
LINE
  5
4DC
330
4D9
100
AcDbEntity
  8
Layer99
  6
AUSGEZOGEN
 62
    56
370
    18
100
AcDbLine
 10
81.628811240754
 20
30.894866071429
 30
0.0
 11
81.628811240754
 21
22.904866071429
 31
0.0
  0
LINE
  5
4DD
330
4D9
100
AcDbEntity
  8
Layer99
  6
AUSGEZOGEN
 62
    56
370
    18
100
AcDbLine
 10
54.744834189973
 20
30.894866071429
 30
0.0
 11
54.744834189973
 21
12.917366071429
 31
0.0
  0
LINE
  5
4DE
330
4D9
100
AcDbEntity
  8
Layer99
  6
AUSGEZOGEN
 62
     9
370
    18
100
AcDbLine
 10
131.918811240754
 20
20.907366071429
 30
0.0
 11
131.918811240754
 21
15.196867147173
 31
0.0
  0
LINE
  5
4DF
330
4D9
100
AcDbEntity
  8
Layer99
  6
AUSGEZOGEN
 62
    56
370
    18
100
AcDbLine
 10
76.740799766145
 20
14.914866071429
 30
0.0
 11
51.078811240754
 21
14.914866071429
 31
0.0
  0
LINE
  5
4E0
330
4D9
100
AcDbEntity
  8
Layer99
  6
AUSGEZOGEN
 62
    56
370
    18
100
AcDbLine
 10
76.740799766145
 20
16.912366071429
 30
0.0
 11
51.078811240754
 21
16.912366071429
 31
0.0
  0
LINE
  5
4E1
330
4D9
100
AcDbEntity
  8
Layer99
  6
AUSGEZOGEN
 62
    56
370
    18
100
AcDbLine
 10
76.740799766145
 20
18.909866071429
 30
0.0
 11
51.078811240754
 21
18.909866071429
 31
0.0
  0
LINE
  5
4E2
330
4D9
100
AcDbEntity
  8
Layer99
  6
AUSGEZOGEN
 62
    56
370
    18
100
AcDbLine
 10
76.740799766145
 20
20.907366071429
 30
0.0
 11
51.078811240754
 21
20.907366071429
 31
0.0
  0
LINE
  5
4E3
330
4D9
100
AcDbEntity
  8
Layer99
  6
AUSGEZOGEN
 62
     9
370
    18
100
AcDbLine
 10
138.028811240754
 20
20.907366071429
 30
0.0
 11
76.740799766145
 21
20.907366071429
 31
0.0
  0
LINE
  5
4E4
330
4D9
100
AcDbEntity
  8
Layer99
  6
AUSGEZOGEN
 62
    56
370
    18
100
AcDbLine
 10
97.514834189973
 20
22.904866071429
 30
0.0
 11
51.078811240754
 21
22.904866071429
 31
0.0
  0
LINE
  5
4E5
330
4D9
100
AcDbEntity
  8
Layer99
  6
AUSGEZOGEN
 62
    56
370
    18
100
AcDbLine
 10
97.514834189973
 20
24.902366071429
 30
0.0
 11
51.078811240754
 21
24.902366071429
 31
0.0
  0
LINE
  5
4E6
330
4D9
100
AcDbEntity
  8
Layer99
  6
AUSGEZOGEN
 62
    56
370
    18
100
AcDbLine
 10
97.514834189973
 20
26.899866071429
 30
0.0
 11
51.078811240754
 21
26.899866071429
 31
0.0
  0
LINE
  5
4E7
330
4D9
100
AcDbEntity
  8
Layer99
  6
AUSGEZOGEN
 62
    56
370
    18
100
AcDbLine
 10
97.514834189973
 20
28.897366071429
 30
0.0
 11
51.078811240754
 21
28.897366071429
 31
0.0
  0
LINE
  5
4E8
330
4D9
100
AcDbEntity
  8
Layer99
  6
AUSGEZOGEN
 62
     9
370
    18
100
AcDbLine
 10
138.028811240754
 20
30.894866071429
 30
0.0
 11
51.078811240754
 21
30.894866071429
 31
0.0
  0
LINE
  5
4E9
330
4D9
100
AcDbEntity
  8
Layer99
  6
AUSGEZOGEN
 62
    56
370
    18
100
AcDbLine
 10
76.740799766145
 20
35.888616071429
 30
0.0
 11
51.078811240754
 21
35.888616071429
 31
0.0
  0
LINE
  5
4EA
330
4D9
100
AcDbEntity
  8
Layer99
  6
AUSGEZOGEN
 62
    56
370
    18
100
AcDbLine
 10
138.028811240754
 20
35.888616071429
 30
0.0
 11
97.514834189973
 21
35.888616071429
 31
0.0
  0
LINE
  5
4EB
330
4D9
100
AcDbEntity
  8
Layer99
  6
AUSGEZOGEN
 62
    56
370
    18
100
AcDbLine
 10
120.920799766145
 20
38.884866071429
 30
0.0
 11
120.920799766145
 21
35.888616071429
 31
0.0
  0
LINE
  5
4EC
330
4D9
100
AcDbEntity
  8
Layer99
  6
AUSGEZOGEN
 62
     9
370
    18
100
AcDbLine
 10
97.514834189973
 20
38.884866071429
 30
0.0
 11
97.514834189973
 21
15.196867147173
 31
0.0
  0
LINE
  5
4ED
330
4D9
100
AcDbEntity
  8
Layer99
  6
AUSGEZOGEN
 62
    56
370
    18
100
AcDbLine
 10
88.960799766145
 20
30.894866071429
 30
0.0
 11
88.960799766145
 21
20.907366071429
 31
0.0
  0
LINE
  5
4EE
330
4D9
100
AcDbEntity
  8
Layer99
  6
AUSGEZOGEN
 62
     9
370
    18
100
AcDbLine
 10
76.740799766145
 20
38.884866071429
 30
0.0
 11
76.740799766145
 21
12.917366071429
 31
0.0
  0
LINE
  5
4EF
330
4D9
100
AcDbEntity
  8
Layer99
  6
AUSGEZOGEN
 62
     9
370
    18
100
AcDbLine
 10
51.078811240754
 20
38.884866071429
 30
0.0
 11
51.078811240754
 21
12.917366071429
 31
0.0
  0
LINE
  5
4F0
330
4D9
100
AcDbEntity
  8
Layer99
  6
AUSGEZOGEN
 62
     9
370
    18
100
AcDbLine
 10
138.028811240754
 20
38.884866071429
 30
0.0
 11
51.078811240754
 21
38.884866071429
 31
0.0
  0
TEXT
  5
4F1
330
4D9
100
AcDbEntity
  8
Layer99
  6
AUSGEZOGEN
 62
    56
370
    18
100
AcDbText
 10
77.068514609895
 20
27.346521337237
 30
0.0
 40
0.94
  1
Bearb. 19.04.02 Ms
 41
1.259432179168
  7
Arial
 72
     5
 11
91.489189381871
 21
27.346521337237
 31
0.0
100
AcDbText
  0
TEXT
  5
4F2
330
4D9
100
AcDbEntity
  8
Layer99
  6
AUSGEZOGEN
 62
    56
370
    18
100
AcDbText
 10
77.177236533723
 20
25.388379247393
 30
0.0
 40
0.94
  1
Gepr.
 41
1.215533862924
  7
Arial
 72
     5
 11
81.166059526262
 21
25.388379247393
 31
0.0
100
AcDbText
  0
TEXT
  5
4F3
330
4D9
100
AcDbEntity
  8
Layer99
  6
AUSGEZOGEN
 62
    56
370
    18
100
AcDbText
 10
77.177236533723
 20
23.321457860674
 30
0.0
 40
0.94
  1
Norm
 41
1.171328125812
  7
Arial
 72
     5
 11
80.934013805077
 21
23.321457860674
 31
0.0
100
AcDbText
  0
TEXT
  5
4F4
330
4D9
100
AcDbEntity
  8
Layer99
  6
AUSGEZOGEN
 62
    56
370
    18
100
AcDbText
 10
132.830583701691
 20
19.380156522478
 30
0.0
 40
1.175
  1
Blatt
 41
1.26499927539
  7
Arial
 72
     5
 11
136.982026698685
 21
19.380156522478
 31
0.0
100
AcDbText
  0
TEXT
  5
4F5
330
4D9
100
AcDbEntity
  8
Layer0
  6
AUSGEZOGEN
 62
   136
370
    18
100
AcDbText
 10
78.169331260285
 20
36.768309827532
 30
0.0
 40
1.175
  1
Allgemeintoleranzen
 41
1.263559891189
  7
Arial
 72
     5
 11
96.94314617858
 21
36.768309827532
 31
0.0
100
AcDbText
  0
TEXT
  5
4F6
330
4D9
100
AcDbEntity
  8
Layer0
  6
AUSGEZOGEN
 62
   136
370
    18
100
AcDbText
 10
77.842591758332
 20
34.589439283099
 30
0.0
 40
1.175
  1
Nach: TG5
 41
1.223038375192
  7
Arial
 72
     5
 11
87.541377801484
 21
34.589439283099
 31
0.0
100
AcDbText
  0
TEXT
  5
4F7
330
4D9
100
AcDbEntity
  8
Layer0
  6
AUSGEZOGEN
 62
   136
370
    18
100
AcDbText
 10
77.921651816926
 20
32.410561567034
 30
0.0
 40
1.175
  1
DIN: 16742
 41
1.239741037486
  7
Arial
 72
     5
 11
88.205923593393
 21
32.410561567034
 31
0.0
100
AcDbText
  0
TEXT
  5
4F8
330
4D9
100
AcDbEntity
  8
Layer0
  6
AUSGEZOGEN
 62
    56
370
    18
100
AcDbText
 10
121.678697715363
 20
36.877254071917
 30
0.0
 40
1.175
  1
Gewicht:
 41
1.240831402125
  7
Arial
 72
     5
 11
129.595512268773
 21
36.877254071917
 31
0.0
100
AcDbText
  0
TEXT
  5
4F9
330
4D9
100
AcDbEntity
  8
Layer0
  6
AUSGEZOGEN
 62
    56
370
    18
100
AcDbText
 10
98.132110801301
 20
36.887215467181
 30
0.0
 40
1.175
  1
Maßstab: 2:1
 41
1.251587148984
  7
Arial
 72
     5
 11
110.111739777154
 21
36.887215467181
 31
0.0
100
AcDbText
  0
TEXT
  5
4FA
330
4D9
100
AcDbEntity
  8
Layer0
  6
AUSGEZOGEN
 62
    56
370
    18
100
AcDbText
 10
51.642845664582
 20
36.887366071429
 30
0.0
 40
1.175
  1
Schwindung:
 41
1.234746274162
  7
Arial
 72
     5
 11
63.236403199858
 21
36.887366071429
 31
0.0
100
AcDbText
  0
TEXT
  5
4FB
330
4D9
100
AcDbEntity
  8
Layer0
  6
AUSGEZOGEN
 62
    56
370
    18
100
AcDbText
 10
51.699530234895
 20
33.947054792132
 30
0.0
 40
1.175
  1
Diese Zeichnung darf nur
 41
1.271210741346
  7
Arial
 72
     5
 11
75.106873879856
 21
33.947054792132
 31
0.0
100
AcDbText
  0
TEXT
  5
4FC
330
4D9
100
AcDbEntity
  8
Layer0
  6
AUSGEZOGEN
 62
    56
370
    18
100
AcDbText
 10
51.699530234895
 20
32.067054764118
 30
0.0
 40
1.175
  1
mit CAD geändert werden
 41
1.255342283876
  7
Arial
 72
     5
 11
75.385516748405
 21
32.067054764118
 31
0.0
100
AcDbText
  0
LINE
  5
4FD
330
4D9
100
AcDbEntity
  8
Layer99
  6
AUSGEZOGEN
 62
    56
370
    18
100
AcDbLine
 10
138.028811240754
 20
15.196867147173
 30
0.0
 11
97.514834189973
 21
15.196867147173
 31
0.0
  0
LINE
  5
4FE
330
4D9
100
AcDbEntity
  8
Layer99
  6
AUSGEZOGEN
 62
    56
370
    18
100
AcDbLine
 10
138.028811240754
 20
17.194367147173
 30
0.0
 11
131.918811240754
 21
17.194367147173
 31
0.0
  0
TEXT
  5
4FF
330
4D9
100
AcDbEntity
  8
Layer99
  6
AUSGEZOGEN
 62
    56
370
    18
100
AcDbText
 10
135.386839805207
 20
15.6438892419
 30
0.0
 40
1.175
  1
Bl.
 41
1.229150265254
  7
Arial
 72
     5
 11
137.739525599173
 21
15.6438892419
 31
0.0
100
AcDbText
  0
LINE
  5
500
330
4D9
100
AcDbEntity
  8
Layer99
  6
AUSGEZOGEN
 62
    56
370
    18
100
AcDbLine
 10
97.514834189973
 20
15.196867147173
 30
0.0
 11
76.740799766145
 21
15.196867147173
 31
0.0
  0
LINE
  5
501
330
4D9
100
AcDbEntity
  8
Layer99
  6
AUSGEZOGEN
 62
    56
370
    18
100
AcDbLine
 10
68.89170796927
 20
30.894866071429
 30
0.0
 11
68.89170796927
 21
12.917366071429
 31
0.0
  0
TEXT
  5
502
330
4D9
100
AcDbEntity
  8
Text
  6
AUSGEZOGEN
 62
   136
370
    18
100
AcDbText
 10
53.116099448762
 20
15.346182115282
 30
0.0
 40
0.94
  1
-  ---
 41
1.340992890965
  7
Arial
 72
     5
 11
56.438865273711
 21
15.346182115282
 31
0.0
100
AcDbText
  0
TEXT
  5
503
330
4D9
100
AcDbEntity
  8
Text
  6
AUSGEZOGEN
 62
   136
370
    18
100
AcDbText
 10
69.001921592316
 20
15.46133430263
 30
0.0
 40
0.94
  1
--.--.--/--
 41
1.366444411798
  7
Arial
 72
     5
 11
75.275213229105
 21
15.46133430263
 31
0.0
100
AcDbText
  0
TEXT
  5
504
330
4D9
100
AcDbEntity
  8
Layer0
  6
AUSGEZOGEN
 62
    56
370
    18
100
AcDbText
 10
77.325832725129
 20
13.432073345866
 30
0.0
 40
1.175
  1
Schutzvermerk nach DIN 34 beachten .        Copyright reserved
 41
1.286227457357
  7
Arial
 72
     5
 11
136.652591860435
 21
13.432073345866
 31
0.0
100
AcDbText
  0
INSERT
  5
51D
330
4D9
100
AcDbEntity
  8
0
100
AcDbBlockReference
  2
ULTRAREFLEX_nNn06
 10
0.0
 20
0.0
 30
0.0
  0
TEXT
  5
51E
330
4D9
100
AcDbEntity
  8
Text
  6
AUSGEZOGEN
 62
   136
370
    18
100
AcDbText
 10
98.526525389309
 20
21.515659513729
 30
0.0
 40
0.94
  1
---
 41
1.259600656861
  7
Arial
 72
     5
 11
100.178239730652
 21
21.515659513729
 31
0.0
100
AcDbText
  0
TEXT
  5
51F
330
4D9
100
AcDbEntity
  8
Layer99
  6
AUSGEZOGEN
 62
    56
370
    18
100
AcDbText
 10
69.143749011499
 20
13.384216639861
 30
0.0
 40
0.94
  1
Dat./Nam.
 41
1.239717192527
  7
Arial
 72
     5
 11
76.465543544906
 21
13.384216639861
 31
0.0
100
AcDbText
  0
TEXT
  5
520
330
4D9
100
AcDbEntity
  8
Layer99
  6
AUSGEZOGEN
 62
    56
370
    18
100
AcDbText
 10
51.171329020761
 20
13.38208554246
 30
0.0
 40
0.94
  1
Zust.
 41
1.239906123597
  7
Arial
 72
     5
 11
54.78791200019
 21
13.38208554246
 31
0.0
100
AcDbText
  0
TEXT
  5
521
330
4D9
100
AcDbEntity
  8
Layer0
  6
AUSGEZOGEN
 62
    56
370
    18
100
AcDbText
 10
82.405115980394
 20
29.300562329974
 30
0.0
 40
1.175
  1
Datum
 41
1.188171149402
  7
Arial
 72
     5
 11
88.144487604744
 21
29.300562329974
 31
0.0
100
AcDbText
  0
TEXT
  5
522
330
4D9
100
AcDbEntity
  8
Layer0
  6
AUSGEZOGEN
 62
    56
370
    18
100
AcDbText
 10
90.70775517895
 20
29.304489985993
 30
0.0
 40
1.175
  1
Name
 41
1.15958716227
  7
Arial
 72
     5
 11
95.780398209981
 21
29.304489985993
 31
0.0
100
AcDbText
  0
TEXT
  5
523
330
4D9
100
AcDbEntity
  8
Layer99
  6
AUSGEZOGEN
 62
    56
370
    18
100
AcDbText
 10
55.41509112899
 20
13.382197373338
 30
0.0
 40
0.94
  1
Änderung
 41
1.218204176926
  7
Arial
 72
     5
 11
62.345308507022
 21
13.382197373338
 31
0.0
100
AcDbText
  0
ENDBLK
  5
4DB
330
4D9
100
AcDbEntity
  8
0
100
AcDbBlockEnd
  0
BLOCK
  5
506
330
505
100
AcDbEntity
  8
0
100
AcDbBlockBegin
  2
ULTRAREFLEX_nNn06
 70
     0
 10
0.0
 20
0.0
 30
0.0
  3
ULTRAREFLEX_nNn06
  1

  0
LINE
  5
508
330
505
100
AcDbEntity
  8
Layer0
  6
AUSGEZOGEN
 62
    30
370
    18
100
AcDbLine
 10
96.015802623844
 20
19.423822116137
 30
0.0
 11
94.585763742088
 21
19.423822116137
 31
0.0
  0
LINE
  5
509
330
505
100
AcDbEntity
  8
Layer0
  6
AUSGEZOGEN
 62
    30
370
    18
100
AcDbLine
 10
94.447372882563
 20
19.343922116137
 30
0.0
 11
93.732353441685
 21
18.105472116137
 31
0.0
  0
LINE
  5
50A
330
505
100
AcDbEntity
  8
Layer0
  6
AUSGEZOGEN
 62
    30
370
    18
100
AcDbLine
 10
93.732353441685
 20
17.945672116137
 30
0.0
 11
94.447372882563
 21
16.707222116137
 31
0.0
  0
LINE
  5
50B
330
505
100
AcDbEntity
  8
Layer0
  6
AUSGEZOGEN
 62
    30
370
    18
100
AcDbLine
 10
94.585763742088
 20
16.627322116137
 30
0.0
 11
96.015802623844
 21
16.627322116137
 31
0.0
  0
LINE
  5
50C
330
505
100
AcDbEntity
  8
Layer0
  6
AUSGEZOGEN
 62
    30
370
    18
100
AcDbLine
 10
96.154193483368
 20
16.707222116137
 30
0.0
 11
96.869212924246
 21
17.945672116137
 31
0.0
  0
LINE
  5
50D
330
505
100
AcDbEntity
  8
Layer0
  6
AUSGEZOGEN
 62
    30
370
    18
100
AcDbLine
 10
96.869212924246
 20
18.105472116137
 30
0.0
 11
96.154193483368
 21
19.343922116137
 31
0.0
  0
LINE
  5
50E
330
505
100
AcDbEntity
  8
Layer0
  6
AUSGEZOGEN
 62
    30
370
    18
100
AcDbLine
 10
95.439174042491
 20
18.105472116137
 30
0.0
 11
96.869212924246
 21
18.105472116137
 31
0.0
  0
LINE
  5
50F
330
505
100
AcDbEntity
  8
Layer0
  6
AUSGEZOGEN
 62
    30
370
    18
100
AcDbLine
 10
93.732353441685
 20
18.105472116137
 30
0.0
 11
95.162392323441
 21
18.105472116137
 31
0.0
  0
LINE
  5
510
330
505
100
AcDbEntity
  8
Layer0
  6
AUSGEZOGEN
 62
    30
370
    18
100
AcDbLine
 10
95.439174042491
 20
17.945672116137
 30
0.0
 11
96.869212924246
 21
17.945672116137
 31
0.0
  0
LINE
  5
511
330
505
100
AcDbEntity
  8
Layer0
  6
AUSGEZOGEN
 62
    30
370
    18
100
AcDbLine
 10
93.732353441685
 20
17.945672116137
 30
0.0
 11
95.162392323441
 21
17.945672116137
 31
0.0
  0
LINE
  5
512
330
505
100
AcDbEntity
  8
Layer0
  6
AUSGEZOGEN
 62
    30
370
    18
100
AcDbLine
 10
95.439174042491
 20
17.945672116137
 30
0.0
 11
96.154193483368
 21
16.707222116137
 31
0.0
  0
LINE
  5
513
330
505
100
AcDbEntity
  8
Layer0
  6
AUSGEZOGEN
 62
    30
370
    18
100
AcDbLine
 10
94.585763742088
 20
19.423822116137
 30
0.0
 11
95.300783182966
 21
18.185372116137
 31
0.0
  0
LINE
  5
514
330
505
100
AcDbEntity
  8
Layer0
  6
AUSGEZOGEN
 62
    30
370
    18
100
AcDbLine
 10
95.300783182966
 20
17.865772116137
 30
0.0
 11
96.015802623844
 21
16.627322116137
 31
0.0
  0
LINE
  5
515
330
505
100
AcDbEntity
  8
Layer0
  6
AUSGEZOGEN
 62
    30
370
    18
100
AcDbLine
 10
94.447372882563
 20
19.343922116137
 30
0.0
 11
95.162392323441
 21
18.105472116137
 31
0.0
  0
LINE
  5
516
330
505
100
AcDbEntity
  8
Layer0
  6
AUSGEZOGEN
 62
    30
370
    18
100
AcDbLine
 10
95.300783182966
 20
17.865772116137
 30
0.0
 11
94.585763742088
 21
16.627322116137
 31
0.0
  0
LINE
  5
517
330
505
100
AcDbEntity
  8
Layer0
  6
AUSGEZOGEN
 62
    30
370
    18
100
AcDbLine
 10
96.154193483368
 20
19.343922116137
 30
0.0
 11
95.439174042491
 21
18.105472116137
 31
0.0
  0
LINE
  5
518
330
505
100
AcDbEntity
  8
Layer0
  6
AUSGEZOGEN
 62
    30
370
    18
100
AcDbLine
 10
95.162392323441
 20
17.945672116137
 30
0.0
 11
94.447372882563
 21
16.707222116137
 31
0.0
  0
LINE
  5
519
330
505
100
AcDbEntity
  8
Layer0
  6
AUSGEZOGEN
 62
    30
370
    18
100
AcDbLine
 10
96.015802623844
 20
19.423822116137
 30
0.0
 11
95.300783182966
 21
18.185372116137
 31
0.0
  0
HATCH
  5
51A
330
505
100
AcDbEntity
  8
Layer0
  6
AUSGEZOGEN
 62
    30
370
    18
100
AcDbHatch
 10
0.0
 20
0.0
 30
0.0
210
0.0
220
0.0
230
1.0
  2
SOLID
 70
     1
 71
     0
 91
        6
 92
        2
 72
     0
 73
     1
 93
        3
 10
95.16239232344104
 20
17.94567211613712
 10
93.73235344168519
 20
17.94567211613712
 10
94.44737288256313
 20
16.70722211613713
 97
        0
 92
        2
 72
     0
 73
     1
 93
        3
 10
95.16239232344104
 20
18.10547211613713
 10
94.44737288256313
 20
19.34392211613713
 10
93.73235344168519
 20
18.10547211613713
 97
        0
 92
        2
 72
     0
 73
     1
 93
        3
 10
95.30078318296579
 20
18.18537211613712
 10
96.01580262384361
 20
19.42382211613712
 10
94.58576374208788
 20
19.42382211613712
 97
        0
 92
        2
 72
     0
 73
     1
 93
        3
 10
95.43917404249054
 20
18.10547211613713
 10
96.86921292424627
 20
18.10547211613713
 10
96.15419348336845
 20
19.34392211613711
 97
        0
 92
        2
 72
     0
 73
     1
 93
        3
 10
96.15419348336845
 20
16.70722211613712
 10
96.86921292424627
 20
17.94567211613712
 10
95.43917404249054
 20
17.94567211613712
 97
        0
 92
        2
 72
     0
 73
     1
 93
        3
 10
95.30078318296579
 20
17.86577211613712
 10
94.58576374208788
 20
16.62732211613713
 10
96.01580262384361
 20
16.62732211613713
 97
        0
 75
     0
 76
     1
 98
        0
  0
TEXT
  5
51B
330
505
100
AcDbEntity
  8
Layer0
  6
AUSGEZOGEN
 62
     7
370
    70
100
AcDbText
 10
85.191938543496
 20
17.12545500088
 30
0.0
 40
1.8377
  1
REFLEX
 41
0.705366510959
  7
Arial Black
 72
     5
 11
93.042113543496
 21
17.12545500088
 31
0.0
100
AcDbText
  0
TEXT
  5
51C
330
505
100
AcDbEntity
  8
Layer0
  6
AUSGEZOGEN
 62
     7
370
    18
100
AcDbText
 10
77.442432524445
 20
17.212147619309
 30
0.0
 40
1.39825
  1
ULTRA
 41
1.159777722278
  7
Arial
 72
     5
 11
84.863145024445
 21
17.212147619309
 31
0.0
100
AcDbText
  0
ENDBLK
  5
507
330
505
100
AcDbEntity
  8
0
100
AcDbBlockEnd
  0
BLOCK
  5
52B
330
52A
100
AcDbEntity
  8
0
100
AcDbBlockBegin
  2
A4_nNn07
 70
     0
 10
0.0
 20
0.0
 30
0.0
  3
A4_nNn07
  1

  0
LINE
  5
52D
330
52A
100
AcDbEntity
  8
Layer99
  6
AUSGEZOGEN
 62
     9
370
    18
100
AcDbLine
 10
138.028811240754
 20
12.917366071429
 30
0.0
 11
138.028811240754
 21
147.807366071429
 31
0.0
  0
LINE
  5
52E
330
52A
100
AcDbEntity
  8
Layer0
  6
AUSGEZOGEN
 62
     9
370
    18
100
AcDbLine
 10
44.028811240754
 20
12.917366071429
 30
0.0
 11
44.028811240754
 21
147.807366071429
 31
0.0
  0
LINE
  5
52F
330
52A
100
AcDbEntity
  8
Layer0
  6
AUSGEZOGEN
 62
     9
370
    18
100
AcDbLine
 10
44.028811240754
 20
147.807366071429
 30
0.0
 11
138.028811240754
 21
147.807366071429
 31
0.0
  0
LINE
  5
530
330
52A
100
AcDbEntity
  8
Layer0
  6
AUSGEZOGEN
 62
    56
370
    18
100
AcDbLine
 10
41.678811240754
 20
150.157366071429
 30
0.0
 11
140.378811240754
 21
150.157366071429
 31
0.0
  0
LINE
  5
531
330
52A
100
AcDbEntity
  8
Layer0
  6
AUSGEZOGEN
 62
    56
370
    18
100
AcDbLine
 10
41.678811240754
 20
10.567366071429
 30
0.0
 11
41.678811240754
 21
150.157366071429
 31
0.0
  0
LINE
  5
532
330
52A
100
AcDbEntity
  8
Layer0
  6
AUSGEZOGEN
 62
    56
370
    18
100
AcDbLine
 10
140.378811240754
 20
10.567366071429
 30
0.0
 11
140.378811240754
 21
150.157366071429
 31
0.0
  0
ENDBLK
  5
52C
330
52A
100
AcDbEntity
  8
0
100
AcDbBlockEnd
  0
BLOCK
  5
536
330
535
100
AcDbEntity
  8
0
100
AcDbBlockBegin
  2
QS_nNn08
 70
     0
 10
0.0
 20
0.0
 30
0.0
  3
QS_nNn08
  1

  0
TEXT
  5
538
330
535
100
AcDbEntity
  8
Layer0
  6
AUSGEZOGEN
 62
   136
370
    18
100
AcDbText
 10
51.345041968784
 20
48.318017473768
 30
0.0
 40
1.25
  1
Teil frei von Rissen, Grat, Blasen, Einfallstellen,
 41
1.13496141796
  7
Arial
 72
     5
 11
93.0562927806
 21
48.318017473768
 31
0.0
100
AcDbText
  0
TEXT
  5
539
330
535
100
AcDbEntity
  8
Layer0
  6
AUSGEZOGEN
 62
   136
370
    18
100
AcDbText
 10
51.345041968784
 20
46.318017443965
 30
0.0
 40
1.25
  1
Fliesslinien, Einschlüssen, Formbelag, Kratzer, Schlieren
 41
1.134732261281
  7
Arial
 72
     5
 11
101.298792941021
 21
46.318017443965
 31
0.0
100
AcDbText
  0
TEXT
  5
53A
330
535
100
AcDbEntity
  8
Layer0
  6
AUSGEZOGEN
 62
   136
370
    18
100
AcDbText
 10
51.345041968784
 20
44.318017414163
 30
0.0
 40
1.25
  1
Grenzwertmuster werden gesondert vereinbart
 41
1.135456394682
  7
Arial
 72
     5
 11
92.303792765954
 21
44.318017414163
 31
0.0
100
AcDbText
  0
ENDBLK
  5
537
330
535
100
AcDbEntity
  8
0
100
AcDbBlockEnd
  0
BLOCK
  5
53D
330
53C
100
AcDbEntity
  8
0
100
AcDbBlockBegin
  2
*D11
 70
     1
 10
0.0
 20
0.0
 30
0.0
  3
*D11
  1

  0
LINE
  5
53F
330
53C
100
AcDbEntity
  8
Bemassung
  6
AUSGEZOGEN
 62
   136
370
    18
100
AcDbLine
 10
82.345780447004
 20
106.122286261932
 30
0.0
 11
82.095780559781
 21
106.555299028936
 31
0.0
  0
LINE
  5
540
330
53C
100
AcDbEntity
  8
Bemassung
  6
AUSGEZOGEN
 62
   136
370
    18
100
AcDbLine
 10
82.345780447004
 20
106.122286261932
 30
0.0
 11
81.138248585881
 21
105.713792927378
 31
0.0
  0
LINE
  5
541
330
53C
100
AcDbEntity
  8
Bemassung
  6
AUSGEZOGEN
 62
   136
370
    18
100
AcDbLine
 10
81.138248585881
 20
105.713792927378
 30
0.0
 11
82.095780559781
 21
106.555299028936
 31
0.0
  0
LINE
  5
542
330
53C
100
AcDbEntity
  8
Bemassung
  6
AUSGEZOGEN
 62
   136
370
    18
100
AcDbLine
 10
77.938857097989
 20
104.155299592825
 30
0.0
 11
78.188856985211
 21
103.72228682582
 31
0.0
  0
LINE
  5
543
330
53C
100
AcDbEntity
  8
Bemassung
  6
AUSGEZOGEN
 62
   136
370
    18
100
AcDbLine
 10
77.938857097989
 20
104.155299592825
 30
0.0
 11
79.146388959111
 21
104.563792927378
 31
0.0
  0
LINE
  5
544
330
53C
100
AcDbEntity
  8
Bemassung
  6
AUSGEZOGEN
 62
   136
370
    18
100
AcDbLine
 10
79.146388959111
 20
104.563792927378
 30
0.0
 11
78.188856985211
 21
103.72228682582
 31
0.0
  0
LINE
  5
545
330
53C
100
AcDbEntity
  8
Bemassung
  6
AUSGEZOGEN
 62
   136
370
    18
100
AcDbLine
 10
79.146388959111
 20
104.563792927378
 30
0.0
 11
81.138248585881
 21
105.713792927378
 31
0.0
  0
LINE
  5
546
330
53C
100
AcDbEntity
  8
Bemassung
  6
AUSGEZOGEN
 62
   136
370
    18
100
AcDbLine
 10
81.138248585881
 20
105.713792927378
 30
0.0
 11
84.385844338415
 21
107.588792081545
 31
0.0
  0
LINE
  5
547
330
53C
100
AcDbEntity
  8
Bemassung
  6
AUSGEZOGEN
 62
   136
370
    18
100
AcDbLine
 10
79.146388959111
 20
104.563792927378
 30
0.0
 11
75.898793206578
 21
102.688793773211
 31
0.0
  0
LINE
  5
548
330
53C
100
AcDbEntity
  8
Bemassung
  6
AUSGEZOGEN
 62
   136
370
    18
100
AcDbLine
 10
81.138248585881
 20
105.713792927378
 30
0.0
 11
85.107355567786
 21
108.00535653349
 31
0.0
  0
LINE
  5
549
330
53C
100
AcDbEntity
  8
Bemassung
  6
AUSGEZOGEN
 62
   136
370
    18
100
AcDbLine
 10
83.743612670898
 20
96.601163095431
 30
0.0
 11
83.371320739142
 21
97.245992024335
 31
0.0
  0
LINE
  5
54A
330
53C
100
AcDbEntity
  8
Bemassung
  6
AUSGEZOGEN
 62
   136
370
    18
100
AcDbLine
 10
82.871320964697
 20
98.112017558344
 30
0.0
 11
82.561809401497
 21
98.648107633784
 31
0.0
  0
LINE
  5
54B
330
53C
100
AcDbEntity
  8
Bemassung
  6
AUSGEZOGEN
 62
   136
370
    18
100
AcDbLine
 10
81.955008195189
 20
99.699118785367
 30
0.0
 11
78.789246263079
 21
105.182382594527
 31
0.0
  0
LINE
  5
54C
330
53C
100
AcDbEntity
  8
Bemassung
  6
AUSGEZOGEN
 62
   136
370
    18
100
AcDbLine
 10
85.735472297668
 20
97.751163095431
 30
0.0
 11
85.321519774678
 21
98.468150328427
 31
0.0
  0
LINE
  5
54D
330
53C
100
AcDbEntity
  8
Bemassung
  6
AUSGEZOGEN
 62
   136
370
    18
100
AcDbLine
 10
84.499315928355
 20
99.892250021006
 30
0.0
 11
84.2356819967
 21
100.348877659885
 31
0.0
  0
LINE
  5
54E
330
53C
100
AcDbEntity
  8
Bemassung
  6
AUSGEZOGEN
 62
   136
370
    18
100
AcDbLine
 10
83.634104308388
 20
101.390841407461
 30
0.0
 11
80.781105889849
 21
106.332382594527
 31
0.0
  0
TEXT
  5
54F
330
53C
100
AcDbEntity
  8
Bemassung
  6
AUSGEZOGEN
 62
   136
370
    18
100
AcDbText
 10
82.250000112778
 20
106.933012767004
 30
0.0
 40
1.25
  1
2.3
 50
29.999985077373
 41
1.197349099769
  7
Arial
 72
     5
 11
84.764567229569
 21
108.384797895558
 31
0.0
100
AcDbText
  0
ENDBLK
  5
53E
330
53C
100
AcDbEntity
  8
0
100
AcDbBlockEnd
  0
BLOCK
  5
552
330
551
100
AcDbEntity
  8
0
100
AcDbBlockBegin
  2
L1_nNn010
 70
     0
 10
0.0
 20
0.0
 30
0.0
  3
L1_nNn010
  1

  0
TEXT
  5
554
330
551
100
AcDbEntity
  8
Layer0
  6
AUSGEZOGEN
 62
    56
370
    18
100
AcDbText
 10
98.132110801301
 20
33.619117627825
 30
0.0
 40
1.175
  1
Werkstoff/Farbe:Reflektor PMMA glasklar
 41
1.273145125602
  7
Arial
 72
     5
 11
136.540512093595
 21
33.619117627825
 31
0.0
100
AcDbText
  0
TEXT
  5
555
330
551
100
AcDbEntity
  8
Layer0
  6
AUSGEZOGEN
 62
    56
370
    18
100
AcDbText
 10
98.132110801301
 20
31.739117599811
 30
0.0
 40
1.175
  1
                       Halterung PMMA weiss
 41
1.327609905126
  7
Arial
 72
     5
 11
134.67998345027
 21
31.739117599811
 31
0.0
100
AcDbText
  0
ENDBLK
  5
553
330
551
100
AcDbEntity
  8
0
100
AcDbBlockEnd
  0
ENDSEC
  0
SECTION
  2
ENTITIES
  0
LINE
  5
145
330
1F
100
AcDbEntity
  8
Layer0
  6
DASHDOT
 62
    56
370
    18
100
AcDbLine
 10
78.342347301102
 20
90.851163095431
 30
0.0
 11
106.995485494802
 21
90.851163095431
 31
0.0
  0
LINE
  5
146
330
1F
100
AcDbEntity
  8
Layer0
  6
DASHDOT
 62
    56
370
    18
100
AcDbLine
 10
92.375
 20
76.788546608613
 30
0.0
 11
92.375
 21
105.109451016696
 31
0.0
  0
INSERT
  5
486
330
1F
100
AcDbEntity
  8
0
100
AcDbBlockReference
  2
SECHSK1_nNn00
 10
0.0
 20
0.0
 30
0.0
  0
LINE
  5
487
330
1F
100
AcDbEntity
  8
Layer0
  6
DASHDOT
 62
    56
370
    18
100
AcDbLine
 10
92.375
 20
118.36716212297
 30
0.0
 11
92.375
 21
129.238233827674
 31
0.0
  0
LINE
  5
488
330
1F
100
AcDbEntity
  8
Layer0
  6
AUSGEZOGEN
 62
     9
370
    18
100
AcDbLine
 10
92.375
 20
125.057843677494
 30
0.0
 11
105.510416259766
 21
125.057843677494
 31
0.0
  0
LINE
  5
489
330
1F
100
AcDbEntity
  8
Layer0
  6
AUSGEZOGEN
 62
     9
370
    18
100
AcDbLine
 10
91.047093582153
 20
125.857843677494
 30
0.0
 11
92.375
 21
123.857843677494
 31
0.0
  0
LINE
  5
48A
330
1F
100
AcDbEntity
  8
Layer0
  6
AUSGEZOGEN
 62
     9
370
    18
100
AcDbLine
 10
92.375
 20
123.857843677494
 30
0.0
 11
91.047093582153
 21
125.857843677494
 31
0.0
  0
LINE
  5
48B
330
1F
100
AcDbEntity
  8
Layer0
  6
AUSGEZOGEN
 62
     9
370
    18
100
AcDbLine
 10
91.047093582153
 20
125.857843677494
 30
0.0
 11
89.719187164307
 21
123.857843677494
 31
0.0
  0
LINE
  5
48C
330
1F
100
AcDbEntity
  8
Layer0
  6
AUSGEZOGEN
 62
     9
370
    18
100
AcDbLine
 10
89.719187164307
 20
123.857843677494
 30
0.0
 11
88.391285133362
 21
125.857843677494
 31
0.0
  0
LINE
  5
48D
330
1F
100
AcDbEntity
  8
Layer0
  6
AUSGEZOGEN
 62
     9
370
    18
100
AcDbLine
 10
88.391285133362
 20
125.857843677494
 30
0.0
 11
87.063378715515
 21
123.857843677494
 31
0.0
  0
LINE
  5
48E
330
1F
100
AcDbEntity
  8
Layer0
  6
AUSGEZOGEN
 62
     9
370
    18
100
AcDbLine
 10
87.063378715515
 20
123.857843677494
 30
0.0
 11
85.735472297668
 21
125.857843677494
 31
0.0
  0
LINE
  5
48F
330
1F
100
AcDbEntity
  8
Layer0
  6
AUSGEZOGEN
 62
     9
370
    18
100
AcDbLine
 10
85.735472297668
 20
125.857843677494
 30
0.0
 11
84.407565879822
 21
123.857843677494
 31
0.0
  0
LINE
  5
490
330
1F
100
AcDbEntity
  8
Layer0
  6
AUSGEZOGEN
 62
     9
370
    18
100
AcDbLine
 10
84.407565879822
 20
123.857843677494
 30
0.0
 11
83.079663848877
 21
125.857843677494
 31
0.0
  0
LINE
  5
491
330
1F
100
AcDbEntity
  8
Layer0
  6
AUSGEZOGEN
 62
     9
370
    18
100
AcDbLine
 10
83.079663848877
 20
125.857843677494
 30
0.0
 11
81.75175743103
 21
123.857843677494
 31
0.0
  0
LINE
  5
492
330
1F
100
AcDbEntity
  8
Layer0
  6
AUSGEZOGEN
 62
     9
370
    18
100
AcDbLine
 10
81.75175743103
 20
123.857843677494
 30
0.0
 11
80.875
 21
125.178354549717
 31
0.0
  0
LINE
  5
493
330
1F
100
AcDbEntity
  8
Layer0
  6
AUSGEZOGEN
 62
     9
370
    18
100
AcDbLine
 10
92.375
 20
121.357843677494
 30
0.0
 11
105.575
 21
121.357843677494
 31
0.0
  0
LINE
  5
494
330
1F
100
AcDbEntity
  8
Layer0
  6
AUSGEZOGEN
 62
     9
370
    18
100
AcDbLine
 10
79.175
 20
121.357843677494
 30
0.0
 11
92.375
 21
121.357843677494
 31
0.0
  0
LINE
  5
495
330
1F
100
AcDbEntity
  8
Layer0
  6
AUSGEZOGEN
 62
     9
370
    18
100
AcDbLine
 10
80.775
 20
122.857843677494
 30
0.0
 11
92.375
 21
122.857843677494
 31
0.0
  0
CIRCLE
  5
496
330
1F
100
AcDbEntity
  8
Layer0
  6
AUSGEZOGEN
 62
     9
370
    18
100
AcDbCircle
 10
92.375
 20
90.851163095431
 30
0.0
 40
13.0
  0
CIRCLE
  5
497
330
1F
100
AcDbEntity
  8
Layer0
  6
AUSGEZOGEN
 62
   136
370
    18
100
AcDbCircle
 10
92.375
 20
90.851163095431
 30
0.0
 40
11.5
  0
DIMENSION
  5
4A5
330
1F
100
AcDbEntity
  8
Bemassung
  6
AUSGEZOGEN
 62
   136
370
    18
100
AcDbDimension
  2
*D2
 10
103.875
 20
73.324401648826
 30
0.0
 11
92.599189428612
 21
74.824401648826
 31
0.0
 70
   160
 71
     5
 42
-1.0
  3
ISO-25
100
AcDbAlignedDimension
 13
80.875
 23
90.851163095431
 33
0.0
 14
103.875
 24
90.851163095431
 34
0.0
100
AcDbRotatedDimension
1001
ACAD
1000
DSTYLE
1002
{
1070
     3
1000
<>
1070
    44
1040
0.892857142857
1070
   280
1070
     0
1070
    77
1070
     1
1070
    78
1070
     8
1070
   179
1070
     2
1070
   271
1070
     2
1070
   344
1005
4A6
1070
   343
1005
4A6
1070
   173
1070
     1
1070
    41
1040
1.25
1070
   147
1040
0.178571428571
1070
   140
1040
1.25
1070
   178
1070
   136
1070
   177
1070
   136
1070
   176
1070
   136
1002
}
  0
LINE
  5
4AD
330
1F
100
AcDbEntity
  8
Layer0
  6
AUSGEZOGEN
 62
     9
370
    18
100
AcDbLine
 10
79.375
 20
127.057843677494
 30
0.0
 11
105.375
 21
127.057843677494
 31
0.0
  0
LINE
  5
4AE
330
1F
100
AcDbEntity
  8
Layer0
  6
AUSGEZOGEN
 62
     9
370
    18
100
AcDbLine
 10
79.239583740234
 20
125.057843677494
 30
0.0
 11
80.875
 21
125.057843677494
 31
0.0
  0
LINE
  5
4AF
330
1F
100
AcDbEntity
  8
Layer0
  6
AUSGEZOGEN
 62
     9
370
    18
100
AcDbLine
 10
79.375
 20
125.057843677494
 30
0.0
 11
79.375
 21
127.057843677494
 31
0.0
  0
LINE
  5
4B0
330
1F
100
AcDbEntity
  8
Layer0
  6
AUSGEZOGEN
 62
     9
370
    18
100
AcDbLine
 10
80.775
 20
122.857843677494
 30
0.0
 11
80.775
 21
125.057843677494
 31
0.0
  0
LINE
  5
4B1
330
1F
100
AcDbEntity
  8
Layer0
  6
AUSGEZOGEN
 62
     9
370
    18
100
AcDbLine
 10
80.875
 20
125.057843677494
 30
0.0
 11
80.875
 21
125.178354549717
 31
0.0
  0
LINE
  5
4B2
330
1F
100
AcDbEntity
  8
Layer0
  6
AUSGEZOGEN
 62
     9
370
    18
100
AcDbLine
 10
105.375
 20
125.057843677494
 30
0.0
 11
105.375
 21
127.057843677494
 31
0.0
  0
HATCH
  5
4B3
330
1F
100
AcDbEntity
  8
Schraffur
  6
AUSGEZOGEN
 62
    56
370
    18
100
AcDbHatch
 10
0.0
 20
0.0
 30
0.0
210
0.0
220
0.0
230
1.0
  2
MegaCAD_TYP1
 70
     0
 71
     0
 91
        1
 92
        2
 72
     0
 73
     1
 93
       14
 10
81.75175743103027
 20
123.8578436774942
 10
83.07966384887695
 20
125.8578436774942
 10
84.40756587982175
 20
123.8578436774942
 10
85.73547229766845
 20
125.8578436774942
 10
87.06337871551513
 20
123.8578436774942
 10
88.3912851333618
 20
125.8578436774942
 10
89.7191871643066
 20
123.8578436774942
 10
91.04709358215331
 20
125.8578436774942
 10
92.37499999999999
 20
123.8578436774942
 10
92.37499999999997
 20
127.0578436774942
 10
79.37499999999999
 20
127.0578436774942
 10
79.37499999999999
 20
125.0578436774942
 10
80.87499999999996
 20
125.0578436774942
 10
80.87499999999997
 20
125.1783545497167
 97
        0
 75
     0
 76
     1
 52
0.0
 41
0.25
 77
     0
 78
     1
 53
45.0
 43
0.0
 44
0.0
 45
-0.5303300858899106
 46
0.5303300858899107
 79
     0
 98
        0
  0
DIMENSION
  5
4C3
330
1F
100
AcDbEntity
  8
Bemassung
  6
AUSGEZOGEN
 62
   136
370
    18
100
AcDbDimension
  2
*D4
 10
112.296523236847
 20
127.057843677494
 30
0.0
 11
110.671523236847
 21
130.554090462724
 31
0.0
 70
   160
 71
     5
 42
-1.0
 53
90.0
  3
ISO-25
100
AcDbAlignedDimension
 13
105.475
 23
121.357843677494
 33
0.0
 14
105.375
 24
127.057843677494
 34
0.0
 50
90.0
100
AcDbRotatedDimension
1001
ACAD
1000
DSTYLE
1002
{
1070
     3
1000
<>\S%%p0.3
1070
    44
1040
0.892857142857
1070
   280
1070
     0
1070
    77
1070
     1
1070
    78
1070
     8
1070
   179
1070
     2
1070
   271
1070
     2
1070
   344
1005
4A6
1070
   343
1005
4A6
1070
   173
1070
     1
1070
    41
1040
1.25
1070
   147
1040
0.178571428571
1070
   140
1040
1.25
1070
   178
1070
   136
1070
   177
1070
   136
1070
   176
1070
   136
1002
}
  0
LINE
  5
4C4
330
1F
100
AcDbEntity
  8
Layer0
  6
AUSGEZOGEN
 62
     9
370
    18
100
AcDbLine
 10
79.175
 20
121.357843677494
 30
0.0
 11
79.239583740234
 21
125.057843677494
 31
0.0
  0
LINE
  5
4C5
330
1F
100
AcDbEntity
  8
Layer0
  6
AUSGEZOGEN
 62
     9
370
    18
100
AcDbLine
 10
105.575
 20
121.357843677494
 30
0.0
 11
105.510416259766
 21
125.057843677494
 31
0.0
  0
HATCH
  5
4C6
330
1F
100
AcDbEntity
  8
Schraffur
  6
AUSGEZOGEN
 62
    56
370
    18
100
AcDbHatch
 10
0.0
 20
0.0
 30
0.0
210
0.0
220
0.0
230
1.0
  2
MegaCAD_TYP1
 70
     0
 71
     0
 91
        1
 92
        2
 72
     0
 73
     1
 93
        6
 10
80.77499999999998
 20
125.0578436774942
 10
79.2395837402344
 20
125.0578436774942
 10
79.17499999999998
 20
121.3578436774942
 10
92.375
 20
121.3578436774942
 10
92.375
 20
122.8578436774942
 10
80.77499999999996
 20
122.8578436774942
 97
        0
 75
     0
 76
     1
 52
90.0
 41
0.25
 77
     0
 78
     1
 53
135.0
 43
0.0
 44
0.0
 45
-0.5303300858899107
 46
-0.5303300858899106
 79
     0
 98
        0
  0
CIRCLE
  5
4C7
330
1F
100
AcDbEntity
  8
Layer0
  6
AUSGEZOGEN
 62
     9
370
    18
100
AcDbCircle
 10
92.375
 20
90.851163095431
 30
0.0
 40
13.2
  0
DIMENSION
  5
4D5
330
1F
100
AcDbEntity
  8
Bemassung
  6
AUSGEZOGEN
 62
   136
370
    18
100
AcDbDimension
  2
*D5
 10
105.575
 20
70.5
 30
0.0
 11
92.553928668499
 21
71.625
 31
0.0
 70
   160
 71
     5
 42
-1.0
  3
ISO-25
100
AcDbAlignedDimension
 13
79.175
 23
90.851163095431
 33
0.0
 14
105.575
 24
90.851163095431
 34
0.0
100
AcDbRotatedDimension
1001
ACAD
1000
DSTYLE
1002
{
1070
     3
1000
<>
1070
    44
1040
0.892857142857
1070
   280
1070
     0
1070
    77
1070
     1
1070
    78
1070
     8
1070
   179
1070
     2
1070
   271
1070
     2
1070
   344
1005
4A6
1070
   343
1005
4A6
1070
   173
1070
     1
1070
    41
1040
1.25
1070
   147
1040
0.178571428571
1070
   140
1040
1.25
1070
   178
1070
   136
1070
   177
1070
   136
1070
   176
1070
   136
1002
}
  0
INSERT
  5
534
330
1F
100
AcDbEntity
  8
0
100
AcDbBlockReference
  2
L1_nNn04
 10
0.0
 20
0.0
 30
0.0
  0
INSERT
  5
53B
330
1F
100
AcDbEntity
  8
0
100
AcDbBlockReference
  2
QS_nNn08
 10
0.0
 20
0.0
 30
0.0
  0
DIMENSION
  5
550
330
1F
100
AcDbEntity
  8
Bemassung
  6
AUSGEZOGEN
 62
   136
370
    18
100
AcDbDimension
  2
*D11
 10
81.138248585881
 20
105.713792927378
 30
0.0
 11
83.194783812146
 21
108.200171290037
 31
0.0
 70
   160
 71
     5
 42
-1.0
 53
29.999985077373
  3
ISO-25
100
AcDbAlignedDimension
 13
83.743612670898
 23
96.601163095431
 33
0.0
 14
85.735472297668
 24
97.751163095431
 34
0.0
 50
29.999985077373
100
AcDbRotatedDimension
1001
ACAD
1000
DSTYLE
1002
{
1070
     3
1000
<>
1070
    44
1040
0.892857142857
1070
   280
1070
     0
1070
    77
1070
     1
1070
    78
1070
     8
1070
   179
1070
     2
1070
   271
1070
     2
1070
   344
1005
4A6
1070
   343
1005
4A6
1070
   173
1070
     1
1070
    41
1040
1.25
1070
   147
1040
0.178571428571
1070
   140
1040
1.25
1070
   178
1070
   136
1070
   177
1070
   136
1070
   176
1070
   136
1002
}
  0
INSERT
  5
556
330
1F
100
AcDbEntity
  8
0
100
AcDbBlockReference
  2
L1_nNn010
 10
0.0
 20
0.0
 30
0.0
  0
ENDSEC
  0
SECTION
  2
OBJECTS
  0
DICTIONARY
  5
C
330
0
100
AcDbDictionary
281
     1
  3
ACAD_GROUP
350
D
  3
ACAD_LAYOUT
350
1A
  3
ACAD_MATERIAL
350
3B
  3
ACAD_MLEADERSTYLE
350
57E
  3
ACAD_MLINESTYLE
350
17
  3
ACAD_PLOTSETTINGS
350
19
  3
ACAD_PLOTSTYLENAME
350
E
  3
ACAD_TABLESTYLE
350
57D
  3
ACAD_VISUALSTYLE
350
2A
  3
ACAD_WIPEOUT_VARS
350
3F
  0
DICTIONARY
  5
D
102
{ACAD_REACTORS
330
C
102
}
330
C
100
AcDbDictionary
281
     1
  0
DICTIONARY
  5
1A
102
{ACAD_REACTORS
330
C
102
}
330
C
100
AcDbDictionary
281
     1
  3
Layout1
350
1E
  3
Layout2
350
26
  3
Model
350
22
  0
DICTIONARY
  5
3B
102
{ACAD_REACTORS
330
C
102
}
330
C
100
AcDbDictionary
281
     1
  3
ByBlock
350
3D
  3
ByLayer
350
3C
  3
Global
350
3E
  0
DICTIONARY
  5
57E
102
{ACAD_REACTORS
330
C
102
}
330
C
100
AcDbDictionary
281
     1
  0
DICTIONARY
  5
17
102
{ACAD_REACTORS
330
C
102
}
330
C
100
AcDbDictionary
281
     1
  3
Standard
350
18
  0
DICTIONARY
  5
19
102
{ACAD_REACTORS
330
C
102
}
330
C
100
AcDbDictionary
281
     1
  0
ACDBDICTIONARYWDFLT
  5
E
102
{ACAD_REACTORS
330
C
102
}
330
C
100
AcDbDictionary
281
     1
  3
Normal
350
F
100
AcDbDictionaryWithDefault
340
F
  0
DICTIONARY
  5
57D
102
{ACAD_REACTORS
330
C
102
}
330
C
100
AcDbDictionary
281
     1
  0
DICTIONARY
  5
2A
102
{ACAD_REACTORS
330
C
102
}
330
C
100
AcDbDictionary
281
     1
  3
2dWireframe
350
2F
  3
3D Hidden
350
31
  3
3dWireframe
350
30
  3
Basic
350
32
  3
Brighten
350
36
  3
ColorChange
350
3A
  3
Conceptual
350
34
  3
Dim
350
35
  3
Facepattern
350
39
  3
Flat
350
2B
  3
FlatWithEdges
350
2C
  3
Gouraud
350
2D
  3
GouraudWithEdges
350
2E
  3
Linepattern
350
38
  3
Realistic
350
33
  3
Thicken
350
37
  0
WIPEOUTVARIABLES
  5
3F
102
{ACAD_REACTORS
330
C
102
}
330
C
100
AcDbWipeoutVariables
 70
     0
  0
LAYOUT
  5
1E
102
{ACAD_REACTORS
330
1A
102
}
330
1A
100
AcDbPlotSettings
  1

  2
none_device
  4

  6

 40
0.0
 41
0.0
 42
0.0
 43
0.0
 44
0.0
 45
0.0
 46
0.0
 47
0.0
 48
0.0
 49
0.0
140
0.0
141
0.0
142
1.0
143
1.0
 70
   688
 72
     0
 73
     0
 74
     5
  7

 75
    16
 76
     0
 77
     2
 78
   300
147
1.0
148
0.0
149
0.0
100
AcDbLayout
  1
Layout1
 70
     1
 71
     1
 10
0.0
 20
0.0
 11
420.0
 21
297.0
 12
0.0
 22
0.0
 32
0.0
 14
1.000000000000E+20
 24
1.000000000000E+20
 34
1.000000000000E+20
 15
-1.000000000000E+20
 25
-1.000000000000E+20
 35
-1.000000000000E+20
146
0.0
 13
0.0
 23
0.0
 33
0.0
 16
1.0
 26
0.0
 36
0.0
 17
0.0
 27
1.0
 37
0.0
 76
     0
330
1B
  0
LAYOUT
  5
26
102
{ACAD_REACTORS
330
1A
102
}
330
1A
100
AcDbPlotSettings
  1

  2
none_device
  4

  6

 40
0.0
 41
0.0
 42
0.0
 43
0.0
 44
0.0
 45
0.0
 46
0.0
 47
0.0
 48
0.0
 49
0.0
140
0.0
141
0.0
142
1.0
143
1.0
 70
   688
 72
     0
 73
     0
 74
     5
  7

 75
    16
 76
     0
 77
     2
 78
   300
147
1.0
148
0.0
149
0.0
100
AcDbLayout
  1
Layout2
 70
     1
 71
     2
 10
0.0
 20
0.0
 11
0.0
 21
0.0
 12
0.0
 22
0.0
 32
0.0
 14
0.0
 24
0.0
 34
0.0
 15
0.0
 25
0.0
 35
0.0
146
0.0
 13
0.0
 23
0.0
 33
0.0
 16
1.0
 26
0.0
 36
0.0
 17
0.0
 27
1.0
 37
0.0
 76
     0
330
23
  0
LAYOUT
  5
22
102
{ACAD_REACTORS
330
1A
102
}
330
1A
100
AcDbPlotSettings
  1

  2
none_device
  4

  6

 40
0.0
 41
0.0
 42
0.0
 43
0.0
 44
0.0
 45
0.0
 46
0.0
 47
0.0
 48
0.0
 49
0.0
140
0.0
141
0.0
142
1.0
143
1.0
 70
  1712
 72
     0
 73
     0
 74
     0
  7

 75
     0
 76
     0
 77
     2
 78
   300
147
1.0
148
0.0
149
0.0
100
AcDbLayout
  1
Model
 70
     1
 71
     0
 10
0.0
 20
0.0
 11
420.0
 21
297.0
 12
0.0
 22
0.0
 32
0.0
 14
-120.831000186276
 24
3.587866071429
 34
0.0
 15
302.888622667784
 25
157.136866071429
 35
0.0
146
0.0
 13
0.0
 23
0.0
 33
0.0
 16
1.0
 26
0.0
 36
0.0
 17
0.0
 27
1.0
 37
0.0
 76
     0
330
1F
331
29
  0
MATERIAL
  5
3D
102
{ACAD_REACTORS
330
3B
102
}
102
{ACAD_XDICTIONARY
360
579
102
}
330
3B
100
AcDbMaterial
  1
ByBlock
  0
MATERIAL
  5
3C
102
{ACAD_REACTORS
330
3B
102
}
102
{ACAD_XDICTIONARY
360
577
102
}
330
3B
100
AcDbMaterial
  1
ByLayer
  0
MATERIAL
  5
3E
102
{ACAD_REACTORS
330
3B
102
}
102
{ACAD_XDICTIONARY
360
57B
102
}
330
3B
100
AcDbMaterial
  1
Global
  0
MLINESTYLE
  5
18
102
{ACAD_REACTORS
330
17
102
}
330
17
100
AcDbMlineStyle
  2
Standard
 70
     0
  3

 62
   256
 51
90.0
 52
90.0
 71
     2
 49
0.5
 62
   256
  6
BYLAYER
 49
-0.5
 62
   256
  6
BYLAYER
  0
ACDBPLACEHOLDER
  5
F
102
{ACAD_REACTORS
330
E
102
}
330
E
  0
VISUALSTYLE
  5
2F
102
{ACAD_REACTORS
330
2A
102
}
102
{ACAD_XDICTIONARY
360
55F
102
}
330
2A
100
AcDbVisualStyle
  2
2dWireframe
 70
     4
 71
     0
 72
     2
 73
     0
 90
        0
 40
-0.6
 41
-30.0
 62
     5
 63
     7
421
 16777215
 74
     1
 91
        4
 64
     7
 65
   257
 75
     1
175
     1
 42
1.0
 92
        0
 66
   257
 43
1.0
 76
     1
 77
     6
 78
     2
 67
     7
 79
     5
170
     0
171
     0
290
     0
174
     0
 93
        1
 44
0.0
173
     0
291
     0
 45
0.0
1001
ACAD
1000
AcDbSavedByObjectVersion
1070
     0
  0
VISUALSTYLE
  5
31
102
{ACAD_REACTORS
330
2A
102
}
102
{ACAD_XDICTIONARY
360
563
102
}
330
2A
100
AcDbVisualStyle
  2
3D Hidden
 70
     6
 71
     1
 72
     2
 73
     2
 90
        0
 40
-0.6
 41
-30.0
 62
     5
 63
     7
421
 16777215
 74
     2
 91
        2
 64
     7
 65
   257
 75
     2
175
     1
 42
40.0
 92
        0
 66
   257
 43
1.0
 76
     1
 77
     6
 78
     2
 67
     7
 79
     3
170
     0
171
     0
290
     0
174
     0
 93
        1
 44
0.0
173
     0
291
     0
 45
0.0
1001
ACAD
1000
AcDbSavedByObjectVersion
1070
     0
  0
VISUALSTYLE
  5
30
102
{ACAD_REACTORS
330
2A
102
}
102
{ACAD_XDICTIONARY
360
561
102
}
330
2A
100
AcDbVisualStyle
  2
3dWireframe
 70
     5
 71
     0
 72
     2
 73
     0
 90
        0
 40
-0.6
 41
-30.0
 62
     5
 63
     7
421
 16777215
 74
     1
 91
        4
 64
     7
 65
   257
 75
     1
175
     1
 42
1.0
 92
        0
 66
   257
 43
1.0
 76
     1
 77
     6
 78
     2
 67
     7
 79
     5
170
     0
171
     0
290
     0
174
     0
 93
        1
 44
0.0
173
     0
291
     0
 45
0.0
1001
ACAD
1000
AcDbSavedByObjectVersion
1070
     0
  0
VISUALSTYLE
  5
32
102
{ACAD_REACTORS
330
2A
102
}
102
{ACAD_XDICTIONARY
360
565
102
}
330
2A
100
AcDbVisualStyle
  2
Basic
 70
     7
 71
     1
 72
     0
 73
     1
 90
        0
 40
-0.6
 41
-30.0
 62
     5
 63
     7
421
 16777215
 74
     0
 91
        4
 64
     7
 65
   257
 75
     1
175
     1
 42
1.0
 92
        8
 66
     7
 43
1.0
 76
     1
 77
     6
 78
     2
 67
     7
 79
     5
170
     0
171
     0
290
     0
174
     0
 93
        1
 44
0.0
173
     0
291
     1
 45
0.0
1001
ACAD
1000
AcDbSavedByObjectVersion
1070
     0
  0
VISUALSTYLE
  5
36
102
{ACAD_REACTORS
330
2A
102
}
102
{ACAD_XDICTIONARY
360
56D
102
}
330
2A
100
AcDbVisualStyle
  2
Brighten
 70
    12
 71
     2
 72
     2
 73
     0
 90
        0
 40
-0.6
 41
-30.0
 62
     5
 63
     7
421
 16777215
 74
     1
 91
        4
 64
     7
 65
   257
 75
     1
175
     1
 42
1.0
 92
        8
 66
     7
 43
1.0
 76
     1
 77
     6
 78
     2
 67
     7
 79
     5
170
     0
171
     0
290
     0
174
     0
 93
        1
 44
50.0
173
     0
291
     1
 45
0.0
1001
ACAD
1000
AcDbSavedByObjectVersion
1070
     0
  0
VISUALSTYLE
  5
3A
102
{ACAD_REACTORS
330
2A
102
}
102
{ACAD_XDICTIONARY
360
575
102
}
330
2A
100
AcDbVisualStyle
  2
ColorChange
 70
    16
 71
     2
 72
     2
 73
     3
 90
        0
 40
-0.6
 41
-30.0
 62
     5
 63
     8
421
  8421504
 74
     1
 91
        4
 64
     7
 65
   257
 75
     1
175
     1
 42
1.0
 92
        8
 66
     8
424
  8421504
 43
1.0
 76
     1
 77
     6
 78
     2
 67
     7
 79
     5
170
     0
171
     0
290
     0
174
     0
 93
        1
 44
0.0
173
     0
291
     1
 45
0.0
1001
ACAD
1000
AcDbSavedByObjectVersion
1070
     0
  0
VISUALSTYLE
  5
34
102
{ACAD_REACTORS
330
2A
102
}
102
{ACAD_XDICTIONARY
360
569
102
}
330
2A
100
AcDbVisualStyle
  2
Conceptual
 70
     9
 71
     3
 72
     2
 73
     0
 90
        0
 40
-0.6
 41
-30.0
 62
     5
 63
     7
421
 16777215
 74
     2
 91
        2
 64
     7
 65
   257
 75
     1
175
     1
 42
40.0
 92
        8
 66
     7
 43
1.0
 76
     1
 77
     6
 78
     2
 67
     7
 79
     3
170
     0
171
     0
290
     0
174
     0
 93
        1
 44
0.0
173
     0
291
     0
 45
0.0
1001
ACAD
1000
AcDbSavedByObjectVersion
1070
     0
  0
VISUALSTYLE
  5
35
102
{ACAD_REACTORS
330
2A
102
}
102
{ACAD_XDICTIONARY
360
56B
102
}
330
2A
100
AcDbVisualStyle
  2
Dim
 70
    11
 71
     2
 72
     2
 73
     0
 90
        0
 40
-0.6
 41
-30.0
 62
     5
 63
     7
421
 16777215
 74
     1
 91
        4
 64
     7
 65
   257
 75
     1
175
     1
 42
1.0
 92
        8
 66
     7
 43
1.0
 76
     1
 77
     6
 78
     2
 67
     7
 79
     5
170
     0
171
     0
290
     0
174
     0
 93
        1
 44
-50.0
173
     0
291
     1
 45
0.0
1001
ACAD
1000
AcDbSavedByObjectVersion
1070
     0
  0
VISUALSTYLE
  5
39
102
{ACAD_REACTORS
330
2A
102
}
102
{ACAD_XDICTIONARY
360
573
102
}
330
2A
100
AcDbVisualStyle
  2
Facepattern
 70
    15
 71
     2
 72
     2
 73
     0
 90
        0
 40
-0.6
 41
-30.0
 62
     5
 63
     7
421
 16777215
 74
     1
 91
        4
 64
     7
 65
   257
 75
     1
175
     1
 42
1.0
 92
        8
 66
     7
 43
1.0
 76
     1
 77
     6
 78
     2
 67
     7
 79
     5
170
     0
171
     0
290
     0
174
     0
 93
        1
 44
0.0
173
     0
291
     1
 45
0.0
1001
ACAD
1000
AcDbSavedByObjectVersion
1070
     0
  0
VISUALSTYLE
  5
2B
102
{ACAD_REACTORS
330
2A
102
}
102
{ACAD_XDICTIONARY
360
557
102
}
330
2A
100
AcDbVisualStyle
  2
Flat
 70
     0
 71
     2
 72
     1
 73
     1
 90
        2
 40
-0.6
 41
30.0
 62
     5
 63
     7
421
 16777215
 74
     0
 91
        4
 64
     7
 65
   257
 75
     1
175
     1
 42
1.0
 92
        8
 66
     7
 43
1.0
 76
     1
 77
     6
 78
     2
 67
     7
 79
     5
170
     0
171
     0
290
     0
174
     0
 93
       13
 44
0.0
173
     0
291
     1
 45
0.0
1001
ACAD
1000
AcDbSavedByObjectVersion
1070
     0
  0
VISUALSTYLE
  5
2C
102
{ACAD_REACTORS
330
2A
102
}
102
{ACAD_XDICTIONARY
360
559
102
}
330
2A
100
AcDbVisualStyle
  2
FlatWithEdges
 70
     1
 71
     2
 72
     1
 73
     1
 90
        2
 40
-0.6
 41
30.0
 62
     5
 63
     7
421
 16777215
 74
     1
 91
        4
 64
     7
 65
   257
 75
     1
175
     1
 42
1.0
 92
        0
 66
   257
 43
1.0
 76
     1
 77
     6
 78
     2
 67
     7
 79
     5
170
     0
171
     0
290
     0
174
     0
 93
       13
 44
0.0
173
     0
291
     1
 45
0.0
1001
ACAD
1000
AcDbSavedByObjectVersion
1070
     0
  0
VISUALSTYLE
  5
2D
102
{ACAD_REACTORS
330
2A
102
}
102
{ACAD_XDICTIONARY
360
55B
102
}
330
2A
100
AcDbVisualStyle
  2
Gouraud
 70
     2
 71
     2
 72
     2
 73
     1
 90
        2
 40
-0.6
 41
30.0
 62
     5
 63
     7
421
 16777215
 74
     0
 91
        4
 64
     7
 65
   257
 75
     1
175
     1
 42
1.0
 92
        0
 66
     7
 43
1.0
 76
     1
 77
     6
 78
     2
 67
     7
 79
     5
170
     0
171
     0
290
     0
174
     0
 93
       13
 44
0.0
173
     0
291
     1
 45
0.0
1001
ACAD
1000
AcDbSavedByObjectVersion
1070
     0
  0
VISUALSTYLE
  5
2E
102
{ACAD_REACTORS
330
2A
102
}
102
{ACAD_XDICTIONARY
360
55D
102
}
330
2A
100
AcDbVisualStyle
  2
GouraudWithEdges
 70
     3
 71
     2
 72
     2
 73
     1
 90
        2
 40
-0.6
 41
30.0
 62
     5
 63
     7
421
 16777215
 74
     1
 91
        4
 64
     7
 65
   257
 75
     1
175
     1
 42
1.0
 92
        0
 66
   257
 43
1.0
 76
     1
 77
     6
 78
     2
 67
     7
 79
     5
170
     0
171
     0
290
     0
174
     0
 93
       13
 44
0.0
173
     0
291
     1
 45
0.0
1001
ACAD
1000
AcDbSavedByObjectVersion
1070
     0
  0
VISUALSTYLE
  5
38
102
{ACAD_REACTORS
330
2A
102
}
102
{ACAD_XDICTIONARY
360
571
102
}
330
2A
100
AcDbVisualStyle
  2
Linepattern
 70
    14
 71
     2
 72
     2
 73
     0
 90
        0
 40
-0.6
 41
-30.0
 62
     5
 63
     7
421
 16777215
 74
     1
 91
        4
 64
     7
 65
   257
 75
     7
175
     7
 42
1.0
 92
        8
 66
     7
 43
1.0
 76
     1
 77
     6
 78
     2
 67
     7
 79
     5
170
     0
171
     0
290
     0
174
     0
 93
        1
 44
0.0
173
     0
291
     1
 45
0.0
1001
ACAD
1000
AcDbSavedByObjectVersion
1070
     0
  0
VISUALSTYLE
  5
33
102
{ACAD_REACTORS
330
2A
102
}
102
{ACAD_XDICTIONARY
360
567
102
}
330
2A
100
AcDbVisualStyle
  2
Realistic
 70
     8
 71
     2
 72
     2
 73
     0
 90
        0
 40
-0.6
 41
-30.0
 62
     5
 63
     7
421
 16777215
 74
     1
 91
        0
 64
     7
 65
   257
 75
     1
175
     1
 42
1.0
 92
        8
 66
     8
424
  7895160
 43
1.0
 76
     1
 77
     6
 78
     2
 67
     7
 79
     5
170
     0
171
     0
290
     0
174
     0
 93
       13
 44
0.0
173
     0
291
     0
 45
0.0
1001
ACAD
1000
AcDbSavedByObjectVersion
1070
     0
  0
VISUALSTYLE
  5
37
102
{ACAD_REACTORS
330
2A
102
}
102
{ACAD_XDICTIONARY
360
56F
102
}
330
2A
100
AcDbVisualStyle
  2
Thicken
 70
    13
 71
     2
 72
     2
 73
     0
 90
        0
 40
-0.6
 41
-30.0
 62
     5
 63
     7
421
 16777215
 74
     1
 91
        4
 64
     7
 65
   257
 75
     1
175
     1
 42
1.0
 92
       12
 66
     7
 43
1.0
 76
     1
 77
     6
 78
     2
 67
     7
 79
     5
170
     0
171
     0
290
     0
174
     0
 93
        1
 44
0.0
173
     0
291
     1
 45
0.0
1001
ACAD
1000
AcDbSavedByObjectVersion
1070
     0
  0
DICTIONARY
  5
579
330
3D
100
AcDbDictionary
280
     1
281
     1
  3
ACAD_XREC_ROUNDTRIP
360
57A
  0
DICTIONARY
  5
577
330
3C
100
AcDbDictionary
280
     1
281
     1
  3
ACAD_XREC_ROUNDTRIP
360
578
  0
DICTIONARY
  5
57B
330
3E
100
AcDbDictionary
280
     1
281
     1
  3
ACAD_XREC_ROUNDTRIP
360
57C
  0
DICTIONARY
  5
55F
330
2F
100
AcDbDictionary
280
     1
281
     1
  3
ACAD_XREC_ROUNDTRIP
360
560
  0
DICTIONARY
  5
563
330
31
100
AcDbDictionary
280
     1
281
     1
  3
ACAD_XREC_ROUNDTRIP
360
564
  0
DICTIONARY
  5
561
330
30
100
AcDbDictionary
280
     1
281
     1
  3
ACAD_XREC_ROUNDTRIP
360
562
  0
DICTIONARY
  5
565
330
32
100
AcDbDictionary
280
     1
281
     1
  3
ACAD_XREC_ROUNDTRIP
360
566
  0
DICTIONARY
  5
56D
330
36
100
AcDbDictionary
280
     1
281
     1
  3
ACAD_XREC_ROUNDTRIP
360
56E
  0
DICTIONARY
  5
575
330
3A
100
AcDbDictionary
280
     1
281
     1
  3
ACAD_XREC_ROUNDTRIP
360
576
  0
DICTIONARY
  5
569
330
34
100
AcDbDictionary
280
     1
281
     1
  3
ACAD_XREC_ROUNDTRIP
360
56A
  0
DICTIONARY
  5
56B
330
35
100
AcDbDictionary
280
     1
281
     1
  3
ACAD_XREC_ROUNDTRIP
360
56C
  0
DICTIONARY
  5
573
330
39
100
AcDbDictionary
280
     1
281
     1
  3
ACAD_XREC_ROUNDTRIP
360
574
  0
DICTIONARY
  5
557
330
2B
100
AcDbDictionary
280
     1
281
     1
  3
ACAD_XREC_ROUNDTRIP
360
558
  0
DICTIONARY
  5
559
330
2C
100
AcDbDictionary
280
     1
281
     1
  3
ACAD_XREC_ROUNDTRIP
360
55A
  0
DICTIONARY
  5
55B
330
2D
100
AcDbDictionary
280
     1
281
     1
  3
ACAD_XREC_ROUNDTRIP
360
55C
  0
DICTIONARY
  5
55D
330
2E
100
AcDbDictionary
280
     1
281
     1
  3
ACAD_XREC_ROUNDTRIP
360
55E
  0
DICTIONARY
  5
571
330
38
100
AcDbDictionary
280
     1
281
     1
  3
ACAD_XREC_ROUNDTRIP
360
572
  0
DICTIONARY
  5
567
330
33
100
AcDbDictionary
280
     1
281
     1
  3
ACAD_XREC_ROUNDTRIP
360
568
  0
DICTIONARY
  5
56F
330
37
100
AcDbDictionary
280
     1
281
     1
  3
ACAD_XREC_ROUNDTRIP
360
570
  0
XRECORD
  5
57A
102
{ACAD_REACTORS
330
579
102
}
330
579
100
AcDbXrecord
280
     1
102
MATERIAL
148
0.0
149
0.0
149
0.0
 93
        0
 94
      127
282
     0
 72
     1
 77
     1
171
     1
175
     1
179
     1
273
     0
  0
XRECORD
  5
578
102
{ACAD_REACTORS
330
577
102
}
330
577
100
AcDbXrecord
280
     1
102
MATERIAL
148
0.0
149
0.0
149
0.0
 93
        0
 94
      127
282
     0
 72
     1
 77
     1
171
     1
175
     1
179
     1
273
     0
  0
XRECORD
  5
57C
102
{ACAD_REACTORS
330
57B
102
}
330
57B
100
AcDbXrecord
280
     1
102
MATERIAL
148
0.0
149
0.0
149
0.0
 93
        0
 94
      127
282
     0
 72
     1
 77
     1
171
     1
175
     1
179
     1
273
     0
  0
XRECORD
  5
560
102
{ACAD_REACTORS
330
55F
102
}
330
55F
100
AcDbXrecord
280
     1
102
RTVSPropertyOp0
 70
     1
102
RTVSPropertyOp1
 70
     1
102
RTVSPropertyOp2
 70
     1
102
RTVSPropertyOp3
 70
     1
102
RTVSPropertyOp4
 70
     1
102
RTVSPropertyOp5
 70
     1
102
RTVSPropertyOp6
 70
     1
102
RTVSPropertyOp7
 70
     1
102
RTVSPropertyOp8
 70
     1
102
RTVSPropertyOp9
 70
     1
102
RTVSPropertyOp10
 70
     1
102
RTVSPropertyOp11
 70
     1
102
RTVSPropertyOp12
 70
     1
102
RTVSPropertyOp13
 70
     1
102
RTVSPropertyOp14
 70
     1
102
RTVSPropertyOp15
 70
     1
102
RTVSPropertyOp16
 70
     1
102
RTVSPropertyOp17
 70
     1
102
RTVSPropertyOp18
 70
     1
102
RTVSPropertyOp19
 70
     1
102
RTVSPropertyOp20
 70
     1
102
RTVSPropertyOp21
 70
     1
102
RTVSPropertyOp22
 70
     1
102
RTVSPropertyOp23
 70
     1
102
RTVSPropertyOp24
 70
     1
102
RTVSPropertyOp25
 70
     1
102
RTVSPropertyOp26
 70
     1
102
RTVSPropertyOp27
 70
     1
102
RTVSPropertyOp28
 70
     1
102
RTVSPropertyOp29
 70
     1
102
RTVSPropertyOp30
 70
     1
102
RTVSPropertyOp31
 70
     1
102
RTVSPropertyOp32
 70
     1
  0
XRECORD
  5
564
102
{ACAD_REACTORS
330
563
102
}
330
563
100
AcDbXrecord
280
     1
102
RTVSPropertyOp0
 70
     1
102
RTVSPropertyOp1
 70
     1
102
RTVSPropertyOp2
 70
     1
102
RTVSPropertyOp3
 70
     1
102
RTVSPropertyOp4
 70
     1
102
RTVSPropertyOp5
 70
     1
102
RTVSPropertyOp6
 70
     1
102
RTVSPropertyOp7
 70
     1
102
RTVSPropertyOp8
 70
     1
102
RTVSPropertyOp9
 70
     1
102
RTVSPropertyOp10
 70
     1
102
RTVSPropertyOp11
 70
     1
102
RTVSPropertyOp12
 70
     1
102
RTVSPropertyOp13
 70
     1
102
RTVSPropertyOp14
 70
     1
102
RTVSPropertyOp15
 70
     1
102
RTVSPropertyOp16
 70
     1
102
RTVSPropertyOp17
 70
     1
102
RTVSPropertyOp18
 70
     1
102
RTVSPropertyOp19
 70
     1
102
RTVSPropertyOp20
 70
     1
102
RTVSPropertyOp21
 70
     1
102
RTVSPropertyOp22
 70
     1
102
RTVSPropertyOp23
 70
     1
102
RTVSPropertyOp24
 70
     1
102
RTVSPropertyOp25
 70
     1
102
RTVSPropertyOp26
 70
     1
102
RTVSPropertyOp27
 70
     1
102
RTVSPropertyOp28
 70
     1
102
RTVSPropertyOp29
 70
     1
102
RTVSPropertyOp30
 70
     1
102
RTVSPropertyOp31
 70
     1
102
RTVSPropertyOp32
 70
     1
  0
XRECORD
  5
562
102
{ACAD_REACTORS
330
561
102
}
330
561
100
AcDbXrecord
280
     1
102
RTVSPropertyOp0
 70
     1
102
RTVSPropertyOp1
 70
     1
102
RTVSPropertyOp2
 70
     1
102
RTVSPropertyOp3
 70
     1
102
RTVSPropertyOp4
 70
     1
102
RTVSPropertyOp5
 70
     1
102
RTVSPropertyOp6
 70
     1
102
RTVSPropertyOp7
 70
     1
102
RTVSPropertyOp8
 70
     1
102
RTVSPropertyOp9
 70
     1
102
RTVSPropertyOp10
 70
     1
102
RTVSPropertyOp11
 70
     1
102
RTVSPropertyOp12
 70
     1
102
RTVSPropertyOp13
 70
     1
102
RTVSPropertyOp14
 70
     1
102
RTVSPropertyOp15
 70
     1
102
RTVSPropertyOp16
 70
     1
102
RTVSPropertyOp17
 70
     1
102
RTVSPropertyOp18
 70
     1
102
RTVSPropertyOp19
 70
     1
102
RTVSPropertyOp20
 70
     1
102
RTVSPropertyOp21
 70
     1
102
RTVSPropertyOp22
 70
     1
102
RTVSPropertyOp23
 70
     1
102
RTVSPropertyOp24
 70
     1
102
RTVSPropertyOp25
 70
     1
102
RTVSPropertyOp26
 70
     1
102
RTVSPropertyOp27
 70
     1
102
RTVSPropertyOp28
 70
     1
102
RTVSPropertyOp29
 70
     1
102
RTVSPropertyOp30
 70
     1
102
RTVSPropertyOp31
 70
     1
102
RTVSPropertyOp32
 70
     1
  0
XRECORD
  5
566
102
{ACAD_REACTORS
330
565
102
}
330
565
100
AcDbXrecord
280
     1
102
RTVSPropertyOp0
 70
     1
102
RTVSPropertyOp1
 70
     1
102
RTVSPropertyOp2
 70
     1
102
RTVSPropertyOp3
 70
     1
102
RTVSPropertyOp4
 70
     1
102
RTVSPropertyOp5
 70
     1
102
RTVSPropertyOp6
 70
     1
102
RTVSPropertyOp7
 70
     1
102
RTVSPropertyOp8
 70
     1
102
RTVSPropertyOp9
 70
     1
102
RTVSPropertyOp10
 70
     1
102
RTVSPropertyOp11
 70
     1
102
RTVSPropertyOp12
 70
     1
102
RTVSPropertyOp13
 70
     1
102
RTVSPropertyOp14
 70
     1
102
RTVSPropertyOp15
 70
     1
102
RTVSPropertyOp16
 70
     1
102
RTVSPropertyOp17
 70
     1
102
RTVSPropertyOp18
 70
     1
102
RTVSPropertyOp19
 70
     1
102
RTVSPropertyOp20
 70
     1
102
RTVSPropertyOp21
 70
     1
102
RTVSPropertyOp22
 70
     1
102
RTVSPropertyOp23
 70
     1
102
RTVSPropertyOp24
 70
     1
102
RTVSPropertyOp25
 70
     1
102
RTVSPropertyOp26
 70
     1
102
RTVSPropertyOp27
 70
     1
102
RTVSPropertyOp28
 70
     1
102
RTVSPropertyOp29
 70
     1
102
RTVSPropertyOp30
 70
     1
102
RTVSPropertyOp31
 70
     1
102
RTVSPropertyOp32
 70
     1
  0
XRECORD
  5
56E
102
{ACAD_REACTORS
330
56D
102
}
330
56D
100
AcDbXrecord
280
     1
102
RTVSPropertyOp0
 70
     1
102
RTVSPropertyOp1
 70
     1
102
RTVSPropertyOp2
 70
     1
102
RTVSPropertyOp3
 70
     1
102
RTVSPropertyOp4
 70
     1
102
RTVSPropertyOp5
 70
     1
102
RTVSPropertyOp6
 70
     1
102
RTVSPropertyOp7
 70
     1
102
RTVSPropertyOp8
 70
     1
102
RTVSPropertyOp9
 70
     1
102
RTVSPropertyOp10
 70
     1
102
RTVSPropertyOp11
 70
     1
102
RTVSPropertyOp12
 70
     1
102
RTVSPropertyOp13
 70
     1
102
RTVSPropertyOp14
 70
     1
102
RTVSPropertyOp15
 70
     1
102
RTVSPropertyOp16
 70
     1
102
RTVSPropertyOp17
 70
     1
102
RTVSPropertyOp18
 70
     1
102
RTVSPropertyOp19
 70
     1
102
RTVSPropertyOp20
 70
     1
102
RTVSPropertyOp21
 70
     1
102
RTVSPropertyOp22
 70
     1
102
RTVSPropertyOp23
 70
     1
102
RTVSPropertyOp24
 70
     1
102
RTVSPropertyOp25
 70
     1
102
RTVSPropertyOp26
 70
     1
102
RTVSPropertyOp27
 70
     1
102
RTVSPropertyOp28
 70
     1
102
RTVSPropertyOp29
 70
     1
102
RTVSPropertyOp30
 70
     1
102
RTVSPropertyOp31
 70
     1
102
RTVSPropertyOp32
 70
     1
  0
XRECORD
  5
576
102
{ACAD_REACTORS
330
575
102
}
330
575
100
AcDbXrecord
280
     1
102
RTVSPropertyOp0
 70
     1
102
RTVSPropertyOp1
 70
     1
102
RTVSPropertyOp2
 70
     1
102
RTVSPropertyOp3
 70
     1
102
RTVSPropertyOp4
 70
     1
102
RTVSPropertyOp5
 70
     1
102
RTVSPropertyOp6
 70
     1
102
RTVSPropertyOp7
 70
     1
102
RTVSPropertyOp8
 70
     1
102
RTVSPropertyOp9
 70
     1
102
RTVSPropertyOp10
 70
     1
102
RTVSPropertyOp11
 70
     1
102
RTVSPropertyOp12
 70
     1
102
RTVSPropertyOp13
 70
     1
102
RTVSPropertyOp14
 70
     1
102
RTVSPropertyOp15
 70
     1
102
RTVSPropertyOp16
 70
     1
102
RTVSPropertyOp17
 70
     1
102
RTVSPropertyOp18
 70
     1
102
RTVSPropertyOp19
 70
     1
102
RTVSPropertyOp20
 70
     1
102
RTVSPropertyOp21
 70
     1
102
RTVSPropertyOp22
 70
     1
102
RTVSPropertyOp23
 70
     1
102
RTVSPropertyOp24
 70
     1
102
RTVSPropertyOp25
 70
     1
102
RTVSPropertyOp26
 70
     1
102
RTVSPropertyOp27
 70
     1
102
RTVSPropertyOp28
 70
     1
102
RTVSPropertyOp29
 70
     1
102
RTVSPropertyOp30
 70
     1
102
RTVSPropertyOp31
 70
     1
102
RTVSPropertyOp32
 70
     1
  0
XRECORD
  5
56A
102
{ACAD_REACTORS
330
569
102
}
330
569
100
AcDbXrecord
280
     1
102
RTVSPropertyOp0
 70
     1
102
RTVSPropertyOp1
 70
     1
102
RTVSPropertyOp2
 70
     1
102
RTVSPropertyOp3
 70
     1
102
RTVSPropertyOp4
 70
     1
102
RTVSPropertyOp5
 70
     1
102
RTVSPropertyOp6
 70
     1
102
RTVSPropertyOp7
 70
     1
102
RTVSPropertyOp8
 70
     1
102
RTVSPropertyOp9
 70
     1
102
RTVSPropertyOp10
 70
     1
102
RTVSPropertyOp11
 70
     1
102
RTVSPropertyOp12
 70
     1
102
RTVSPropertyOp13
 70
     1
102
RTVSPropertyOp14
 70
     1
102
RTVSPropertyOp15
 70
     1
102
RTVSPropertyOp16
 70
     1
102
RTVSPropertyOp17
 70
     1
102
RTVSPropertyOp18
 70
     1
102
RTVSPropertyOp19
 70
     1
102
RTVSPropertyOp20
 70
     1
102
RTVSPropertyOp21
 70
     1
102
RTVSPropertyOp22
 70
     1
102
RTVSPropertyOp23
 70
     1
102
RTVSPropertyOp24
 70
     1
102
RTVSPropertyOp25
 70
     1
102
RTVSPropertyOp26
 70
     1
102
RTVSPropertyOp27
 70
     1
102
RTVSPropertyOp28
 70
     1
102
RTVSPropertyOp29
 70
     1
102
RTVSPropertyOp30
 70
     1
102
RTVSPropertyOp31
 70
     1
102
RTVSPropertyOp32
 70
     1
  0
XRECORD
  5
56C
102
{ACAD_REACTORS
330
56B
102
}
330
56B
100
AcDbXrecord
280
     1
102
RTVSPropertyOp0
 70
     1
102
RTVSPropertyOp1
 70
     1
102
RTVSPropertyOp2
 70
     1
102
RTVSPropertyOp3
 70
     1
102
RTVSPropertyOp4
 70
     1
102
RTVSPropertyOp5
 70
     1
102
RTVSPropertyOp6
 70
     1
102
RTVSPropertyOp7
 70
     1
102
RTVSPropertyOp8
 70
     1
102
RTVSPropertyOp9
 70
     1
102
RTVSPropertyOp10
 70
     1
102
RTVSPropertyOp11
 70
     1
102
RTVSPropertyOp12
 70
     1
102
RTVSPropertyOp13
 70
     1
102
RTVSPropertyOp14
 70
     1
102
RTVSPropertyOp15
 70
     1
102
RTVSPropertyOp16
 70
     1
102
RTVSPropertyOp17
 70
     1
102
RTVSPropertyOp18
 70
     1
102
RTVSPropertyOp19
 70
     1
102
RTVSPropertyOp20
 70
     1
102
RTVSPropertyOp21
 70
     1
102
RTVSPropertyOp22
 70
     1
102
RTVSPropertyOp23
 70
     1
102
RTVSPropertyOp24
 70
     1
102
RTVSPropertyOp25
 70
     1
102
RTVSPropertyOp26
 70
     1
102
RTVSPropertyOp27
 70
     1
102
RTVSPropertyOp28
 70
     1
102
RTVSPropertyOp29
 70
     1
102
RTVSPropertyOp30
 70
     1
102
RTVSPropertyOp31
 70
     1
102
RTVSPropertyOp32
 70
     1
  0
XRECORD
  5
574
102
{ACAD_REACTORS
330
573
102
}
330
573
100
AcDbXrecord
280
     1
102
RTVSPropertyOp0
 70
     1
102
RTVSPropertyOp1
 70
     1
102
RTVSPropertyOp2
 70
     1
102
RTVSPropertyOp3
 70
     1
102
RTVSPropertyOp4
 70
     1
102
RTVSPropertyOp5
 70
     1
102
RTVSPropertyOp6
 70
     1
102
RTVSPropertyOp7
 70
     1
102
RTVSPropertyOp8
 70
     1
102
RTVSPropertyOp9
 70
     1
102
RTVSPropertyOp10
 70
     1
102
RTVSPropertyOp11
 70
     1
102
RTVSPropertyOp12
 70
     1
102
RTVSPropertyOp13
 70
     1
102
RTVSPropertyOp14
 70
     1
102
RTVSPropertyOp15
 70
     1
102
RTVSPropertyOp16
 70
     1
102
RTVSPropertyOp17
 70
     1
102
RTVSPropertyOp18
 70
     1
102
RTVSPropertyOp19
 70
     1
102
RTVSPropertyOp20
 70
     1
102
RTVSPropertyOp21
 70
     1
102
RTVSPropertyOp22
 70
     1
102
RTVSPropertyOp23
 70
     1
102
RTVSPropertyOp24
 70
     1
102
RTVSPropertyOp25
 70
     1
102
RTVSPropertyOp26
 70
     1
102
RTVSPropertyOp27
 70
     1
102
RTVSPropertyOp28
 70
     1
102
RTVSPropertyOp29
 70
     1
102
RTVSPropertyOp30
 70
     1
102
RTVSPropertyOp31
 70
     1
102
RTVSPropertyOp32
 70
     1
  0
XRECORD
  5
558
102
{ACAD_REACTORS
330
557
102
}
330
557
100
AcDbXrecord
280
     1
102
RTVSPropertyOp0
 70
     1
102
RTVSPropertyOp1
 70
     1
102
RTVSPropertyOp2
 70
     1
102
RTVSPropertyOp3
 70
     1
102
RTVSPropertyOp4
 70
     1
102
RTVSPropertyOp5
 70
     1
102
RTVSPropertyOp6
 70
     1
102
RTVSPropertyOp7
 70
     1
102
RTVSPropertyOp8
 70
     1
102
RTVSPropertyOp9
 70
     1
102
RTVSPropertyOp10
 70
     1
102
RTVSPropertyOp11
 70
     1
102
RTVSPropertyOp12
 70
     1
102
RTVSPropertyOp13
 70
     1
102
RTVSPropertyOp14
 70
     1
102
RTVSPropertyOp15
 70
     1
102
RTVSPropertyOp16
 70
     1
102
RTVSPropertyOp17
 70
     1
102
RTVSPropertyOp18
 70
     1
102
RTVSPropertyOp19
 70
     1
102
RTVSPropertyOp20
 70
     1
102
RTVSPropertyOp21
 70
     1
102
RTVSPropertyOp22
 70
     1
102
RTVSPropertyOp23
 70
     1
102
RTVSPropertyOp24
 70
     1
102
RTVSPropertyOp25
 70
     1
102
RTVSPropertyOp26
 70
     1
102
RTVSPropertyOp27
 70
     1
102
RTVSPropertyOp28
 70
     1
102
RTVSPropertyOp29
 70
     1
102
RTVSPropertyOp30
 70
     1
102
RTVSPropertyOp31
 70
     1
102
RTVSPropertyOp32
 70
     1
  0
XRECORD
  5
55A
102
{ACAD_REACTORS
330
559
102
}
330
559
100
AcDbXrecord
280
     1
102
RTVSPropertyOp0
 70
     1
102
RTVSPropertyOp1
 70
     1
102
RTVSPropertyOp2
 70
     1
102
RTVSPropertyOp3
 70
     1
102
RTVSPropertyOp4
 70
     1
102
RTVSPropertyOp5
 70
     1
102
RTVSPropertyOp6
 70
     1
102
RTVSPropertyOp7
 70
     1
102
RTVSPropertyOp8
 70
     1
102
RTVSPropertyOp9
 70
     1
102
RTVSPropertyOp10
 70
     1
102
RTVSPropertyOp11
 70
     1
102
RTVSPropertyOp12
 70
     1
102
RTVSPropertyOp13
 70
     1
102
RTVSPropertyOp14
 70
     1
102
RTVSPropertyOp15
 70
     1
102
RTVSPropertyOp16
 70
     1
102
RTVSPropertyOp17
 70
     1
102
RTVSPropertyOp18
 70
     1
102
RTVSPropertyOp19
 70
     1
102
RTVSPropertyOp20
 70
     1
102
RTVSPropertyOp21
 70
     1
102
RTVSPropertyOp22
 70
     1
102
RTVSPropertyOp23
 70
     1
102
RTVSPropertyOp24
 70
     1
102
RTVSPropertyOp25
 70
     1
102
RTVSPropertyOp26
 70
     1
102
RTVSPropertyOp27
 70
     1
102
RTVSPropertyOp28
 70
     1
102
RTVSPropertyOp29
 70
     1
102
RTVSPropertyOp30
 70
     1
102
RTVSPropertyOp31
 70
     1
102
RTVSPropertyOp32
 70
     1
  0
XRECORD
  5
55C
102
{ACAD_REACTORS
330
55B
102
}
330
55B
100
AcDbXrecord
280
     1
102
RTVSPropertyOp0
 70
     1
102
RTVSPropertyOp1
 70
     1
102
RTVSPropertyOp2
 70
     1
102
RTVSPropertyOp3
 70
     1
102
RTVSPropertyOp4
 70
     1
102
RTVSPropertyOp5
 70
     1
102
RTVSPropertyOp6
 70
     1
102
RTVSPropertyOp7
 70
     1
102
RTVSPropertyOp8
 70
     1
102
RTVSPropertyOp9
 70
     1
102
RTVSPropertyOp10
 70
     1
102
RTVSPropertyOp11
 70
     1
102
RTVSPropertyOp12
 70
     1
102
RTVSPropertyOp13
 70
     1
102
RTVSPropertyOp14
 70
     1
102
RTVSPropertyOp15
 70
     1
102
RTVSPropertyOp16
 70
     1
102
RTVSPropertyOp17
 70
     1
102
RTVSPropertyOp18
 70
     1
102
RTVSPropertyOp19
 70
     1
102
RTVSPropertyOp20
 70
     1
102
RTVSPropertyOp21
 70
     1
102
RTVSPropertyOp22
 70
     1
102
RTVSPropertyOp23
 70
     1
102
RTVSPropertyOp24
 70
     1
102
RTVSPropertyOp25
 70
     1
102
RTVSPropertyOp26
 70
     1
102
RTVSPropertyOp27
 70
     1
102
RTVSPropertyOp28
 70
     1
102
RTVSPropertyOp29
 70
     1
102
RTVSPropertyOp30
 70
     1
102
RTVSPropertyOp31
 70
     1
102
RTVSPropertyOp32
 70
     1
  0
XRECORD
  5
55E
102
{ACAD_REACTORS
330
55D
102
}
330
55D
100
AcDbXrecord
280
     1
102
RTVSPropertyOp0
 70
     1
102
RTVSPropertyOp1
 70
     1
102
RTVSPropertyOp2
 70
     1
102
RTVSPropertyOp3
 70
     1
102
RTVSPropertyOp4
 70
     1
102
RTVSPropertyOp5
 70
     1
102
RTVSPropertyOp6
 70
     1
102
RTVSPropertyOp7
 70
     1
102
RTVSPropertyOp8
 70
     1
102
RTVSPropertyOp9
 70
     1
102
RTVSPropertyOp10
 70
     1
102
RTVSPropertyOp11
 70
     1
102
RTVSPropertyOp12
 70
     1
102
RTVSPropertyOp13
 70
     1
102
RTVSPropertyOp14
 70
     1
102
RTVSPropertyOp15
 70
     1
102
RTVSPropertyOp16
 70
     1
102
RTVSPropertyOp17
 70
     1
102
RTVSPropertyOp18
 70
     1
102
RTVSPropertyOp19
 70
     1
102
RTVSPropertyOp20
 70
     1
102
RTVSPropertyOp21
 70
     1
102
RTVSPropertyOp22
 70
     1
102
RTVSPropertyOp23
 70
     1
102
RTVSPropertyOp24
 70
     1
102
RTVSPropertyOp25
 70
     1
102
RTVSPropertyOp26
 70
     1
102
RTVSPropertyOp27
 70
     1
102
RTVSPropertyOp28
 70
     1
102
RTVSPropertyOp29
 70
     1
102
RTVSPropertyOp30
 70
     1
102
RTVSPropertyOp31
 70
     1
102
RTVSPropertyOp32
 70
     1
  0
XRECORD
  5
572
102
{ACAD_REACTORS
330
571
102
}
330
571
100
AcDbXrecord
280
     1
102
RTVSPropertyOp0
 70
     1
102
RTVSPropertyOp1
 70
     1
102
RTVSPropertyOp2
 70
     1
102
RTVSPropertyOp3
 70
     1
102
RTVSPropertyOp4
 70
     1
102
RTVSPropertyOp5
 70
     1
102
RTVSPropertyOp6
 70
     1
102
RTVSPropertyOp7
 70
     1
102
RTVSPropertyOp8
 70
     1
102
RTVSPropertyOp9
 70
     1
102
RTVSPropertyOp10
 70
     1
102
RTVSPropertyOp11
 70
     1
102
RTVSPropertyOp12
 70
     1
102
RTVSPropertyOp13
 70
     1
102
RTVSPropertyOp14
 70
     1
102
RTVSPropertyOp15
 70
     1
102
RTVSPropertyOp16
 70
     1
102
RTVSPropertyOp17
 70
     1
102
RTVSPropertyOp18
 70
     1
102
RTVSPropertyOp19
 70
     1
102
RTVSPropertyOp20
 70
     1
102
RTVSPropertyOp21
 70
     1
102
RTVSPropertyOp22
 70
     1
102
RTVSPropertyOp23
 70
     1
102
RTVSPropertyOp24
 70
     1
102
RTVSPropertyOp25
 70
     1
102
RTVSPropertyOp26
 70
     1
102
RTVSPropertyOp27
 70
     1
102
RTVSPropertyOp28
 70
     1
102
RTVSPropertyOp29
 70
     1
102
RTVSPropertyOp30
 70
     1
102
RTVSPropertyOp31
 70
     1
102
RTVSPropertyOp32
 70
     1
  0
XRECORD
  5
568
102
{ACAD_REACTORS
330
567
102
}
330
567
100
AcDbXrecord
280
     1
102
RTVSPropertyOp0
 70
     1
102
RTVSPropertyOp1
 70
     1
102
RTVSPropertyOp2
 70
     1
102
RTVSPropertyOp3
 70
     1
102
RTVSPropertyOp4
 70
     1
102
RTVSPropertyOp5
 70
     1
102
RTVSPropertyOp6
 70
     1
102
RTVSPropertyOp7
 70
     1
102
RTVSPropertyOp8
 70
     1
102
RTVSPropertyOp9
 70
     1
102
RTVSPropertyOp10
 70
     1
102
RTVSPropertyOp11
 70
     1
102
RTVSPropertyOp12
 70
     1
102
RTVSPropertyOp13
 70
     1
102
RTVSPropertyOp14
 70
     1
102
RTVSPropertyOp15
 70
     1
102
RTVSPropertyOp16
 70
     1
102
RTVSPropertyOp17
 70
     1
102
RTVSPropertyOp18
 70
     1
102
RTVSPropertyOp19
 70
     1
102
RTVSPropertyOp20
 70
     1
102
RTVSPropertyOp21
 70
     1
102
RTVSPropertyOp22
 70
     1
102
RTVSPropertyOp23
 70
     1
102
RTVSPropertyOp24
 70
     1
102
RTVSPropertyOp25
 70
     1
102
RTVSPropertyOp26
 70
     1
102
RTVSPropertyOp27
 70
     1
102
RTVSPropertyOp28
 70
     1
102
RTVSPropertyOp29
 70
     1
102
RTVSPropertyOp30
 70
     1
102
RTVSPropertyOp31
 70
     1
102
RTVSPropertyOp32
 70
     1
  0
XRECORD
  5
570
102
{ACAD_REACTORS
330
56F
102
}
330
56F
100
AcDbXrecord
280
     1
102
RTVSPropertyOp0
 70
     1
102
RTVSPropertyOp1
 70
     1
102
RTVSPropertyOp2
 70
     1
102
RTVSPropertyOp3
 70
     1
102
RTVSPropertyOp4
 70
     1
102
RTVSPropertyOp5
 70
     1
102
RTVSPropertyOp6
 70
     1
102
RTVSPropertyOp7
 70
     1
102
RTVSPropertyOp8
 70
     1
102
RTVSPropertyOp9
 70
     1
102
RTVSPropertyOp10
 70
     1
102
RTVSPropertyOp11
 70
     1
102
RTVSPropertyOp12
 70
     1
102
RTVSPropertyOp13
 70
     1
102
RTVSPropertyOp14
 70
     1
102
RTVSPropertyOp15
 70
     1
102
RTVSPropertyOp16
 70
     1
102
RTVSPropertyOp17
 70
     1
102
RTVSPropertyOp18
 70
     1
102
RTVSPropertyOp19
 70
     1
102
RTVSPropertyOp20
 70
     1
102
RTVSPropertyOp21
 70
     1
102
RTVSPropertyOp22
 70
     1
102
RTVSPropertyOp23
 70
     1
102
RTVSPropertyOp24
 70
     1
102
RTVSPropertyOp25
 70
     1
102
RTVSPropertyOp26
 70
     1
102
RTVSPropertyOp27
 70
     1
102
RTVSPropertyOp28
 70
     1
102
RTVSPropertyOp29
 70
     1
102
RTVSPropertyOp30
 70
     1
102
RTVSPropertyOp31
 70
     1
102
RTVSPropertyOp32
 70
     1
  0
ENDSEC
  0
EOF
