  0
SECTION
  2
HEADER
  9
$ACADVER
  1
AC1018
  9
$ACADMAINTVER
 70
     0
  9
$DWGCODEPAGE
  3
ANSI_1252
  9
$INSBASE
 10
0.0
 20
0.0
 30
0.0
  9
$EXTMIN
 10
-201.460520322234
 20
11.8118234447
 30
0.0
  9
$EXTMAX
 10
177.249716076002
 20
165.3608234447
 30
0.0
  9
$LIMMIN
 10
0.0
 20
0.0
  9
$LIMMAX
 10
420.0
 20
297.0
  9
$ORTHOMODE
 70
     0
  9
$REGENMODE
 70
     1
  9
$FILLMODE
 70
     1
  9
$QTEXTMODE
 70
     0
  9
$MIRRTEXT
 70
     1
  9
$LTSCALE
 40
5.0
  9
$ATTMODE
 70
     1
  9
$TEXTSIZE
 40
2.5
  9
$TRACEWID
 40
1.0
  9
$TEXTSTYLE
  7
Standard
  9
$CLAYER
  8
0
  9
$CELTYPE
  6
ByLayer
  9
$CECOLOR
 62
   256
  9
$CELTSCALE
 40
1.0
  9
$DISPSILH
 70
     0
  9
$DIMSCALE
 40
1.0
  9
$DIMASZ
 40
2.5
  9
$DIMEXO
 40
0.625
  9
$DIMDLI
 40
3.75
  9
$DIMRND
 40
0.0
  9
$DIMDLE
 40
0.0
  9
$DIMEXE
 40
1.25
  9
$DIMTP
 40
0.0
  9
$DIMTM
 40
0.0
  9
$DIMTXT
 40
2.5
  9
$DIMCEN
 40
2.5
  9
$DIMTSZ
 40
0.0
  9
$DIMTOL
 70
     0
  9
$DIMLIM
 70
     0
  9
$DIMTIH
 70
     0
  9
$DIMTOH
 70
     0
  9
$DIMSE1
 70
     0
  9
$DIMSE2
 70
     0
  9
$DIMTAD
 70
     1
  9
$DIMZIN
 70
     8
  9
$DIMBLK
  1

  9
$DIMASO
 70
     1
  9
$DIMSHO
 70
     1
  9
$DIMPOST
  1

  9
$DIMAPOST
  1

  9
$DIMALT
 70
     0
  9
$DIMALTD
 70
     3
  9
$DIMALTF
 40
0.03937007874
  9
$DIMLFAC
 40
1.0
  9
$DIMTOFL
 70
     1
  9
$DIMTVP
 40
0.0
  9
$DIMTIX
 70
     0
  9
$DIMSOXD
 70
     0
  9
$DIMSAH
 70
     0
  9
$DIMBLK1
  1

  9
$DIMBLK2
  1

  9
$DIMSTYLE
  2
ISO-25
  9
$DIMCLRD
 70
     0
  9
$DIMCLRE
 70
     0
  9
$DIMCLRT
 70
     0
  9
$DIMTFAC
 40
1.0
  9
$DIMGAP
 40
0.625
  9
$DIMJUST
 70
     0
  9
$DIMSD1
 70
     0
  9
$DIMSD2
 70
     0
  9
$DIMTOLJ
 70
     0
  9
$DIMTZIN
 70
     8
  9
$DIMALTZ
 70
     0
  9
$DIMALTTZ
 70
     0
  9
$DIMUPT
 70
     0
  9
$DIMDEC
 70
     2
  9
$DIMTDEC
 70
     2
  9
$DIMALTU
 70
     2
  9
$DIMALTTD
 70
     3
  9
$DIMTXSTY
  7
Standard
  9
$DIMAUNIT
 70
     0
  9
$DIMADEC
 70
     0
  9
$DIMALTRND
 40
0.0
  9
$DIMAZIN
 70
     0
  9
$DIMDSEP
 70
    44
  9
$DIMATFIT
 70
     3
  9
$DIMFRAC
 70
     0
  9
$DIMLDRBLK
  1

  9
$DIMLUNIT
 70
     2
  9
$DIMLWD
 70
    -2
  9
$DIMLWE
 70
    -2
  9
$DIMTMOVE
 70
     0
  9
$LUNITS
 70
     2
  9
$LUPREC
 70
     4
  9
$SKETCHINC
 40
1.0
  9
$FILLETRAD
 40
10.0
  9
$AUNITS
 70
     0
  9
$AUPREC
 70
     0
  9
$MENU
  1
.
  9
$ELEVATION
 40
0.0
  9
$PELEVATION
 40
0.0
  9
$THICKNESS
 40
0.0
  9
$LIMCHECK
 70
     0
  9
$CHAMFERA
 40
10.0
  9
$CHAMFERB
 40
10.0
  9
$CHAMFERC
 40
20.0
  9
$CHAMFERD
 40
0.0
  9
$SKPOLY
 70
     0
  9
$TDCREATE
 40
2458750.401482997
  9
$TDUCREATE
 40
2458750.318149664
  9
$TDUPDATE
 40
2458750.401493113
  9
$TDUUPDATE
 40
2458750.31815978
  9
$TDINDWG
 40
0.0000000116
  9
$TDUSRTIMER
 40
0.0000000116
  9
$USRTIMER
 70
     1
  9
$ANGBASE
 50
0.0
  9
$ANGDIR
 70
     0
  9
$PDMODE
 70
     2
  9
$PDSIZE
 40
1.0
  9
$PLINEWID
 40
0.0
  9
$SPLFRAME
 70
     0
  9
$SPLINETYPE
 70
     6
  9
$SPLINESEGS
 70
     8
  9
$HANDSEED
  5
59F
  9
$SURFTAB1
 70
     6
  9
$SURFTAB2
 70
     6
  9
$SURFTYPE
 70
     6
  9
$SURFU
 70
     6
  9
$SURFV
 70
     6
  9
$UCSBASE
  2

  9
$UCSNAME
  2

  9
$UCSORG
 10
0.0
 20
0.0
 30
0.0
  9
$UCSXDIR
 10
1.0
 20
0.0
 30
0.0
  9
$UCSYDIR
 10
0.0
 20
1.0
 30
0.0
  9
$UCSORTHOREF
  2

  9
$UCSORTHOVIEW
 70
     0
  9
$UCSORGTOP
 10
0.0
 20
0.0
 30
0.0
  9
$UCSORGBOTTOM
 10
0.0
 20
0.0
 30
0.0
  9
$UCSORGLEFT
 10
0.0
 20
0.0
 30
0.0
  9
$UCSORGRIGHT
 10
0.0
 20
0.0
 30
0.0
  9
$UCSORGFRONT
 10
0.0
 20
0.0
 30
0.0
  9
$UCSORGBACK
 10
0.0
 20
0.0
 30
0.0
  9
$PUCSBASE
  2

  9
$PUCSNAME
  2

  9
$PUCSORG
 10
0.0
 20
0.0
 30
0.0
  9
$PUCSXDIR
 10
1.0
 20
0.0
 30
0.0
  9
$PUCSYDIR
 10
0.0
 20
1.0
 30
0.0
  9
$PUCSORTHOREF
  2

  9
$PUCSORTHOVIEW
 70
     0
  9
$PUCSORGTOP
 10
0.0
 20
0.0
 30
0.0
  9
$PUCSORGBOTTOM
 10
0.0
 20
0.0
 30
0.0
  9
$PUCSORGLEFT
 10
0.0
 20
0.0
 30
0.0
  9
$PUCSORGRIGHT
 10
0.0
 20
0.0
 30
0.0
  9
$PUCSORGFRONT
 10
0.0
 20
0.0
 30
0.0
  9
$PUCSORGBACK
 10
0.0
 20
0.0
 30
0.0
  9
$USERI1
 70
     0
  9
$USERI2
 70
     0
  9
$USERI3
 70
     0
  9
$USERI4
 70
     0
  9
$USERI5
 70
     0
  9
$USERR1
 40
0.0
  9
$USERR2
 40
0.0
  9
$USERR3
 40
0.0
  9
$USERR4
 40
0.0
  9
$USERR5
 40
0.0
  9
$WORLDVIEW
 70
     1
  9
$SHADEDGE
 70
     3
  9
$SHADEDIF
 70
    70
  9
$TILEMODE
 70
     1
  9
$MAXACTVP
 70
    64
  9
$PINSBASE
 10
0.0
 20
0.0
 30
0.0
  9
$PLIMCHECK
 70
     0
  9
$PEXTMIN
 10
1.000000000000E+20
 20
1.000000000000E+20
 30
1.000000000000E+20
  9
$PEXTMAX
 10
-1.000000000000E+20
 20
-1.000000000000E+20
 30
-1.000000000000E+20
  9
$PLIMMIN
 10
0.0
 20
0.0
  9
$PLIMMAX
 10
420.0
 20
297.0
  9
$UNITMODE
 70
     0
  9
$VISRETAIN
 70
     1
  9
$PLINEGEN
 70
     0
  9
$PSLTSCALE
 70
     1
  9
$TREEDEPTH
 70
  3020
  9
$CMLSTYLE
  2
Standard
  9
$CMLJUST
 70
     0
  9
$CMLSCALE
 40
20.0
  9
$PROXYGRAPHICS
 70
     1
  9
$MEASUREMENT
 70
     1
  9
$CELWEIGHT
370
    -1
  9
$ENDCAPS
280
     0
  9
$JOINSTYLE
280
     0
  9
$LWDISPLAY
290
     0
  9
$INSUNITS
 70
     4
  9
$HYPERLINKBASE
  1

  9
$STYLESHEET
  1

  9
$XEDIT
290
     1
  9
$CEPSNTYPE
380
     0
  9
$PSTYLEMODE
290
     1
  9
$FINGERPRINTGUID
  2
{B82613E0-7F65-4A61-B769-2374DED38D82}
  9
$VERSIONGUID
  2
{FAEB1C32-E019-11D5-929B-00C0DF256EC4}
  9
$EXTNAMES
290
     1
  9
$PSVPSCALE
 40
0.0
  9
$OLESTARTUP
290
     0
  9
$SORTENTS
280
   127
  9
$INDEXCTL
280
     0
  9
$HIDETEXT
280
     1
  9
$XCLIPFRAME
290
     0
  9
$HALOGAP
280
     0
  9
$OBSCOLOR
 70
   257
  9
$OBSLTYPE
280
     0
  9
$INTERSECTIONDISPLAY
280
     0
  9
$INTERSECTIONCOLOR
 70
   257
  9
$DIMASSOC
280
     2
  9
$PROJECTNAME
  1

  0
ENDSEC
  0
SECTION
  2
CLASSES
  0
CLASS
  1
ACDBDICTIONARYWDFLT
  2
AcDbDictionaryWithDefault
  3
ObjectDBX Classes
 90
        0
 91
        4
280
     0
281
     0
  0
CLASS
  1
VISUALSTYLE
  2
AcDbVisualStyle
  3
ObjectDBX Classes
 90
     4095
 91
        4
280
     0
281
     0
  0
CLASS
  1
MATERIAL
  2
AcDbMaterial
  3
ObjectDBX Classes
 90
     1153
 91
        4
280
     0
281
     0
  0
CLASS
  1
WIPEOUTVARIABLES
  2
AcDbWipeoutVariables
  3
WipeOut|AutoCAD Express Tool|expresstools@autodesk.com
 90
        0
 91
        4
280
     0
281
     0
  0
ENDSEC
  0
SECTION
  2
TABLES
  0
TABLE
  2
VPORT
  5
8
330
0
100
AcDbSymbolTable
 70
     1
  0
VPORT
  5
29
330
8
100
AcDbSymbolTableRecord
100
AcDbViewportTableRecord
  2
*Active
 70
     0
 10
0.0
 20
0.0
 11
1.0
 21
1.0
 12
-12.105402123116
 22
88.5863234447
 13
0.0
 23
0.0
 14
10.0
 24
10.0
 15
10.0
 25
10.0
 16
0.0
 26
0.0
 36
1.0
 17
0.0
 27
0.0
 37
0.0
 40
153.549
 41
2.466380350235
 42
50.0
 43
0.0
 44
0.0
 50
0.0
 51
0.0
 71
     0
 72
   100
 73
     1
 74
     3
 75
     0
 76
     0
 77
     0
 78
     0
281
     0
 65
     1
110
0.0
120
0.0
130
0.0
111
1.0
121
0.0
131
0.0
112
0.0
122
1.0
132
0.0
 79
     0
146
0.0
  0
ENDTAB
  0
TABLE
  2
LTYPE
  5
5
330
0
100
AcDbSymbolTable
 70
     4
  0
LTYPE
  5
14
330
5
100
AcDbSymbolTableRecord
100
AcDbLinetypeTableRecord
  2
ByBlock
 70
     0
  3

 72
    65
 73
     0
 40
0.0
  0
LTYPE
  5
15
330
5
100
AcDbSymbolTableRecord
100
AcDbLinetypeTableRecord
  2
ByLayer
 70
     0
  3

 72
    65
 73
     0
 40
0.0
  0
LTYPE
  5
16
330
5
100
AcDbSymbolTableRecord
100
AcDbLinetypeTableRecord
  2
Continuous
 70
     0
  3
Solid line
 72
    65
 73
     0
 40
0.0
  0
LTYPE
  5
40
330
5
100
AcDbSymbolTableRecord
100
AcDbLinetypeTableRecord
  2
AUSGEZOGEN
 70
     0
  3

 72
    65
 73
     0
 40
0.0
  0
LTYPE
  5
43
330
5
100
AcDbSymbolTableRecord
100
AcDbLinetypeTableRecord
  2
DASHDOT
 70
     0
  3

 72
    65
 73
     4
 40
1.0
 49
0.5
 74
     0
 49
-0.25
 74
     0
 49
0.0
 74
     0
 49
-0.25
 74
     0
  0
LTYPE
  5
44
330
5
100
AcDbSymbolTableRecord
100
AcDbLinetypeTableRecord
  2
DASHED
 70
     0
  3

 72
    65
 73
     2
 40
0.75
 49
0.5
 74
     0
 49
-0.25
 74
     0
  0
ENDTAB
  0
TABLE
  2
LAYER
  5
2
330
0
100
AcDbSymbolTable
 70
   257
  0
LAYER
  5
10
330
2
100
AcDbSymbolTableRecord
100
AcDbLayerTableRecord
  2
0
 70
     0
 62
     7
  6
Continuous
370
    -3
390
F
  0
LAYER
  5
46
330
2
100
AcDbSymbolTableRecord
100
AcDbLayerTableRecord
  2
Layer0
 70
     0
 62
     7
  6
Continuous
370
    -3
390
F
  0
LAYER
  5
47
330
2
100
AcDbSymbolTableRecord
100
AcDbLayerTableRecord
  2
Stammform
 70
     0
 62
     7
  6
Continuous
370
    -3
390
F
  0
LAYER
  5
48
330
2
100
AcDbSymbolTableRecord
100
AcDbLayerTableRecord
  2
Layer2
 70
     0
 62
     7
  6
Continuous
370
    -3
390
F
  0
LAYER
  5
49
330
2
100
AcDbSymbolTableRecord
100
AcDbLayerTableRecord
  2
Layer3
 70
     0
 62
     7
  6
Continuous
370
    -3
390
F
  0
LAYER
  5
4A
330
2
100
AcDbSymbolTableRecord
100
AcDbLayerTableRecord
  2
Layer4
 70
     0
 62
     7
  6
Continuous
370
    -3
390
F
  0
LAYER
  5
4B
330
2
100
AcDbSymbolTableRecord
100
AcDbLayerTableRecord
  2
Layer5
 70
     0
 62
     7
  6
Continuous
370
    -3
390
F
  0
LAYER
  5
4C
330
2
100
AcDbSymbolTableRecord
100
AcDbLayerTableRecord
  2
Layer6
 70
     0
 62
     7
  6
Continuous
370
    -3
390
F
  0
LAYER
  5
4D
330
2
100
AcDbSymbolTableRecord
100
AcDbLayerTableRecord
  2
Layer7
 70
     0
 62
     7
  6
Continuous
370
    -3
390
F
  0
LAYER
  5
4E
330
2
100
AcDbSymbolTableRecord
100
AcDbLayerTableRecord
  2
Layer8
 70
     0
 62
     7
  6
Continuous
370
    -3
390
F
  0
LAYER
  5
4F
330
2
100
AcDbSymbolTableRecord
100
AcDbLayerTableRecord
  2
Layer9
 70
     0
 62
     7
  6
Continuous
370
    -3
390
F
  0
LAYER
  5
50
330
2
100
AcDbSymbolTableRecord
100
AcDbLayerTableRecord
  2
Formtei
 70
     0
 62
     7
  6
Continuous
370
    -3
390
F
  0
LAYER
  5
51
330
2
100
AcDbSymbolTableRecord
100
AcDbLayerTableRecord
  2
Layer11
 70
     0
 62
     7
  6
Continuous
370
    -3
390
F
  0
LAYER
  5
52
330
2
100
AcDbSymbolTableRecord
100
AcDbLayerTableRecord
  2
Layer12
 70
     0
 62
     7
  6
Continuous
370
    -3
390
F
  0
LAYER
  5
53
330
2
100
AcDbSymbolTableRecord
100
AcDbLayerTableRecord
  2
Layer13
 70
     0
 62
     7
  6
Continuous
370
    -3
390
F
  0
LAYER
  5
54
330
2
100
AcDbSymbolTableRecord
100
AcDbLayerTableRecord
  2
Layer14
 70
     0
 62
     7
  6
Continuous
370
    -3
390
F
  0
LAYER
  5
55
330
2
100
AcDbSymbolTableRecord
100
AcDbLayerTableRecord
  2
Layer15
 70
     0
 62
     7
  6
Continuous
370
    -3
390
F
  0
LAYER
  5
56
330
2
100
AcDbSymbolTableRecord
100
AcDbLayerTableRecord
  2
Layer16
 70
     0
 62
     7
  6
Continuous
370
    -3
390
F
  0
LAYER
  5
57
330
2
100
AcDbSymbolTableRecord
100
AcDbLayerTableRecord
  2
Layer17
 70
     0
 62
     7
  6
Continuous
370
    -3
390
F
  0
LAYER
  5
58
330
2
100
AcDbSymbolTableRecord
100
AcDbLayerTableRecord
  2
Layer18
 70
     0
 62
     7
  6
Continuous
370
    -3
390
F
  0
LAYER
  5
59
330
2
100
AcDbSymbolTableRecord
100
AcDbLayerTableRecord
  2
Layer19
 70
     0
 62
     7
  6
Continuous
370
    -3
390
F
  0
LAYER
  5
5A
330
2
100
AcDbSymbolTableRecord
100
AcDbLayerTableRecord
  2
Kühlung
 70
     0
 62
     7
  6
Continuous
370
    -3
390
F
  0
LAYER
  5
5B
330
2
100
AcDbSymbolTableRecord
100
AcDbLayerTableRecord
  2
Layer21
 70
     0
 62
     7
  6
Continuous
370
    -3
390
F
  0
LAYER
  5
5C
330
2
100
AcDbSymbolTableRecord
100
AcDbLayerTableRecord
  2
Layer22
 70
     0
 62
     7
  6
Continuous
370
    -3
390
F
  0
LAYER
  5
5D
330
2
100
AcDbSymbolTableRecord
100
AcDbLayerTableRecord
  2
Layer23
 70
     0
 62
     7
  6
Continuous
370
    -3
390
F
  0
LAYER
  5
5E
330
2
100
AcDbSymbolTableRecord
100
AcDbLayerTableRecord
  2
Layer24
 70
     0
 62
     7
  6
Continuous
370
    -3
390
F
  0
LAYER
  5
5F
330
2
100
AcDbSymbolTableRecord
100
AcDbLayerTableRecord
  2
Layer25
 70
     0
 62
     7
  6
Continuous
370
    -3
390
F
  0
LAYER
  5
60
330
2
100
AcDbSymbolTableRecord
100
AcDbLayerTableRecord
  2
Layer26
 70
     0
 62
     7
  6
Continuous
370
    -3
390
F
  0
LAYER
  5
61
330
2
100
AcDbSymbolTableRecord
100
AcDbLayerTableRecord
  2
Layer27
 70
     0
 62
     7
  6
Continuous
370
    -3
390
F
  0
LAYER
  5
62
330
2
100
AcDbSymbolTableRecord
100
AcDbLayerTableRecord
  2
Layer28
 70
     0
 62
     7
  6
Continuous
370
    -3
390
F
  0
LAYER
  5
63
330
2
100
AcDbSymbolTableRecord
100
AcDbLayerTableRecord
  2
Layer29
 70
     0
 62
     7
  6
Continuous
370
    -3
390
F
  0
LAYER
  5
64
330
2
100
AcDbSymbolTableRecord
100
AcDbLayerTableRecord
  2
Auswerfer
 70
     0
 62
     7
  6
Continuous
370
    -3
390
F
  0
LAYER
  5
65
330
2
100
AcDbSymbolTableRecord
100
AcDbLayerTableRecord
  2
Layer31
 70
     0
 62
     7
  6
Continuous
370
    -3
390
F
  0
LAYER
  5
66
330
2
100
AcDbSymbolTableRecord
100
AcDbLayerTableRecord
  2
Layer32
 70
     0
 62
     7
  6
Continuous
370
    -3
390
F
  0
LAYER
  5
67
330
2
100
AcDbSymbolTableRecord
100
AcDbLayerTableRecord
  2
Layer33
 70
     0
 62
     7
  6
Continuous
370
    -3
390
F
  0
LAYER
  5
68
330
2
100
AcDbSymbolTableRecord
100
AcDbLayerTableRecord
  2
Layer34
 70
     0
 62
     7
  6
Continuous
370
    -3
390
F
  0
LAYER
  5
69
330
2
100
AcDbSymbolTableRecord
100
AcDbLayerTableRecord
  2
Layer35
 70
     0
 62
     7
  6
Continuous
370
    -3
390
F
  0
LAYER
  5
6A
330
2
100
AcDbSymbolTableRecord
100
AcDbLayerTableRecord
  2
Layer36
 70
     0
 62
     7
  6
Continuous
370
    -3
390
F
  0
LAYER
  5
6B
330
2
100
AcDbSymbolTableRecord
100
AcDbLayerTableRecord
  2
Layer37
 70
     0
 62
     7
  6
Continuous
370
    -3
390
F
  0
LAYER
  5
6C
330
2
100
AcDbSymbolTableRecord
100
AcDbLayerTableRecord
  2
Layer38
 70
     0
 62
     7
  6
Continuous
370
    -3
390
F
  0
LAYER
  5
6D
330
2
100
AcDbSymbolTableRecord
100
AcDbLayerTableRecord
  2
Layer39
 70
     0
 62
     7
  6
Continuous
370
    -3
390
F
  0
LAYER
  5
6E
330
2
100
AcDbSymbolTableRecord
100
AcDbLayerTableRecord
  2
Einsatz
 70
     0
 62
     7
  6
Continuous
370
    -3
390
F
  0
LAYER
  5
6F
330
2
100
AcDbSymbolTableRecord
100
AcDbLayerTableRecord
  2
Layer41
 70
     0
 62
     7
  6
Continuous
370
    -3
390
F
  0
LAYER
  5
70
330
2
100
AcDbSymbolTableRecord
100
AcDbLayerTableRecord
  2
Layer42
 70
     0
 62
     7
  6
Continuous
370
    -3
390
F
  0
LAYER
  5
71
330
2
100
AcDbSymbolTableRecord
100
AcDbLayerTableRecord
  2
Layer43
 70
     0
 62
     7
  6
Continuous
370
    -3
390
F
  0
LAYER
  5
72
330
2
100
AcDbSymbolTableRecord
100
AcDbLayerTableRecord
  2
Layer44
 70
     0
 62
     7
  6
Continuous
370
    -3
390
F
  0
LAYER
  5
73
330
2
100
AcDbSymbolTableRecord
100
AcDbLayerTableRecord
  2
Layer45
 70
     0
 62
     7
  6
Continuous
370
    -3
390
F
  0
LAYER
  5
74
330
2
100
AcDbSymbolTableRecord
100
AcDbLayerTableRecord
  2
Layer46
 70
     0
 62
     7
  6
Continuous
370
    -3
390
F
  0
LAYER
  5
75
330
2
100
AcDbSymbolTableRecord
100
AcDbLayerTableRecord
  2
Layer47
 70
     0
 62
     7
  6
Continuous
370
    -3
390
F
  0
LAYER
  5
76
330
2
100
AcDbSymbolTableRecord
100
AcDbLayerTableRecord
  2
Layer48
 70
     0
 62
     7
  6
Continuous
370
    -3
390
F
  0
LAYER
  5
77
330
2
100
AcDbSymbolTableRecord
100
AcDbLayerTableRecord
  2
Layer49
 70
     0
 62
     7
  6
Continuous
370
    -3
390
F
  0
LAYER
  5
78
330
2
100
AcDbSymbolTableRecord
100
AcDbLayerTableRecord
  2
Text
 70
     0
 62
     7
  6
Continuous
370
    -3
390
F
  0
LAYER
  5
79
330
2
100
AcDbSymbolTableRecord
100
AcDbLayerTableRecord
  2
Layer51
 70
     0
 62
     7
  6
Continuous
370
    -3
390
F
  0
LAYER
  5
7A
330
2
100
AcDbSymbolTableRecord
100
AcDbLayerTableRecord
  2
Layer52
 70
     0
 62
     7
  6
Continuous
370
    -3
390
F
  0
LAYER
  5
7B
330
2
100
AcDbSymbolTableRecord
100
AcDbLayerTableRecord
  2
Layer53
 70
     0
 62
     7
  6
Continuous
370
    -3
390
F
  0
LAYER
  5
7C
330
2
100
AcDbSymbolTableRecord
100
AcDbLayerTableRecord
  2
Layer54
 70
     0
 62
     7
  6
Continuous
370
    -3
390
F
  0
LAYER
  5
7D
330
2
100
AcDbSymbolTableRecord
100
AcDbLayerTableRecord
  2
Layer55
 70
     0
 62
     7
  6
Continuous
370
    -3
390
F
  0
LAYER
  5
7E
330
2
100
AcDbSymbolTableRecord
100
AcDbLayerTableRecord
  2
Layer56
 70
     0
 62
     7
  6
Continuous
370
    -3
390
F
  0
LAYER
  5
7F
330
2
100
AcDbSymbolTableRecord
100
AcDbLayerTableRecord
  2
Layer57
 70
     0
 62
     7
  6
Continuous
370
    -3
390
F
  0
LAYER
  5
80
330
2
100
AcDbSymbolTableRecord
100
AcDbLayerTableRecord
  2
Layer58
 70
     0
 62
     7
  6
Continuous
370
    -3
390
F
  0
LAYER
  5
81
330
2
100
AcDbSymbolTableRecord
100
AcDbLayerTableRecord
  2
Layer59
 70
     0
 62
     7
  6
Continuous
370
    -3
390
F
  0
LAYER
  5
82
330
2
100
AcDbSymbolTableRecord
100
AcDbLayerTableRecord
  2
Schraffur
 70
     0
 62
     7
  6
Continuous
370
    -3
390
F
  0
LAYER
  5
83
330
2
100
AcDbSymbolTableRecord
100
AcDbLayerTableRecord
  2
Layer61
 70
     0
 62
     7
  6
Continuous
370
    -3
390
F
  0
LAYER
  5
84
330
2
100
AcDbSymbolTableRecord
100
AcDbLayerTableRecord
  2
Layer62
 70
     0
 62
     7
  6
Continuous
370
    -3
390
F
  0
LAYER
  5
85
330
2
100
AcDbSymbolTableRecord
100
AcDbLayerTableRecord
  2
Layer63
 70
     0
 62
     7
  6
Continuous
370
    -3
390
F
  0
LAYER
  5
86
330
2
100
AcDbSymbolTableRecord
100
AcDbLayerTableRecord
  2
Layer64
 70
     0
 62
     7
  6
Continuous
370
    -3
390
F
  0
LAYER
  5
87
330
2
100
AcDbSymbolTableRecord
100
AcDbLayerTableRecord
  2
Layer65
 70
     0
 62
     7
  6
Continuous
370
    -3
390
F
  0
LAYER
  5
88
330
2
100
AcDbSymbolTableRecord
100
AcDbLayerTableRecord
  2
Layer66
 70
     0
 62
     7
  6
Continuous
370
    -3
390
F
  0
LAYER
  5
89
330
2
100
AcDbSymbolTableRecord
100
AcDbLayerTableRecord
  2
Layer67
 70
     0
 62
     7
  6
Continuous
370
    -3
390
F
  0
LAYER
  5
8A
330
2
100
AcDbSymbolTableRecord
100
AcDbLayerTableRecord
  2
Layer68
 70
     0
 62
     7
  6
Continuous
370
    -3
390
F
  0
LAYER
  5
8B
330
2
100
AcDbSymbolTableRecord
100
AcDbLayerTableRecord
  2
Layer69
 70
     0
 62
     7
  6
Continuous
370
    -3
390
F
  0
LAYER
  5
8C
330
2
100
AcDbSymbolTableRecord
100
AcDbLayerTableRecord
  2
Bemassung
 70
     0
 62
     7
  6
Continuous
370
    -3
390
F
  0
LAYER
  5
8D
330
2
100
AcDbSymbolTableRecord
100
AcDbLayerTableRecord
  2
Layer71
 70
     0
 62
     7
  6
Continuous
370
    -3
390
F
  0
LAYER
  5
8E
330
2
100
AcDbSymbolTableRecord
100
AcDbLayerTableRecord
  2
Layer72
 70
     0
 62
     7
  6
Continuous
370
    -3
390
F
  0
LAYER
  5
8F
330
2
100
AcDbSymbolTableRecord
100
AcDbLayerTableRecord
  2
Layer73
 70
     0
 62
     7
  6
Continuous
370
    -3
390
F
  0
LAYER
  5
90
330
2
100
AcDbSymbolTableRecord
100
AcDbLayerTableRecord
  2
Layer74
 70
     0
 62
     7
  6
Continuous
370
    -3
390
F
  0
LAYER
  5
91
330
2
100
AcDbSymbolTableRecord
100
AcDbLayerTableRecord
  2
Layer75
 70
     0
 62
     7
  6
Continuous
370
    -3
390
F
  0
LAYER
  5
92
330
2
100
AcDbSymbolTableRecord
100
AcDbLayerTableRecord
  2
Layer76
 70
     0
 62
     7
  6
Continuous
370
    -3
390
F
  0
LAYER
  5
93
330
2
100
AcDbSymbolTableRecord
100
AcDbLayerTableRecord
  2
Layer77
 70
     0
 62
     7
  6
Continuous
370
    -3
390
F
  0
LAYER
  5
94
330
2
100
AcDbSymbolTableRecord
100
AcDbLayerTableRecord
  2
Layer78
 70
     0
 62
     7
  6
Continuous
370
    -3
390
F
  0
LAYER
  5
95
330
2
100
AcDbSymbolTableRecord
100
AcDbLayerTableRecord
  2
Layer79
 70
     0
 62
     7
  6
Continuous
370
    -3
390
F
  0
LAYER
  5
96
330
2
100
AcDbSymbolTableRecord
100
AcDbLayerTableRecord
  2
Heisskanal
 70
     0
 62
     7
  6
Continuous
370
    -3
390
F
  0
LAYER
  5
97
330
2
100
AcDbSymbolTableRecord
100
AcDbLayerTableRecord
  2
Layer81
 70
     0
 62
     7
  6
Continuous
370
    -3
390
F
  0
LAYER
  5
98
330
2
100
AcDbSymbolTableRecord
100
AcDbLayerTableRecord
  2
Layer82
 70
     0
 62
     7
  6
Continuous
370
    -3
390
F
  0
LAYER
  5
99
330
2
100
AcDbSymbolTableRecord
100
AcDbLayerTableRecord
  2
Layer83
 70
     0
 62
     7
  6
Continuous
370
    -3
390
F
  0
LAYER
  5
9A
330
2
100
AcDbSymbolTableRecord
100
AcDbLayerTableRecord
  2
Layer84
 70
     0
 62
     7
  6
Continuous
370
    -3
390
F
  0
LAYER
  5
9B
330
2
100
AcDbSymbolTableRecord
100
AcDbLayerTableRecord
  2
Layer85
 70
     0
 62
     7
  6
Continuous
370
    -3
390
F
  0
LAYER
  5
9C
330
2
100
AcDbSymbolTableRecord
100
AcDbLayerTableRecord
  2
Layer86
 70
     0
 62
     7
  6
Continuous
370
    -3
390
F
  0
LAYER
  5
9D
330
2
100
AcDbSymbolTableRecord
100
AcDbLayerTableRecord
  2
Layer87
 70
     0
 62
     7
  6
Continuous
370
    -3
390
F
  0
LAYER
  5
9E
330
2
100
AcDbSymbolTableRecord
100
AcDbLayerTableRecord
  2
Layer88
 70
     0
 62
     7
  6
Continuous
370
    -3
390
F
  0
LAYER
  5
9F
330
2
100
AcDbSymbolTableRecord
100
AcDbLayerTableRecord
  2
Layer89
 70
     0
 62
     7
  6
Continuous
370
    -3
390
F
  0
LAYER
  5
A0
330
2
100
AcDbSymbolTableRecord
100
AcDbLayerTableRecord
  2
Layer90
 70
     0
 62
     7
  6
Continuous
370
    -3
390
F
  0
LAYER
  5
A1
330
2
100
AcDbSymbolTableRecord
100
AcDbLayerTableRecord
  2
Layer91
 70
     0
 62
     7
  6
Continuous
370
    -3
390
F
  0
LAYER
  5
A2
330
2
100
AcDbSymbolTableRecord
100
AcDbLayerTableRecord
  2
Layer92
 70
     0
 62
     7
  6
Continuous
370
    -3
390
F
  0
LAYER
  5
A3
330
2
100
AcDbSymbolTableRecord
100
AcDbLayerTableRecord
  2
Layer93
 70
     0
 62
     7
  6
Continuous
370
    -3
390
F
  0
LAYER
  5
A4
330
2
100
AcDbSymbolTableRecord
100
AcDbLayerTableRecord
  2
Layer94
 70
     0
 62
     7
  6
Continuous
370
    -3
390
F
  0
LAYER
  5
A5
330
2
100
AcDbSymbolTableRecord
100
AcDbLayerTableRecord
  2
Layer95
 70
     0
 62
     7
  6
Continuous
370
    -3
390
F
  0
LAYER
  5
A6
330
2
100
AcDbSymbolTableRecord
100
AcDbLayerTableRecord
  2
Layer96
 70
     0
 62
     7
  6
Continuous
370
    -3
390
F
  0
LAYER
  5
A7
330
2
100
AcDbSymbolTableRecord
100
AcDbLayerTableRecord
  2
Layer97
 70
     0
 62
     7
  6
Continuous
370
    -3
390
F
  0
LAYER
  5
A8
330
2
100
AcDbSymbolTableRecord
100
AcDbLayerTableRecord
  2
Layer98
 70
     0
 62
     7
  6
Continuous
370
    -3
390
F
  0
LAYER
  5
A9
330
2
100
AcDbSymbolTableRecord
100
AcDbLayerTableRecord
  2
Layer99
 70
     0
 62
     7
  6
Continuous
370
    -3
390
F
  0
LAYER
  5
AA
330
2
100
AcDbSymbolTableRecord
100
AcDbLayerTableRecord
  2
Layer100
 70
     0
 62
     7
  6
Continuous
370
    -3
390
F
  0
LAYER
  5
AB
330
2
100
AcDbSymbolTableRecord
100
AcDbLayerTableRecord
  2
Layer101
 70
     0
 62
     7
  6
Continuous
370
    -3
390
F
  0
LAYER
  5
AC
330
2
100
AcDbSymbolTableRecord
100
AcDbLayerTableRecord
  2
Layer102
 70
     0
 62
     7
  6
Continuous
370
    -3
390
F
  0
LAYER
  5
AD
330
2
100
AcDbSymbolTableRecord
100
AcDbLayerTableRecord
  2
Layer103
 70
     0
 62
     7
  6
Continuous
370
    -3
390
F
  0
LAYER
  5
AE
330
2
100
AcDbSymbolTableRecord
100
AcDbLayerTableRecord
  2
Layer104
 70
     0
 62
     7
  6
Continuous
370
    -3
390
F
  0
LAYER
  5
AF
330
2
100
AcDbSymbolTableRecord
100
AcDbLayerTableRecord
  2
Layer105
 70
     0
 62
     7
  6
Continuous
370
    -3
390
F
  0
LAYER
  5
B0
330
2
100
AcDbSymbolTableRecord
100
AcDbLayerTableRecord
  2
Layer106
 70
     0
 62
     7
  6
Continuous
370
    -3
390
F
  0
LAYER
  5
B1
330
2
100
AcDbSymbolTableRecord
100
AcDbLayerTableRecord
  2
Layer107
 70
     0
 62
     7
  6
Continuous
370
    -3
390
F
  0
LAYER
  5
B2
330
2
100
AcDbSymbolTableRecord
100
AcDbLayerTableRecord
  2
Layer108
 70
     0
 62
     7
  6
Continuous
370
    -3
390
F
  0
LAYER
  5
B3
330
2
100
AcDbSymbolTableRecord
100
AcDbLayerTableRecord
  2
Layer109
 70
     0
 62
     7
  6
Continuous
370
    -3
390
F
  0
LAYER
  5
B4
330
2
100
AcDbSymbolTableRecord
100
AcDbLayerTableRecord
  2
Layer110
 70
     0
 62
     7
  6
Continuous
370
    -3
390
F
  0
LAYER
  5
B5
330
2
100
AcDbSymbolTableRecord
100
AcDbLayerTableRecord
  2
Layer111
 70
     0
 62
     7
  6
Continuous
370
    -3
390
F
  0
LAYER
  5
B6
330
2
100
AcDbSymbolTableRecord
100
AcDbLayerTableRecord
  2
Layer112
 70
     0
 62
     7
  6
Continuous
370
    -3
390
F
  0
LAYER
  5
B7
330
2
100
AcDbSymbolTableRecord
100
AcDbLayerTableRecord
  2
Layer113
 70
     0
 62
     7
  6
Continuous
370
    -3
390
F
  0
LAYER
  5
B8
330
2
100
AcDbSymbolTableRecord
100
AcDbLayerTableRecord
  2
Layer114
 70
     0
 62
     7
  6
Continuous
370
    -3
390
F
  0
LAYER
  5
B9
330
2
100
AcDbSymbolTableRecord
100
AcDbLayerTableRecord
  2
Layer115
 70
     0
 62
     7
  6
Continuous
370
    -3
390
F
  0
LAYER
  5
BA
330
2
100
AcDbSymbolTableRecord
100
AcDbLayerTableRecord
  2
Layer116
 70
     0
 62
     7
  6
Continuous
370
    -3
390
F
  0
LAYER
  5
BB
330
2
100
AcDbSymbolTableRecord
100
AcDbLayerTableRecord
  2
Layer117
 70
     0
 62
     7
  6
Continuous
370
    -3
390
F
  0
LAYER
  5
BC
330
2
100
AcDbSymbolTableRecord
100
AcDbLayerTableRecord
  2
Layer118
 70
     0
 62
     7
  6
Continuous
370
    -3
390
F
  0
LAYER
  5
BD
330
2
100
AcDbSymbolTableRecord
100
AcDbLayerTableRecord
  2
Layer119
 70
     0
 62
     7
  6
Continuous
370
    -3
390
F
  0
LAYER
  5
BE
330
2
100
AcDbSymbolTableRecord
100
AcDbLayerTableRecord
  2
Layer120
 70
     0
 62
     7
  6
Continuous
370
    -3
390
F
  0
LAYER
  5
BF
330
2
100
AcDbSymbolTableRecord
100
AcDbLayerTableRecord
  2
Layer121
 70
     0
 62
     7
  6
Continuous
370
    -3
390
F
  0
LAYER
  5
C0
330
2
100
AcDbSymbolTableRecord
100
AcDbLayerTableRecord
  2
Layer122
 70
     0
 62
     7
  6
Continuous
370
    -3
390
F
  0
LAYER
  5
C1
330
2
100
AcDbSymbolTableRecord
100
AcDbLayerTableRecord
  2
Layer123
 70
     0
 62
     7
  6
Continuous
370
    -3
390
F
  0
LAYER
  5
C2
330
2
100
AcDbSymbolTableRecord
100
AcDbLayerTableRecord
  2
Layer124
 70
     0
 62
     7
  6
Continuous
370
    -3
390
F
  0
LAYER
  5
C3
330
2
100
AcDbSymbolTableRecord
100
AcDbLayerTableRecord
  2
Layer125
 70
     0
 62
     7
  6
Continuous
370
    -3
390
F
  0
LAYER
  5
C4
330
2
100
AcDbSymbolTableRecord
100
AcDbLayerTableRecord
  2
Layer126
 70
     0
 62
     7
  6
Continuous
370
    -3
390
F
  0
LAYER
  5
C5
330
2
100
AcDbSymbolTableRecord
100
AcDbLayerTableRecord
  2
Layer127
 70
     0
 62
     7
  6
Continuous
370
    -3
390
F
  0
LAYER
  5
C6
330
2
100
AcDbSymbolTableRecord
100
AcDbLayerTableRecord
  2
Layer128
 70
     0
 62
     7
  6
Continuous
370
    -3
390
F
  0
LAYER
  5
C7
330
2
100
AcDbSymbolTableRecord
100
AcDbLayerTableRecord
  2
Layer129
 70
     0
 62
     7
  6
Continuous
370
    -3
390
F
  0
LAYER
  5
C8
330
2
100
AcDbSymbolTableRecord
100
AcDbLayerTableRecord
  2
Layer130
 70
     0
 62
     7
  6
Continuous
370
    -3
390
F
  0
LAYER
  5
C9
330
2
100
AcDbSymbolTableRecord
100
AcDbLayerTableRecord
  2
Layer131
 70
     0
 62
     7
  6
Continuous
370
    -3
390
F
  0
LAYER
  5
CA
330
2
100
AcDbSymbolTableRecord
100
AcDbLayerTableRecord
  2
Layer132
 70
     0
 62
     7
  6
Continuous
370
    -3
390
F
  0
LAYER
  5
CB
330
2
100
AcDbSymbolTableRecord
100
AcDbLayerTableRecord
  2
Layer133
 70
     0
 62
     7
  6
Continuous
370
    -3
390
F
  0
LAYER
  5
CC
330
2
100
AcDbSymbolTableRecord
100
AcDbLayerTableRecord
  2
Layer134
 70
     0
 62
     7
  6
Continuous
370
    -3
390
F
  0
LAYER
  5
CD
330
2
100
AcDbSymbolTableRecord
100
AcDbLayerTableRecord
  2
Layer135
 70
     0
 62
     7
  6
Continuous
370
    -3
390
F
  0
LAYER
  5
CE
330
2
100
AcDbSymbolTableRecord
100
AcDbLayerTableRecord
  2
Layer136
 70
     0
 62
     7
  6
Continuous
370
    -3
390
F
  0
LAYER
  5
CF
330
2
100
AcDbSymbolTableRecord
100
AcDbLayerTableRecord
  2
Layer137
 70
     0
 62
     7
  6
Continuous
370
    -3
390
F
  0
LAYER
  5
D0
330
2
100
AcDbSymbolTableRecord
100
AcDbLayerTableRecord
  2
Layer138
 70
     0
 62
     7
  6
Continuous
370
    -3
390
F
  0
LAYER
  5
D1
330
2
100
AcDbSymbolTableRecord
100
AcDbLayerTableRecord
  2
Layer139
 70
     0
 62
     7
  6
Continuous
370
    -3
390
F
  0
LAYER
  5
D2
330
2
100
AcDbSymbolTableRecord
100
AcDbLayerTableRecord
  2
Layer140
 70
     0
 62
     7
  6
Continuous
370
    -3
390
F
  0
LAYER
  5
D3
330
2
100
AcDbSymbolTableRecord
100
AcDbLayerTableRecord
  2
Layer141
 70
     0
 62
     7
  6
Continuous
370
    -3
390
F
  0
LAYER
  5
D4
330
2
100
AcDbSymbolTableRecord
100
AcDbLayerTableRecord
  2
Layer142
 70
     0
 62
     7
  6
Continuous
370
    -3
390
F
  0
LAYER
  5
D5
330
2
100
AcDbSymbolTableRecord
100
AcDbLayerTableRecord
  2
Layer143
 70
     0
 62
     7
  6
Continuous
370
    -3
390
F
  0
LAYER
  5
D6
330
2
100
AcDbSymbolTableRecord
100
AcDbLayerTableRecord
  2
Layer144
 70
     0
 62
     7
  6
Continuous
370
    -3
390
F
  0
LAYER
  5
D7
330
2
100
AcDbSymbolTableRecord
100
AcDbLayerTableRecord
  2
Layer145
 70
     0
 62
     7
  6
Continuous
370
    -3
390
F
  0
LAYER
  5
D8
330
2
100
AcDbSymbolTableRecord
100
AcDbLayerTableRecord
  2
Layer146
 70
     0
 62
     7
  6
Continuous
370
    -3
390
F
  0
LAYER
  5
D9
330
2
100
AcDbSymbolTableRecord
100
AcDbLayerTableRecord
  2
Layer147
 70
     0
 62
     7
  6
Continuous
370
    -3
390
F
  0
LAYER
  5
DA
330
2
100
AcDbSymbolTableRecord
100
AcDbLayerTableRecord
  2
Layer148
 70
     0
 62
     7
  6
Continuous
370
    -3
390
F
  0
LAYER
  5
DB
330
2
100
AcDbSymbolTableRecord
100
AcDbLayerTableRecord
  2
Layer149
 70
     0
 62
     7
  6
Continuous
370
    -3
390
F
  0
LAYER
  5
DC
330
2
100
AcDbSymbolTableRecord
100
AcDbLayerTableRecord
  2
Layer150
 70
     0
 62
     7
  6
Continuous
370
    -3
390
F
  0
LAYER
  5
DD
330
2
100
AcDbSymbolTableRecord
100
AcDbLayerTableRecord
  2
Layer151
 70
     0
 62
     7
  6
Continuous
370
    -3
390
F
  0
LAYER
  5
DE
330
2
100
AcDbSymbolTableRecord
100
AcDbLayerTableRecord
  2
Layer152
 70
     0
 62
     7
  6
Continuous
370
    -3
390
F
  0
LAYER
  5
DF
330
2
100
AcDbSymbolTableRecord
100
AcDbLayerTableRecord
  2
Layer153
 70
     0
 62
     7
  6
Continuous
370
    -3
390
F
  0
LAYER
  5
E0
330
2
100
AcDbSymbolTableRecord
100
AcDbLayerTableRecord
  2
Layer154
 70
     0
 62
     7
  6
Continuous
370
    -3
390
F
  0
LAYER
  5
E1
330
2
100
AcDbSymbolTableRecord
100
AcDbLayerTableRecord
  2
Layer155
 70
     0
 62
     7
  6
Continuous
370
    -3
390
F
  0
LAYER
  5
E2
330
2
100
AcDbSymbolTableRecord
100
AcDbLayerTableRecord
  2
Layer156
 70
     0
 62
     7
  6
Continuous
370
    -3
390
F
  0
LAYER
  5
E3
330
2
100
AcDbSymbolTableRecord
100
AcDbLayerTableRecord
  2
Layer157
 70
     0
 62
     7
  6
Continuous
370
    -3
390
F
  0
LAYER
  5
E4
330
2
100
AcDbSymbolTableRecord
100
AcDbLayerTableRecord
  2
Layer158
 70
     0
 62
     7
  6
Continuous
370
    -3
390
F
  0
LAYER
  5
E5
330
2
100
AcDbSymbolTableRecord
100
AcDbLayerTableRecord
  2
Layer159
 70
     0
 62
     7
  6
Continuous
370
    -3
390
F
  0
LAYER
  5
E6
330
2
100
AcDbSymbolTableRecord
100
AcDbLayerTableRecord
  2
Layer160
 70
     0
 62
     7
  6
Continuous
370
    -3
390
F
  0
LAYER
  5
E7
330
2
100
AcDbSymbolTableRecord
100
AcDbLayerTableRecord
  2
Layer161
 70
     0
 62
     7
  6
Continuous
370
    -3
390
F
  0
LAYER
  5
E8
330
2
100
AcDbSymbolTableRecord
100
AcDbLayerTableRecord
  2
Layer162
 70
     0
 62
     7
  6
Continuous
370
    -3
390
F
  0
LAYER
  5
E9
330
2
100
AcDbSymbolTableRecord
100
AcDbLayerTableRecord
  2
Layer163
 70
     0
 62
     7
  6
Continuous
370
    -3
390
F
  0
LAYER
  5
EA
330
2
100
AcDbSymbolTableRecord
100
AcDbLayerTableRecord
  2
Layer164
 70
     0
 62
     7
  6
Continuous
370
    -3
390
F
  0
LAYER
  5
EB
330
2
100
AcDbSymbolTableRecord
100
AcDbLayerTableRecord
  2
Layer165
 70
     0
 62
     7
  6
Continuous
370
    -3
390
F
  0
LAYER
  5
EC
330
2
100
AcDbSymbolTableRecord
100
AcDbLayerTableRecord
  2
Layer166
 70
     0
 62
     7
  6
Continuous
370
    -3
390
F
  0
LAYER
  5
ED
330
2
100
AcDbSymbolTableRecord
100
AcDbLayerTableRecord
  2
Layer167
 70
     0
 62
     7
  6
Continuous
370
    -3
390
F
  0
LAYER
  5
EE
330
2
100
AcDbSymbolTableRecord
100
AcDbLayerTableRecord
  2
Layer168
 70
     0
 62
     7
  6
Continuous
370
    -3
390
F
  0
LAYER
  5
EF
330
2
100
AcDbSymbolTableRecord
100
AcDbLayerTableRecord
  2
Layer169
 70
     0
 62
     7
  6
Continuous
370
    -3
390
F
  0
LAYER
  5
F0
330
2
100
AcDbSymbolTableRecord
100
AcDbLayerTableRecord
  2
Layer170
 70
     0
 62
     7
  6
Continuous
370
    -3
390
F
  0
LAYER
  5
F1
330
2
100
AcDbSymbolTableRecord
100
AcDbLayerTableRecord
  2
Layer171
 70
     0
 62
     7
  6
Continuous
370
    -3
390
F
  0
LAYER
  5
F2
330
2
100
AcDbSymbolTableRecord
100
AcDbLayerTableRecord
  2
Layer172
 70
     0
 62
     7
  6
Continuous
370
    -3
390
F
  0
LAYER
  5
F3
330
2
100
AcDbSymbolTableRecord
100
AcDbLayerTableRecord
  2
Layer173
 70
     0
 62
     7
  6
Continuous
370
    -3
390
F
  0
LAYER
  5
F4
330
2
100
AcDbSymbolTableRecord
100
AcDbLayerTableRecord
  2
Layer174
 70
     0
 62
     7
  6
Continuous
370
    -3
390
F
  0
LAYER
  5
F5
330
2
100
AcDbSymbolTableRecord
100
AcDbLayerTableRecord
  2
Layer175
 70
     0
 62
     7
  6
Continuous
370
    -3
390
F
  0
LAYER
  5
F6
330
2
100
AcDbSymbolTableRecord
100
AcDbLayerTableRecord
  2
Layer176
 70
     0
 62
     7
  6
Continuous
370
    -3
390
F
  0
LAYER
  5
F7
330
2
100
AcDbSymbolTableRecord
100
AcDbLayerTableRecord
  2
Layer177
 70
     0
 62
     7
  6
Continuous
370
    -3
390
F
  0
LAYER
  5
F8
330
2
100
AcDbSymbolTableRecord
100
AcDbLayerTableRecord
  2
Layer178
 70
     0
 62
     7
  6
Continuous
370
    -3
390
F
  0
LAYER
  5
F9
330
2
100
AcDbSymbolTableRecord
100
AcDbLayerTableRecord
  2
Layer179
 70
     0
 62
     7
  6
Continuous
370
    -3
390
F
  0
LAYER
  5
FA
330
2
100
AcDbSymbolTableRecord
100
AcDbLayerTableRecord
  2
Layer180
 70
     0
 62
     7
  6
Continuous
370
    -3
390
F
  0
LAYER
  5
FB
330
2
100
AcDbSymbolTableRecord
100
AcDbLayerTableRecord
  2
Layer181
 70
     0
 62
     7
  6
Continuous
370
    -3
390
F
  0
LAYER
  5
FC
330
2
100
AcDbSymbolTableRecord
100
AcDbLayerTableRecord
  2
Layer182
 70
     0
 62
     7
  6
Continuous
370
    -3
390
F
  0
LAYER
  5
FD
330
2
100
AcDbSymbolTableRecord
100
AcDbLayerTableRecord
  2
Layer183
 70
     0
 62
     7
  6
Continuous
370
    -3
390
F
  0
LAYER
  5
FE
330
2
100
AcDbSymbolTableRecord
100
AcDbLayerTableRecord
  2
Layer184
 70
     0
 62
     7
  6
Continuous
370
    -3
390
F
  0
LAYER
  5
FF
330
2
100
AcDbSymbolTableRecord
100
AcDbLayerTableRecord
  2
Layer185
 70
     0
 62
     7
  6
Continuous
370
    -3
390
F
  0
LAYER
  5
100
330
2
100
AcDbSymbolTableRecord
100
AcDbLayerTableRecord
  2
Layer186
 70
     0
 62
     7
  6
Continuous
370
    -3
390
F
  0
LAYER
  5
101
330
2
100
AcDbSymbolTableRecord
100
AcDbLayerTableRecord
  2
Layer187
 70
     0
 62
     7
  6
Continuous
370
    -3
390
F
  0
LAYER
  5
102
330
2
100
AcDbSymbolTableRecord
100
AcDbLayerTableRecord
  2
Layer188
 70
     0
 62
     7
  6
Continuous
370
    -3
390
F
  0
LAYER
  5
103
330
2
100
AcDbSymbolTableRecord
100
AcDbLayerTableRecord
  2
Layer189
 70
     0
 62
     7
  6
Continuous
370
    -3
390
F
  0
LAYER
  5
104
330
2
100
AcDbSymbolTableRecord
100
AcDbLayerTableRecord
  2
Layer190
 70
     0
 62
     7
  6
Continuous
370
    -3
390
F
  0
LAYER
  5
105
330
2
100
AcDbSymbolTableRecord
100
AcDbLayerTableRecord
  2
Layer191
 70
     0
 62
     7
  6
Continuous
370
    -3
390
F
  0
LAYER
  5
106
330
2
100
AcDbSymbolTableRecord
100
AcDbLayerTableRecord
  2
Layer192
 70
     0
 62
     7
  6
Continuous
370
    -3
390
F
  0
LAYER
  5
107
330
2
100
AcDbSymbolTableRecord
100
AcDbLayerTableRecord
  2
Layer193
 70
     0
 62
     7
  6
Continuous
370
    -3
390
F
  0
LAYER
  5
108
330
2
100
AcDbSymbolTableRecord
100
AcDbLayerTableRecord
  2
Layer194
 70
     0
 62
     7
  6
Continuous
370
    -3
390
F
  0
LAYER
  5
109
330
2
100
AcDbSymbolTableRecord
100
AcDbLayerTableRecord
  2
Layer195
 70
     0
 62
     7
  6
Continuous
370
    -3
390
F
  0
LAYER
  5
10A
330
2
100
AcDbSymbolTableRecord
100
AcDbLayerTableRecord
  2
Layer196
 70
     0
 62
     7
  6
Continuous
370
    -3
390
F
  0
LAYER
  5
10B
330
2
100
AcDbSymbolTableRecord
100
AcDbLayerTableRecord
  2
Layer197
 70
     0
 62
     7
  6
Continuous
370
    -3
390
F
  0
LAYER
  5
10C
330
2
100
AcDbSymbolTableRecord
100
AcDbLayerTableRecord
  2
Layer198
 70
     0
 62
     7
  6
Continuous
370
    -3
390
F
  0
LAYER
  5
10D
330
2
100
AcDbSymbolTableRecord
100
AcDbLayerTableRecord
  2
Layer199
 70
     0
 62
     7
  6
Continuous
370
    -3
390
F
  0
LAYER
  5
10E
330
2
100
AcDbSymbolTableRecord
100
AcDbLayerTableRecord
  2
Layer200
 70
     0
 62
    -7
  6
Continuous
370
    -3
390
F
  0
LAYER
  5
10F
330
2
100
AcDbSymbolTableRecord
100
AcDbLayerTableRecord
  2
Layer201
 70
     0
 62
     7
  6
Continuous
370
    -3
390
F
  0
LAYER
  5
110
330
2
100
AcDbSymbolTableRecord
100
AcDbLayerTableRecord
  2
Layer202
 70
     0
 62
     7
  6
Continuous
370
    -3
390
F
  0
LAYER
  5
111
330
2
100
AcDbSymbolTableRecord
100
AcDbLayerTableRecord
  2
Layer203
 70
     0
 62
     7
  6
Continuous
370
    -3
390
F
  0
LAYER
  5
112
330
2
100
AcDbSymbolTableRecord
100
AcDbLayerTableRecord
  2
Layer204
 70
     0
 62
     7
  6
Continuous
370
    -3
390
F
  0
LAYER
  5
113
330
2
100
AcDbSymbolTableRecord
100
AcDbLayerTableRecord
  2
Layer205
 70
     0
 62
     7
  6
Continuous
370
    -3
390
F
  0
LAYER
  5
114
330
2
100
AcDbSymbolTableRecord
100
AcDbLayerTableRecord
  2
Layer206
 70
     0
 62
     7
  6
Continuous
370
    -3
390
F
  0
LAYER
  5
115
330
2
100
AcDbSymbolTableRecord
100
AcDbLayerTableRecord
  2
Layer207
 70
     0
 62
     7
  6
Continuous
370
    -3
390
F
  0
LAYER
  5
116
330
2
100
AcDbSymbolTableRecord
100
AcDbLayerTableRecord
  2
Layer208
 70
     0
 62
     7
  6
Continuous
370
    -3
390
F
  0
LAYER
  5
117
330
2
100
AcDbSymbolTableRecord
100
AcDbLayerTableRecord
  2
Layer209
 70
     0
 62
     7
  6
Continuous
370
    -3
390
F
  0
LAYER
  5
118
330
2
100
AcDbSymbolTableRecord
100
AcDbLayerTableRecord
  2
Layer210
 70
     0
 62
     7
  6
Continuous
370
    -3
390
F
  0
LAYER
  5
119
330
2
100
AcDbSymbolTableRecord
100
AcDbLayerTableRecord
  2
Layer211
 70
     0
 62
     7
  6
Continuous
370
    -3
390
F
  0
LAYER
  5
11A
330
2
100
AcDbSymbolTableRecord
100
AcDbLayerTableRecord
  2
Layer212
 70
     0
 62
     7
  6
Continuous
370
    -3
390
F
  0
LAYER
  5
11B
330
2
100
AcDbSymbolTableRecord
100
AcDbLayerTableRecord
  2
Layer213
 70
     0
 62
     7
  6
Continuous
370
    -3
390
F
  0
LAYER
  5
11C
330
2
100
AcDbSymbolTableRecord
100
AcDbLayerTableRecord
  2
Layer214
 70
     0
 62
     7
  6
Continuous
370
    -3
390
F
  0
LAYER
  5
11D
330
2
100
AcDbSymbolTableRecord
100
AcDbLayerTableRecord
  2
Layer215
 70
     0
 62
     7
  6
Continuous
370
    -3
390
F
  0
LAYER
  5
11E
330
2
100
AcDbSymbolTableRecord
100
AcDbLayerTableRecord
  2
Layer216
 70
     0
 62
     7
  6
Continuous
370
    -3
390
F
  0
LAYER
  5
11F
330
2
100
AcDbSymbolTableRecord
100
AcDbLayerTableRecord
  2
Layer217
 70
     0
 62
     7
  6
Continuous
370
    -3
390
F
  0
LAYER
  5
120
330
2
100
AcDbSymbolTableRecord
100
AcDbLayerTableRecord
  2
Layer218
 70
     0
 62
     7
  6
Continuous
370
    -3
390
F
  0
LAYER
  5
121
330
2
100
AcDbSymbolTableRecord
100
AcDbLayerTableRecord
  2
Layer219
 70
     0
 62
     7
  6
Continuous
370
    -3
390
F
  0
LAYER
  5
122
330
2
100
AcDbSymbolTableRecord
100
AcDbLayerTableRecord
  2
Layer220
 70
     0
 62
     7
  6
Continuous
370
    -3
390
F
  0
LAYER
  5
123
330
2
100
AcDbSymbolTableRecord
100
AcDbLayerTableRecord
  2
Layer221
 70
     0
 62
     7
  6
Continuous
370
    -3
390
F
  0
LAYER
  5
124
330
2
100
AcDbSymbolTableRecord
100
AcDbLayerTableRecord
  2
Layer222
 70
     0
 62
     7
  6
Continuous
370
    -3
390
F
  0
LAYER
  5
125
330
2
100
AcDbSymbolTableRecord
100
AcDbLayerTableRecord
  2
Layer223
 70
     0
 62
     7
  6
Continuous
370
    -3
390
F
  0
LAYER
  5
126
330
2
100
AcDbSymbolTableRecord
100
AcDbLayerTableRecord
  2
Layer224
 70
     0
 62
     7
  6
Continuous
370
    -3
390
F
  0
LAYER
  5
127
330
2
100
AcDbSymbolTableRecord
100
AcDbLayerTableRecord
  2
Layer225
 70
     0
 62
     7
  6
Continuous
370
    -3
390
F
  0
LAYER
  5
128
330
2
100
AcDbSymbolTableRecord
100
AcDbLayerTableRecord
  2
Layer226
 70
     0
 62
     7
  6
Continuous
370
    -3
390
F
  0
LAYER
  5
129
330
2
100
AcDbSymbolTableRecord
100
AcDbLayerTableRecord
  2
Layer227
 70
     0
 62
     7
  6
Continuous
370
    -3
390
F
  0
LAYER
  5
12A
330
2
100
AcDbSymbolTableRecord
100
AcDbLayerTableRecord
  2
Layer228
 70
     0
 62
     7
  6
Continuous
370
    -3
390
F
  0
LAYER
  5
12B
330
2
100
AcDbSymbolTableRecord
100
AcDbLayerTableRecord
  2
Layer229
 70
     0
 62
     7
  6
Continuous
370
    -3
390
F
  0
LAYER
  5
12C
330
2
100
AcDbSymbolTableRecord
100
AcDbLayerTableRecord
  2
Layer230
 70
     0
 62
     7
  6
Continuous
370
    -3
390
F
  0
LAYER
  5
12D
330
2
100
AcDbSymbolTableRecord
100
AcDbLayerTableRecord
  2
Layer231
 70
     0
 62
     7
  6
Continuous
370
    -3
390
F
  0
LAYER
  5
12E
330
2
100
AcDbSymbolTableRecord
100
AcDbLayerTableRecord
  2
Layer232
 70
     0
 62
     7
  6
Continuous
370
    -3
390
F
  0
LAYER
  5
12F
330
2
100
AcDbSymbolTableRecord
100
AcDbLayerTableRecord
  2
Layer233
 70
     0
 62
     7
  6
Continuous
370
    -3
390
F
  0
LAYER
  5
130
330
2
100
AcDbSymbolTableRecord
100
AcDbLayerTableRecord
  2
Layer234
 70
     0
 62
     7
  6
Continuous
370
    -3
390
F
  0
LAYER
  5
131
330
2
100
AcDbSymbolTableRecord
100
AcDbLayerTableRecord
  2
Layer235
 70
     0
 62
     7
  6
Continuous
370
    -3
390
F
  0
LAYER
  5
132
330
2
100
AcDbSymbolTableRecord
100
AcDbLayerTableRecord
  2
Layer236
 70
     0
 62
     7
  6
Continuous
370
    -3
390
F
  0
LAYER
  5
133
330
2
100
AcDbSymbolTableRecord
100
AcDbLayerTableRecord
  2
Layer237
 70
     0
 62
     7
  6
Continuous
370
    -3
390
F
  0
LAYER
  5
134
330
2
100
AcDbSymbolTableRecord
100
AcDbLayerTableRecord
  2
Layer238
 70
     0
 62
     7
  6
Continuous
370
    -3
390
F
  0
LAYER
  5
135
330
2
100
AcDbSymbolTableRecord
100
AcDbLayerTableRecord
  2
Layer239
 70
     0
 62
     7
  6
Continuous
370
    -3
390
F
  0
LAYER
  5
136
330
2
100
AcDbSymbolTableRecord
100
AcDbLayerTableRecord
  2
Layer240
 70
     0
 62
     7
  6
Continuous
370
    -3
390
F
  0
LAYER
  5
137
330
2
100
AcDbSymbolTableRecord
100
AcDbLayerTableRecord
  2
Layer241
 70
     0
 62
     7
  6
Continuous
370
    -3
390
F
  0
LAYER
  5
138
330
2
100
AcDbSymbolTableRecord
100
AcDbLayerTableRecord
  2
Layer242
 70
     0
 62
     7
  6
Continuous
370
    -3
390
F
  0
LAYER
  5
139
330
2
100
AcDbSymbolTableRecord
100
AcDbLayerTableRecord
  2
Layer243
 70
     0
 62
     7
  6
Continuous
370
    -3
390
F
  0
LAYER
  5
13A
330
2
100
AcDbSymbolTableRecord
100
AcDbLayerTableRecord
  2
Layer244
 70
     0
 62
     7
  6
Continuous
370
    -3
390
F
  0
LAYER
  5
13B
330
2
100
AcDbSymbolTableRecord
100
AcDbLayerTableRecord
  2
Layer245
 70
     0
 62
     7
  6
Continuous
370
    -3
390
F
  0
LAYER
  5
13C
330
2
100
AcDbSymbolTableRecord
100
AcDbLayerTableRecord
  2
Layer246
 70
     0
 62
     7
  6
Continuous
370
    -3
390
F
  0
LAYER
  5
13D
330
2
100
AcDbSymbolTableRecord
100
AcDbLayerTableRecord
  2
Layer247
 70
     0
 62
     7
  6
Continuous
370
    -3
390
F
  0
LAYER
  5
13E
330
2
100
AcDbSymbolTableRecord
100
AcDbLayerTableRecord
  2
Layer248
 70
     0
 62
     7
  6
Continuous
370
    -3
390
F
  0
LAYER
  5
13F
330
2
100
AcDbSymbolTableRecord
100
AcDbLayerTableRecord
  2
Layer249
 70
     0
 62
     7
  6
Continuous
370
    -3
390
F
  0
LAYER
  5
140
330
2
100
AcDbSymbolTableRecord
100
AcDbLayerTableRecord
  2
Layer250
 70
     0
 62
     7
  6
Continuous
370
    -3
390
F
  0
LAYER
  5
141
330
2
100
AcDbSymbolTableRecord
100
AcDbLayerTableRecord
  2
Layer251
 70
     0
 62
     7
  6
Continuous
370
    -3
390
F
  0
LAYER
  5
142
330
2
100
AcDbSymbolTableRecord
100
AcDbLayerTableRecord
  2
Layer252
 70
     0
 62
     7
  6
Continuous
370
    -3
390
F
  0
LAYER
  5
143
330
2
100
AcDbSymbolTableRecord
100
AcDbLayerTableRecord
  2
Layer253
 70
     0
 62
     7
  6
Continuous
370
    -3
390
F
  0
LAYER
  5
144
330
2
100
AcDbSymbolTableRecord
100
AcDbLayerTableRecord
  2
Layer254
 70
     0
 62
     7
  6
Continuous
370
    -3
390
F
  0
LAYER
  5
145
330
2
100
AcDbSymbolTableRecord
100
AcDbLayerTableRecord
  2
Layer255
 70
     0
 62
     7
  6
Continuous
370
    -3
390
F
  0
ENDTAB
  0
TABLE
  2
STYLE
  5
3
330
0
100
AcDbSymbolTable
 70
     4
  0
STYLE
  5
11
330
3
100
AcDbSymbolTableRecord
100
AcDbTextStyleTableRecord
  2
Standard
 70
     0
 40
0.0
 41
1.0
 50
0.0
 71
     0
 42
2.5
  3
txt
  4

  0
STYLE
  5
41
330
3
100
AcDbSymbolTableRecord
100
AcDbTextStyleTableRecord
  2
Arial
 70
     0
 40
0.0
 41
1.0
 50
0.0
 71
     0
 42
0.2
  3
arial.ttf
  4

1001
ACAD
1000
Arial
1071
       34
  0
STYLE
  5
42
330
3
100
AcDbSymbolTableRecord
100
AcDbTextStyleTableRecord
  2
Arial Black
 70
     0
 40
0.0
 41
1.0
 50
0.0
 71
     0
 42
0.2
  3
ariblk.ttf
  4

1001
ACAD
1000
Arial Black
1071
       34
  0
STYLE
  5
45
330
3
100
AcDbSymbolTableRecord
100
AcDbTextStyleTableRecord
  2
Toleranzfont
 70
     0
 40
0.0
 41
1.0
 50
0.0
 71
     0
 42
0.2
  3
IGES1003.SHX
  4

  0
ENDTAB
  0
TABLE
  2
VIEW
  5
6
330
0
100
AcDbSymbolTable
 70
     0
  0
ENDTAB
  0
TABLE
  2
UCS
  5
7
330
0
100
AcDbSymbolTable
 70
     0
  0
ENDTAB
  0
TABLE
  2
APPID
  5
9
330
0
100
AcDbSymbolTable
 70
     1
  0
APPID
  5
12
330
9
100
AcDbSymbolTableRecord
100
AcDbRegAppTableRecord
  2
ACAD
 70
     0
  0
ENDTAB
  0
TABLE
  2
DIMSTYLE
  5
A
330
0
100
AcDbSymbolTable
 70
     1
100
AcDbDimStyleTable
  0
DIMSTYLE
105
27
102
{ACAD_REACTORS
330
502
330
51A
330
531
330
554
330
563
102
}
330
A
100
AcDbSymbolTableRecord
100
AcDbDimStyleTableRecord
  2
ISO-25
 70
     0
 41
2.5
 42
0.625
 43
3.75
 44
1.25
 73
     0
 74
     0
 77
     1
 78
     8
140
2.5
141
2.5
143
0.03937007874
147
0.625
171
     3
172
     1
178
     0
271
     2
272
     2
274
     3
278
    44
283
     0
284
     8
340
11
  0
ENDTAB
  0
TABLE
  2
BLOCK_RECORD
  5
1
330
0
100
AcDbSymbolTable
 70
    14
  0
BLOCK_RECORD
  5
1F
330
1
100
AcDbSymbolTableRecord
100
AcDbBlockTableRecord
  2
*Model_Space
340
22
  0
BLOCK_RECORD
  5
1B
330
1
100
AcDbSymbolTableRecord
100
AcDbBlockTableRecord
  2
*Paper_Space
340
1E
  0
BLOCK_RECORD
  5
23
330
1
100
AcDbSymbolTableRecord
100
AcDbBlockTableRecord
  2
*Paper_Space0
340
26
  0
BLOCK_RECORD
  5
146
330
1
100
AcDbSymbolTableRecord
100
AcDbBlockTableRecord
  2
L1_nNn00
340
0
102
{BLKREFS
331
19F
102
}
  0
BLOCK_RECORD
  5
154
330
1
100
AcDbSymbolTableRecord
100
AcDbBlockTableRecord
  2
Schriftfeld_nNn01
340
0
102
{BLKREFS
331
19B
102
}
  0
BLOCK_RECORD
  5
17C
330
1
100
AcDbSymbolTableRecord
100
AcDbBlockTableRecord
  2
ULTRAREFLEX_nNn02
340
0
102
{BLKREFS
331
194
102
}
  0
BLOCK_RECORD
  5
1A4
330
1
100
AcDbSymbolTableRecord
100
AcDbBlockTableRecord
  2
SECHSK1_nNn03
340
0
102
{BLKREFS
331
4E3
102
}
  0
BLOCK_RECORD
  5
4F5
330
1
100
AcDbSymbolTableRecord
100
AcDbBlockTableRecord
  2
*D5
340
0
  0
BLOCK_RECORD
  5
503
330
1
100
AcDbSymbolTableRecord
100
AcDbBlockTableRecord
  2
_CLOSED
340
0
  0
BLOCK_RECORD
  5
50D
330
1
100
AcDbSymbolTableRecord
100
AcDbBlockTableRecord
  2
*D7
340
0
  0
BLOCK_RECORD
  5
522
330
1
100
AcDbSymbolTableRecord
100
AcDbBlockTableRecord
  2
*D8
340
0
  0
BLOCK_RECORD
  5
532
330
1
100
AcDbSymbolTableRecord
100
AcDbBlockTableRecord
  2
SchrM4_nNn07
340
0
102
{BLKREFS
331
545
102
}
  0
BLOCK_RECORD
  5
547
330
1
100
AcDbSymbolTableRecord
100
AcDbBlockTableRecord
  2
*D10
340
0
  0
BLOCK_RECORD
  5
555
330
1
100
AcDbSymbolTableRecord
100
AcDbBlockTableRecord
  2
*D11
340
0
  0
BLOCK_RECORD
  5
568
330
1
100
AcDbSymbolTableRecord
100
AcDbBlockTableRecord
  2
QS_nNn010
340
0
102
{BLKREFS
331
56E
102
}
  0
BLOCK_RECORD
  5
56F
330
1
100
AcDbSymbolTableRecord
100
AcDbBlockTableRecord
  2
Reflexwerte_nNn011
340
0
102
{BLKREFS
331
573
102
}
  0
ENDTAB
  0
ENDSEC
  0
SECTION
  2
BLOCKS
  0
BLOCK
  5
20
330
1F
100
AcDbEntity
  8
0
100
AcDbBlockBegin
  2
*Model_Space
 70
     0
 10
0.0
 20
0.0
 30
0.0
  3
*Model_Space
  1

  0
ENDBLK
  5
21
330
1F
100
AcDbEntity
  8
0
100
AcDbBlockEnd
  0
BLOCK
  5
1C
330
1B
100
AcDbEntity
 67
     1
  8
0
100
AcDbBlockBegin
  2
*Paper_Space
 70
     0
 10
0.0
 20
0.0
 30
0.0
  3
*Paper_Space
  1

  0
ENDBLK
  5
1D
330
1B
100
AcDbEntity
 67
     1
  8
0
100
AcDbBlockEnd
  0
BLOCK
  5
24
330
23
100
AcDbEntity
  8
0
100
AcDbBlockBegin
  2
*Paper_Space0
 70
     0
 10
0.0
 20
0.0
 30
0.0
  3
*Paper_Space0
  1

  0
ENDBLK
  5
25
330
23
100
AcDbEntity
  8
0
100
AcDbBlockEnd
  0
BLOCK
  5
147
330
146
100
AcDbEntity
  8
0
100
AcDbBlockBegin
  2
L1_nNn00
 70
     0
 10
0.0
 20
0.0
 30
0.0
  3
L1_nNn00
  1

  0
LINE
  5
149
330
146
100
AcDbEntity
  8
Layer0
  6
AUSGEZOGEN
 62
     9
370
    18
100
AcDbLine
 10
-59.105402123116
 20
156.0313234447
 30
0.0
 11
34.894597876884
 21
156.0313234447
 31
0.0
  0
LINE
  5
14A
330
146
100
AcDbEntity
  8
Layer0
  6
AUSGEZOGEN
 62
    56
370
    18
100
AcDbLine
 10
-61.455402123116
 20
158.3813234447
 30
0.0
 11
37.244597876884
 21
158.3813234447
 31
0.0
  0
LINE
  5
14B
330
146
100
AcDbEntity
  8
Layer99
  6
AUSGEZOGEN
 62
     9
370
    18
100
AcDbLine
 10
34.894597876884
 20
21.1413234447
 30
0.0
 11
34.894597876884
 21
156.0313234447
 31
0.0
  0
LINE
  5
14C
330
146
100
AcDbEntity
  8
Layer0
  6
AUSGEZOGEN
 62
    56
370
    18
100
AcDbLine
 10
37.244597876884
 20
18.7913234447
 30
0.0
 11
37.244597876884
 21
158.3813234447
 31
0.0
  0
LINE
  5
14D
330
146
100
AcDbEntity
  8
Layer99
  6
AUSGEZOGEN
 62
     9
370
    18
100
AcDbLine
 10
28.784597876884
 20
29.1313234447
 30
0.0
 11
28.784597876884
 21
23.420824520445
 31
0.0
  0
TEXT
  5
14E
330
146
100
AcDbEntity
  8
Layer99
  6
AUSGEZOGEN
 62
    56
370
    18
100
AcDbText
 10
29.696370337822
 20
27.60411389575
 30
0.0
 40
1.175
  1
Blatt
 41
1.26499927539
  7
Arial
 72
     5
 11
33.847813334815
 21
27.60411389575
 31
0.0
100
AcDbText
  0
LINE
  5
14F
330
146
100
AcDbEntity
  8
Layer99
  6
AUSGEZOGEN
 62
    56
370
    18
100
AcDbLine
 10
34.894597876884
 20
25.418324520445
 30
0.0
 11
28.784597876884
 21
25.418324520445
 31
0.0
  0
TEXT
  5
150
330
146
100
AcDbEntity
  8
Layer99
  6
AUSGEZOGEN
 62
    56
370
    18
100
AcDbText
 10
32.252626441337
 20
23.867846615172
 30
0.0
 40
1.175
  1
Bl.
 41
1.229150265254
  7
Arial
 72
     5
 11
34.605312235303
 21
23.867846615172
 31
0.0
100
AcDbText
  0
LINE
  5
151
330
146
100
AcDbEntity
  8
Layer99
  6
AUSGEZOGEN
 62
     9
370
    18
100
AcDbLine
 10
-52.055402123116
 20
47.1088234447
 30
0.0
 11
-52.055402123116
 21
21.1413234447
 31
0.0
  0
LINE
  5
152
330
146
100
AcDbEntity
  8
Layer99
  6
AUSGEZOGEN
 62
     9
370
    18
100
AcDbLine
 10
-59.105402123116
 20
21.1413234447
 30
0.0
 11
34.894597876884
 21
21.1413234447
 31
0.0
  0
LINE
  5
153
330
146
100
AcDbEntity
  8
Layer0
  6
AUSGEZOGEN
 62
    56
370
    18
100
AcDbLine
 10
-61.455402123116
 20
18.7913234447
 30
0.0
 11
37.244597876884
 21
18.7913234447
 31
0.0
  0
INSERT
  5
19B
330
146
100
AcDbEntity
  8
0
100
AcDbBlockReference
  2
Schriftfeld_nNn01
 10
0.0
 20
0.0
 30
0.0
  0
TEXT
  5
19C
330
146
100
AcDbEntity
  8
Text
  6
AUSGEZOGEN
 62
     9
370
    18
100
AcDbText
 10
3.635117544096
 20
25.061594154692
 30
0.0
 40
2.35
  1
02364500k
 41
1.218898721598
  7
Arial
 72
     5
 11
23.416746786784
 21
25.061594154692
 31
0.0
100
AcDbText
  0
LINE
  5
19D
330
146
100
AcDbEntity
  8
Layer0
  6
AUSGEZOGEN
 62
     9
370
    18
100
AcDbLine
 10
-59.105402123116
 20
21.1413234447
 30
0.0
 11
-59.105402123116
 21
156.0313234447
 31
0.0
  0
LINE
  5
19E
330
146
100
AcDbEntity
  8
Layer0
  6
AUSGEZOGEN
 62
    56
370
    18
100
AcDbLine
 10
-61.455402123116
 20
18.7913234447
 30
0.0
 11
-61.455402123116
 21
158.3813234447
 31
0.0
  0
ENDBLK
  5
148
330
146
100
AcDbEntity
  8
0
100
AcDbBlockEnd
  0
BLOCK
  5
155
330
154
100
AcDbEntity
  8
0
100
AcDbBlockBegin
  2
Schriftfeld_nNn01
 70
     0
 10
0.0
 20
0.0
 30
0.0
  3
Schriftfeld_nNn01
  1

  0
LINE
  5
157
330
154
100
AcDbEntity
  8
Layer99
  6
AUSGEZOGEN
 62
    56
370
    18
100
AcDbLine
 10
-21.505402123116
 20
39.1188234447
 30
0.0
 11
-21.505402123116
 21
31.1288234447
 31
0.0
  0
LINE
  5
158
330
154
100
AcDbEntity
  8
Layer99
  6
AUSGEZOGEN
 62
    56
370
    18
100
AcDbLine
 10
-48.389379173897
 20
39.1188234447
 30
0.0
 11
-48.389379173897
 21
21.1413234447
 31
0.0
  0
LINE
  5
159
330
154
100
AcDbEntity
  8
Layer99
  6
AUSGEZOGEN
 62
    56
370
    18
100
AcDbLine
 10
-26.393413597725
 20
23.1388234447
 30
0.0
 11
-52.055402123116
 21
23.1388234447
 31
0.0
  0
LINE
  5
15A
330
154
100
AcDbEntity
  8
Layer99
  6
AUSGEZOGEN
 62
    56
370
    18
100
AcDbLine
 10
-26.393413597725
 20
25.1363234447
 30
0.0
 11
-52.055402123116
 21
25.1363234447
 31
0.0
  0
LINE
  5
15B
330
154
100
AcDbEntity
  8
Layer99
  6
AUSGEZOGEN
 62
    56
370
    18
100
AcDbLine
 10
-26.393413597725
 20
27.1338234447
 30
0.0
 11
-52.055402123116
 21
27.1338234447
 31
0.0
  0
LINE
  5
15C
330
154
100
AcDbEntity
  8
Layer99
  6
AUSGEZOGEN
 62
    56
370
    18
100
AcDbLine
 10
-26.393413597725
 20
29.1313234447
 30
0.0
 11
-52.055402123116
 21
29.1313234447
 31
0.0
  0
LINE
  5
15D
330
154
100
AcDbEntity
  8
Layer99
  6
AUSGEZOGEN
 62
     9
370
    18
100
AcDbLine
 10
34.894597876884
 20
29.1313234447
 30
0.0
 11
-26.393413597725
 21
29.1313234447
 31
0.0
  0
LINE
  5
15E
330
154
100
AcDbEntity
  8
Layer99
  6
AUSGEZOGEN
 62
    56
370
    18
100
AcDbLine
 10
-5.619379173897
 20
31.1288234447
 30
0.0
 11
-52.055402123116
 21
31.1288234447
 31
0.0
  0
LINE
  5
15F
330
154
100
AcDbEntity
  8
Layer99
  6
AUSGEZOGEN
 62
    56
370
    18
100
AcDbLine
 10
-5.619379173897
 20
33.1263234447
 30
0.0
 11
-52.055402123116
 21
33.1263234447
 31
0.0
  0
LINE
  5
160
330
154
100
AcDbEntity
  8
Layer99
  6
AUSGEZOGEN
 62
    56
370
    18
100
AcDbLine
 10
-5.619379173897
 20
35.1238234447
 30
0.0
 11
-52.055402123116
 21
35.1238234447
 31
0.0
  0
LINE
  5
161
330
154
100
AcDbEntity
  8
Layer99
  6
AUSGEZOGEN
 62
    56
370
    18
100
AcDbLine
 10
-5.619379173897
 20
37.1213234447
 30
0.0
 11
-52.055402123116
 21
37.1213234447
 31
0.0
  0
LINE
  5
162
330
154
100
AcDbEntity
  8
Layer99
  6
AUSGEZOGEN
 62
     9
370
    18
100
AcDbLine
 10
-5.619379173897
 20
39.1188234447
 30
0.0
 11
-52.055402123116
 21
39.1188234447
 31
0.0
  0
LINE
  5
163
330
154
100
AcDbEntity
  8
Layer99
  6
AUSGEZOGEN
 62
    56
370
    18
100
AcDbLine
 10
-26.393413597725
 20
44.1125734447
 30
0.0
 11
-52.055402123116
 21
44.1125734447
 31
0.0
  0
LINE
  5
164
330
154
100
AcDbEntity
  8
Layer99
  6
AUSGEZOGEN
 62
    56
370
    18
100
AcDbLine
 10
34.894597876884
 20
44.1125734447
 30
0.0
 11
-5.619379173897
 21
44.1125734447
 31
0.0
  0
LINE
  5
165
330
154
100
AcDbEntity
  8
Layer99
  6
AUSGEZOGEN
 62
    56
370
    18
100
AcDbLine
 10
17.786586402275
 20
47.1088234447
 30
0.0
 11
17.786586402275
 21
44.1125734447
 31
0.0
  0
LINE
  5
166
330
154
100
AcDbEntity
  8
Layer99
  6
AUSGEZOGEN
 62
     9
370
    18
100
AcDbLine
 10
-5.619379173897
 20
47.1088234447
 30
0.0
 11
-5.619379173897
 21
23.420824520445
 31
0.0
  0
LINE
  5
167
330
154
100
AcDbEntity
  8
Layer99
  6
AUSGEZOGEN
 62
    56
370
    18
100
AcDbLine
 10
-14.173413597725
 20
39.1188234447
 30
0.0
 11
-14.173413597725
 21
29.1313234447
 31
0.0
  0
LINE
  5
168
330
154
100
AcDbEntity
  8
Layer99
  6
AUSGEZOGEN
 62
     9
370
    18
100
AcDbLine
 10
-26.393413597725
 20
47.1088234447
 30
0.0
 11
-26.393413597725
 21
21.1413234447
 31
0.0
  0
LINE
  5
169
330
154
100
AcDbEntity
  8
Layer99
  6
AUSGEZOGEN
 62
     9
370
    18
100
AcDbLine
 10
34.894597876884
 20
47.1088234447
 30
0.0
 11
-52.055402123116
 21
47.1088234447
 31
0.0
  0
TEXT
  5
16A
330
154
100
AcDbEntity
  8
Layer99
  6
AUSGEZOGEN
 62
    56
370
    18
100
AcDbText
 10
-26.065698753975
 20
35.570478710509
 30
0.0
 40
0.94
  1
Bearb. 19.04.02   MS
 41
1.267237127053
  7
Arial
 72
     5
 11
-10.353732510494
 21
35.570478710509
 31
0.0
100
AcDbText
  0
TEXT
  5
16B
330
154
100
AcDbEntity
  8
Layer99
  6
AUSGEZOGEN
 62
    56
370
    18
100
AcDbText
 10
-25.956976830147
 20
33.612336620665
 30
0.0
 40
0.94
  1
Gepr.
 41
1.215533862924
  7
Arial
 72
     5
 11
-21.968153837608
 21
33.612336620665
 31
0.0
100
AcDbText
  0
TEXT
  5
16C
330
154
100
AcDbEntity
  8
Layer99
  6
AUSGEZOGEN
 62
    56
370
    18
100
AcDbText
 10
-25.956976830147
 20
31.545415233946
 30
0.0
 40
0.94
  1
Norm
 41
1.171328125812
  7
Arial
 72
     5
 11
-22.200199558793
 21
31.545415233946
 31
0.0
100
AcDbText
  0
TEXT
  5
16D
330
154
100
AcDbEntity
  8
Layer0
  6
AUSGEZOGEN
 62
   136
370
    18
100
AcDbText
 10
-24.964882103585
 20
44.992267200804
 30
0.0
 40
1.175
  1
Allgemeintoleranzen
 41
1.263559891189
  7
Arial
 72
     5
 11
-6.19106718529
 21
44.992267200804
 31
0.0
100
AcDbText
  0
TEXT
  5
16E
330
154
100
AcDbEntity
  8
Layer0
  6
AUSGEZOGEN
 62
   136
370
    18
100
AcDbText
 10
-25.291621605538
 20
42.81339665637
 30
0.0
 40
1.175
  1
Nach: TG5
 41
1.223038375192
  7
Arial
 72
     5
 11
-15.592835562386
 21
42.81339665637
 31
0.0
100
AcDbText
  0
TEXT
  5
16F
330
154
100
AcDbEntity
  8
Layer0
  6
AUSGEZOGEN
 62
   136
370
    18
100
AcDbText
 10
-25.212561546944
 20
40.634518940306
 30
0.0
 40
1.175
  1
DIN: 16742
 41
1.239741037486
  7
Arial
 72
     5
 11
-14.928289770477
 21
40.634518940306
 31
0.0
100
AcDbText
  0
TEXT
  5
170
330
154
100
AcDbEntity
  8
Layer0
  6
AUSGEZOGEN
 62
    56
370
    18
100
AcDbText
 10
18.544484351493
 20
45.101211445189
 30
0.0
 40
1.175
  1
Gewicht:
 41
1.240831402125
  7
Arial
 72
     5
 11
26.461298904903
 21
45.101211445189
 31
0.0
100
AcDbText
  0
TEXT
  5
171
330
154
100
AcDbEntity
  8
Layer0
  6
AUSGEZOGEN
 62
    56
370
    18
100
AcDbText
 10
-5.002102562569
 20
41.843075001097
 30
0.0
 40
1.175
  1
Werkstoff/Farbe:siehe Zeichnung
 41
1.269550999613
  7
Arial
 72
     5
 11
25.664727041222
 21
41.843075001097
 31
0.0
100
AcDbText
  0
TEXT
  5
172
330
154
100
AcDbEntity
  8
Layer0
  6
AUSGEZOGEN
 62
    56
370
    18
100
AcDbText
 10
-5.002102562569
 20
45.111172840452
 30
0.0
 40
1.175
  1
Maßstab: 2:1
 41
1.251587148984
  7
Arial
 72
     5
 11
6.977526413284
 21
45.111172840452
 31
0.0
100
AcDbText
  0
TEXT
  5
173
330
154
100
AcDbEntity
  8
Layer0
  6
AUSGEZOGEN
 62
    56
370
    18
100
AcDbText
 10
-51.491367699288
 20
45.1113234447
 30
0.0
 40
1.175
  1
Schwindung:
 41
1.234746274162
  7
Arial
 72
     5
 11
-39.897810164012
 21
45.1113234447
 31
0.0
100
AcDbText
  0
TEXT
  5
174
330
154
100
AcDbEntity
  8
Layer0
  6
AUSGEZOGEN
 62
    56
370
    18
100
AcDbText
 10
-51.434683128975
 20
42.171012165404
 30
0.0
 40
1.175
  1
Diese Zeichnung darf nur
 41
1.271210741346
  7
Arial
 72
     5
 11
-28.027339484014
 21
42.171012165404
 31
0.0
100
AcDbText
  0
TEXT
  5
175
330
154
100
AcDbEntity
  8
Layer0
  6
AUSGEZOGEN
 62
    56
370
    18
100
AcDbText
 10
-51.434683128975
 20
40.291012137389
 30
0.0
 40
1.175
  1
mit CAD geändert werden
 41
1.255342283876
  7
Arial
 72
     5
 11
-27.748696615465
 21
40.291012137389
 31
0.0
100
AcDbText
  0
LINE
  5
176
330
154
100
AcDbEntity
  8
Layer99
  6
AUSGEZOGEN
 62
    56
370
    18
100
AcDbLine
 10
34.894597876884
 20
23.420824520445
 30
0.0
 11
-5.619379173897
 21
23.420824520445
 31
0.0
  0
LINE
  5
177
330
154
100
AcDbEntity
  8
Layer99
  6
AUSGEZOGEN
 62
    56
370
    18
100
AcDbLine
 10
-5.619379173897
 20
23.420824520445
 30
0.0
 11
-26.393413597725
 21
23.420824520445
 31
0.0
  0
LINE
  5
178
330
154
100
AcDbEntity
  8
Layer99
  6
AUSGEZOGEN
 62
    56
370
    18
100
AcDbLine
 10
-34.2425053946
 20
39.1188234447
 30
0.0
 11
-34.2425053946
 21
21.1413234447
 31
0.0
  0
TEXT
  5
179
330
154
100
AcDbEntity
  8
Text
  6
AUSGEZOGEN
 62
   136
370
    18
100
AcDbText
 10
-50.018113915108
 20
23.570139488554
 30
0.0
 40
0.94
  1
-  ---
 41
1.340992890965
  7
Arial
 72
     5
 11
-46.695348090158
 21
23.570139488554
 31
0.0
100
AcDbText
  0
TEXT
  5
17A
330
154
100
AcDbEntity
  8
Text
  6
AUSGEZOGEN
 62
   136
370
    18
100
AcDbText
 10
-34.132291771553
 20
23.685291675902
 30
0.0
 40
0.94
  1
--.--.--/--
 41
1.366444411798
  7
Arial
 72
     5
 11
-27.859000134765
 21
23.685291675902
 31
0.0
100
AcDbText
  0
TEXT
  5
17B
330
154
100
AcDbEntity
  8
Layer0
  6
AUSGEZOGEN
 62
    56
370
    18
100
AcDbText
 10
-25.808380638741
 20
21.656030719137
 30
0.0
 40
1.175
  1
Schutzvermerk nach DIN 34 beachten .        Copyright reserved
 41
1.286227457357
  7
Arial
 72
     5
 11
33.518378496565
 21
21.656030719137
 31
0.0
100
AcDbText
  0
INSERT
  5
194
330
154
100
AcDbEntity
  8
0
100
AcDbBlockReference
  2
ULTRAREFLEX_nNn02
 10
0.0
 20
0.0
 30
0.0
  0
TEXT
  5
195
330
154
100
AcDbEntity
  8
Text
  6
AUSGEZOGEN
 62
   136
370
    18
100
AcDbText
 10
-4.607687974561
 20
29.739616887001
 30
0.0
 40
0.94
  1
---
 41
1.259600656861
  7
Arial
 72
     5
 11
-2.955973633218
 21
29.739616887001
 31
0.0
100
AcDbText
  0
TEXT
  5
196
330
154
100
AcDbEntity
  8
Layer99
  6
AUSGEZOGEN
 62
    56
370
    18
100
AcDbText
 10
-33.990464352371
 20
21.608174013133
 30
0.0
 40
0.94
  1
Dat./Nam.
 41
1.239717192527
  7
Arial
 72
     5
 11
-26.668669818964
 21
21.608174013133
 31
0.0
100
AcDbText
  0
TEXT
  5
197
330
154
100
AcDbEntity
  8
Layer99
  6
AUSGEZOGEN
 62
    56
370
    18
100
AcDbText
 10
-51.962884343109
 20
21.606042915732
 30
0.0
 40
0.94
  1
Zust.
 41
1.239906123597
  7
Arial
 72
     5
 11
-48.34630136368
 21
21.606042915732
 31
0.0
100
AcDbText
  0
TEXT
  5
198
330
154
100
AcDbEntity
  8
Layer0
  6
AUSGEZOGEN
 62
    56
370
    18
100
AcDbText
 10
-20.729097383476
 20
37.524519703245
 30
0.0
 40
1.175
  1
Datum
 41
1.188171149402
  7
Arial
 72
     5
 11
-14.989725759126
 21
37.524519703245
 31
0.0
100
AcDbText
  0
TEXT
  5
199
330
154
100
AcDbEntity
  8
Layer0
  6
AUSGEZOGEN
 62
    56
370
    18
100
AcDbText
 10
-12.42645818492
 20
37.528447359265
 30
0.0
 40
1.175
  1
Name
 41
1.15958716227
  7
Arial
 72
     5
 11
-7.353815153889
 21
37.528447359265
 31
0.0
100
AcDbText
  0
TEXT
  5
19A
330
154
100
AcDbEntity
  8
Layer99
  6
AUSGEZOGEN
 62
    56
370
    18
100
AcDbText
 10
-47.71912223488
 20
21.606154746609
 30
0.0
 40
0.94
  1
Änderung
 41
1.218204176926
  7
Arial
 72
     5
 11
-40.788904856848
 21
21.606154746609
 31
0.0
100
AcDbText
  0
ENDBLK
  5
156
330
154
100
AcDbEntity
  8
0
100
AcDbBlockEnd
  0
BLOCK
  5
17D
330
17C
100
AcDbEntity
  8
0
100
AcDbBlockBegin
  2
ULTRAREFLEX_nNn02
 70
     0
 10
0.0
 20
0.0
 30
0.0
  3
ULTRAREFLEX_nNn02
  1

  0
LINE
  5
17F
330
17C
100
AcDbEntity
  8
Layer0
  6
AUSGEZOGEN
 62
    30
370
    18
100
AcDbLine
 10
-7.118410740026
 20
27.647779489409
 30
0.0
 11
-8.548449621782
 21
27.647779489409
 31
0.0
  0
LINE
  5
180
330
17C
100
AcDbEntity
  8
Layer0
  6
AUSGEZOGEN
 62
    30
370
    18
100
AcDbLine
 10
-8.686840481307
 20
27.567879489409
 30
0.0
 11
-9.401859922185
 21
26.329429489409
 31
0.0
  0
LINE
  5
181
330
17C
100
AcDbEntity
  8
Layer0
  6
AUSGEZOGEN
 62
    30
370
    18
100
AcDbLine
 10
-9.401859922185
 20
26.169629489409
 30
0.0
 11
-8.686840481307
 21
24.931179489409
 31
0.0
  0
LINE
  5
182
330
17C
100
AcDbEntity
  8
Layer0
  6
AUSGEZOGEN
 62
    30
370
    18
100
AcDbLine
 10
-8.548449621782
 20
24.851279489409
 30
0.0
 11
-7.118410740026
 21
24.851279489409
 31
0.0
  0
LINE
  5
183
330
17C
100
AcDbEntity
  8
Layer0
  6
AUSGEZOGEN
 62
    30
370
    18
100
AcDbLine
 10
-6.980019880501
 20
24.931179489409
 30
0.0
 11
-6.265000439624
 21
26.169629489409
 31
0.0
  0
LINE
  5
184
330
17C
100
AcDbEntity
  8
Layer0
  6
AUSGEZOGEN
 62
    30
370
    18
100
AcDbLine
 10
-6.265000439624
 20
26.329429489409
 30
0.0
 11
-6.980019880501
 21
27.567879489409
 31
0.0
  0
LINE
  5
185
330
17C
100
AcDbEntity
  8
Layer0
  6
AUSGEZOGEN
 62
    30
370
    18
100
AcDbLine
 10
-7.695039321379
 20
26.329429489409
 30
0.0
 11
-6.265000439624
 21
26.329429489409
 31
0.0
  0
LINE
  5
186
330
17C
100
AcDbEntity
  8
Layer0
  6
AUSGEZOGEN
 62
    30
370
    18
100
AcDbLine
 10
-9.401859922185
 20
26.329429489409
 30
0.0
 11
-7.971821040429
 21
26.329429489409
 31
0.0
  0
LINE
  5
187
330
17C
100
AcDbEntity
  8
Layer0
  6
AUSGEZOGEN
 62
    30
370
    18
100
AcDbLine
 10
-7.695039321379
 20
26.169629489409
 30
0.0
 11
-6.265000439624
 21
26.169629489409
 31
0.0
  0
LINE
  5
188
330
17C
100
AcDbEntity
  8
Layer0
  6
AUSGEZOGEN
 62
    30
370
    18
100
AcDbLine
 10
-9.401859922185
 20
26.169629489409
 30
0.0
 11
-7.971821040429
 21
26.169629489409
 31
0.0
  0
LINE
  5
189
330
17C
100
AcDbEntity
  8
Layer0
  6
AUSGEZOGEN
 62
    30
370
    18
100
AcDbLine
 10
-7.695039321379
 20
26.169629489409
 30
0.0
 11
-6.980019880501
 21
24.931179489409
 31
0.0
  0
LINE
  5
18A
330
17C
100
AcDbEntity
  8
Layer0
  6
AUSGEZOGEN
 62
    30
370
    18
100
AcDbLine
 10
-8.548449621782
 20
27.647779489409
 30
0.0
 11
-7.833430180904
 21
26.409329489409
 31
0.0
  0
LINE
  5
18B
330
17C
100
AcDbEntity
  8
Layer0
  6
AUSGEZOGEN
 62
    30
370
    18
100
AcDbLine
 10
-7.833430180904
 20
26.089729489409
 30
0.0
 11
-7.118410740026
 21
24.851279489409
 31
0.0
  0
LINE
  5
18C
330
17C
100
AcDbEntity
  8
Layer0
  6
AUSGEZOGEN
 62
    30
370
    18
100
AcDbLine
 10
-8.686840481307
 20
27.567879489409
 30
0.0
 11
-7.971821040429
 21
26.329429489409
 31
0.0
  0
LINE
  5
18D
330
17C
100
AcDbEntity
  8
Layer0
  6
AUSGEZOGEN
 62
    30
370
    18
100
AcDbLine
 10
-7.833430180904
 20
26.089729489409
 30
0.0
 11
-8.548449621782
 21
24.851279489409
 31
0.0
  0
LINE
  5
18E
330
17C
100
AcDbEntity
  8
Layer0
  6
AUSGEZOGEN
 62
    30
370
    18
100
AcDbLine
 10
-6.980019880501
 20
27.567879489409
 30
0.0
 11
-7.695039321379
 21
26.329429489409
 31
0.0
  0
LINE
  5
18F
330
17C
100
AcDbEntity
  8
Layer0
  6
AUSGEZOGEN
 62
    30
370
    18
100
AcDbLine
 10
-7.971821040429
 20
26.169629489409
 30
0.0
 11
-8.686840481307
 21
24.931179489409
 31
0.0
  0
LINE
  5
190
330
17C
100
AcDbEntity
  8
Layer0
  6
AUSGEZOGEN
 62
    30
370
    18
100
AcDbLine
 10
-7.118410740026
 20
27.647779489409
 30
0.0
 11
-7.833430180904
 21
26.409329489409
 31
0.0
  0
HATCH
  5
191
330
17C
100
AcDbEntity
  8
Layer0
  6
AUSGEZOGEN
 62
    30
370
    18
100
AcDbHatch
 10
0.0
 20
0.0
 30
0.0
210
0.0
220
0.0
230
1.0
  2
SOLID
 70
     1
 71
     0
 91
        6
 92
        2
 72
     0
 73
     1
 93
        3
 10
-7.971821040428864
 20
26.169629489409
 10
-9.401859922184713
 20
26.169629489409
 10
-8.686840481306774
 20
24.931179489409
 97
        0
 92
        2
 72
     0
 73
     1
 93
        3
 10
-7.971821040428864
 20
26.32942948940901
 10
-8.686840481306774
 20
27.56787948940901
 10
-9.401859922184713
 20
26.32942948940901
 97
        0
 92
        2
 72
     0
 73
     1
 93
        3
 10
-7.833430180904116
 20
26.409329489409
 10
-7.118410740026292
 20
27.647779489409
 10
-8.548449621782026
 20
27.647779489409
 97
        0
 92
        2
 72
     0
 73
     1
 93
        3
 10
-7.695039321379369
 20
26.32942948940901
 10
-6.265000439623634
 20
26.32942948940901
 10
-6.980019880501459
 20
27.56787948940899
 97
        0
 92
        2
 72
     0
 73
     1
 93
        3
 10
-6.980019880501459
 20
24.931179489409
 10
-6.265000439623634
 20
26.169629489409
 10
-7.695039321379369
 20
26.169629489409
 97
        0
 92
        2
 72
     0
 73
     1
 93
        3
 10
-7.833430180904116
 20
26.089729489409
 10
-8.548449621782026
 20
24.85127948940901
 10
-7.118410740026292
 20
24.85127948940901
 97
        0
 75
     0
 76
     1
 98
        0
  0
TEXT
  5
192
330
17C
100
AcDbEntity
  8
Layer0
  6
AUSGEZOGEN
 62
     7
370
    18
100
AcDbText
 10
-17.942274820374
 20
25.349412374152
 30
0.0
 40
1.8377
  1
REFLEX
 41
0.705366510959
  7
Arial Black
 72
     5
 11
-10.092099820374
 21
25.349412374152
 31
0.0
100
AcDbText
  0
TEXT
  5
193
330
17C
100
AcDbEntity
  8
Layer0
  6
AUSGEZOGEN
 62
     7
370
    18
100
AcDbText
 10
-25.691780839425
 20
25.436104992581
 30
0.0
 40
1.39825
  1
ULTRA
 41
1.159777722278
  7
Arial
 72
     5
 11
-18.271068339425
 21
25.436104992581
 31
0.0
100
AcDbText
  0
ENDBLK
  5
17E
330
17C
100
AcDbEntity
  8
0
100
AcDbBlockEnd
  0
BLOCK
  5
1A5
330
1A4
100
AcDbEntity
  8
0
100
AcDbBlockBegin
  2
SECHSK1_nNn03
 70
     0
 10
0.0
 20
0.0
 30
0.0
  3
SECHSK1_nNn03
  1

  0
LINE
  5
1A7
330
1A4
100
AcDbEntity
  8
Stammform
  6
AUSGEZOGEN
 62
    56
370
    18
100
AcDbLine
 10
-22.789411196302
 20
89.623853187597
 30
0.0
 11
-22.145000948469
 21
89.623853187597
 31
0.0
  0
LINE
  5
1A8
330
1A4
100
AcDbEntity
  8
Layer0
  6
AUSGEZOGEN
 62
     9
370
    18
100
AcDbLine
 10
-22.599583539212
 20
88.836493517776
 30
0.0
 11
-22.145000948469
 21
89.623853187597
 31
0.0
  0
LINE
  5
1A9
330
1A4
100
AcDbEntity
  8
Layer0
  6
AUSGEZOGEN
 62
     9
370
    18
100
AcDbLine
 10
-22.145000948469
 20
89.623853187597
 30
0.0
 11
-22.808954157392
 21
90.773853187597
 31
0.0
  0
LINE
  5
1AA
330
1A4
100
AcDbEntity
  8
Layer0
  6
AUSGEZOGEN
 62
     9
370
    18
100
AcDbLine
 10
-22.808954157392
 20
90.773853187597
 30
0.0
 11
-22.964113906225
 21
90.773853187597
 31
0.0
  0
LINE
  5
1AB
330
1A4
100
AcDbEntity
  8
Layer0
  6
AUSGEZOGEN
 62
     9
370
    18
100
AcDbLine
 10
-22.964113906225
 20
93.073853187597
 30
0.0
 11
-22.808954157392
 21
93.073853187597
 31
0.0
  0
LINE
  5
1AC
330
1A4
100
AcDbEntity
  8
Layer0
  6
AUSGEZOGEN
 62
     9
370
    18
100
AcDbLine
 10
-22.808954157392
 20
93.073853187597
 30
0.0
 11
-22.145000948469
 21
94.223853187597
 31
0.0
  0
LINE
  5
1AD
330
1A4
100
AcDbEntity
  8
Layer0
  6
AUSGEZOGEN
 62
     9
370
    18
100
AcDbLine
 10
-22.145000948469
 20
94.223853187597
 30
0.0
 11
-22.599583539212
 21
95.011212857418
 31
0.0
  0
LINE
  5
1AE
330
1A4
100
AcDbEntity
  8
Stammform
  6
AUSGEZOGEN
 62
    56
370
    18
100
AcDbLine
 10
-22.789411196302
 20
94.223853187597
 30
0.0
 11
-22.145000948469
 21
94.223853187597
 31
0.0
  0
LINE
  5
1AF
330
1A4
100
AcDbEntity
  8
Stammform
  6
AUSGEZOGEN
 62
    56
370
    18
100
AcDbLine
 10
-23.472907366316
 20
91.923853187597
 30
0.0
 11
-22.145000948469
 21
91.923853187597
 31
0.0
  0
LINE
  5
1B0
330
1A4
100
AcDbEntity
  8
Layer0
  6
AUSGEZOGEN
 62
     9
370
    18
100
AcDbLine
 10
-22.808954157392
 20
90.773853187597
 30
0.0
 11
-22.145000948469
 21
91.923853187597
 31
0.0
  0
LINE
  5
1B1
330
1A4
100
AcDbEntity
  8
Layer0
  6
AUSGEZOGEN
 62
     9
370
    18
100
AcDbLine
 10
-22.145000948469
 20
91.923853187597
 30
0.0
 11
-22.808954157392
 21
93.073853187597
 31
0.0
  0
LINE
  5
1B2
330
1A4
100
AcDbEntity
  8
Layer0
  6
AUSGEZOGEN
 62
     9
370
    18
100
AcDbLine
 10
-20.153145708601
 20
88.473853187597
 30
0.0
 11
-20.817098917524
 21
87.323853187597
 31
0.0
  0
LINE
  5
1B3
330
1A4
100
AcDbEntity
  8
Layer0
  6
AUSGEZOGEN
 62
     9
370
    18
100
AcDbLine
 10
-20.817098917524
 20
87.323853187597
 30
0.0
 11
-20.153145708601
 21
86.173853187597
 31
0.0
  0
LINE
  5
1B4
330
1A4
100
AcDbEntity
  8
Layer0
  6
AUSGEZOGEN
 62
     9
370
    18
100
AcDbLine
 10
-20.153145708601
 20
86.173853187597
 30
0.0
 11
-18.825239290754
 21
86.173853187597
 31
0.0
  0
LINE
  5
1B5
330
1A4
100
AcDbEntity
  8
Layer0
  6
AUSGEZOGEN
 62
     9
370
    18
100
AcDbLine
 10
-18.825239290754
 20
86.173853187597
 30
0.0
 11
-18.161286081831
 21
87.323853187597
 31
0.0
  0
LINE
  5
1B6
330
1A4
100
AcDbEntity
  8
Layer0
  6
AUSGEZOGEN
 62
     9
370
    18
100
AcDbLine
 10
-18.161286081831
 20
87.323853187597
 30
0.0
 11
-18.825239290754
 21
88.473853187597
 31
0.0
  0
LINE
  5
1B7
330
1A4
100
AcDbEntity
  8
Layer0
  6
AUSGEZOGEN
 62
     9
370
    18
100
AcDbLine
 10
-18.825239290754
 20
88.473853187597
 30
0.0
 11
-20.153145708601
 21
88.473853187597
 31
0.0
  0
LINE
  5
1B8
330
1A4
100
AcDbEntity
  8
Stammform
  6
AUSGEZOGEN
 62
    56
370
    18
100
AcDbLine
 10
-20.153145708601
 20
88.473853187597
 30
0.0
 11
-19.489192499677
 21
87.323853187597
 31
0.0
  0
LINE
  5
1B9
330
1A4
100
AcDbEntity
  8
Stammform
  6
AUSGEZOGEN
 62
    56
370
    18
100
AcDbLine
 10
-19.489192499677
 20
87.323853187597
 30
0.0
 11
-18.161286081831
 21
87.323853187597
 31
0.0
  0
LINE
  5
1BA
330
1A4
100
AcDbEntity
  8
Stammform
  6
AUSGEZOGEN
 62
    56
370
    18
100
AcDbLine
 10
-19.489192499677
 20
87.323853187597
 30
0.0
 11
-20.153145708601
 21
86.173853187597
 31
0.0
  0
LINE
  5
1BB
330
1A4
100
AcDbEntity
  8
Stammform
  6
AUSGEZOGEN
 62
    56
370
    18
100
AcDbLine
 10
-19.489192499677
 20
89.623853187597
 30
0.0
 11
-20.153145708601
 21
88.473853187597
 31
0.0
  0
LINE
  5
1BC
330
1A4
100
AcDbEntity
  8
Stammform
  6
AUSGEZOGEN
 62
    56
370
    18
100
AcDbLine
 10
-19.489192499677
 20
89.623853187597
 30
0.0
 11
-18.161286081831
 21
89.623853187597
 31
0.0
  0
LINE
  5
1BD
330
1A4
100
AcDbEntity
  8
Stammform
  6
AUSGEZOGEN
 62
    56
370
    18
100
AcDbLine
 10
-20.153145708601
 20
90.773853187597
 30
0.0
 11
-19.489192499677
 21
89.623853187597
 31
0.0
  0
LINE
  5
1BE
330
1A4
100
AcDbEntity
  8
Layer0
  6
AUSGEZOGEN
 62
     9
370
    18
100
AcDbLine
 10
-20.153145708601
 20
90.773853187597
 30
0.0
 11
-20.817098917524
 21
89.623853187597
 31
0.0
  0
LINE
  5
1BF
330
1A4
100
AcDbEntity
  8
Layer0
  6
AUSGEZOGEN
 62
     9
370
    18
100
AcDbLine
 10
-20.817098917524
 20
89.623853187597
 30
0.0
 11
-20.153145708601
 21
88.473853187597
 31
0.0
  0
LINE
  5
1C0
330
1A4
100
AcDbEntity
  8
Layer0
  6
AUSGEZOGEN
 62
     9
370
    18
100
AcDbLine
 10
-20.153145708601
 20
88.473853187597
 30
0.0
 11
-18.825239290754
 21
88.473853187597
 31
0.0
  0
LINE
  5
1C1
330
1A4
100
AcDbEntity
  8
Layer0
  6
AUSGEZOGEN
 62
     9
370
    18
100
AcDbLine
 10
-18.825239290754
 20
88.473853187597
 30
0.0
 11
-18.161286081831
 21
89.623853187597
 31
0.0
  0
LINE
  5
1C2
330
1A4
100
AcDbEntity
  8
Layer0
  6
AUSGEZOGEN
 62
     9
370
    18
100
AcDbLine
 10
-18.161286081831
 20
89.623853187597
 30
0.0
 11
-18.825239290754
 21
90.773853187597
 31
0.0
  0
LINE
  5
1C3
330
1A4
100
AcDbEntity
  8
Layer0
  6
AUSGEZOGEN
 62
     9
370
    18
100
AcDbLine
 10
-18.825239290754
 20
90.773853187597
 30
0.0
 11
-20.153145708601
 21
90.773853187597
 31
0.0
  0
LINE
  5
1C4
330
1A4
100
AcDbEntity
  8
Layer0
  6
AUSGEZOGEN
 62
     9
370
    18
100
AcDbLine
 10
-20.153145708601
 20
95.373853187597
 30
0.0
 11
-20.817098917524
 21
94.223853187597
 31
0.0
  0
LINE
  5
1C5
330
1A4
100
AcDbEntity
  8
Layer0
  6
AUSGEZOGEN
 62
     9
370
    18
100
AcDbLine
 10
-20.817098917524
 20
94.223853187597
 30
0.0
 11
-20.153145708601
 21
93.073853187597
 31
0.0
  0
LINE
  5
1C6
330
1A4
100
AcDbEntity
  8
Layer0
  6
AUSGEZOGEN
 62
     9
370
    18
100
AcDbLine
 10
-20.153145708601
 20
93.073853187597
 30
0.0
 11
-18.825239290754
 21
93.073853187597
 31
0.0
  0
LINE
  5
1C7
330
1A4
100
AcDbEntity
  8
Layer0
  6
AUSGEZOGEN
 62
     9
370
    18
100
AcDbLine
 10
-18.825239290754
 20
93.073853187597
 30
0.0
 11
-18.161286081831
 21
94.223853187597
 31
0.0
  0
LINE
  5
1C8
330
1A4
100
AcDbEntity
  8
Layer0
  6
AUSGEZOGEN
 62
     9
370
    18
100
AcDbLine
 10
-18.161286081831
 20
94.223853187597
 30
0.0
 11
-18.825239290754
 21
95.373853187597
 31
0.0
  0
LINE
  5
1C9
330
1A4
100
AcDbEntity
  8
Layer0
  6
AUSGEZOGEN
 62
     9
370
    18
100
AcDbLine
 10
-18.825239290754
 20
95.373853187597
 30
0.0
 11
-20.153145708601
 21
95.373853187597
 31
0.0
  0
LINE
  5
1CA
330
1A4
100
AcDbEntity
  8
Stammform
  6
AUSGEZOGEN
 62
    56
370
    18
100
AcDbLine
 10
-20.153145708601
 20
95.373853187597
 30
0.0
 11
-19.489192499677
 21
94.223853187597
 31
0.0
  0
LINE
  5
1CB
330
1A4
100
AcDbEntity
  8
Stammform
  6
AUSGEZOGEN
 62
    56
370
    18
100
AcDbLine
 10
-19.489192499677
 20
94.223853187597
 30
0.0
 11
-18.161286081831
 21
94.223853187597
 31
0.0
  0
LINE
  5
1CC
330
1A4
100
AcDbEntity
  8
Stammform
  6
AUSGEZOGEN
 62
    56
370
    18
100
AcDbLine
 10
-19.489192499677
 20
94.223853187597
 30
0.0
 11
-20.153145708601
 21
93.073853187597
 31
0.0
  0
LINE
  5
1CD
330
1A4
100
AcDbEntity
  8
Stammform
  6
AUSGEZOGEN
 62
    56
370
    18
100
AcDbLine
 10
-19.489192499677
 20
91.923853187597
 30
0.0
 11
-20.153145708601
 21
90.773853187597
 31
0.0
  0
LINE
  5
1CE
330
1A4
100
AcDbEntity
  8
Stammform
  6
AUSGEZOGEN
 62
    56
370
    18
100
AcDbLine
 10
-19.489192499677
 20
91.923853187597
 30
0.0
 11
-18.161286081831
 21
91.923853187597
 31
0.0
  0
LINE
  5
1CF
330
1A4
100
AcDbEntity
  8
Stammform
  6
AUSGEZOGEN
 62
    56
370
    18
100
AcDbLine
 10
-20.153145708601
 20
93.073853187597
 30
0.0
 11
-19.489192499677
 21
91.923853187597
 31
0.0
  0
LINE
  5
1D0
330
1A4
100
AcDbEntity
  8
Layer0
  6
AUSGEZOGEN
 62
     9
370
    18
100
AcDbLine
 10
-20.153145708601
 20
93.073853187597
 30
0.0
 11
-20.817098917524
 21
91.923853187597
 31
0.0
  0
LINE
  5
1D1
330
1A4
100
AcDbEntity
  8
Layer0
  6
AUSGEZOGEN
 62
     9
370
    18
100
AcDbLine
 10
-20.817098917524
 20
91.923853187597
 30
0.0
 11
-20.153145708601
 21
90.773853187597
 31
0.0
  0
LINE
  5
1D2
330
1A4
100
AcDbEntity
  8
Layer0
  6
AUSGEZOGEN
 62
     9
370
    18
100
AcDbLine
 10
-20.153145708601
 20
90.773853187597
 30
0.0
 11
-18.825239290754
 21
90.773853187597
 31
0.0
  0
LINE
  5
1D3
330
1A4
100
AcDbEntity
  8
Layer0
  6
AUSGEZOGEN
 62
     9
370
    18
100
AcDbLine
 10
-18.825239290754
 20
90.773853187597
 30
0.0
 11
-18.161286081831
 21
91.923853187597
 31
0.0
  0
LINE
  5
1D4
330
1A4
100
AcDbEntity
  8
Layer0
  6
AUSGEZOGEN
 62
     9
370
    18
100
AcDbLine
 10
-18.161286081831
 20
91.923853187597
 30
0.0
 11
-18.825239290754
 21
93.073853187597
 31
0.0
  0
LINE
  5
1D5
330
1A4
100
AcDbEntity
  8
Layer0
  6
AUSGEZOGEN
 62
     9
370
    18
100
AcDbLine
 10
-18.825239290754
 20
93.073853187597
 30
0.0
 11
-20.153145708601
 21
93.073853187597
 31
0.0
  0
LINE
  5
1D6
330
1A4
100
AcDbEntity
  8
Layer0
  6
AUSGEZOGEN
 62
     9
370
    18
100
AcDbLine
 10
-20.153145708601
 20
97.673853187597
 30
0.0
 11
-18.825239290754
 21
97.673853187597
 31
0.0
  0
LINE
  5
1D7
330
1A4
100
AcDbEntity
  8
Layer0
  6
AUSGEZOGEN
 62
     9
370
    18
100
AcDbLine
 10
-18.825239290754
 20
97.673853187597
 30
0.0
 11
-18.161286081831
 21
98.823853187597
 31
0.0
  0
LINE
  5
1D8
330
1A4
100
AcDbEntity
  8
Layer0
  6
AUSGEZOGEN
 62
     9
370
    18
100
AcDbLine
 10
-18.161286081831
 20
98.823853187597
 30
0.0
 11
-18.825239290754
 21
99.973853187597
 31
0.0
  0
LINE
  5
1D9
330
1A4
100
AcDbEntity
  8
Layer0
  6
AUSGEZOGEN
 62
     9
370
    18
100
AcDbLine
 10
-18.825239290754
 20
99.973853187597
 30
0.0
 11
-19.734401072324
 21
99.973853187597
 31
0.0
  0
LINE
  5
1DA
330
1A4
100
AcDbEntity
  8
Stammform
  6
AUSGEZOGEN
 62
    56
370
    18
100
AcDbLine
 10
-19.994696866157
 20
99.699411907156
 30
0.0
 11
-19.489192499677
 21
98.823853187597
 31
0.0
  0
LINE
  5
1DB
330
1A4
100
AcDbEntity
  8
Stammform
  6
AUSGEZOGEN
 62
    56
370
    18
100
AcDbLine
 10
-19.489192499677
 20
98.823853187597
 30
0.0
 11
-18.161286081831
 21
98.823853187597
 31
0.0
  0
LINE
  5
1DC
330
1A4
100
AcDbEntity
  8
Stammform
  6
AUSGEZOGEN
 62
    56
370
    18
100
AcDbLine
 10
-19.489192499677
 20
98.823853187597
 30
0.0
 11
-20.153145708601
 21
97.673853187597
 31
0.0
  0
LINE
  5
1DD
330
1A4
100
AcDbEntity
  8
Stammform
  6
AUSGEZOGEN
 62
    56
370
    18
100
AcDbLine
 10
-19.489192499677
 20
96.523853187597
 30
0.0
 11
-20.153145708601
 21
95.373853187597
 31
0.0
  0
LINE
  5
1DE
330
1A4
100
AcDbEntity
  8
Stammform
  6
AUSGEZOGEN
 62
    56
370
    18
100
AcDbLine
 10
-19.489192499677
 20
96.523853187597
 30
0.0
 11
-18.161286081831
 21
96.523853187597
 31
0.0
  0
LINE
  5
1DF
330
1A4
100
AcDbEntity
  8
Stammform
  6
AUSGEZOGEN
 62
    56
370
    18
100
AcDbLine
 10
-20.153145708601
 20
97.673853187597
 30
0.0
 11
-19.489192499677
 21
96.523853187597
 31
0.0
  0
LINE
  5
1E0
330
1A4
100
AcDbEntity
  8
Layer0
  6
AUSGEZOGEN
 62
     9
370
    18
100
AcDbLine
 10
-20.153145708601
 20
97.673853187597
 30
0.0
 11
-20.817098917524
 21
96.523853187597
 31
0.0
  0
LINE
  5
1E1
330
1A4
100
AcDbEntity
  8
Layer0
  6
AUSGEZOGEN
 62
     9
370
    18
100
AcDbLine
 10
-20.817098917524
 20
96.523853187597
 30
0.0
 11
-20.153145708601
 21
95.373853187597
 31
0.0
  0
LINE
  5
1E2
330
1A4
100
AcDbEntity
  8
Layer0
  6
AUSGEZOGEN
 62
     9
370
    18
100
AcDbLine
 10
-20.153145708601
 20
95.373853187597
 30
0.0
 11
-18.825239290754
 21
95.373853187597
 31
0.0
  0
LINE
  5
1E3
330
1A4
100
AcDbEntity
  8
Layer0
  6
AUSGEZOGEN
 62
     9
370
    18
100
AcDbLine
 10
-18.825239290754
 20
95.373853187597
 30
0.0
 11
-18.161286081831
 21
96.523853187597
 31
0.0
  0
LINE
  5
1E4
330
1A4
100
AcDbEntity
  8
Layer0
  6
AUSGEZOGEN
 62
     9
370
    18
100
AcDbLine
 10
-18.161286081831
 20
96.523853187597
 30
0.0
 11
-18.825239290754
 21
97.673853187597
 31
0.0
  0
LINE
  5
1E5
330
1A4
100
AcDbEntity
  8
Layer0
  6
AUSGEZOGEN
 62
     9
370
    18
100
AcDbLine
 10
-18.825239290754
 20
97.673853187597
 30
0.0
 11
-20.153145708601
 21
97.673853187597
 31
0.0
  0
LINE
  5
1E6
330
1A4
100
AcDbEntity
  8
Stammform
  6
AUSGEZOGEN
 62
    56
370
    18
100
AcDbLine
 10
-18.421758379499
 20
101.123853187597
 30
0.0
 11
-18.161286081831
 21
101.123853187597
 31
0.0
  0
LINE
  5
1E7
330
1A4
100
AcDbEntity
  8
Layer0
  6
AUSGEZOGEN
 62
     9
370
    18
100
AcDbLine
 10
-18.825239290754
 20
99.973853187597
 30
0.0
 11
-18.161286081831
 21
101.123853187597
 31
0.0
  0
LINE
  5
1E8
330
1A4
100
AcDbEntity
  8
Layer0
  6
AUSGEZOGEN
 62
     9
370
    18
100
AcDbLine
 10
-18.238865112287
 20
82.589482446067
 30
0.0
 11
-18.161286081831
 21
82.723853187597
 31
0.0
  0
LINE
  5
1E9
330
1A4
100
AcDbEntity
  8
Layer0
  6
AUSGEZOGEN
 62
     9
370
    18
100
AcDbLine
 10
-18.161286081831
 20
82.723853187597
 30
0.0
 11
-18.825239290754
 21
83.873853187597
 31
0.0
  0
LINE
  5
1EA
330
1A4
100
AcDbEntity
  8
Layer0
  6
AUSGEZOGEN
 62
     9
370
    18
100
AcDbLine
 10
-18.825239290754
 20
83.873853187597
 30
0.0
 11
-19.734401072324
 21
83.873853187597
 31
0.0
  0
LINE
  5
1EB
330
1A4
100
AcDbEntity
  8
Stammform
  6
AUSGEZOGEN
 62
    56
370
    18
100
AcDbLine
 10
-18.421758379499
 20
82.723853187597
 30
0.0
 11
-18.161286081831
 21
82.723853187597
 31
0.0
  0
LINE
  5
1EC
330
1A4
100
AcDbEntity
  8
Stammform
  6
AUSGEZOGEN
 62
    56
370
    18
100
AcDbLine
 10
-19.489192499677
 20
85.023853187597
 30
0.0
 11
-19.994696866157
 21
84.148294468039
 31
0.0
  0
LINE
  5
1ED
330
1A4
100
AcDbEntity
  8
Stammform
  6
AUSGEZOGEN
 62
    56
370
    18
100
AcDbLine
 10
-19.489192499677
 20
85.023853187597
 30
0.0
 11
-18.161286081831
 21
85.023853187597
 31
0.0
  0
LINE
  5
1EE
330
1A4
100
AcDbEntity
  8
Stammform
  6
AUSGEZOGEN
 62
    56
370
    18
100
AcDbLine
 10
-20.153145708601
 20
86.173853187597
 30
0.0
 11
-19.489192499677
 21
85.023853187597
 31
0.0
  0
LINE
  5
1EF
330
1A4
100
AcDbEntity
  8
Layer0
  6
AUSGEZOGEN
 62
     9
370
    18
100
AcDbLine
 10
-20.153145708601
 20
86.173853187597
 30
0.0
 11
-20.775437947554
 21
85.096012060875
 31
0.0
  0
LINE
  5
1F0
330
1A4
100
AcDbEntity
  8
Layer0
  6
AUSGEZOGEN
 62
     9
370
    18
100
AcDbLine
 10
-18.825239290754
 20
83.873853187597
 30
0.0
 11
-18.161286081831
 21
85.023853187597
 31
0.0
  0
LINE
  5
1F1
330
1A4
100
AcDbEntity
  8
Layer0
  6
AUSGEZOGEN
 62
     9
370
    18
100
AcDbLine
 10
-18.161286081831
 20
85.023853187597
 30
0.0
 11
-18.825239290754
 21
86.173853187597
 31
0.0
  0
LINE
  5
1F2
330
1A4
100
AcDbEntity
  8
Layer0
  6
AUSGEZOGEN
 62
     9
370
    18
100
AcDbLine
 10
-18.825239290754
 20
86.173853187597
 30
0.0
 11
-20.153145708601
 21
86.173853187597
 31
0.0
  0
LINE
  5
1F3
330
1A4
100
AcDbEntity
  8
Layer0
  6
AUSGEZOGEN
 62
     9
370
    18
100
AcDbLine
 10
-22.145000948469
 20
94.223853187597
 30
0.0
 11
-20.817098917524
 21
94.223853187597
 31
0.0
  0
LINE
  5
1F4
330
1A4
100
AcDbEntity
  8
Layer0
  6
AUSGEZOGEN
 62
     9
370
    18
100
AcDbLine
 10
-20.817098917524
 20
94.223853187597
 30
0.0
 11
-20.153145708601
 21
95.373853187597
 31
0.0
  0
LINE
  5
1F5
330
1A4
100
AcDbEntity
  8
Layer0
  6
AUSGEZOGEN
 62
     9
370
    18
100
AcDbLine
 10
-20.153145708601
 20
95.373853187597
 30
0.0
 11
-20.817098917524
 21
96.523853187597
 31
0.0
  0
LINE
  5
1F6
330
1A4
100
AcDbEntity
  8
Layer0
  6
AUSGEZOGEN
 62
     9
370
    18
100
AcDbLine
 10
-20.817098917524
 20
96.523853187597
 30
0.0
 11
-22.061682477898
 21
96.523853187597
 31
0.0
  0
LINE
  5
1F7
330
1A4
100
AcDbEntity
  8
Stammform
  6
AUSGEZOGEN
 62
    56
370
    18
100
AcDbLine
 10
-22.097332773528
 20
96.441288990834
 30
0.0
 11
-21.481052126448
 21
95.373853187597
 31
0.0
  0
LINE
  5
1F8
330
1A4
100
AcDbEntity
  8
Stammform
  6
AUSGEZOGEN
 62
    56
370
    18
100
AcDbLine
 10
-21.481052126448
 20
95.373853187597
 30
0.0
 11
-20.153145708601
 21
95.373853187597
 31
0.0
  0
LINE
  5
1F9
330
1A4
100
AcDbEntity
  8
Stammform
  6
AUSGEZOGEN
 62
    56
370
    18
100
AcDbLine
 10
-21.481052126448
 20
95.373853187597
 30
0.0
 11
-22.145000948469
 21
94.223853187597
 31
0.0
  0
LINE
  5
1FA
330
1A4
100
AcDbEntity
  8
Stammform
  6
AUSGEZOGEN
 62
    56
370
    18
100
AcDbLine
 10
-21.48105052302
 20
97.673853187597
 30
0.0
 11
-20.153145708601
 21
97.673853187597
 31
0.0
  0
LINE
  5
1FB
330
1A4
100
AcDbEntity
  8
Layer0
  6
AUSGEZOGEN
 62
     9
370
    18
100
AcDbLine
 10
-20.817098917524
 20
96.523853187597
 30
0.0
 11
-20.153145708601
 21
97.673853187597
 31
0.0
  0
LINE
  5
1FC
330
1A4
100
AcDbEntity
  8
Layer0
  6
AUSGEZOGEN
 62
     9
370
    18
100
AcDbLine
 10
-20.153145708601
 20
97.673853187597
 30
0.0
 11
-20.775437947554
 21
98.751694314319
 31
0.0
  0
LINE
  5
1FD
330
1A4
100
AcDbEntity
  8
Layer0
  6
AUSGEZOGEN
 62
     9
370
    18
100
AcDbLine
 10
-22.145000948469
 20
91.923853187597
 30
0.0
 11
-22.808954157392
 21
90.773853187597
 31
0.0
  0
LINE
  5
1FE
330
1A4
100
AcDbEntity
  8
Layer0
  6
AUSGEZOGEN
 62
     9
370
    18
100
AcDbLine
 10
-22.808954157392
 20
90.773853187597
 30
0.0
 11
-22.145000948469
 21
89.623853187597
 31
0.0
  0
LINE
  5
1FF
330
1A4
100
AcDbEntity
  8
Layer0
  6
AUSGEZOGEN
 62
     9
370
    18
100
AcDbLine
 10
-22.145000948469
 20
89.623853187597
 30
0.0
 11
-20.817098917524
 21
89.623853187597
 31
0.0
  0
LINE
  5
200
330
1A4
100
AcDbEntity
  8
Layer0
  6
AUSGEZOGEN
 62
     9
370
    18
100
AcDbLine
 10
-20.817098917524
 20
89.623853187597
 30
0.0
 11
-20.153145708601
 21
90.773853187597
 31
0.0
  0
LINE
  5
201
330
1A4
100
AcDbEntity
  8
Layer0
  6
AUSGEZOGEN
 62
     9
370
    18
100
AcDbLine
 10
-20.153145708601
 20
90.773853187597
 30
0.0
 11
-20.817098917524
 21
91.923853187597
 31
0.0
  0
LINE
  5
202
330
1A4
100
AcDbEntity
  8
Layer0
  6
AUSGEZOGEN
 62
     9
370
    18
100
AcDbLine
 10
-20.817098917524
 20
91.923853187597
 30
0.0
 11
-22.145000948469
 21
91.923853187597
 31
0.0
  0
LINE
  5
203
330
1A4
100
AcDbEntity
  8
Stammform
  6
AUSGEZOGEN
 62
    56
370
    18
100
AcDbLine
 10
-22.145000948469
 20
91.923853187597
 30
0.0
 11
-21.481052126448
 21
90.773853187597
 31
0.0
  0
LINE
  5
204
330
1A4
100
AcDbEntity
  8
Stammform
  6
AUSGEZOGEN
 62
    56
370
    18
100
AcDbLine
 10
-21.481052126448
 20
90.773853187597
 30
0.0
 11
-20.153145708601
 21
90.773853187597
 31
0.0
  0
LINE
  5
205
330
1A4
100
AcDbEntity
  8
Stammform
  6
AUSGEZOGEN
 62
    56
370
    18
100
AcDbLine
 10
-21.481052126448
 20
90.773853187597
 30
0.0
 11
-22.145000948469
 21
89.623853187597
 31
0.0
  0
LINE
  5
206
330
1A4
100
AcDbEntity
  8
Stammform
  6
AUSGEZOGEN
 62
    56
370
    18
100
AcDbLine
 10
-21.481052126448
 20
93.073853187597
 30
0.0
 11
-22.145000948469
 21
91.923853187597
 31
0.0
  0
LINE
  5
207
330
1A4
100
AcDbEntity
  8
Stammform
  6
AUSGEZOGEN
 62
    56
370
    18
100
AcDbLine
 10
-21.481052126448
 20
93.073853187597
 30
0.0
 11
-20.153145708601
 21
93.073853187597
 31
0.0
  0
LINE
  5
208
330
1A4
100
AcDbEntity
  8
Stammform
  6
AUSGEZOGEN
 62
    56
370
    18
100
AcDbLine
 10
-22.145000948469
 20
94.223853187597
 30
0.0
 11
-21.481052126448
 21
93.073853187597
 31
0.0
  0
LINE
  5
209
330
1A4
100
AcDbEntity
  8
Layer0
  6
AUSGEZOGEN
 62
     9
370
    18
100
AcDbLine
 10
-22.145000948469
 20
94.223853187597
 30
0.0
 11
-22.808954157392
 21
93.073853187597
 31
0.0
  0
LINE
  5
20A
330
1A4
100
AcDbEntity
  8
Layer0
  6
AUSGEZOGEN
 62
     9
370
    18
100
AcDbLine
 10
-22.808954157392
 20
93.073853187597
 30
0.0
 11
-22.145000948469
 21
91.923853187597
 31
0.0
  0
LINE
  5
20B
330
1A4
100
AcDbEntity
  8
Layer0
  6
AUSGEZOGEN
 62
     9
370
    18
100
AcDbLine
 10
-22.145000948469
 20
91.923853187597
 30
0.0
 11
-20.817098917524
 21
91.923853187597
 31
0.0
  0
LINE
  5
20C
330
1A4
100
AcDbEntity
  8
Layer0
  6
AUSGEZOGEN
 62
     9
370
    18
100
AcDbLine
 10
-20.817098917524
 20
91.923853187597
 30
0.0
 11
-20.153145708601
 21
93.073853187597
 31
0.0
  0
LINE
  5
20D
330
1A4
100
AcDbEntity
  8
Layer0
  6
AUSGEZOGEN
 62
     9
370
    18
100
AcDbLine
 10
-20.153145708601
 20
93.073853187597
 30
0.0
 11
-20.817098917524
 21
94.223853187597
 31
0.0
  0
LINE
  5
20E
330
1A4
100
AcDbEntity
  8
Layer0
  6
AUSGEZOGEN
 62
     9
370
    18
100
AcDbLine
 10
-20.817098917524
 20
94.223853187597
 30
0.0
 11
-22.145000948469
 21
94.223853187597
 31
0.0
  0
LINE
  5
20F
330
1A4
100
AcDbEntity
  8
Layer0
  6
AUSGEZOGEN
 62
     9
370
    18
100
AcDbLine
 10
-22.061682477898
 20
87.323853187597
 30
0.0
 11
-20.817098917524
 21
87.323853187597
 31
0.0
  0
LINE
  5
210
330
1A4
100
AcDbEntity
  8
Layer0
  6
AUSGEZOGEN
 62
     9
370
    18
100
AcDbLine
 10
-20.817098917524
 20
87.323853187597
 30
0.0
 11
-20.153145708601
 21
88.473853187597
 31
0.0
  0
LINE
  5
211
330
1A4
100
AcDbEntity
  8
Layer0
  6
AUSGEZOGEN
 62
     9
370
    18
100
AcDbLine
 10
-20.153145708601
 20
88.473853187597
 30
0.0
 11
-20.817098917524
 21
89.623853187597
 31
0.0
  0
LINE
  5
212
330
1A4
100
AcDbEntity
  8
Layer0
  6
AUSGEZOGEN
 62
     9
370
    18
100
AcDbLine
 10
-20.817098917524
 20
89.623853187597
 30
0.0
 11
-22.145000948469
 21
89.623853187597
 31
0.0
  0
LINE
  5
213
330
1A4
100
AcDbEntity
  8
Stammform
  6
AUSGEZOGEN
 62
    56
370
    18
100
AcDbLine
 10
-22.145000948469
 20
89.623853187597
 30
0.0
 11
-21.481052126448
 21
88.473853187597
 31
0.0
  0
LINE
  5
214
330
1A4
100
AcDbEntity
  8
Stammform
  6
AUSGEZOGEN
 62
    56
370
    18
100
AcDbLine
 10
-21.481052126448
 20
88.473853187597
 30
0.0
 11
-20.153145708601
 21
88.473853187597
 31
0.0
  0
LINE
  5
215
330
1A4
100
AcDbEntity
  8
Stammform
  6
AUSGEZOGEN
 62
    56
370
    18
100
AcDbLine
 10
-21.481052126448
 20
88.473853187597
 30
0.0
 11
-22.097332773528
 21
87.406417384361
 31
0.0
  0
LINE
  5
216
330
1A4
100
AcDbEntity
  8
Stammform
  6
AUSGEZOGEN
 62
    56
370
    18
100
AcDbLine
 10
-21.481052126448
 20
86.173853187597
 30
0.0
 11
-20.153145708601
 21
86.173853187597
 31
0.0
  0
LINE
  5
217
330
1A4
100
AcDbEntity
  8
Layer0
  6
AUSGEZOGEN
 62
     9
370
    18
100
AcDbLine
 10
-20.153145708601
 20
86.173853187597
 30
0.0
 11
-20.817098917524
 21
87.323853187597
 31
0.0
  0
LINE
  5
218
330
1A4
100
AcDbEntity
  8
Layer0
  6
AUSGEZOGEN
 62
     9
370
    18
100
AcDbLine
 10
-20.817098917524
 20
87.323853187597
 30
0.0
 11
-22.145000948469
 21
87.323853187597
 31
0.0
  0
LINE
  5
219
330
1A4
100
AcDbEntity
  8
Layer0
  6
AUSGEZOGEN
 62
     9
370
    18
100
AcDbLine
 10
-16.169426455061
 20
88.473853187597
 30
0.0
 11
-16.833379663984
 21
87.323853187597
 31
0.0
  0
LINE
  5
21A
330
1A4
100
AcDbEntity
  8
Layer0
  6
AUSGEZOGEN
 62
     9
370
    18
100
AcDbLine
 10
-16.833379663984
 20
87.323853187597
 30
0.0
 11
-16.169426455061
 21
86.173853187597
 31
0.0
  0
LINE
  5
21B
330
1A4
100
AcDbEntity
  8
Layer0
  6
AUSGEZOGEN
 62
     9
370
    18
100
AcDbLine
 10
-16.169426455061
 20
86.173853187597
 30
0.0
 11
-14.841520037214
 21
86.173853187597
 31
0.0
  0
LINE
  5
21C
330
1A4
100
AcDbEntity
  8
Layer0
  6
AUSGEZOGEN
 62
     9
370
    18
100
AcDbLine
 10
-14.841520037214
 20
86.173853187597
 30
0.0
 11
-14.177571215193
 21
87.323853187597
 31
0.0
  0
LINE
  5
21D
330
1A4
100
AcDbEntity
  8
Layer0
  6
AUSGEZOGEN
 62
     9
370
    18
100
AcDbLine
 10
-14.177571215193
 20
87.323853187597
 30
0.0
 11
-14.841520037214
 21
88.473853187597
 31
0.0
  0
LINE
  5
21E
330
1A4
100
AcDbEntity
  8
Layer0
  6
AUSGEZOGEN
 62
     9
370
    18
100
AcDbLine
 10
-14.841520037214
 20
88.473853187597
 30
0.0
 11
-16.169426455061
 21
88.473853187597
 31
0.0
  0
LINE
  5
21F
330
1A4
100
AcDbEntity
  8
Stammform
  6
AUSGEZOGEN
 62
    56
370
    18
100
AcDbLine
 10
-16.169426455061
 20
88.473853187597
 30
0.0
 11
-15.505473246137
 21
87.323853187597
 31
0.0
  0
LINE
  5
220
330
1A4
100
AcDbEntity
  8
Stammform
  6
AUSGEZOGEN
 62
    56
370
    18
100
AcDbLine
 10
-15.505473246137
 20
87.323853187597
 30
0.0
 11
-14.177571215193
 21
87.323853187597
 31
0.0
  0
LINE
  5
221
330
1A4
100
AcDbEntity
  8
Stammform
  6
AUSGEZOGEN
 62
    56
370
    18
100
AcDbLine
 10
-15.505473246137
 20
87.323853187597
 30
0.0
 11
-16.169426455061
 21
86.173853187597
 31
0.0
  0
LINE
  5
222
330
1A4
100
AcDbEntity
  8
Stammform
  6
AUSGEZOGEN
 62
    56
370
    18
100
AcDbLine
 10
-15.505473246137
 20
89.623853187597
 30
0.0
 11
-16.169426455061
 21
88.473853187597
 31
0.0
  0
LINE
  5
223
330
1A4
100
AcDbEntity
  8
Stammform
  6
AUSGEZOGEN
 62
    56
370
    18
100
AcDbLine
 10
-15.505473246137
 20
89.623853187597
 30
0.0
 11
-14.177571215193
 21
89.623853187597
 31
0.0
  0
LINE
  5
224
330
1A4
100
AcDbEntity
  8
Stammform
  6
AUSGEZOGEN
 62
    56
370
    18
100
AcDbLine
 10
-16.169426455061
 20
90.773853187597
 30
0.0
 11
-15.505473246137
 21
89.623853187597
 31
0.0
  0
LINE
  5
225
330
1A4
100
AcDbEntity
  8
Layer0
  6
AUSGEZOGEN
 62
     9
370
    18
100
AcDbLine
 10
-16.169426455061
 20
90.773853187597
 30
0.0
 11
-16.833379663984
 21
89.623853187597
 31
0.0
  0
LINE
  5
226
330
1A4
100
AcDbEntity
  8
Layer0
  6
AUSGEZOGEN
 62
     9
370
    18
100
AcDbLine
 10
-16.833379663984
 20
89.623853187597
 30
0.0
 11
-16.169426455061
 21
88.473853187597
 31
0.0
  0
LINE
  5
227
330
1A4
100
AcDbEntity
  8
Layer0
  6
AUSGEZOGEN
 62
     9
370
    18
100
AcDbLine
 10
-16.169426455061
 20
88.473853187597
 30
0.0
 11
-14.841520037214
 21
88.473853187597
 31
0.0
  0
LINE
  5
228
330
1A4
100
AcDbEntity
  8
Layer0
  6
AUSGEZOGEN
 62
     9
370
    18
100
AcDbLine
 10
-14.841520037214
 20
88.473853187597
 30
0.0
 11
-14.177571215193
 21
89.623853187597
 31
0.0
  0
LINE
  5
229
330
1A4
100
AcDbEntity
  8
Layer0
  6
AUSGEZOGEN
 62
     9
370
    18
100
AcDbLine
 10
-14.177571215193
 20
89.623853187597
 30
0.0
 11
-14.841520037214
 21
90.773853187597
 31
0.0
  0
LINE
  5
22A
330
1A4
100
AcDbEntity
  8
Layer0
  6
AUSGEZOGEN
 62
     9
370
    18
100
AcDbLine
 10
-14.841520037214
 20
90.773853187597
 30
0.0
 11
-16.169426455061
 21
90.773853187597
 31
0.0
  0
LINE
  5
22B
330
1A4
100
AcDbEntity
  8
Layer0
  6
AUSGEZOGEN
 62
     9
370
    18
100
AcDbLine
 10
-16.169426455061
 20
95.373853187597
 30
0.0
 11
-16.833379663984
 21
94.223853187597
 31
0.0
  0
LINE
  5
22C
330
1A4
100
AcDbEntity
  8
Layer0
  6
AUSGEZOGEN
 62
     9
370
    18
100
AcDbLine
 10
-16.833379663984
 20
94.223853187597
 30
0.0
 11
-16.169426455061
 21
93.073853187597
 31
0.0
  0
LINE
  5
22D
330
1A4
100
AcDbEntity
  8
Layer0
  6
AUSGEZOGEN
 62
     9
370
    18
100
AcDbLine
 10
-16.169426455061
 20
93.073853187597
 30
0.0
 11
-14.841520037214
 21
93.073853187597
 31
0.0
  0
LINE
  5
22E
330
1A4
100
AcDbEntity
  8
Layer0
  6
AUSGEZOGEN
 62
     9
370
    18
100
AcDbLine
 10
-14.841520037214
 20
93.073853187597
 30
0.0
 11
-14.177571215193
 21
94.223853187597
 31
0.0
  0
LINE
  5
22F
330
1A4
100
AcDbEntity
  8
Layer0
  6
AUSGEZOGEN
 62
     9
370
    18
100
AcDbLine
 10
-14.177571215193
 20
94.223853187597
 30
0.0
 11
-14.841520037214
 21
95.373853187597
 31
0.0
  0
LINE
  5
230
330
1A4
100
AcDbEntity
  8
Layer0
  6
AUSGEZOGEN
 62
     9
370
    18
100
AcDbLine
 10
-14.841520037214
 20
95.373853187597
 30
0.0
 11
-16.169426455061
 21
95.373853187597
 31
0.0
  0
LINE
  5
231
330
1A4
100
AcDbEntity
  8
Stammform
  6
AUSGEZOGEN
 62
    56
370
    18
100
AcDbLine
 10
-16.169426455061
 20
95.373853187597
 30
0.0
 11
-15.505473246137
 21
94.223853187597
 31
0.0
  0
LINE
  5
232
330
1A4
100
AcDbEntity
  8
Stammform
  6
AUSGEZOGEN
 62
    56
370
    18
100
AcDbLine
 10
-15.505473246137
 20
94.223853187597
 30
0.0
 11
-14.177571215193
 21
94.223853187597
 31
0.0
  0
LINE
  5
233
330
1A4
100
AcDbEntity
  8
Stammform
  6
AUSGEZOGEN
 62
    56
370
    18
100
AcDbLine
 10
-15.505473246137
 20
94.223853187597
 30
0.0
 11
-16.169426455061
 21
93.073853187597
 31
0.0
  0
LINE
  5
234
330
1A4
100
AcDbEntity
  8
Stammform
  6
AUSGEZOGEN
 62
    56
370
    18
100
AcDbLine
 10
-15.505473246137
 20
91.923853187597
 30
0.0
 11
-16.169426455061
 21
90.773853187597
 31
0.0
  0
LINE
  5
235
330
1A4
100
AcDbEntity
  8
Stammform
  6
AUSGEZOGEN
 62
    56
370
    18
100
AcDbLine
 10
-15.505473246137
 20
91.923853187597
 30
0.0
 11
-14.177571215193
 21
91.923853187597
 31
0.0
  0
LINE
  5
236
330
1A4
100
AcDbEntity
  8
Stammform
  6
AUSGEZOGEN
 62
    56
370
    18
100
AcDbLine
 10
-16.169426455061
 20
93.073853187597
 30
0.0
 11
-15.505473246137
 21
91.923853187597
 31
0.0
  0
LINE
  5
237
330
1A4
100
AcDbEntity
  8
Layer0
  6
AUSGEZOGEN
 62
     9
370
    18
100
AcDbLine
 10
-16.169426455061
 20
93.073853187597
 30
0.0
 11
-16.833379663984
 21
91.923853187597
 31
0.0
  0
LINE
  5
238
330
1A4
100
AcDbEntity
  8
Layer0
  6
AUSGEZOGEN
 62
     9
370
    18
100
AcDbLine
 10
-16.833379663984
 20
91.923853187597
 30
0.0
 11
-16.169426455061
 21
90.773853187597
 31
0.0
  0
LINE
  5
239
330
1A4
100
AcDbEntity
  8
Layer0
  6
AUSGEZOGEN
 62
     9
370
    18
100
AcDbLine
 10
-16.169426455061
 20
90.773853187597
 30
0.0
 11
-14.841520037214
 21
90.773853187597
 31
0.0
  0
LINE
  5
23A
330
1A4
100
AcDbEntity
  8
Layer0
  6
AUSGEZOGEN
 62
     9
370
    18
100
AcDbLine
 10
-14.841520037214
 20
90.773853187597
 30
0.0
 11
-14.177571215193
 21
91.923853187597
 31
0.0
  0
LINE
  5
23B
330
1A4
100
AcDbEntity
  8
Layer0
  6
AUSGEZOGEN
 62
     9
370
    18
100
AcDbLine
 10
-14.177571215193
 20
91.923853187597
 30
0.0
 11
-14.841520037214
 21
93.073853187597
 31
0.0
  0
LINE
  5
23C
330
1A4
100
AcDbEntity
  8
Layer0
  6
AUSGEZOGEN
 62
     9
370
    18
100
AcDbLine
 10
-14.841520037214
 20
93.073853187597
 30
0.0
 11
-16.169426455061
 21
93.073853187597
 31
0.0
  0
LINE
  5
23D
330
1A4
100
AcDbEntity
  8
Layer0
  6
AUSGEZOGEN
 62
     9
370
    18
100
AcDbLine
 10
-16.169426455061
 20
99.973853187597
 30
0.0
 11
-16.833379663984
 21
98.823853187597
 31
0.0
  0
LINE
  5
23E
330
1A4
100
AcDbEntity
  8
Layer0
  6
AUSGEZOGEN
 62
     9
370
    18
100
AcDbLine
 10
-16.833379663984
 20
98.823853187597
 30
0.0
 11
-16.169426455061
 21
97.673853187597
 31
0.0
  0
LINE
  5
23F
330
1A4
100
AcDbEntity
  8
Layer0
  6
AUSGEZOGEN
 62
     9
370
    18
100
AcDbLine
 10
-16.169426455061
 20
97.673853187597
 30
0.0
 11
-14.841520037214
 21
97.673853187597
 31
0.0
  0
LINE
  5
240
330
1A4
100
AcDbEntity
  8
Layer0
  6
AUSGEZOGEN
 62
     9
370
    18
100
AcDbLine
 10
-14.841520037214
 20
97.673853187597
 30
0.0
 11
-14.177571215193
 21
98.823853187597
 31
0.0
  0
LINE
  5
241
330
1A4
100
AcDbEntity
  8
Layer0
  6
AUSGEZOGEN
 62
     9
370
    18
100
AcDbLine
 10
-14.177571215193
 20
98.823853187597
 30
0.0
 11
-14.841520037214
 21
99.973853187597
 31
0.0
  0
LINE
  5
242
330
1A4
100
AcDbEntity
  8
Layer0
  6
AUSGEZOGEN
 62
     9
370
    18
100
AcDbLine
 10
-14.841520037214
 20
99.973853187597
 30
0.0
 11
-16.169426455061
 21
99.973853187597
 31
0.0
  0
LINE
  5
243
330
1A4
100
AcDbEntity
  8
Stammform
  6
AUSGEZOGEN
 62
    56
370
    18
100
AcDbLine
 10
-16.169426455061
 20
99.973853187597
 30
0.0
 11
-15.505473246137
 21
98.823853187597
 31
0.0
  0
LINE
  5
244
330
1A4
100
AcDbEntity
  8
Stammform
  6
AUSGEZOGEN
 62
    56
370
    18
100
AcDbLine
 10
-15.505473246137
 20
98.823853187597
 30
0.0
 11
-14.177571215193
 21
98.823853187597
 31
0.0
  0
LINE
  5
245
330
1A4
100
AcDbEntity
  8
Stammform
  6
AUSGEZOGEN
 62
    56
370
    18
100
AcDbLine
 10
-15.505473246137
 20
98.823853187597
 30
0.0
 11
-16.169426455061
 21
97.673853187597
 31
0.0
  0
LINE
  5
246
330
1A4
100
AcDbEntity
  8
Stammform
  6
AUSGEZOGEN
 62
    56
370
    18
100
AcDbLine
 10
-15.505473246137
 20
96.523853187597
 30
0.0
 11
-16.169426455061
 21
95.373853187597
 31
0.0
  0
LINE
  5
247
330
1A4
100
AcDbEntity
  8
Stammform
  6
AUSGEZOGEN
 62
    56
370
    18
100
AcDbLine
 10
-15.505473246137
 20
96.523853187597
 30
0.0
 11
-14.177571215193
 21
96.523853187597
 31
0.0
  0
LINE
  5
248
330
1A4
100
AcDbEntity
  8
Stammform
  6
AUSGEZOGEN
 62
    56
370
    18
100
AcDbLine
 10
-16.169426455061
 20
97.673853187597
 30
0.0
 11
-15.505473246137
 21
96.523853187597
 31
0.0
  0
LINE
  5
249
330
1A4
100
AcDbEntity
  8
Layer0
  6
AUSGEZOGEN
 62
     9
370
    18
100
AcDbLine
 10
-16.169426455061
 20
97.673853187597
 30
0.0
 11
-16.833379663984
 21
96.523853187597
 31
0.0
  0
LINE
  5
24A
330
1A4
100
AcDbEntity
  8
Layer0
  6
AUSGEZOGEN
 62
     9
370
    18
100
AcDbLine
 10
-16.833379663984
 20
96.523853187597
 30
0.0
 11
-16.169426455061
 21
95.373853187597
 31
0.0
  0
LINE
  5
24B
330
1A4
100
AcDbEntity
  8
Layer0
  6
AUSGEZOGEN
 62
     9
370
    18
100
AcDbLine
 10
-16.169426455061
 20
95.373853187597
 30
0.0
 11
-14.841520037214
 21
95.373853187597
 31
0.0
  0
LINE
  5
24C
330
1A4
100
AcDbEntity
  8
Layer0
  6
AUSGEZOGEN
 62
     9
370
    18
100
AcDbLine
 10
-14.841520037214
 20
95.373853187597
 30
0.0
 11
-14.177571215193
 21
96.523853187597
 31
0.0
  0
LINE
  5
24D
330
1A4
100
AcDbEntity
  8
Layer0
  6
AUSGEZOGEN
 62
     9
370
    18
100
AcDbLine
 10
-14.177571215193
 20
96.523853187597
 30
0.0
 11
-14.841520037214
 21
97.673853187597
 31
0.0
  0
LINE
  5
24E
330
1A4
100
AcDbEntity
  8
Layer0
  6
AUSGEZOGEN
 62
     9
370
    18
100
AcDbLine
 10
-14.841520037214
 20
97.673853187597
 30
0.0
 11
-16.169426455061
 21
97.673853187597
 31
0.0
  0
LINE
  5
24F
330
1A4
100
AcDbEntity
  8
Layer0
  6
AUSGEZOGEN
 62
     9
370
    18
100
AcDbLine
 10
-16.169426455061
 20
102.273853187597
 30
0.0
 11
-14.841520037214
 21
102.273853187597
 31
0.0
  0
LINE
  5
250
330
1A4
100
AcDbEntity
  8
Layer0
  6
AUSGEZOGEN
 62
     9
370
    18
100
AcDbLine
 10
-14.841520037214
 20
102.273853187597
 30
0.0
 11
-14.386941932839
 21
103.061210289068
 31
0.0
  0
LINE
  5
251
330
1A4
100
AcDbEntity
  8
Stammform
  6
AUSGEZOGEN
 62
    56
370
    18
100
AcDbLine
 10
-16.039189877973
 20
102.499429420437
 30
0.0
 11
-16.169426455061
 21
102.273853187597
 31
0.0
  0
LINE
  5
252
330
1A4
100
AcDbEntity
  8
Stammform
  6
AUSGEZOGEN
 62
    56
370
    18
100
AcDbLine
 10
-15.505473246137
 20
101.123853187597
 30
0.0
 11
-16.169426455061
 21
99.973853187597
 31
0.0
  0
LINE
  5
253
330
1A4
100
AcDbEntity
  8
Stammform
  6
AUSGEZOGEN
 62
    56
370
    18
100
AcDbLine
 10
-15.505473246137
 20
101.123853187597
 30
0.0
 11
-14.177571215193
 21
101.123853187597
 31
0.0
  0
LINE
  5
254
330
1A4
100
AcDbEntity
  8
Stammform
  6
AUSGEZOGEN
 62
    56
370
    18
100
AcDbLine
 10
-16.169426455061
 20
102.273853187597
 30
0.0
 11
-15.505473246137
 21
101.123853187597
 31
0.0
  0
LINE
  5
255
330
1A4
100
AcDbEntity
  8
Layer0
  6
AUSGEZOGEN
 62
     9
370
    18
100
AcDbLine
 10
-16.169426455061
 20
102.273853187597
 30
0.0
 11
-16.833379663984
 21
101.123853187597
 31
0.0
  0
LINE
  5
256
330
1A4
100
AcDbEntity
  8
Layer0
  6
AUSGEZOGEN
 62
     9
370
    18
100
AcDbLine
 10
-16.833379663984
 20
101.123853187597
 30
0.0
 11
-16.169426455061
 21
99.973853187597
 31
0.0
  0
LINE
  5
257
330
1A4
100
AcDbEntity
  8
Layer0
  6
AUSGEZOGEN
 62
     9
370
    18
100
AcDbLine
 10
-16.169426455061
 20
99.973853187597
 30
0.0
 11
-14.841520037214
 21
99.973853187597
 31
0.0
  0
LINE
  5
258
330
1A4
100
AcDbEntity
  8
Layer0
  6
AUSGEZOGEN
 62
     9
370
    18
100
AcDbLine
 10
-14.841520037214
 20
99.973853187597
 30
0.0
 11
-14.177571215193
 21
101.123853187597
 31
0.0
  0
LINE
  5
259
330
1A4
100
AcDbEntity
  8
Layer0
  6
AUSGEZOGEN
 62
     9
370
    18
100
AcDbLine
 10
-14.177571215193
 20
101.123853187597
 30
0.0
 11
-14.841520037214
 21
102.273853187597
 31
0.0
  0
LINE
  5
25A
330
1A4
100
AcDbEntity
  8
Layer0
  6
AUSGEZOGEN
 62
     9
370
    18
100
AcDbLine
 10
-14.841520037214
 20
102.273853187597
 30
0.0
 11
-16.169426455061
 21
102.273853187597
 31
0.0
  0
LINE
  5
25B
330
1A4
100
AcDbEntity
  8
Layer0
  6
AUSGEZOGEN
 62
     9
370
    18
100
AcDbLine
 10
-16.169426455061
 20
83.873853187597
 30
0.0
 11
-16.833379663984
 21
82.723853187597
 31
0.0
  0
LINE
  5
25C
330
1A4
100
AcDbEntity
  8
Layer0
  6
AUSGEZOGEN
 62
     9
370
    18
100
AcDbLine
 10
-16.833379663984
 20
82.723853187597
 30
0.0
 11
-16.169426455061
 21
81.573853187597
 31
0.0
  0
LINE
  5
25D
330
1A4
100
AcDbEntity
  8
Layer0
  6
AUSGEZOGEN
 62
     9
370
    18
100
AcDbLine
 10
-16.169426455061
 20
81.573853187597
 30
0.0
 11
-14.841520037214
 21
81.573853187597
 31
0.0
  0
LINE
  5
25E
330
1A4
100
AcDbEntity
  8
Layer0
  6
AUSGEZOGEN
 62
     9
370
    18
100
AcDbLine
 10
-14.841520037214
 20
81.573853187597
 30
0.0
 11
-14.177571215193
 21
82.723853187597
 31
0.0
  0
LINE
  5
25F
330
1A4
100
AcDbEntity
  8
Layer0
  6
AUSGEZOGEN
 62
     9
370
    18
100
AcDbLine
 10
-14.177571215193
 20
82.723853187597
 30
0.0
 11
-14.841520037214
 21
83.873853187597
 31
0.0
  0
LINE
  5
260
330
1A4
100
AcDbEntity
  8
Layer0
  6
AUSGEZOGEN
 62
     9
370
    18
100
AcDbLine
 10
-14.841520037214
 20
83.873853187597
 30
0.0
 11
-16.169426455061
 21
83.873853187597
 31
0.0
  0
LINE
  5
261
330
1A4
100
AcDbEntity
  8
Stammform
  6
AUSGEZOGEN
 62
    56
370
    18
100
AcDbLine
 10
-16.169426455061
 20
83.873853187597
 30
0.0
 11
-15.505473246137
 21
82.723853187597
 31
0.0
  0
LINE
  5
262
330
1A4
100
AcDbEntity
  8
Stammform
  6
AUSGEZOGEN
 62
    56
370
    18
100
AcDbLine
 10
-15.505473246137
 20
82.723853187597
 30
0.0
 11
-14.177571215193
 21
82.723853187597
 31
0.0
  0
LINE
  5
263
330
1A4
100
AcDbEntity
  8
Stammform
  6
AUSGEZOGEN
 62
    56
370
    18
100
AcDbLine
 10
-15.505473246137
 20
82.723853187597
 30
0.0
 11
-16.169426455061
 21
81.573853187597
 31
0.0
  0
LINE
  5
264
330
1A4
100
AcDbEntity
  8
Stammform
  6
AUSGEZOGEN
 62
    56
370
    18
100
AcDbLine
 10
-15.505473246137
 20
85.023853187597
 30
0.0
 11
-16.169426455061
 21
83.873853187597
 31
0.0
  0
LINE
  5
265
330
1A4
100
AcDbEntity
  8
Stammform
  6
AUSGEZOGEN
 62
    56
370
    18
100
AcDbLine
 10
-15.505473246137
 20
85.023853187597
 30
0.0
 11
-14.177571215193
 21
85.023853187597
 31
0.0
  0
LINE
  5
266
330
1A4
100
AcDbEntity
  8
Stammform
  6
AUSGEZOGEN
 62
    56
370
    18
100
AcDbLine
 10
-16.169426455061
 20
86.173853187597
 30
0.0
 11
-15.505473246137
 21
85.023853187597
 31
0.0
  0
LINE
  5
267
330
1A4
100
AcDbEntity
  8
Layer0
  6
AUSGEZOGEN
 62
     9
370
    18
100
AcDbLine
 10
-16.169426455061
 20
86.173853187597
 30
0.0
 11
-16.833379663984
 21
85.023853187597
 31
0.0
  0
LINE
  5
268
330
1A4
100
AcDbEntity
  8
Layer0
  6
AUSGEZOGEN
 62
     9
370
    18
100
AcDbLine
 10
-16.833379663984
 20
85.023853187597
 30
0.0
 11
-16.169426455061
 21
83.873853187597
 31
0.0
  0
LINE
  5
269
330
1A4
100
AcDbEntity
  8
Layer0
  6
AUSGEZOGEN
 62
     9
370
    18
100
AcDbLine
 10
-16.169426455061
 20
83.873853187597
 30
0.0
 11
-14.841520037214
 21
83.873853187597
 31
0.0
  0
LINE
  5
26A
330
1A4
100
AcDbEntity
  8
Layer0
  6
AUSGEZOGEN
 62
     9
370
    18
100
AcDbLine
 10
-14.841520037214
 20
83.873853187597
 30
0.0
 11
-14.177571215193
 21
85.023853187597
 31
0.0
  0
LINE
  5
26B
330
1A4
100
AcDbEntity
  8
Layer0
  6
AUSGEZOGEN
 62
     9
370
    18
100
AcDbLine
 10
-14.177571215193
 20
85.023853187597
 30
0.0
 11
-14.841520037214
 21
86.173853187597
 31
0.0
  0
LINE
  5
26C
330
1A4
100
AcDbEntity
  8
Layer0
  6
AUSGEZOGEN
 62
     9
370
    18
100
AcDbLine
 10
-14.841520037214
 20
86.173853187597
 30
0.0
 11
-16.169426455061
 21
86.173853187597
 31
0.0
  0
LINE
  5
26D
330
1A4
100
AcDbEntity
  8
Stammform
  6
AUSGEZOGEN
 62
    56
370
    18
100
AcDbLine
 10
-16.169426455061
 20
81.573853187597
 30
0.0
 11
-16.039189877973
 21
81.348276954758
 31
0.0
  0
LINE
  5
26E
330
1A4
100
AcDbEntity
  8
Layer0
  6
AUSGEZOGEN
 62
     9
370
    18
100
AcDbLine
 10
-14.386941932839
 20
80.786496086127
 30
0.0
 11
-14.841520037214
 21
81.573853187597
 31
0.0
  0
LINE
  5
26F
330
1A4
100
AcDbEntity
  8
Layer0
  6
AUSGEZOGEN
 62
     9
370
    18
100
AcDbLine
 10
-14.841520037214
 20
81.573853187597
 30
0.0
 11
-16.169426455061
 21
81.573853187597
 31
0.0
  0
LINE
  5
270
330
1A4
100
AcDbEntity
  8
Layer0
  6
AUSGEZOGEN
 62
     9
370
    18
100
AcDbLine
 10
-18.161286081831
 20
85.023853187597
 30
0.0
 11
-18.825239290754
 21
83.873853187597
 31
0.0
  0
LINE
  5
271
330
1A4
100
AcDbEntity
  8
Layer0
  6
AUSGEZOGEN
 62
     9
370
    18
100
AcDbLine
 10
-18.825239290754
 20
83.873853187597
 30
0.0
 11
-18.161286081831
 21
82.723853187597
 31
0.0
  0
LINE
  5
272
330
1A4
100
AcDbEntity
  8
Layer0
  6
AUSGEZOGEN
 62
     9
370
    18
100
AcDbLine
 10
-18.161286081831
 20
82.723853187597
 30
0.0
 11
-16.833379663984
 21
82.723853187597
 31
0.0
  0
LINE
  5
273
330
1A4
100
AcDbEntity
  8
Layer0
  6
AUSGEZOGEN
 62
     9
370
    18
100
AcDbLine
 10
-16.833379663984
 20
82.723853187597
 30
0.0
 11
-16.169426455061
 21
83.873853187597
 31
0.0
  0
LINE
  5
274
330
1A4
100
AcDbEntity
  8
Layer0
  6
AUSGEZOGEN
 62
     9
370
    18
100
AcDbLine
 10
-16.169426455061
 20
83.873853187597
 30
0.0
 11
-16.833379663984
 21
85.023853187597
 31
0.0
  0
LINE
  5
275
330
1A4
100
AcDbEntity
  8
Layer0
  6
AUSGEZOGEN
 62
     9
370
    18
100
AcDbLine
 10
-16.833379663984
 20
85.023853187597
 30
0.0
 11
-18.161286081831
 21
85.023853187597
 31
0.0
  0
LINE
  5
276
330
1A4
100
AcDbEntity
  8
Stammform
  6
AUSGEZOGEN
 62
    56
370
    18
100
AcDbLine
 10
-18.161286081831
 20
85.023853187597
 30
0.0
 11
-17.497332872907
 21
83.873853187597
 31
0.0
  0
LINE
  5
277
330
1A4
100
AcDbEntity
  8
Stammform
  6
AUSGEZOGEN
 62
    56
370
    18
100
AcDbLine
 10
-17.497332872907
 20
83.873853187597
 30
0.0
 11
-16.169426455061
 21
83.873853187597
 31
0.0
  0
LINE
  5
278
330
1A4
100
AcDbEntity
  8
Stammform
  6
AUSGEZOGEN
 62
    56
370
    18
100
AcDbLine
 10
-17.497332872907
 20
83.873853187597
 30
0.0
 11
-18.161286081831
 21
82.723853187597
 31
0.0
  0
LINE
  5
279
330
1A4
100
AcDbEntity
  8
Stammform
  6
AUSGEZOGEN
 62
    56
370
    18
100
AcDbLine
 10
-16.534492164571
 20
81.573853187597
 30
0.0
 11
-16.169426455061
 21
81.573853187597
 31
0.0
  0
LINE
  5
27A
330
1A4
100
AcDbEntity
  8
Stammform
  6
AUSGEZOGEN
 62
    56
370
    18
100
AcDbLine
 10
-18.161286081831
 20
82.723853187597
 30
0.0
 11
-17.978753588942
 21
82.407697826043
 31
0.0
  0
LINE
  5
27B
330
1A4
100
AcDbEntity
  8
Layer0
  6
AUSGEZOGEN
 62
     9
370
    18
100
AcDbLine
 10
-16.247005702719
 20
81.439482069862
 30
0.0
 11
-16.169426455061
 21
81.573853187597
 31
0.0
  0
LINE
  5
27C
330
1A4
100
AcDbEntity
  8
Layer0
  6
AUSGEZOGEN
 62
     9
370
    18
100
AcDbLine
 10
-16.169426455061
 20
81.573853187597
 30
0.0
 11
-16.833379663984
 21
82.723853187597
 31
0.0
  0
LINE
  5
27D
330
1A4
100
AcDbEntity
  8
Layer0
  6
AUSGEZOGEN
 62
     9
370
    18
100
AcDbLine
 10
-16.833379663984
 20
82.723853187597
 30
0.0
 11
-18.161286081831
 21
82.723853187597
 31
0.0
  0
LINE
  5
27E
330
1A4
100
AcDbEntity
  8
Layer0
  6
AUSGEZOGEN
 62
     9
370
    18
100
AcDbLine
 10
-18.161286081831
 20
101.123853187597
 30
0.0
 11
-18.825239290754
 21
99.973853187597
 31
0.0
  0
LINE
  5
27F
330
1A4
100
AcDbEntity
  8
Layer0
  6
AUSGEZOGEN
 62
     9
370
    18
100
AcDbLine
 10
-18.825239290754
 20
99.973853187597
 30
0.0
 11
-18.161286081831
 21
98.823853187597
 31
0.0
  0
LINE
  5
280
330
1A4
100
AcDbEntity
  8
Layer0
  6
AUSGEZOGEN
 62
     9
370
    18
100
AcDbLine
 10
-18.161286081831
 20
98.823853187597
 30
0.0
 11
-16.833379663984
 21
98.823853187597
 31
0.0
  0
LINE
  5
281
330
1A4
100
AcDbEntity
  8
Layer0
  6
AUSGEZOGEN
 62
     9
370
    18
100
AcDbLine
 10
-16.833379663984
 20
98.823853187597
 30
0.0
 11
-16.169426455061
 21
99.973853187597
 31
0.0
  0
LINE
  5
282
330
1A4
100
AcDbEntity
  8
Layer0
  6
AUSGEZOGEN
 62
     9
370
    18
100
AcDbLine
 10
-16.169426455061
 20
99.973853187597
 30
0.0
 11
-16.833379663984
 21
101.123853187597
 31
0.0
  0
LINE
  5
283
330
1A4
100
AcDbEntity
  8
Layer0
  6
AUSGEZOGEN
 62
     9
370
    18
100
AcDbLine
 10
-16.833379663984
 20
101.123853187597
 30
0.0
 11
-18.161286081831
 21
101.123853187597
 31
0.0
  0
LINE
  5
284
330
1A4
100
AcDbEntity
  8
Stammform
  6
AUSGEZOGEN
 62
    56
370
    18
100
AcDbLine
 10
-18.161286081831
 20
101.123853187597
 30
0.0
 11
-17.497332872907
 21
99.973853187597
 31
0.0
  0
LINE
  5
285
330
1A4
100
AcDbEntity
  8
Stammform
  6
AUSGEZOGEN
 62
    56
370
    18
100
AcDbLine
 10
-17.497332872907
 20
99.973853187597
 30
0.0
 11
-16.169426455061
 21
99.973853187597
 31
0.0
  0
LINE
  5
286
330
1A4
100
AcDbEntity
  8
Stammform
  6
AUSGEZOGEN
 62
    56
370
    18
100
AcDbLine
 10
-17.497332872907
 20
99.973853187597
 30
0.0
 11
-18.161286081831
 21
98.823853187597
 31
0.0
  0
LINE
  5
287
330
1A4
100
AcDbEntity
  8
Stammform
  6
AUSGEZOGEN
 62
    56
370
    18
100
AcDbLine
 10
-17.978753588942
 20
101.440008549151
 30
0.0
 11
-18.161286081831
 21
101.123853187597
 31
0.0
  0
LINE
  5
288
330
1A4
100
AcDbEntity
  8
Stammform
  6
AUSGEZOGEN
 62
    56
370
    18
100
AcDbLine
 10
-16.534492164571
 20
102.273853187597
 30
0.0
 11
-16.169426455061
 21
102.273853187597
 31
0.0
  0
LINE
  5
289
330
1A4
100
AcDbEntity
  8
Layer0
  6
AUSGEZOGEN
 62
     9
370
    18
100
AcDbLine
 10
-18.238865112287
 20
101.258223929128
 30
0.0
 11
-18.161286081831
 21
101.123853187597
 31
0.0
  0
LINE
  5
28A
330
1A4
100
AcDbEntity
  8
Layer0
  6
AUSGEZOGEN
 62
     9
370
    18
100
AcDbLine
 10
-18.161286081831
 20
101.123853187597
 30
0.0
 11
-16.833379663984
 21
101.123853187597
 31
0.0
  0
LINE
  5
28B
330
1A4
100
AcDbEntity
  8
Layer0
  6
AUSGEZOGEN
 62
     9
370
    18
100
AcDbLine
 10
-16.833379663984
 20
101.123853187597
 30
0.0
 11
-16.169426455061
 21
102.273853187597
 31
0.0
  0
LINE
  5
28C
330
1A4
100
AcDbEntity
  8
Layer0
  6
AUSGEZOGEN
 62
     9
370
    18
100
AcDbLine
 10
-16.169426455061
 20
102.273853187597
 30
0.0
 11
-16.247005702719
 21
102.408224305333
 31
0.0
  0
LINE
  5
28D
330
1A4
100
AcDbEntity
  8
Layer0
  6
AUSGEZOGEN
 62
     9
370
    18
100
AcDbLine
 10
-18.161286081831
 20
96.523853187597
 30
0.0
 11
-18.825239290754
 21
95.373853187597
 31
0.0
  0
LINE
  5
28E
330
1A4
100
AcDbEntity
  8
Layer0
  6
AUSGEZOGEN
 62
     9
370
    18
100
AcDbLine
 10
-18.825239290754
 20
95.373853187597
 30
0.0
 11
-18.161286081831
 21
94.223853187597
 31
0.0
  0
LINE
  5
28F
330
1A4
100
AcDbEntity
  8
Layer0
  6
AUSGEZOGEN
 62
     9
370
    18
100
AcDbLine
 10
-18.161286081831
 20
94.223853187597
 30
0.0
 11
-16.833379663984
 21
94.223853187597
 31
0.0
  0
LINE
  5
290
330
1A4
100
AcDbEntity
  8
Layer0
  6
AUSGEZOGEN
 62
     9
370
    18
100
AcDbLine
 10
-16.833379663984
 20
94.223853187597
 30
0.0
 11
-16.169426455061
 21
95.373853187597
 31
0.0
  0
LINE
  5
291
330
1A4
100
AcDbEntity
  8
Layer0
  6
AUSGEZOGEN
 62
     9
370
    18
100
AcDbLine
 10
-16.169426455061
 20
95.373853187597
 30
0.0
 11
-16.833379663984
 21
96.523853187597
 31
0.0
  0
LINE
  5
292
330
1A4
100
AcDbEntity
  8
Layer0
  6
AUSGEZOGEN
 62
     9
370
    18
100
AcDbLine
 10
-16.833379663984
 20
96.523853187597
 30
0.0
 11
-18.161286081831
 21
96.523853187597
 31
0.0
  0
LINE
  5
293
330
1A4
100
AcDbEntity
  8
Stammform
  6
AUSGEZOGEN
 62
    56
370
    18
100
AcDbLine
 10
-18.161286081831
 20
96.523853187597
 30
0.0
 11
-17.497332872907
 21
95.373853187597
 31
0.0
  0
LINE
  5
294
330
1A4
100
AcDbEntity
  8
Stammform
  6
AUSGEZOGEN
 62
    56
370
    18
100
AcDbLine
 10
-17.497332872907
 20
95.373853187597
 30
0.0
 11
-16.169426455061
 21
95.373853187597
 31
0.0
  0
LINE
  5
295
330
1A4
100
AcDbEntity
  8
Stammform
  6
AUSGEZOGEN
 62
    56
370
    18
100
AcDbLine
 10
-17.497332872907
 20
95.373853187597
 30
0.0
 11
-18.161286081831
 21
94.223853187597
 31
0.0
  0
LINE
  5
296
330
1A4
100
AcDbEntity
  8
Stammform
  6
AUSGEZOGEN
 62
    56
370
    18
100
AcDbLine
 10
-17.497332872907
 20
97.673853187597
 30
0.0
 11
-18.161286081831
 21
96.523853187597
 31
0.0
  0
LINE
  5
297
330
1A4
100
AcDbEntity
  8
Stammform
  6
AUSGEZOGEN
 62
    56
370
    18
100
AcDbLine
 10
-17.497332872907
 20
97.673853187597
 30
0.0
 11
-16.169426455061
 21
97.673853187597
 31
0.0
  0
LINE
  5
298
330
1A4
100
AcDbEntity
  8
Stammform
  6
AUSGEZOGEN
 62
    56
370
    18
100
AcDbLine
 10
-18.161286081831
 20
98.823853187597
 30
0.0
 11
-17.497332872907
 21
97.673853187597
 31
0.0
  0
LINE
  5
299
330
1A4
100
AcDbEntity
  8
Layer0
  6
AUSGEZOGEN
 62
     9
370
    18
100
AcDbLine
 10
-18.161286081831
 20
98.823853187597
 30
0.0
 11
-18.825239290754
 21
97.673853187597
 31
0.0
  0
LINE
  5
29A
330
1A4
100
AcDbEntity
  8
Layer0
  6
AUSGEZOGEN
 62
     9
370
    18
100
AcDbLine
 10
-18.825239290754
 20
97.673853187597
 30
0.0
 11
-18.161286081831
 21
96.523853187597
 31
0.0
  0
LINE
  5
29B
330
1A4
100
AcDbEntity
  8
Layer0
  6
AUSGEZOGEN
 62
     9
370
    18
100
AcDbLine
 10
-18.161286081831
 20
96.523853187597
 30
0.0
 11
-16.833379663984
 21
96.523853187597
 31
0.0
  0
LINE
  5
29C
330
1A4
100
AcDbEntity
  8
Layer0
  6
AUSGEZOGEN
 62
     9
370
    18
100
AcDbLine
 10
-16.833379663984
 20
96.523853187597
 30
0.0
 11
-16.169426455061
 21
97.673853187597
 31
0.0
  0
LINE
  5
29D
330
1A4
100
AcDbEntity
  8
Layer0
  6
AUSGEZOGEN
 62
     9
370
    18
100
AcDbLine
 10
-16.169426455061
 20
97.673853187597
 30
0.0
 11
-16.833379663984
 21
98.823853187597
 31
0.0
  0
LINE
  5
29E
330
1A4
100
AcDbEntity
  8
Layer0
  6
AUSGEZOGEN
 62
     9
370
    18
100
AcDbLine
 10
-16.833379663984
 20
98.823853187597
 30
0.0
 11
-18.161286081831
 21
98.823853187597
 31
0.0
  0
LINE
  5
29F
330
1A4
100
AcDbEntity
  8
Layer0
  6
AUSGEZOGEN
 62
     9
370
    18
100
AcDbLine
 10
-18.161286081831
 20
91.923853187597
 30
0.0
 11
-18.825239290754
 21
90.773853187597
 31
0.0
  0
LINE
  5
2A0
330
1A4
100
AcDbEntity
  8
Layer0
  6
AUSGEZOGEN
 62
     9
370
    18
100
AcDbLine
 10
-18.825239290754
 20
90.773853187597
 30
0.0
 11
-18.161286081831
 21
89.623853187597
 31
0.0
  0
LINE
  5
2A1
330
1A4
100
AcDbEntity
  8
Layer0
  6
AUSGEZOGEN
 62
     9
370
    18
100
AcDbLine
 10
-18.161286081831
 20
89.623853187597
 30
0.0
 11
-16.833379663984
 21
89.623853187597
 31
0.0
  0
LINE
  5
2A2
330
1A4
100
AcDbEntity
  8
Layer0
  6
AUSGEZOGEN
 62
     9
370
    18
100
AcDbLine
 10
-16.833379663984
 20
89.623853187597
 30
0.0
 11
-16.169426455061
 21
90.773853187597
 31
0.0
  0
LINE
  5
2A3
330
1A4
100
AcDbEntity
  8
Layer0
  6
AUSGEZOGEN
 62
     9
370
    18
100
AcDbLine
 10
-16.169426455061
 20
90.773853187597
 30
0.0
 11
-16.833379663984
 21
91.923853187597
 31
0.0
  0
LINE
  5
2A4
330
1A4
100
AcDbEntity
  8
Layer0
  6
AUSGEZOGEN
 62
     9
370
    18
100
AcDbLine
 10
-16.833379663984
 20
91.923853187597
 30
0.0
 11
-18.161286081831
 21
91.923853187597
 31
0.0
  0
LINE
  5
2A5
330
1A4
100
AcDbEntity
  8
Stammform
  6
AUSGEZOGEN
 62
    56
370
    18
100
AcDbLine
 10
-18.161286081831
 20
91.923853187597
 30
0.0
 11
-17.497332872907
 21
90.773853187597
 31
0.0
  0
LINE
  5
2A6
330
1A4
100
AcDbEntity
  8
Stammform
  6
AUSGEZOGEN
 62
    56
370
    18
100
AcDbLine
 10
-17.497332872907
 20
90.773853187597
 30
0.0
 11
-16.169426455061
 21
90.773853187597
 31
0.0
  0
LINE
  5
2A7
330
1A4
100
AcDbEntity
  8
Stammform
  6
AUSGEZOGEN
 62
    56
370
    18
100
AcDbLine
 10
-17.497332872907
 20
90.773853187597
 30
0.0
 11
-18.161286081831
 21
89.623853187597
 31
0.0
  0
LINE
  5
2A8
330
1A4
100
AcDbEntity
  8
Stammform
  6
AUSGEZOGEN
 62
    56
370
    18
100
AcDbLine
 10
-17.497332872907
 20
93.073853187597
 30
0.0
 11
-18.161286081831
 21
91.923853187597
 31
0.0
  0
LINE
  5
2A9
330
1A4
100
AcDbEntity
  8
Stammform
  6
AUSGEZOGEN
 62
    56
370
    18
100
AcDbLine
 10
-17.497332872907
 20
93.073853187597
 30
0.0
 11
-16.169426455061
 21
93.073853187597
 31
0.0
  0
LINE
  5
2AA
330
1A4
100
AcDbEntity
  8
Stammform
  6
AUSGEZOGEN
 62
    56
370
    18
100
AcDbLine
 10
-18.161286081831
 20
94.223853187597
 30
0.0
 11
-17.497332872907
 21
93.073853187597
 31
0.0
  0
LINE
  5
2AB
330
1A4
100
AcDbEntity
  8
Layer0
  6
AUSGEZOGEN
 62
     9
370
    18
100
AcDbLine
 10
-18.161286081831
 20
94.223853187597
 30
0.0
 11
-18.825239290754
 21
93.073853187597
 31
0.0
  0
LINE
  5
2AC
330
1A4
100
AcDbEntity
  8
Layer0
  6
AUSGEZOGEN
 62
     9
370
    18
100
AcDbLine
 10
-18.825239290754
 20
93.073853187597
 30
0.0
 11
-18.161286081831
 21
91.923853187597
 31
0.0
  0
LINE
  5
2AD
330
1A4
100
AcDbEntity
  8
Layer0
  6
AUSGEZOGEN
 62
     9
370
    18
100
AcDbLine
 10
-18.161286081831
 20
91.923853187597
 30
0.0
 11
-16.833379663984
 21
91.923853187597
 31
0.0
  0
LINE
  5
2AE
330
1A4
100
AcDbEntity
  8
Layer0
  6
AUSGEZOGEN
 62
     9
370
    18
100
AcDbLine
 10
-16.833379663984
 20
91.923853187597
 30
0.0
 11
-16.169426455061
 21
93.073853187597
 31
0.0
  0
LINE
  5
2AF
330
1A4
100
AcDbEntity
  8
Layer0
  6
AUSGEZOGEN
 62
     9
370
    18
100
AcDbLine
 10
-16.169426455061
 20
93.073853187597
 30
0.0
 11
-16.833379663984
 21
94.223853187597
 31
0.0
  0
LINE
  5
2B0
330
1A4
100
AcDbEntity
  8
Layer0
  6
AUSGEZOGEN
 62
     9
370
    18
100
AcDbLine
 10
-16.833379663984
 20
94.223853187597
 30
0.0
 11
-18.161286081831
 21
94.223853187597
 31
0.0
  0
LINE
  5
2B1
330
1A4
100
AcDbEntity
  8
Layer0
  6
AUSGEZOGEN
 62
     9
370
    18
100
AcDbLine
 10
-18.161286081831
 20
89.623853187597
 30
0.0
 11
-18.825239290754
 21
88.473853187597
 31
0.0
  0
LINE
  5
2B2
330
1A4
100
AcDbEntity
  8
Layer0
  6
AUSGEZOGEN
 62
     9
370
    18
100
AcDbLine
 10
-18.825239290754
 20
88.473853187597
 30
0.0
 11
-18.161286081831
 21
87.323853187597
 31
0.0
  0
LINE
  5
2B3
330
1A4
100
AcDbEntity
  8
Layer0
  6
AUSGEZOGEN
 62
     9
370
    18
100
AcDbLine
 10
-18.161286081831
 20
87.323853187597
 30
0.0
 11
-16.833379663984
 21
87.323853187597
 31
0.0
  0
LINE
  5
2B4
330
1A4
100
AcDbEntity
  8
Layer0
  6
AUSGEZOGEN
 62
     9
370
    18
100
AcDbLine
 10
-16.833379663984
 20
87.323853187597
 30
0.0
 11
-16.169426455061
 21
88.473853187597
 31
0.0
  0
LINE
  5
2B5
330
1A4
100
AcDbEntity
  8
Layer0
  6
AUSGEZOGEN
 62
     9
370
    18
100
AcDbLine
 10
-16.169426455061
 20
88.473853187597
 30
0.0
 11
-16.833379663984
 21
89.623853187597
 31
0.0
  0
LINE
  5
2B6
330
1A4
100
AcDbEntity
  8
Layer0
  6
AUSGEZOGEN
 62
     9
370
    18
100
AcDbLine
 10
-16.833379663984
 20
89.623853187597
 30
0.0
 11
-18.161286081831
 21
89.623853187597
 31
0.0
  0
LINE
  5
2B7
330
1A4
100
AcDbEntity
  8
Stammform
  6
AUSGEZOGEN
 62
    56
370
    18
100
AcDbLine
 10
-18.161286081831
 20
89.623853187597
 30
0.0
 11
-17.497332872907
 21
88.473853187597
 31
0.0
  0
LINE
  5
2B8
330
1A4
100
AcDbEntity
  8
Stammform
  6
AUSGEZOGEN
 62
    56
370
    18
100
AcDbLine
 10
-17.497332872907
 20
88.473853187597
 30
0.0
 11
-16.169426455061
 21
88.473853187597
 31
0.0
  0
LINE
  5
2B9
330
1A4
100
AcDbEntity
  8
Stammform
  6
AUSGEZOGEN
 62
    56
370
    18
100
AcDbLine
 10
-17.497332872907
 20
88.473853187597
 30
0.0
 11
-18.161286081831
 21
87.323853187597
 31
0.0
  0
LINE
  5
2BA
330
1A4
100
AcDbEntity
  8
Stammform
  6
AUSGEZOGEN
 62
    56
370
    18
100
AcDbLine
 10
-17.497332872907
 20
86.173853187597
 30
0.0
 11
-18.161286081831
 21
85.023853187597
 31
0.0
  0
LINE
  5
2BB
330
1A4
100
AcDbEntity
  8
Stammform
  6
AUSGEZOGEN
 62
    56
370
    18
100
AcDbLine
 10
-17.497332872907
 20
86.173853187597
 30
0.0
 11
-16.169426455061
 21
86.173853187597
 31
0.0
  0
LINE
  5
2BC
330
1A4
100
AcDbEntity
  8
Stammform
  6
AUSGEZOGEN
 62
    56
370
    18
100
AcDbLine
 10
-18.161286081831
 20
87.323853187597
 30
0.0
 11
-17.497332872907
 21
86.173853187597
 31
0.0
  0
LINE
  5
2BD
330
1A4
100
AcDbEntity
  8
Layer0
  6
AUSGEZOGEN
 62
     9
370
    18
100
AcDbLine
 10
-18.161286081831
 20
87.323853187597
 30
0.0
 11
-18.825239290754
 21
86.173853187597
 31
0.0
  0
LINE
  5
2BE
330
1A4
100
AcDbEntity
  8
Layer0
  6
AUSGEZOGEN
 62
     9
370
    18
100
AcDbLine
 10
-18.825239290754
 20
86.173853187597
 30
0.0
 11
-18.161286081831
 21
85.023853187597
 31
0.0
  0
LINE
  5
2BF
330
1A4
100
AcDbEntity
  8
Layer0
  6
AUSGEZOGEN
 62
     9
370
    18
100
AcDbLine
 10
-18.161286081831
 20
85.023853187597
 30
0.0
 11
-16.833379663984
 21
85.023853187597
 31
0.0
  0
LINE
  5
2C0
330
1A4
100
AcDbEntity
  8
Layer0
  6
AUSGEZOGEN
 62
     9
370
    18
100
AcDbLine
 10
-16.833379663984
 20
85.023853187597
 30
0.0
 11
-16.169426455061
 21
86.173853187597
 31
0.0
  0
LINE
  5
2C1
330
1A4
100
AcDbEntity
  8
Layer0
  6
AUSGEZOGEN
 62
     9
370
    18
100
AcDbLine
 10
-16.169426455061
 20
86.173853187597
 30
0.0
 11
-16.833379663984
 21
87.323853187597
 31
0.0
  0
LINE
  5
2C2
330
1A4
100
AcDbEntity
  8
Layer0
  6
AUSGEZOGEN
 62
     9
370
    18
100
AcDbLine
 10
-16.833379663984
 20
87.323853187597
 30
0.0
 11
-18.161286081831
 21
87.323853187597
 31
0.0
  0
LINE
  5
2C3
330
1A4
100
AcDbEntity
  8
Layer0
  6
AUSGEZOGEN
 62
     9
370
    18
100
AcDbLine
 10
-12.185711588423
 20
88.473853187597
 30
0.0
 11
-12.849664797346
 21
87.323853187597
 31
0.0
  0
LINE
  5
2C4
330
1A4
100
AcDbEntity
  8
Layer0
  6
AUSGEZOGEN
 62
     9
370
    18
100
AcDbLine
 10
-12.849664797346
 20
87.323853187597
 30
0.0
 11
-12.185711588423
 21
86.173853187597
 31
0.0
  0
LINE
  5
2C5
330
1A4
100
AcDbEntity
  8
Layer0
  6
AUSGEZOGEN
 62
     9
370
    18
100
AcDbLine
 10
-12.185711588423
 20
86.173853187597
 30
0.0
 11
-10.857805170576
 21
86.173853187597
 31
0.0
  0
LINE
  5
2C6
330
1A4
100
AcDbEntity
  8
Layer0
  6
AUSGEZOGEN
 62
     9
370
    18
100
AcDbLine
 10
-10.857805170576
 20
86.173853187597
 30
0.0
 11
-10.193851961653
 21
87.323853187597
 31
0.0
  0
LINE
  5
2C7
330
1A4
100
AcDbEntity
  8
Layer0
  6
AUSGEZOGEN
 62
     9
370
    18
100
AcDbLine
 10
-10.193851961653
 20
87.323853187597
 30
0.0
 11
-10.857805170576
 21
88.473853187597
 31
0.0
  0
LINE
  5
2C8
330
1A4
100
AcDbEntity
  8
Layer0
  6
AUSGEZOGEN
 62
     9
370
    18
100
AcDbLine
 10
-10.857805170576
 20
88.473853187597
 30
0.0
 11
-12.185711588423
 21
88.473853187597
 31
0.0
  0
LINE
  5
2C9
330
1A4
100
AcDbEntity
  8
Stammform
  6
AUSGEZOGEN
 62
    56
370
    18
100
AcDbLine
 10
-12.185711588423
 20
88.473853187597
 30
0.0
 11
-11.521758379499
 21
87.323853187597
 31
0.0
  0
LINE
  5
2CA
330
1A4
100
AcDbEntity
  8
Stammform
  6
AUSGEZOGEN
 62
    56
370
    18
100
AcDbLine
 10
-11.521758379499
 20
87.323853187597
 30
0.0
 11
-10.193851961653
 21
87.323853187597
 31
0.0
  0
LINE
  5
2CB
330
1A4
100
AcDbEntity
  8
Stammform
  6
AUSGEZOGEN
 62
    56
370
    18
100
AcDbLine
 10
-11.521758379499
 20
87.323853187597
 30
0.0
 11
-12.185711588423
 21
86.173853187597
 31
0.0
  0
LINE
  5
2CC
330
1A4
100
AcDbEntity
  8
Stammform
  6
AUSGEZOGEN
 62
    56
370
    18
100
AcDbLine
 10
-11.521758379499
 20
89.623853187597
 30
0.0
 11
-12.185711588423
 21
88.473853187597
 31
0.0
  0
LINE
  5
2CD
330
1A4
100
AcDbEntity
  8
Stammform
  6
AUSGEZOGEN
 62
    56
370
    18
100
AcDbLine
 10
-11.521758379499
 20
89.623853187597
 30
0.0
 11
-10.193851961653
 21
89.623853187597
 31
0.0
  0
LINE
  5
2CE
330
1A4
100
AcDbEntity
  8
Stammform
  6
AUSGEZOGEN
 62
    56
370
    18
100
AcDbLine
 10
-12.185711588423
 20
90.773853187597
 30
0.0
 11
-11.521758379499
 21
89.623853187597
 31
0.0
  0
LINE
  5
2CF
330
1A4
100
AcDbEntity
  8
Layer0
  6
AUSGEZOGEN
 62
     9
370
    18
100
AcDbLine
 10
-12.185711588423
 20
90.773853187597
 30
0.0
 11
-12.849664797346
 21
89.623853187597
 31
0.0
  0
LINE
  5
2D0
330
1A4
100
AcDbEntity
  8
Layer0
  6
AUSGEZOGEN
 62
     9
370
    18
100
AcDbLine
 10
-12.849664797346
 20
89.623853187597
 30
0.0
 11
-12.185711588423
 21
88.473853187597
 31
0.0
  0
LINE
  5
2D1
330
1A4
100
AcDbEntity
  8
Layer0
  6
AUSGEZOGEN
 62
     9
370
    18
100
AcDbLine
 10
-12.185711588423
 20
88.473853187597
 30
0.0
 11
-10.857805170576
 21
88.473853187597
 31
0.0
  0
LINE
  5
2D2
330
1A4
100
AcDbEntity
  8
Layer0
  6
AUSGEZOGEN
 62
     9
370
    18
100
AcDbLine
 10
-10.857805170576
 20
88.473853187597
 30
0.0
 11
-10.193851961653
 21
89.623853187597
 31
0.0
  0
LINE
  5
2D3
330
1A4
100
AcDbEntity
  8
Layer0
  6
AUSGEZOGEN
 62
     9
370
    18
100
AcDbLine
 10
-10.193851961653
 20
89.623853187597
 30
0.0
 11
-10.857805170576
 21
90.773853187597
 31
0.0
  0
LINE
  5
2D4
330
1A4
100
AcDbEntity
  8
Layer0
  6
AUSGEZOGEN
 62
     9
370
    18
100
AcDbLine
 10
-10.857805170576
 20
90.773853187597
 30
0.0
 11
-12.185711588423
 21
90.773853187597
 31
0.0
  0
LINE
  5
2D5
330
1A4
100
AcDbEntity
  8
Layer0
  6
AUSGEZOGEN
 62
     9
370
    18
100
AcDbLine
 10
-12.185711588423
 20
95.373853187597
 30
0.0
 11
-12.849664797346
 21
94.223853187597
 31
0.0
  0
LINE
  5
2D6
330
1A4
100
AcDbEntity
  8
Layer0
  6
AUSGEZOGEN
 62
     9
370
    18
100
AcDbLine
 10
-12.849664797346
 20
94.223853187597
 30
0.0
 11
-12.185711588423
 21
93.073853187597
 31
0.0
  0
LINE
  5
2D7
330
1A4
100
AcDbEntity
  8
Layer0
  6
AUSGEZOGEN
 62
     9
370
    18
100
AcDbLine
 10
-12.185711588423
 20
93.073853187597
 30
0.0
 11
-10.857805170576
 21
93.073853187597
 31
0.0
  0
LINE
  5
2D8
330
1A4
100
AcDbEntity
  8
Layer0
  6
AUSGEZOGEN
 62
     9
370
    18
100
AcDbLine
 10
-10.857805170576
 20
93.073853187597
 30
0.0
 11
-10.193851961653
 21
94.223853187597
 31
0.0
  0
LINE
  5
2D9
330
1A4
100
AcDbEntity
  8
Layer0
  6
AUSGEZOGEN
 62
     9
370
    18
100
AcDbLine
 10
-10.193851961653
 20
94.223853187597
 30
0.0
 11
-10.857805170576
 21
95.373853187597
 31
0.0
  0
LINE
  5
2DA
330
1A4
100
AcDbEntity
  8
Layer0
  6
AUSGEZOGEN
 62
     9
370
    18
100
AcDbLine
 10
-10.857805170576
 20
95.373853187597
 30
0.0
 11
-12.185711588423
 21
95.373853187597
 31
0.0
  0
LINE
  5
2DB
330
1A4
100
AcDbEntity
  8
Stammform
  6
AUSGEZOGEN
 62
    56
370
    18
100
AcDbLine
 10
-12.185711588423
 20
95.373853187597
 30
0.0
 11
-11.521758379499
 21
94.223853187597
 31
0.0
  0
LINE
  5
2DC
330
1A4
100
AcDbEntity
  8
Stammform
  6
AUSGEZOGEN
 62
    56
370
    18
100
AcDbLine
 10
-11.521758379499
 20
94.223853187597
 30
0.0
 11
-10.193851961653
 21
94.223853187597
 31
0.0
  0
LINE
  5
2DD
330
1A4
100
AcDbEntity
  8
Stammform
  6
AUSGEZOGEN
 62
    56
370
    18
100
AcDbLine
 10
-11.521758379499
 20
94.223853187597
 30
0.0
 11
-12.185711588423
 21
93.073853187597
 31
0.0
  0
LINE
  5
2DE
330
1A4
100
AcDbEntity
  8
Stammform
  6
AUSGEZOGEN
 62
    56
370
    18
100
AcDbLine
 10
-11.521758379499
 20
91.923853187597
 30
0.0
 11
-12.185711588423
 21
90.773853187597
 31
0.0
  0
LINE
  5
2DF
330
1A4
100
AcDbEntity
  8
Stammform
  6
AUSGEZOGEN
 62
    56
370
    18
100
AcDbLine
 10
-11.521758379499
 20
91.923853187597
 30
0.0
 11
-10.193851961653
 21
91.923853187597
 31
0.0
  0
LINE
  5
2E0
330
1A4
100
AcDbEntity
  8
Stammform
  6
AUSGEZOGEN
 62
    56
370
    18
100
AcDbLine
 10
-12.185711588423
 20
93.073853187597
 30
0.0
 11
-11.521758379499
 21
91.923853187597
 31
0.0
  0
LINE
  5
2E1
330
1A4
100
AcDbEntity
  8
Layer0
  6
AUSGEZOGEN
 62
     9
370
    18
100
AcDbLine
 10
-12.185711588423
 20
93.073853187597
 30
0.0
 11
-12.849664797346
 21
91.923853187597
 31
0.0
  0
LINE
  5
2E2
330
1A4
100
AcDbEntity
  8
Layer0
  6
AUSGEZOGEN
 62
     9
370
    18
100
AcDbLine
 10
-12.849664797346
 20
91.923853187597
 30
0.0
 11
-12.185711588423
 21
90.773853187597
 31
0.0
  0
LINE
  5
2E3
330
1A4
100
AcDbEntity
  8
Layer0
  6
AUSGEZOGEN
 62
     9
370
    18
100
AcDbLine
 10
-12.185711588423
 20
90.773853187597
 30
0.0
 11
-10.857805170576
 21
90.773853187597
 31
0.0
  0
LINE
  5
2E4
330
1A4
100
AcDbEntity
  8
Layer0
  6
AUSGEZOGEN
 62
     9
370
    18
100
AcDbLine
 10
-10.857805170576
 20
90.773853187597
 30
0.0
 11
-10.193851961653
 21
91.923853187597
 31
0.0
  0
LINE
  5
2E5
330
1A4
100
AcDbEntity
  8
Layer0
  6
AUSGEZOGEN
 62
     9
370
    18
100
AcDbLine
 10
-10.193851961653
 20
91.923853187597
 30
0.0
 11
-10.857805170576
 21
93.073853187597
 31
0.0
  0
LINE
  5
2E6
330
1A4
100
AcDbEntity
  8
Layer0
  6
AUSGEZOGEN
 62
     9
370
    18
100
AcDbLine
 10
-10.857805170576
 20
93.073853187597
 30
0.0
 11
-12.185711588423
 21
93.073853187597
 31
0.0
  0
LINE
  5
2E7
330
1A4
100
AcDbEntity
  8
Layer0
  6
AUSGEZOGEN
 62
     9
370
    18
100
AcDbLine
 10
-12.185711588423
 20
99.973853187597
 30
0.0
 11
-12.849664797346
 21
98.823853187597
 31
0.0
  0
LINE
  5
2E8
330
1A4
100
AcDbEntity
  8
Layer0
  6
AUSGEZOGEN
 62
     9
370
    18
100
AcDbLine
 10
-12.849664797346
 20
98.823853187597
 30
0.0
 11
-12.185711588423
 21
97.673853187597
 31
0.0
  0
LINE
  5
2E9
330
1A4
100
AcDbEntity
  8
Layer0
  6
AUSGEZOGEN
 62
     9
370
    18
100
AcDbLine
 10
-12.185711588423
 20
97.673853187597
 30
0.0
 11
-10.857805170576
 21
97.673853187597
 31
0.0
  0
LINE
  5
2EA
330
1A4
100
AcDbEntity
  8
Layer0
  6
AUSGEZOGEN
 62
     9
370
    18
100
AcDbLine
 10
-10.857805170576
 20
97.673853187597
 30
0.0
 11
-10.193851961653
 21
98.823853187597
 31
0.0
  0
LINE
  5
2EB
330
1A4
100
AcDbEntity
  8
Layer0
  6
AUSGEZOGEN
 62
     9
370
    18
100
AcDbLine
 10
-10.193851961653
 20
98.823853187597
 30
0.0
 11
-10.857805170576
 21
99.973853187597
 31
0.0
  0
LINE
  5
2EC
330
1A4
100
AcDbEntity
  8
Layer0
  6
AUSGEZOGEN
 62
     9
370
    18
100
AcDbLine
 10
-10.857805170576
 20
99.973853187597
 30
0.0
 11
-12.185711588423
 21
99.973853187597
 31
0.0
  0
LINE
  5
2ED
330
1A4
100
AcDbEntity
  8
Stammform
  6
AUSGEZOGEN
 62
    56
370
    18
100
AcDbLine
 10
-12.185711588423
 20
99.973853187597
 30
0.0
 11
-11.521758379499
 21
98.823853187597
 31
0.0
  0
LINE
  5
2EE
330
1A4
100
AcDbEntity
  8
Stammform
  6
AUSGEZOGEN
 62
    56
370
    18
100
AcDbLine
 10
-11.521758379499
 20
98.823853187597
 30
0.0
 11
-10.193851961653
 21
98.823853187597
 31
0.0
  0
LINE
  5
2EF
330
1A4
100
AcDbEntity
  8
Stammform
  6
AUSGEZOGEN
 62
    56
370
    18
100
AcDbLine
 10
-11.521758379499
 20
98.823853187597
 30
0.0
 11
-12.185711588423
 21
97.673853187597
 31
0.0
  0
LINE
  5
2F0
330
1A4
100
AcDbEntity
  8
Stammform
  6
AUSGEZOGEN
 62
    56
370
    18
100
AcDbLine
 10
-11.521758379499
 20
96.523853187597
 30
0.0
 11
-12.185711588423
 21
95.373853187597
 31
0.0
  0
LINE
  5
2F1
330
1A4
100
AcDbEntity
  8
Stammform
  6
AUSGEZOGEN
 62
    56
370
    18
100
AcDbLine
 10
-11.521758379499
 20
96.523853187597
 30
0.0
 11
-10.193851961653
 21
96.523853187597
 31
0.0
  0
LINE
  5
2F2
330
1A4
100
AcDbEntity
  8
Stammform
  6
AUSGEZOGEN
 62
    56
370
    18
100
AcDbLine
 10
-12.185711588423
 20
97.673853187597
 30
0.0
 11
-11.521758379499
 21
96.523853187597
 31
0.0
  0
LINE
  5
2F3
330
1A4
100
AcDbEntity
  8
Layer0
  6
AUSGEZOGEN
 62
     9
370
    18
100
AcDbLine
 10
-12.185711588423
 20
97.673853187597
 30
0.0
 11
-12.849664797346
 21
96.523853187597
 31
0.0
  0
LINE
  5
2F4
330
1A4
100
AcDbEntity
  8
Layer0
  6
AUSGEZOGEN
 62
     9
370
    18
100
AcDbLine
 10
-12.849664797346
 20
96.523853187597
 30
0.0
 11
-12.185711588423
 21
95.373853187597
 31
0.0
  0
LINE
  5
2F5
330
1A4
100
AcDbEntity
  8
Layer0
  6
AUSGEZOGEN
 62
     9
370
    18
100
AcDbLine
 10
-12.185711588423
 20
95.373853187597
 30
0.0
 11
-10.857805170576
 21
95.373853187597
 31
0.0
  0
LINE
  5
2F6
330
1A4
100
AcDbEntity
  8
Layer0
  6
AUSGEZOGEN
 62
     9
370
    18
100
AcDbLine
 10
-10.857805170576
 20
95.373853187597
 30
0.0
 11
-10.193851961653
 21
96.523853187597
 31
0.0
  0
LINE
  5
2F7
330
1A4
100
AcDbEntity
  8
Layer0
  6
AUSGEZOGEN
 62
     9
370
    18
100
AcDbLine
 10
-10.193851961653
 20
96.523853187597
 30
0.0
 11
-10.857805170576
 21
97.673853187597
 31
0.0
  0
LINE
  5
2F8
330
1A4
100
AcDbEntity
  8
Layer0
  6
AUSGEZOGEN
 62
     9
370
    18
100
AcDbLine
 10
-10.857805170576
 20
97.673853187597
 30
0.0
 11
-12.185711588423
 21
97.673853187597
 31
0.0
  0
LINE
  5
2F9
330
1A4
100
AcDbEntity
  8
Layer0
  6
AUSGEZOGEN
 62
     9
370
    18
100
AcDbLine
 10
-12.185711588423
 20
102.273853187597
 30
0.0
 11
-10.857805170576
 21
102.273853187597
 31
0.0
  0
LINE
  5
2FA
330
1A4
100
AcDbEntity
  8
Layer0
  6
AUSGEZOGEN
 62
     9
370
    18
100
AcDbLine
 10
-10.857805170576
 20
102.273853187597
 30
0.0
 11
-10.235512461262
 21
103.351695129006
 31
0.0
  0
LINE
  5
2FB
330
1A4
100
AcDbEntity
  8
Stammform
  6
AUSGEZOGEN
 62
    56
370
    18
100
AcDbLine
 10
-11.521758379499
 20
103.423853187597
 30
0.0
 11
-12.185711588423
 21
102.273853187597
 31
0.0
  0
LINE
  5
2FC
330
1A4
100
AcDbEntity
  8
Stammform
  6
AUSGEZOGEN
 62
    56
370
    18
100
AcDbLine
 10
-11.521758379499
 20
101.123853187597
 30
0.0
 11
-12.185711588423
 21
99.973853187597
 31
0.0
  0
LINE
  5
2FD
330
1A4
100
AcDbEntity
  8
Stammform
  6
AUSGEZOGEN
 62
    56
370
    18
100
AcDbLine
 10
-11.521758379499
 20
101.123853187597
 30
0.0
 11
-10.193851961653
 21
101.123853187597
 31
0.0
  0
LINE
  5
2FE
330
1A4
100
AcDbEntity
  8
Stammform
  6
AUSGEZOGEN
 62
    56
370
    18
100
AcDbLine
 10
-12.185711588423
 20
102.273853187597
 30
0.0
 11
-11.521758379499
 21
101.123853187597
 31
0.0
  0
LINE
  5
2FF
330
1A4
100
AcDbEntity
  8
Layer0
  6
AUSGEZOGEN
 62
     9
370
    18
100
AcDbLine
 10
-12.185711588423
 20
102.273853187597
 30
0.0
 11
-12.849664797346
 21
101.123853187597
 31
0.0
  0
LINE
  5
300
330
1A4
100
AcDbEntity
  8
Layer0
  6
AUSGEZOGEN
 62
     9
370
    18
100
AcDbLine
 10
-12.849664797346
 20
101.123853187597
 30
0.0
 11
-12.185711588423
 21
99.973853187597
 31
0.0
  0
LINE
  5
301
330
1A4
100
AcDbEntity
  8
Layer0
  6
AUSGEZOGEN
 62
     9
370
    18
100
AcDbLine
 10
-12.185711588423
 20
99.973853187597
 30
0.0
 11
-10.857805170576
 21
99.973853187597
 31
0.0
  0
LINE
  5
302
330
1A4
100
AcDbEntity
  8
Layer0
  6
AUSGEZOGEN
 62
     9
370
    18
100
AcDbLine
 10
-10.857805170576
 20
99.973853187597
 30
0.0
 11
-10.193851961653
 21
101.123853187597
 31
0.0
  0
LINE
  5
303
330
1A4
100
AcDbEntity
  8
Layer0
  6
AUSGEZOGEN
 62
     9
370
    18
100
AcDbLine
 10
-10.193851961653
 20
101.123853187597
 30
0.0
 11
-10.857805170576
 21
102.273853187597
 31
0.0
  0
LINE
  5
304
330
1A4
100
AcDbEntity
  8
Layer0
  6
AUSGEZOGEN
 62
     9
370
    18
100
AcDbLine
 10
-10.857805170576
 20
102.273853187597
 30
0.0
 11
-12.185711588423
 21
102.273853187597
 31
0.0
  0
LINE
  5
305
330
1A4
100
AcDbEntity
  8
Layer0
  6
AUSGEZOGEN
 62
     9
370
    18
100
AcDbLine
 10
-12.185711588423
 20
83.873853187597
 30
0.0
 11
-12.849664797346
 21
82.723853187597
 31
0.0
  0
LINE
  5
306
330
1A4
100
AcDbEntity
  8
Layer0
  6
AUSGEZOGEN
 62
     9
370
    18
100
AcDbLine
 10
-12.849664797346
 20
82.723853187597
 30
0.0
 11
-12.185711588423
 21
81.573853187597
 31
0.0
  0
LINE
  5
307
330
1A4
100
AcDbEntity
  8
Layer0
  6
AUSGEZOGEN
 62
     9
370
    18
100
AcDbLine
 10
-12.185711588423
 20
81.573853187597
 30
0.0
 11
-10.857805170576
 21
81.573853187597
 31
0.0
  0
LINE
  5
308
330
1A4
100
AcDbEntity
  8
Layer0
  6
AUSGEZOGEN
 62
     9
370
    18
100
AcDbLine
 10
-10.857805170576
 20
81.573853187597
 30
0.0
 11
-10.193851961653
 21
82.723853187597
 31
0.0
  0
LINE
  5
309
330
1A4
100
AcDbEntity
  8
Layer0
  6
AUSGEZOGEN
 62
     9
370
    18
100
AcDbLine
 10
-10.193851961653
 20
82.723853187597
 30
0.0
 11
-10.857805170576
 21
83.873853187597
 31
0.0
  0
LINE
  5
30A
330
1A4
100
AcDbEntity
  8
Layer0
  6
AUSGEZOGEN
 62
     9
370
    18
100
AcDbLine
 10
-10.857805170576
 20
83.873853187597
 30
0.0
 11
-12.185711588423
 21
83.873853187597
 31
0.0
  0
LINE
  5
30B
330
1A4
100
AcDbEntity
  8
Stammform
  6
AUSGEZOGEN
 62
    56
370
    18
100
AcDbLine
 10
-12.185711588423
 20
83.873853187597
 30
0.0
 11
-11.521758379499
 21
82.723853187597
 31
0.0
  0
LINE
  5
30C
330
1A4
100
AcDbEntity
  8
Stammform
  6
AUSGEZOGEN
 62
    56
370
    18
100
AcDbLine
 10
-11.521758379499
 20
82.723853187597
 30
0.0
 11
-10.193851961653
 21
82.723853187597
 31
0.0
  0
LINE
  5
30D
330
1A4
100
AcDbEntity
  8
Stammform
  6
AUSGEZOGEN
 62
    56
370
    18
100
AcDbLine
 10
-11.521758379499
 20
82.723853187597
 30
0.0
 11
-12.185711588423
 21
81.573853187597
 31
0.0
  0
LINE
  5
30E
330
1A4
100
AcDbEntity
  8
Stammform
  6
AUSGEZOGEN
 62
    56
370
    18
100
AcDbLine
 10
-11.521758379499
 20
85.023853187597
 30
0.0
 11
-12.185711588423
 21
83.873853187597
 31
0.0
  0
LINE
  5
30F
330
1A4
100
AcDbEntity
  8
Stammform
  6
AUSGEZOGEN
 62
    56
370
    18
100
AcDbLine
 10
-11.521758379499
 20
85.023853187597
 30
0.0
 11
-10.193851961653
 21
85.023853187597
 31
0.0
  0
LINE
  5
310
330
1A4
100
AcDbEntity
  8
Stammform
  6
AUSGEZOGEN
 62
    56
370
    18
100
AcDbLine
 10
-12.185711588423
 20
86.173853187597
 30
0.0
 11
-11.521758379499
 21
85.023853187597
 31
0.0
  0
LINE
  5
311
330
1A4
100
AcDbEntity
  8
Layer0
  6
AUSGEZOGEN
 62
     9
370
    18
100
AcDbLine
 10
-12.185711588423
 20
86.173853187597
 30
0.0
 11
-12.849664797346
 21
85.023853187597
 31
0.0
  0
LINE
  5
312
330
1A4
100
AcDbEntity
  8
Layer0
  6
AUSGEZOGEN
 62
     9
370
    18
100
AcDbLine
 10
-12.849664797346
 20
85.023853187597
 30
0.0
 11
-12.185711588423
 21
83.873853187597
 31
0.0
  0
LINE
  5
313
330
1A4
100
AcDbEntity
  8
Layer0
  6
AUSGEZOGEN
 62
     9
370
    18
100
AcDbLine
 10
-12.185711588423
 20
83.873853187597
 30
0.0
 11
-10.857805170576
 21
83.873853187597
 31
0.0
  0
LINE
  5
314
330
1A4
100
AcDbEntity
  8
Layer0
  6
AUSGEZOGEN
 62
     9
370
    18
100
AcDbLine
 10
-10.857805170576
 20
83.873853187597
 30
0.0
 11
-10.193851961653
 21
85.023853187597
 31
0.0
  0
LINE
  5
315
330
1A4
100
AcDbEntity
  8
Layer0
  6
AUSGEZOGEN
 62
     9
370
    18
100
AcDbLine
 10
-10.193851961653
 20
85.023853187597
 30
0.0
 11
-10.857805170576
 21
86.173853187597
 31
0.0
  0
LINE
  5
316
330
1A4
100
AcDbEntity
  8
Layer0
  6
AUSGEZOGEN
 62
     9
370
    18
100
AcDbLine
 10
-10.857805170576
 20
86.173853187597
 30
0.0
 11
-12.185711588423
 21
86.173853187597
 31
0.0
  0
LINE
  5
317
330
1A4
100
AcDbEntity
  8
Stammform
  6
AUSGEZOGEN
 62
    56
370
    18
100
AcDbLine
 10
-12.185711588423
 20
81.573853187597
 30
0.0
 11
-11.521758379499
 21
80.423853187597
 31
0.0
  0
LINE
  5
318
330
1A4
100
AcDbEntity
  8
Layer0
  6
AUSGEZOGEN
 62
     9
370
    18
100
AcDbLine
 10
-12.185711588423
 20
81.573853187597
 30
0.0
 11
-12.849664797346
 21
80.423853187597
 31
0.0
  0
LINE
  5
319
330
1A4
100
AcDbEntity
  8
Layer0
  6
AUSGEZOGEN
 62
     9
370
    18
100
AcDbLine
 10
-10.235512461262
 20
80.496011246189
 30
0.0
 11
-10.857805170576
 21
81.573853187597
 31
0.0
  0
LINE
  5
31A
330
1A4
100
AcDbEntity
  8
Layer0
  6
AUSGEZOGEN
 62
     9
370
    18
100
AcDbLine
 10
-10.857805170576
 20
81.573853187597
 30
0.0
 11
-12.185711588423
 21
81.573853187597
 31
0.0
  0
LINE
  5
31B
330
1A4
100
AcDbEntity
  8
Layer0
  6
AUSGEZOGEN
 62
     9
370
    18
100
AcDbLine
 10
-14.177571215193
 20
85.023853187597
 30
0.0
 11
-14.841520037214
 21
83.873853187597
 31
0.0
  0
LINE
  5
31C
330
1A4
100
AcDbEntity
  8
Layer0
  6
AUSGEZOGEN
 62
     9
370
    18
100
AcDbLine
 10
-14.841520037214
 20
83.873853187597
 30
0.0
 11
-14.177571215193
 21
82.723853187597
 31
0.0
  0
LINE
  5
31D
330
1A4
100
AcDbEntity
  8
Layer0
  6
AUSGEZOGEN
 62
     9
370
    18
100
AcDbLine
 10
-14.177571215193
 20
82.723853187597
 30
0.0
 11
-12.849664797346
 21
82.723853187597
 31
0.0
  0
LINE
  5
31E
330
1A4
100
AcDbEntity
  8
Layer0
  6
AUSGEZOGEN
 62
     9
370
    18
100
AcDbLine
 10
-12.849664797346
 20
82.723853187597
 30
0.0
 11
-12.185711588423
 21
83.873853187597
 31
0.0
  0
LINE
  5
31F
330
1A4
100
AcDbEntity
  8
Layer0
  6
AUSGEZOGEN
 62
     9
370
    18
100
AcDbLine
 10
-12.185711588423
 20
83.873853187597
 30
0.0
 11
-12.849664797346
 21
85.023853187597
 31
0.0
  0
LINE
  5
320
330
1A4
100
AcDbEntity
  8
Layer0
  6
AUSGEZOGEN
 62
     9
370
    18
100
AcDbLine
 10
-12.849664797346
 20
85.023853187597
 30
0.0
 11
-14.177571215193
 21
85.023853187597
 31
0.0
  0
LINE
  5
321
330
1A4
100
AcDbEntity
  8
Stammform
  6
AUSGEZOGEN
 62
    56
370
    18
100
AcDbLine
 10
-14.177571215193
 20
85.023853187597
 30
0.0
 11
-13.513618006269
 21
83.873853187597
 31
0.0
  0
LINE
  5
322
330
1A4
100
AcDbEntity
  8
Stammform
  6
AUSGEZOGEN
 62
    56
370
    18
100
AcDbLine
 10
-13.513618006269
 20
83.873853187597
 30
0.0
 11
-12.185711588423
 21
83.873853187597
 31
0.0
  0
LINE
  5
323
330
1A4
100
AcDbEntity
  8
Stammform
  6
AUSGEZOGEN
 62
    56
370
    18
100
AcDbLine
 10
-13.513618006269
 20
83.873853187597
 30
0.0
 11
-14.177571215193
 21
82.723853187597
 31
0.0
  0
LINE
  5
324
330
1A4
100
AcDbEntity
  8
Stammform
  6
AUSGEZOGEN
 62
    56
370
    18
100
AcDbLine
 10
-13.513618006269
 20
81.573853187597
 30
0.0
 11
-14.019122475731
 21
80.698294289669
 31
0.0
  0
LINE
  5
325
330
1A4
100
AcDbEntity
  8
Stammform
  6
AUSGEZOGEN
 62
    56
370
    18
100
AcDbLine
 10
-13.513618006269
 20
81.573853187597
 30
0.0
 11
-12.185711588423
 21
81.573853187597
 31
0.0
  0
LINE
  5
326
330
1A4
100
AcDbEntity
  8
Stammform
  6
AUSGEZOGEN
 62
    56
370
    18
100
AcDbLine
 10
-14.177571215193
 20
82.723853187597
 30
0.0
 11
-13.513618006269
 21
81.573853187597
 31
0.0
  0
LINE
  5
327
330
1A4
100
AcDbEntity
  8
Layer0
  6
AUSGEZOGEN
 62
     9
370
    18
100
AcDbLine
 10
-14.177571215193
 20
82.723853187597
 30
0.0
 11
-14.841520037214
 21
81.573853187597
 31
0.0
  0
LINE
  5
328
330
1A4
100
AcDbEntity
  8
Layer0
  6
AUSGEZOGEN
 62
     9
370
    18
100
AcDbLine
 10
-12.808004297736
 20
80.496011246189
 30
0.0
 11
-12.185711588423
 21
81.573853187597
 31
0.0
  0
LINE
  5
329
330
1A4
100
AcDbEntity
  8
Layer0
  6
AUSGEZOGEN
 62
     9
370
    18
100
AcDbLine
 10
-12.185711588423
 20
81.573853187597
 30
0.0
 11
-12.849664797346
 21
82.723853187597
 31
0.0
  0
LINE
  5
32A
330
1A4
100
AcDbEntity
  8
Layer0
  6
AUSGEZOGEN
 62
     9
370
    18
100
AcDbLine
 10
-12.849664797346
 20
82.723853187597
 30
0.0
 11
-14.177571215193
 21
82.723853187597
 31
0.0
  0
LINE
  5
32B
330
1A4
100
AcDbEntity
  8
Layer0
  6
AUSGEZOGEN
 62
     9
370
    18
100
AcDbLine
 10
-14.177571215193
 20
101.123853187597
 30
0.0
 11
-14.841520037214
 21
99.973853187597
 31
0.0
  0
LINE
  5
32C
330
1A4
100
AcDbEntity
  8
Layer0
  6
AUSGEZOGEN
 62
     9
370
    18
100
AcDbLine
 10
-14.841520037214
 20
99.973853187597
 30
0.0
 11
-14.177571215193
 21
98.823853187597
 31
0.0
  0
LINE
  5
32D
330
1A4
100
AcDbEntity
  8
Layer0
  6
AUSGEZOGEN
 62
     9
370
    18
100
AcDbLine
 10
-14.177571215193
 20
98.823853187597
 30
0.0
 11
-12.849664797346
 21
98.823853187597
 31
0.0
  0
LINE
  5
32E
330
1A4
100
AcDbEntity
  8
Layer0
  6
AUSGEZOGEN
 62
     9
370
    18
100
AcDbLine
 10
-12.849664797346
 20
98.823853187597
 30
0.0
 11
-12.185711588423
 21
99.973853187597
 31
0.0
  0
LINE
  5
32F
330
1A4
100
AcDbEntity
  8
Layer0
  6
AUSGEZOGEN
 62
     9
370
    18
100
AcDbLine
 10
-12.185711588423
 20
99.973853187597
 30
0.0
 11
-12.849664797346
 21
101.123853187597
 31
0.0
  0
LINE
  5
330
330
1A4
100
AcDbEntity
  8
Layer0
  6
AUSGEZOGEN
 62
     9
370
    18
100
AcDbLine
 10
-12.849664797346
 20
101.123853187597
 30
0.0
 11
-14.177571215193
 21
101.123853187597
 31
0.0
  0
LINE
  5
331
330
1A4
100
AcDbEntity
  8
Stammform
  6
AUSGEZOGEN
 62
    56
370
    18
100
AcDbLine
 10
-14.177571215193
 20
101.123853187597
 30
0.0
 11
-13.513618006269
 21
99.973853187597
 31
0.0
  0
LINE
  5
332
330
1A4
100
AcDbEntity
  8
Stammform
  6
AUSGEZOGEN
 62
    56
370
    18
100
AcDbLine
 10
-13.513618006269
 20
99.973853187597
 30
0.0
 11
-12.185711588423
 21
99.973853187597
 31
0.0
  0
LINE
  5
333
330
1A4
100
AcDbEntity
  8
Stammform
  6
AUSGEZOGEN
 62
    56
370
    18
100
AcDbLine
 10
-13.513618006269
 20
99.973853187597
 30
0.0
 11
-14.177571215193
 21
98.823853187597
 31
0.0
  0
LINE
  5
334
330
1A4
100
AcDbEntity
  8
Stammform
  6
AUSGEZOGEN
 62
    56
370
    18
100
AcDbLine
 10
-13.513618006269
 20
102.273853187597
 30
0.0
 11
-14.177571215193
 21
101.123853187597
 31
0.0
  0
LINE
  5
335
330
1A4
100
AcDbEntity
  8
Stammform
  6
AUSGEZOGEN
 62
    56
370
    18
100
AcDbLine
 10
-13.513618006269
 20
102.273853187597
 30
0.0
 11
-12.185711588423
 21
102.273853187597
 31
0.0
  0
LINE
  5
336
330
1A4
100
AcDbEntity
  8
Stammform
  6
AUSGEZOGEN
 62
    56
370
    18
100
AcDbLine
 10
-14.019122475731
 20
103.149412085526
 30
0.0
 11
-13.513618006269
 21
102.273853187597
 31
0.0
  0
LINE
  5
337
330
1A4
100
AcDbEntity
  8
Layer0
  6
AUSGEZOGEN
 62
     9
370
    18
100
AcDbLine
 10
-14.841520037214
 20
102.273853187597
 30
0.0
 11
-14.177571215193
 21
101.123853187597
 31
0.0
  0
LINE
  5
338
330
1A4
100
AcDbEntity
  8
Layer0
  6
AUSGEZOGEN
 62
     9
370
    18
100
AcDbLine
 10
-14.177571215193
 20
101.123853187597
 30
0.0
 11
-12.849664797346
 21
101.123853187597
 31
0.0
  0
LINE
  5
339
330
1A4
100
AcDbEntity
  8
Layer0
  6
AUSGEZOGEN
 62
     9
370
    18
100
AcDbLine
 10
-12.849664797346
 20
101.123853187597
 30
0.0
 11
-12.185711588423
 21
102.273853187597
 31
0.0
  0
LINE
  5
33A
330
1A4
100
AcDbEntity
  8
Layer0
  6
AUSGEZOGEN
 62
     9
370
    18
100
AcDbLine
 10
-12.185711588423
 20
102.273853187597
 30
0.0
 11
-12.808004297736
 21
103.351695129006
 31
0.0
  0
LINE
  5
33B
330
1A4
100
AcDbEntity
  8
Layer0
  6
AUSGEZOGEN
 62
     9
370
    18
100
AcDbLine
 10
-14.177571215193
 20
96.523853187597
 30
0.0
 11
-14.841520037214
 21
95.373853187597
 31
0.0
  0
LINE
  5
33C
330
1A4
100
AcDbEntity
  8
Layer0
  6
AUSGEZOGEN
 62
     9
370
    18
100
AcDbLine
 10
-14.841520037214
 20
95.373853187597
 30
0.0
 11
-14.177571215193
 21
94.223853187597
 31
0.0
  0
LINE
  5
33D
330
1A4
100
AcDbEntity
  8
Layer0
  6
AUSGEZOGEN
 62
     9
370
    18
100
AcDbLine
 10
-14.177571215193
 20
94.223853187597
 30
0.0
 11
-12.849664797346
 21
94.223853187597
 31
0.0
  0
LINE
  5
33E
330
1A4
100
AcDbEntity
  8
Layer0
  6
AUSGEZOGEN
 62
     9
370
    18
100
AcDbLine
 10
-12.849664797346
 20
94.223853187597
 30
0.0
 11
-12.185711588423
 21
95.373853187597
 31
0.0
  0
LINE
  5
33F
330
1A4
100
AcDbEntity
  8
Layer0
  6
AUSGEZOGEN
 62
     9
370
    18
100
AcDbLine
 10
-12.185711588423
 20
95.373853187597
 30
0.0
 11
-12.849664797346
 21
96.523853187597
 31
0.0
  0
LINE
  5
340
330
1A4
100
AcDbEntity
  8
Layer0
  6
AUSGEZOGEN
 62
     9
370
    18
100
AcDbLine
 10
-12.849664797346
 20
96.523853187597
 30
0.0
 11
-14.177571215193
 21
96.523853187597
 31
0.0
  0
LINE
  5
341
330
1A4
100
AcDbEntity
  8
Stammform
  6
AUSGEZOGEN
 62
    56
370
    18
100
AcDbLine
 10
-14.177571215193
 20
96.523853187597
 30
0.0
 11
-13.513618006269
 21
95.373853187597
 31
0.0
  0
LINE
  5
342
330
1A4
100
AcDbEntity
  8
Stammform
  6
AUSGEZOGEN
 62
    56
370
    18
100
AcDbLine
 10
-13.513618006269
 20
95.373853187597
 30
0.0
 11
-12.185711588423
 21
95.373853187597
 31
0.0
  0
LINE
  5
343
330
1A4
100
AcDbEntity
  8
Stammform
  6
AUSGEZOGEN
 62
    56
370
    18
100
AcDbLine
 10
-13.513618006269
 20
95.373853187597
 30
0.0
 11
-14.177571215193
 21
94.223853187597
 31
0.0
  0
LINE
  5
344
330
1A4
100
AcDbEntity
  8
Stammform
  6
AUSGEZOGEN
 62
    56
370
    18
100
AcDbLine
 10
-13.513618006269
 20
97.673853187597
 30
0.0
 11
-14.177571215193
 21
96.523853187597
 31
0.0
  0
LINE
  5
345
330
1A4
100
AcDbEntity
  8
Stammform
  6
AUSGEZOGEN
 62
    56
370
    18
100
AcDbLine
 10
-13.513618006269
 20
97.673853187597
 30
0.0
 11
-12.185711588423
 21
97.673853187597
 31
0.0
  0
LINE
  5
346
330
1A4
100
AcDbEntity
  8
Stammform
  6
AUSGEZOGEN
 62
    56
370
    18
100
AcDbLine
 10
-14.177571215193
 20
98.823853187597
 30
0.0
 11
-13.513618006269
 21
97.673853187597
 31
0.0
  0
LINE
  5
347
330
1A4
100
AcDbEntity
  8
Layer0
  6
AUSGEZOGEN
 62
     9
370
    18
100
AcDbLine
 10
-14.177571215193
 20
98.823853187597
 30
0.0
 11
-14.841520037214
 21
97.673853187597
 31
0.0
  0
LINE
  5
348
330
1A4
100
AcDbEntity
  8
Layer0
  6
AUSGEZOGEN
 62
     9
370
    18
100
AcDbLine
 10
-14.841520037214
 20
97.673853187597
 30
0.0
 11
-14.177571215193
 21
96.523853187597
 31
0.0
  0
LINE
  5
349
330
1A4
100
AcDbEntity
  8
Layer0
  6
AUSGEZOGEN
 62
     9
370
    18
100
AcDbLine
 10
-14.177571215193
 20
96.523853187597
 30
0.0
 11
-12.849664797346
 21
96.523853187597
 31
0.0
  0
LINE
  5
34A
330
1A4
100
AcDbEntity
  8
Layer0
  6
AUSGEZOGEN
 62
     9
370
    18
100
AcDbLine
 10
-12.849664797346
 20
96.523853187597
 30
0.0
 11
-12.185711588423
 21
97.673853187597
 31
0.0
  0
LINE
  5
34B
330
1A4
100
AcDbEntity
  8
Layer0
  6
AUSGEZOGEN
 62
     9
370
    18
100
AcDbLine
 10
-12.185711588423
 20
97.673853187597
 30
0.0
 11
-12.849664797346
 21
98.823853187597
 31
0.0
  0
LINE
  5
34C
330
1A4
100
AcDbEntity
  8
Layer0
  6
AUSGEZOGEN
 62
     9
370
    18
100
AcDbLine
 10
-12.849664797346
 20
98.823853187597
 30
0.0
 11
-14.177571215193
 21
98.823853187597
 31
0.0
  0
LINE
  5
34D
330
1A4
100
AcDbEntity
  8
Layer0
  6
AUSGEZOGEN
 62
     9
370
    18
100
AcDbLine
 10
-14.177571215193
 20
91.923853187597
 30
0.0
 11
-14.841520037214
 21
90.773853187597
 31
0.0
  0
LINE
  5
34E
330
1A4
100
AcDbEntity
  8
Layer0
  6
AUSGEZOGEN
 62
     9
370
    18
100
AcDbLine
 10
-14.841520037214
 20
90.773853187597
 30
0.0
 11
-14.177571215193
 21
89.623853187597
 31
0.0
  0
LINE
  5
34F
330
1A4
100
AcDbEntity
  8
Layer0
  6
AUSGEZOGEN
 62
     9
370
    18
100
AcDbLine
 10
-14.177571215193
 20
89.623853187597
 30
0.0
 11
-12.849664797346
 21
89.623853187597
 31
0.0
  0
LINE
  5
350
330
1A4
100
AcDbEntity
  8
Layer0
  6
AUSGEZOGEN
 62
     9
370
    18
100
AcDbLine
 10
-12.849664797346
 20
89.623853187597
 30
0.0
 11
-12.185711588423
 21
90.773853187597
 31
0.0
  0
LINE
  5
351
330
1A4
100
AcDbEntity
  8
Layer0
  6
AUSGEZOGEN
 62
     9
370
    18
100
AcDbLine
 10
-12.185711588423
 20
90.773853187597
 30
0.0
 11
-12.849664797346
 21
91.923853187597
 31
0.0
  0
LINE
  5
352
330
1A4
100
AcDbEntity
  8
Layer0
  6
AUSGEZOGEN
 62
     9
370
    18
100
AcDbLine
 10
-12.849664797346
 20
91.923853187597
 30
0.0
 11
-14.177571215193
 21
91.923853187597
 31
0.0
  0
LINE
  5
353
330
1A4
100
AcDbEntity
  8
Stammform
  6
AUSGEZOGEN
 62
    56
370
    18
100
AcDbLine
 10
-14.177571215193
 20
91.923853187597
 30
0.0
 11
-13.513618006269
 21
90.773853187597
 31
0.0
  0
LINE
  5
354
330
1A4
100
AcDbEntity
  8
Stammform
  6
AUSGEZOGEN
 62
    56
370
    18
100
AcDbLine
 10
-13.513618006269
 20
90.773853187597
 30
0.0
 11
-12.185711588423
 21
90.773853187597
 31
0.0
  0
LINE
  5
355
330
1A4
100
AcDbEntity
  8
Stammform
  6
AUSGEZOGEN
 62
    56
370
    18
100
AcDbLine
 10
-13.513618006269
 20
90.773853187597
 30
0.0
 11
-14.177571215193
 21
89.623853187597
 31
0.0
  0
LINE
  5
356
330
1A4
100
AcDbEntity
  8
Stammform
  6
AUSGEZOGEN
 62
    56
370
    18
100
AcDbLine
 10
-13.513618006269
 20
93.073853187597
 30
0.0
 11
-14.177571215193
 21
91.923853187597
 31
0.0
  0
LINE
  5
357
330
1A4
100
AcDbEntity
  8
Stammform
  6
AUSGEZOGEN
 62
    56
370
    18
100
AcDbLine
 10
-13.513618006269
 20
93.073853187597
 30
0.0
 11
-12.185711588423
 21
93.073853187597
 31
0.0
  0
LINE
  5
358
330
1A4
100
AcDbEntity
  8
Stammform
  6
AUSGEZOGEN
 62
    56
370
    18
100
AcDbLine
 10
-14.177571215193
 20
94.223853187597
 30
0.0
 11
-13.513618006269
 21
93.073853187597
 31
0.0
  0
LINE
  5
359
330
1A4
100
AcDbEntity
  8
Layer0
  6
AUSGEZOGEN
 62
     9
370
    18
100
AcDbLine
 10
-14.177571215193
 20
94.223853187597
 30
0.0
 11
-14.841520037214
 21
93.073853187597
 31
0.0
  0
LINE
  5
35A
330
1A4
100
AcDbEntity
  8
Layer0
  6
AUSGEZOGEN
 62
     9
370
    18
100
AcDbLine
 10
-14.841520037214
 20
93.073853187597
 30
0.0
 11
-14.177571215193
 21
91.923853187597
 31
0.0
  0
LINE
  5
35B
330
1A4
100
AcDbEntity
  8
Layer0
  6
AUSGEZOGEN
 62
     9
370
    18
100
AcDbLine
 10
-14.177571215193
 20
91.923853187597
 30
0.0
 11
-12.849664797346
 21
91.923853187597
 31
0.0
  0
LINE
  5
35C
330
1A4
100
AcDbEntity
  8
Layer0
  6
AUSGEZOGEN
 62
     9
370
    18
100
AcDbLine
 10
-12.849664797346
 20
91.923853187597
 30
0.0
 11
-12.185711588423
 21
93.073853187597
 31
0.0
  0
LINE
  5
35D
330
1A4
100
AcDbEntity
  8
Layer0
  6
AUSGEZOGEN
 62
     9
370
    18
100
AcDbLine
 10
-12.185711588423
 20
93.073853187597
 30
0.0
 11
-12.849664797346
 21
94.223853187597
 31
0.0
  0
LINE
  5
35E
330
1A4
100
AcDbEntity
  8
Layer0
  6
AUSGEZOGEN
 62
     9
370
    18
100
AcDbLine
 10
-12.849664797346
 20
94.223853187597
 30
0.0
 11
-14.177571215193
 21
94.223853187597
 31
0.0
  0
LINE
  5
35F
330
1A4
100
AcDbEntity
  8
Layer0
  6
AUSGEZOGEN
 62
     9
370
    18
100
AcDbLine
 10
-14.177571215193
 20
89.623853187597
 30
0.0
 11
-14.841520037214
 21
88.473853187597
 31
0.0
  0
LINE
  5
360
330
1A4
100
AcDbEntity
  8
Layer0
  6
AUSGEZOGEN
 62
     9
370
    18
100
AcDbLine
 10
-14.841520037214
 20
88.473853187597
 30
0.0
 11
-14.177571215193
 21
87.323853187597
 31
0.0
  0
LINE
  5
361
330
1A4
100
AcDbEntity
  8
Layer0
  6
AUSGEZOGEN
 62
     9
370
    18
100
AcDbLine
 10
-14.177571215193
 20
87.323853187597
 30
0.0
 11
-12.849664797346
 21
87.323853187597
 31
0.0
  0
LINE
  5
362
330
1A4
100
AcDbEntity
  8
Layer0
  6
AUSGEZOGEN
 62
     9
370
    18
100
AcDbLine
 10
-12.849664797346
 20
87.323853187597
 30
0.0
 11
-12.185711588423
 21
88.473853187597
 31
0.0
  0
LINE
  5
363
330
1A4
100
AcDbEntity
  8
Layer0
  6
AUSGEZOGEN
 62
     9
370
    18
100
AcDbLine
 10
-12.185711588423
 20
88.473853187597
 30
0.0
 11
-12.849664797346
 21
89.623853187597
 31
0.0
  0
LINE
  5
364
330
1A4
100
AcDbEntity
  8
Layer0
  6
AUSGEZOGEN
 62
     9
370
    18
100
AcDbLine
 10
-12.849664797346
 20
89.623853187597
 30
0.0
 11
-14.177571215193
 21
89.623853187597
 31
0.0
  0
LINE
  5
365
330
1A4
100
AcDbEntity
  8
Stammform
  6
AUSGEZOGEN
 62
    56
370
    18
100
AcDbLine
 10
-14.177571215193
 20
89.623853187597
 30
0.0
 11
-13.513618006269
 21
88.473853187597
 31
0.0
  0
LINE
  5
366
330
1A4
100
AcDbEntity
  8
Stammform
  6
AUSGEZOGEN
 62
    56
370
    18
100
AcDbLine
 10
-13.513618006269
 20
88.473853187597
 30
0.0
 11
-12.185711588423
 21
88.473853187597
 31
0.0
  0
LINE
  5
367
330
1A4
100
AcDbEntity
  8
Stammform
  6
AUSGEZOGEN
 62
    56
370
    18
100
AcDbLine
 10
-13.513618006269
 20
88.473853187597
 30
0.0
 11
-14.177571215193
 21
87.323853187597
 31
0.0
  0
LINE
  5
368
330
1A4
100
AcDbEntity
  8
Stammform
  6
AUSGEZOGEN
 62
    56
370
    18
100
AcDbLine
 10
-13.513618006269
 20
86.173853187597
 30
0.0
 11
-14.177571215193
 21
85.023853187597
 31
0.0
  0
LINE
  5
369
330
1A4
100
AcDbEntity
  8
Stammform
  6
AUSGEZOGEN
 62
    56
370
    18
100
AcDbLine
 10
-13.513618006269
 20
86.173853187597
 30
0.0
 11
-12.185711588423
 21
86.173853187597
 31
0.0
  0
LINE
  5
36A
330
1A4
100
AcDbEntity
  8
Stammform
  6
AUSGEZOGEN
 62
    56
370
    18
100
AcDbLine
 10
-14.177571215193
 20
87.323853187597
 30
0.0
 11
-13.513618006269
 21
86.173853187597
 31
0.0
  0
LINE
  5
36B
330
1A4
100
AcDbEntity
  8
Layer0
  6
AUSGEZOGEN
 62
     9
370
    18
100
AcDbLine
 10
-14.177571215193
 20
87.323853187597
 30
0.0
 11
-14.841520037214
 21
86.173853187597
 31
0.0
  0
LINE
  5
36C
330
1A4
100
AcDbEntity
  8
Layer0
  6
AUSGEZOGEN
 62
     9
370
    18
100
AcDbLine
 10
-14.841520037214
 20
86.173853187597
 30
0.0
 11
-14.177571215193
 21
85.023853187597
 31
0.0
  0
LINE
  5
36D
330
1A4
100
AcDbEntity
  8
Layer0
  6
AUSGEZOGEN
 62
     9
370
    18
100
AcDbLine
 10
-14.177571215193
 20
85.023853187597
 30
0.0
 11
-12.849664797346
 21
85.023853187597
 31
0.0
  0
LINE
  5
36E
330
1A4
100
AcDbEntity
  8
Layer0
  6
AUSGEZOGEN
 62
     9
370
    18
100
AcDbLine
 10
-12.849664797346
 20
85.023853187597
 30
0.0
 11
-12.185711588423
 21
86.173853187597
 31
0.0
  0
LINE
  5
36F
330
1A4
100
AcDbEntity
  8
Layer0
  6
AUSGEZOGEN
 62
     9
370
    18
100
AcDbLine
 10
-12.185711588423
 20
86.173853187597
 30
0.0
 11
-12.849664797346
 21
87.323853187597
 31
0.0
  0
LINE
  5
370
330
1A4
100
AcDbEntity
  8
Layer0
  6
AUSGEZOGEN
 62
     9
370
    18
100
AcDbLine
 10
-12.849664797346
 20
87.323853187597
 30
0.0
 11
-14.177571215193
 21
87.323853187597
 31
0.0
  0
LINE
  5
371
330
1A4
100
AcDbEntity
  8
Layer0
  6
AUSGEZOGEN
 62
     9
370
    18
100
AcDbLine
 10
-8.201992334883
 20
88.473853187597
 30
0.0
 11
-8.865945543806
 21
87.323853187597
 31
0.0
  0
LINE
  5
372
330
1A4
100
AcDbEntity
  8
Layer0
  6
AUSGEZOGEN
 62
     9
370
    18
100
AcDbLine
 10
-8.865945543806
 20
87.323853187597
 30
0.0
 11
-8.201992334883
 21
86.173853187597
 31
0.0
  0
LINE
  5
373
330
1A4
100
AcDbEntity
  8
Layer0
  6
AUSGEZOGEN
 62
     9
370
    18
100
AcDbLine
 10
-8.201992334883
 20
86.173853187597
 30
0.0
 11
-6.874085917036
 21
86.173853187597
 31
0.0
  0
LINE
  5
374
330
1A4
100
AcDbEntity
  8
Layer0
  6
AUSGEZOGEN
 62
     9
370
    18
100
AcDbLine
 10
-6.874085917036
 20
86.173853187597
 30
0.0
 11
-6.210137095014
 21
87.323853187597
 31
0.0
  0
LINE
  5
375
330
1A4
100
AcDbEntity
  8
Layer0
  6
AUSGEZOGEN
 62
     9
370
    18
100
AcDbLine
 10
-6.210137095014
 20
87.323853187597
 30
0.0
 11
-6.874085917036
 21
88.473853187597
 31
0.0
  0
LINE
  5
376
330
1A4
100
AcDbEntity
  8
Layer0
  6
AUSGEZOGEN
 62
     9
370
    18
100
AcDbLine
 10
-6.874085917036
 20
88.473853187597
 30
0.0
 11
-8.201992334883
 21
88.473853187597
 31
0.0
  0
LINE
  5
377
330
1A4
100
AcDbEntity
  8
Stammform
  6
AUSGEZOGEN
 62
    56
370
    18
100
AcDbLine
 10
-8.201992334883
 20
88.473853187597
 30
0.0
 11
-7.538043512861
 21
87.323853187597
 31
0.0
  0
LINE
  5
378
330
1A4
100
AcDbEntity
  8
Stammform
  6
AUSGEZOGEN
 62
    56
370
    18
100
AcDbLine
 10
-7.538043512861
 20
87.323853187597
 30
0.0
 11
-6.210137095014
 21
87.323853187597
 31
0.0
  0
LINE
  5
379
330
1A4
100
AcDbEntity
  8
Stammform
  6
AUSGEZOGEN
 62
    56
370
    18
100
AcDbLine
 10
-7.538043512861
 20
87.323853187597
 30
0.0
 11
-8.201992334883
 21
86.173853187597
 31
0.0
  0
LINE
  5
37A
330
1A4
100
AcDbEntity
  8
Stammform
  6
AUSGEZOGEN
 62
    56
370
    18
100
AcDbLine
 10
-7.538043512861
 20
89.623853187597
 30
0.0
 11
-8.201992334883
 21
88.473853187597
 31
0.0
  0
LINE
  5
37B
330
1A4
100
AcDbEntity
  8
Stammform
  6
AUSGEZOGEN
 62
    56
370
    18
100
AcDbLine
 10
-7.538043512861
 20
89.623853187597
 30
0.0
 11
-6.210137095014
 21
89.623853187597
 31
0.0
  0
LINE
  5
37C
330
1A4
100
AcDbEntity
  8
Stammform
  6
AUSGEZOGEN
 62
    56
370
    18
100
AcDbLine
 10
-8.201992334883
 20
90.773853187597
 30
0.0
 11
-7.538043512861
 21
89.623853187597
 31
0.0
  0
LINE
  5
37D
330
1A4
100
AcDbEntity
  8
Layer0
  6
AUSGEZOGEN
 62
     9
370
    18
100
AcDbLine
 10
-8.201992334883
 20
90.773853187597
 30
0.0
 11
-8.865945543806
 21
89.623853187597
 31
0.0
  0
LINE
  5
37E
330
1A4
100
AcDbEntity
  8
Layer0
  6
AUSGEZOGEN
 62
     9
370
    18
100
AcDbLine
 10
-8.865945543806
 20
89.623853187597
 30
0.0
 11
-8.201992334883
 21
88.473853187597
 31
0.0
  0
LINE
  5
37F
330
1A4
100
AcDbEntity
  8
Layer0
  6
AUSGEZOGEN
 62
     9
370
    18
100
AcDbLine
 10
-8.201992334883
 20
88.473853187597
 30
0.0
 11
-6.874085917036
 21
88.473853187597
 31
0.0
  0
LINE
  5
380
330
1A4
100
AcDbEntity
  8
Layer0
  6
AUSGEZOGEN
 62
     9
370
    18
100
AcDbLine
 10
-6.874085917036
 20
88.473853187597
 30
0.0
 11
-6.210137095014
 21
89.623853187597
 31
0.0
  0
LINE
  5
381
330
1A4
100
AcDbEntity
  8
Layer0
  6
AUSGEZOGEN
 62
     9
370
    18
100
AcDbLine
 10
-6.210137095014
 20
89.623853187597
 30
0.0
 11
-6.874085917036
 21
90.773853187597
 31
0.0
  0
LINE
  5
382
330
1A4
100
AcDbEntity
  8
Layer0
  6
AUSGEZOGEN
 62
     9
370
    18
100
AcDbLine
 10
-6.874085917036
 20
90.773853187597
 30
0.0
 11
-8.201992334883
 21
90.773853187597
 31
0.0
  0
LINE
  5
383
330
1A4
100
AcDbEntity
  8
Layer0
  6
AUSGEZOGEN
 62
     9
370
    18
100
AcDbLine
 10
-8.201992334883
 20
95.373853187597
 30
0.0
 11
-8.865945543806
 21
94.223853187597
 31
0.0
  0
LINE
  5
384
330
1A4
100
AcDbEntity
  8
Layer0
  6
AUSGEZOGEN
 62
     9
370
    18
100
AcDbLine
 10
-8.865945543806
 20
94.223853187597
 30
0.0
 11
-8.201992334883
 21
93.073853187597
 31
0.0
  0
LINE
  5
385
330
1A4
100
AcDbEntity
  8
Layer0
  6
AUSGEZOGEN
 62
     9
370
    18
100
AcDbLine
 10
-8.201992334883
 20
93.073853187597
 30
0.0
 11
-6.874085917036
 21
93.073853187597
 31
0.0
  0
LINE
  5
386
330
1A4
100
AcDbEntity
  8
Layer0
  6
AUSGEZOGEN
 62
     9
370
    18
100
AcDbLine
 10
-6.874085917036
 20
93.073853187597
 30
0.0
 11
-6.210137095014
 21
94.223853187597
 31
0.0
  0
LINE
  5
387
330
1A4
100
AcDbEntity
  8
Layer0
  6
AUSGEZOGEN
 62
     9
370
    18
100
AcDbLine
 10
-6.210137095014
 20
94.223853187597
 30
0.0
 11
-6.874085917036
 21
95.373853187597
 31
0.0
  0
LINE
  5
388
330
1A4
100
AcDbEntity
  8
Layer0
  6
AUSGEZOGEN
 62
     9
370
    18
100
AcDbLine
 10
-6.874085917036
 20
95.373853187597
 30
0.0
 11
-8.201992334883
 21
95.373853187597
 31
0.0
  0
LINE
  5
389
330
1A4
100
AcDbEntity
  8
Stammform
  6
AUSGEZOGEN
 62
    56
370
    18
100
AcDbLine
 10
-8.201992334883
 20
95.373853187597
 30
0.0
 11
-7.538043512861
 21
94.223853187597
 31
0.0
  0
LINE
  5
38A
330
1A4
100
AcDbEntity
  8
Stammform
  6
AUSGEZOGEN
 62
    56
370
    18
100
AcDbLine
 10
-7.538043512861
 20
94.223853187597
 30
0.0
 11
-6.210137095014
 21
94.223853187597
 31
0.0
  0
LINE
  5
38B
330
1A4
100
AcDbEntity
  8
Stammform
  6
AUSGEZOGEN
 62
    56
370
    18
100
AcDbLine
 10
-7.538043512861
 20
94.223853187597
 30
0.0
 11
-8.201992334883
 21
93.073853187597
 31
0.0
  0
LINE
  5
38C
330
1A4
100
AcDbEntity
  8
Stammform
  6
AUSGEZOGEN
 62
    56
370
    18
100
AcDbLine
 10
-7.538043512861
 20
91.923853187597
 30
0.0
 11
-8.201992334883
 21
90.773853187597
 31
0.0
  0
LINE
  5
38D
330
1A4
100
AcDbEntity
  8
Stammform
  6
AUSGEZOGEN
 62
    56
370
    18
100
AcDbLine
 10
-7.538043512861
 20
91.923853187597
 30
0.0
 11
-6.210137095014
 21
91.923853187597
 31
0.0
  0
LINE
  5
38E
330
1A4
100
AcDbEntity
  8
Stammform
  6
AUSGEZOGEN
 62
    56
370
    18
100
AcDbLine
 10
-8.201992334883
 20
93.073853187597
 30
0.0
 11
-7.538043512861
 21
91.923853187597
 31
0.0
  0
LINE
  5
38F
330
1A4
100
AcDbEntity
  8
Layer0
  6
AUSGEZOGEN
 62
     9
370
    18
100
AcDbLine
 10
-8.201992334883
 20
93.073853187597
 30
0.0
 11
-8.865945543806
 21
91.923853187597
 31
0.0
  0
LINE
  5
390
330
1A4
100
AcDbEntity
  8
Layer0
  6
AUSGEZOGEN
 62
     9
370
    18
100
AcDbLine
 10
-8.865945543806
 20
91.923853187597
 30
0.0
 11
-8.201992334883
 21
90.773853187597
 31
0.0
  0
LINE
  5
391
330
1A4
100
AcDbEntity
  8
Layer0
  6
AUSGEZOGEN
 62
     9
370
    18
100
AcDbLine
 10
-8.201992334883
 20
90.773853187597
 30
0.0
 11
-6.874085917036
 21
90.773853187597
 31
0.0
  0
LINE
  5
392
330
1A4
100
AcDbEntity
  8
Layer0
  6
AUSGEZOGEN
 62
     9
370
    18
100
AcDbLine
 10
-6.874085917036
 20
90.773853187597
 30
0.0
 11
-6.210137095014
 21
91.923853187597
 31
0.0
  0
LINE
  5
393
330
1A4
100
AcDbEntity
  8
Layer0
  6
AUSGEZOGEN
 62
     9
370
    18
100
AcDbLine
 10
-6.210137095014
 20
91.923853187597
 30
0.0
 11
-6.874085917036
 21
93.073853187597
 31
0.0
  0
LINE
  5
394
330
1A4
100
AcDbEntity
  8
Layer0
  6
AUSGEZOGEN
 62
     9
370
    18
100
AcDbLine
 10
-6.874085917036
 20
93.073853187597
 30
0.0
 11
-8.201992334883
 21
93.073853187597
 31
0.0
  0
LINE
  5
395
330
1A4
100
AcDbEntity
  8
Layer0
  6
AUSGEZOGEN
 62
     9
370
    18
100
AcDbLine
 10
-8.201992334883
 20
99.973853187597
 30
0.0
 11
-8.865945543806
 21
98.823853187597
 31
0.0
  0
LINE
  5
396
330
1A4
100
AcDbEntity
  8
Layer0
  6
AUSGEZOGEN
 62
     9
370
    18
100
AcDbLine
 10
-8.865945543806
 20
98.823853187597
 30
0.0
 11
-8.201992334883
 21
97.673853187597
 31
0.0
  0
LINE
  5
397
330
1A4
100
AcDbEntity
  8
Layer0
  6
AUSGEZOGEN
 62
     9
370
    18
100
AcDbLine
 10
-8.201992334883
 20
97.673853187597
 30
0.0
 11
-6.874085917036
 21
97.673853187597
 31
0.0
  0
LINE
  5
398
330
1A4
100
AcDbEntity
  8
Layer0
  6
AUSGEZOGEN
 62
     9
370
    18
100
AcDbLine
 10
-6.874085917036
 20
97.673853187597
 30
0.0
 11
-6.210137095014
 21
98.823853187597
 31
0.0
  0
LINE
  5
399
330
1A4
100
AcDbEntity
  8
Layer0
  6
AUSGEZOGEN
 62
     9
370
    18
100
AcDbLine
 10
-6.210137095014
 20
98.823853187597
 30
0.0
 11
-6.874085917036
 21
99.973853187597
 31
0.0
  0
LINE
  5
39A
330
1A4
100
AcDbEntity
  8
Layer0
  6
AUSGEZOGEN
 62
     9
370
    18
100
AcDbLine
 10
-6.874085917036
 20
99.973853187597
 30
0.0
 11
-8.201992334883
 21
99.973853187597
 31
0.0
  0
LINE
  5
39B
330
1A4
100
AcDbEntity
  8
Stammform
  6
AUSGEZOGEN
 62
    56
370
    18
100
AcDbLine
 10
-8.201992334883
 20
99.973853187597
 30
0.0
 11
-7.538043512861
 21
98.823853187597
 31
0.0
  0
LINE
  5
39C
330
1A4
100
AcDbEntity
  8
Stammform
  6
AUSGEZOGEN
 62
    56
370
    18
100
AcDbLine
 10
-7.538043512861
 20
98.823853187597
 30
0.0
 11
-6.210137095014
 21
98.823853187597
 31
0.0
  0
LINE
  5
39D
330
1A4
100
AcDbEntity
  8
Stammform
  6
AUSGEZOGEN
 62
    56
370
    18
100
AcDbLine
 10
-7.538043512861
 20
98.823853187597
 30
0.0
 11
-8.201992334883
 21
97.673853187597
 31
0.0
  0
LINE
  5
39E
330
1A4
100
AcDbEntity
  8
Stammform
  6
AUSGEZOGEN
 62
    56
370
    18
100
AcDbLine
 10
-7.538043512861
 20
96.523853187597
 30
0.0
 11
-8.201992334883
 21
95.373853187597
 31
0.0
  0
LINE
  5
39F
330
1A4
100
AcDbEntity
  8
Stammform
  6
AUSGEZOGEN
 62
    56
370
    18
100
AcDbLine
 10
-7.538043512861
 20
96.523853187597
 30
0.0
 11
-6.210137095014
 21
96.523853187597
 31
0.0
  0
LINE
  5
3A0
330
1A4
100
AcDbEntity
  8
Stammform
  6
AUSGEZOGEN
 62
    56
370
    18
100
AcDbLine
 10
-8.201992334883
 20
97.673853187597
 30
0.0
 11
-7.538043512861
 21
96.523853187597
 31
0.0
  0
LINE
  5
3A1
330
1A4
100
AcDbEntity
  8
Layer0
  6
AUSGEZOGEN
 62
     9
370
    18
100
AcDbLine
 10
-8.201992334883
 20
97.673853187597
 30
0.0
 11
-8.865945543806
 21
96.523853187597
 31
0.0
  0
LINE
  5
3A2
330
1A4
100
AcDbEntity
  8
Layer0
  6
AUSGEZOGEN
 62
     9
370
    18
100
AcDbLine
 10
-8.865945543806
 20
96.523853187597
 30
0.0
 11
-8.201992334883
 21
95.373853187597
 31
0.0
  0
LINE
  5
3A3
330
1A4
100
AcDbEntity
  8
Layer0
  6
AUSGEZOGEN
 62
     9
370
    18
100
AcDbLine
 10
-8.201992334883
 20
95.373853187597
 30
0.0
 11
-6.874085917036
 21
95.373853187597
 31
0.0
  0
LINE
  5
3A4
330
1A4
100
AcDbEntity
  8
Layer0
  6
AUSGEZOGEN
 62
     9
370
    18
100
AcDbLine
 10
-6.874085917036
 20
95.373853187597
 30
0.0
 11
-6.210137095014
 21
96.523853187597
 31
0.0
  0
LINE
  5
3A5
330
1A4
100
AcDbEntity
  8
Layer0
  6
AUSGEZOGEN
 62
     9
370
    18
100
AcDbLine
 10
-6.210137095014
 20
96.523853187597
 30
0.0
 11
-6.874085917036
 21
97.673853187597
 31
0.0
  0
LINE
  5
3A6
330
1A4
100
AcDbEntity
  8
Layer0
  6
AUSGEZOGEN
 62
     9
370
    18
100
AcDbLine
 10
-6.874085917036
 20
97.673853187597
 30
0.0
 11
-8.201992334883
 21
97.673853187597
 31
0.0
  0
LINE
  5
3A7
330
1A4
100
AcDbEntity
  8
Layer0
  6
AUSGEZOGEN
 62
     9
370
    18
100
AcDbLine
 10
-8.656573201475
 20
103.061209871103
 30
0.0
 11
-8.201992334883
 21
102.273853187597
 31
0.0
  0
LINE
  5
3A8
330
1A4
100
AcDbEntity
  8
Layer0
  6
AUSGEZOGEN
 62
     9
370
    18
100
AcDbLine
 10
-8.201992334883
 20
102.273853187597
 30
0.0
 11
-6.874085917036
 21
102.273853187597
 31
0.0
  0
LINE
  5
3A9
330
1A4
100
AcDbEntity
  8
Layer0
  6
AUSGEZOGEN
 62
     9
370
    18
100
AcDbLine
 10
-6.874085917036
 20
102.273853187597
 30
0.0
 11
-6.79650798193
 21
102.40822291974
 31
0.0
  0
LINE
  5
3AA
330
1A4
100
AcDbEntity
  8
Stammform
  6
AUSGEZOGEN
 62
    56
370
    18
100
AcDbLine
 10
-7.879790348078
 20
102.831926750702
 30
0.0
 11
-8.201992334883
 21
102.273853187597
 31
0.0
  0
LINE
  5
3AB
330
1A4
100
AcDbEntity
  8
Stammform
  6
AUSGEZOGEN
 62
    56
370
    18
100
AcDbLine
 10
-7.538043512861
 20
101.123853187597
 30
0.0
 11
-8.201992334883
 21
99.973853187597
 31
0.0
  0
LINE
  5
3AC
330
1A4
100
AcDbEntity
  8
Stammform
  6
AUSGEZOGEN
 62
    56
370
    18
100
AcDbLine
 10
-7.538043512861
 20
101.123853187597
 30
0.0
 11
-6.210137095014
 21
101.123853187597
 31
0.0
  0
LINE
  5
3AD
330
1A4
100
AcDbEntity
  8
Stammform
  6
AUSGEZOGEN
 62
    56
370
    18
100
AcDbLine
 10
-8.201992334883
 20
102.273853187597
 30
0.0
 11
-7.538043512861
 21
101.123853187597
 31
0.0
  0
LINE
  5
3AE
330
1A4
100
AcDbEntity
  8
Layer0
  6
AUSGEZOGEN
 62
     9
370
    18
100
AcDbLine
 10
-8.201992334883
 20
102.273853187597
 30
0.0
 11
-8.865945543806
 21
101.123853187597
 31
0.0
  0
LINE
  5
3AF
330
1A4
100
AcDbEntity
  8
Layer0
  6
AUSGEZOGEN
 62
     9
370
    18
100
AcDbLine
 10
-8.865945543806
 20
101.123853187597
 30
0.0
 11
-8.201992334883
 21
99.973853187597
 31
0.0
  0
LINE
  5
3B0
330
1A4
100
AcDbEntity
  8
Layer0
  6
AUSGEZOGEN
 62
     9
370
    18
100
AcDbLine
 10
-8.201992334883
 20
99.973853187597
 30
0.0
 11
-6.874085917036
 21
99.973853187597
 31
0.0
  0
LINE
  5
3B1
330
1A4
100
AcDbEntity
  8
Layer0
  6
AUSGEZOGEN
 62
     9
370
    18
100
AcDbLine
 10
-6.874085917036
 20
99.973853187597
 30
0.0
 11
-6.210137095014
 21
101.123853187597
 31
0.0
  0
LINE
  5
3B2
330
1A4
100
AcDbEntity
  8
Layer0
  6
AUSGEZOGEN
 62
     9
370
    18
100
AcDbLine
 10
-6.210137095014
 20
101.123853187597
 30
0.0
 11
-6.874085917036
 21
102.273853187597
 31
0.0
  0
LINE
  5
3B3
330
1A4
100
AcDbEntity
  8
Layer0
  6
AUSGEZOGEN
 62
     9
370
    18
100
AcDbLine
 10
-6.874085917036
 20
102.273853187597
 30
0.0
 11
-8.201992334883
 21
102.273853187597
 31
0.0
  0
LINE
  5
3B4
330
1A4
100
AcDbEntity
  8
Layer0
  6
AUSGEZOGEN
 62
     9
370
    18
100
AcDbLine
 10
-8.201992334883
 20
83.873853187597
 30
0.0
 11
-8.865945543806
 21
82.723853187597
 31
0.0
  0
LINE
  5
3B5
330
1A4
100
AcDbEntity
  8
Layer0
  6
AUSGEZOGEN
 62
     9
370
    18
100
AcDbLine
 10
-8.865945543806
 20
82.723853187597
 30
0.0
 11
-8.201992334883
 21
81.573853187597
 31
0.0
  0
LINE
  5
3B6
330
1A4
100
AcDbEntity
  8
Layer0
  6
AUSGEZOGEN
 62
     9
370
    18
100
AcDbLine
 10
-8.201992334883
 20
81.573853187597
 30
0.0
 11
-6.874085917036
 21
81.573853187597
 31
0.0
  0
LINE
  5
3B7
330
1A4
100
AcDbEntity
  8
Layer0
  6
AUSGEZOGEN
 62
     9
370
    18
100
AcDbLine
 10
-6.874085917036
 20
81.573853187597
 30
0.0
 11
-6.210137095014
 21
82.723853187597
 31
0.0
  0
LINE
  5
3B8
330
1A4
100
AcDbEntity
  8
Layer0
  6
AUSGEZOGEN
 62
     9
370
    18
100
AcDbLine
 10
-6.210137095014
 20
82.723853187597
 30
0.0
 11
-6.874085917036
 21
83.873853187597
 31
0.0
  0
LINE
  5
3B9
330
1A4
100
AcDbEntity
  8
Layer0
  6
AUSGEZOGEN
 62
     9
370
    18
100
AcDbLine
 10
-6.874085917036
 20
83.873853187597
 30
0.0
 11
-8.201992334883
 21
83.873853187597
 31
0.0
  0
LINE
  5
3BA
330
1A4
100
AcDbEntity
  8
Stammform
  6
AUSGEZOGEN
 62
    56
370
    18
100
AcDbLine
 10
-8.201992334883
 20
83.873853187597
 30
0.0
 11
-7.538043512861
 21
82.723853187597
 31
0.0
  0
LINE
  5
3BB
330
1A4
100
AcDbEntity
  8
Stammform
  6
AUSGEZOGEN
 62
    56
370
    18
100
AcDbLine
 10
-7.538043512861
 20
82.723853187597
 30
0.0
 11
-6.210137095014
 21
82.723853187597
 31
0.0
  0
LINE
  5
3BC
330
1A4
100
AcDbEntity
  8
Stammform
  6
AUSGEZOGEN
 62
    56
370
    18
100
AcDbLine
 10
-7.538043512861
 20
82.723853187597
 30
0.0
 11
-8.201992334883
 21
81.573853187597
 31
0.0
  0
LINE
  5
3BD
330
1A4
100
AcDbEntity
  8
Stammform
  6
AUSGEZOGEN
 62
    56
370
    18
100
AcDbLine
 10
-7.538043512861
 20
85.023853187597
 30
0.0
 11
-8.201992334883
 21
83.873853187597
 31
0.0
  0
LINE
  5
3BE
330
1A4
100
AcDbEntity
  8
Stammform
  6
AUSGEZOGEN
 62
    56
370
    18
100
AcDbLine
 10
-7.538043512861
 20
85.023853187597
 30
0.0
 11
-6.210137095014
 21
85.023853187597
 31
0.0
  0
LINE
  5
3BF
330
1A4
100
AcDbEntity
  8
Stammform
  6
AUSGEZOGEN
 62
    56
370
    18
100
AcDbLine
 10
-8.201992334883
 20
86.173853187597
 30
0.0
 11
-7.538043512861
 21
85.023853187597
 31
0.0
  0
LINE
  5
3C0
330
1A4
100
AcDbEntity
  8
Layer0
  6
AUSGEZOGEN
 62
     9
370
    18
100
AcDbLine
 10
-8.201992334883
 20
86.173853187597
 30
0.0
 11
-8.865945543806
 21
85.023853187597
 31
0.0
  0
LINE
  5
3C1
330
1A4
100
AcDbEntity
  8
Layer0
  6
AUSGEZOGEN
 62
     9
370
    18
100
AcDbLine
 10
-8.865945543806
 20
85.023853187597
 30
0.0
 11
-8.201992334883
 21
83.873853187597
 31
0.0
  0
LINE
  5
3C2
330
1A4
100
AcDbEntity
  8
Layer0
  6
AUSGEZOGEN
 62
     9
370
    18
100
AcDbLine
 10
-8.201992334883
 20
83.873853187597
 30
0.0
 11
-6.874085917036
 21
83.873853187597
 31
0.0
  0
LINE
  5
3C3
330
1A4
100
AcDbEntity
  8
Layer0
  6
AUSGEZOGEN
 62
     9
370
    18
100
AcDbLine
 10
-6.874085917036
 20
83.873853187597
 30
0.0
 11
-6.210137095014
 21
85.023853187597
 31
0.0
  0
LINE
  5
3C4
330
1A4
100
AcDbEntity
  8
Layer0
  6
AUSGEZOGEN
 62
     9
370
    18
100
AcDbLine
 10
-6.210137095014
 20
85.023853187597
 30
0.0
 11
-6.874085917036
 21
86.173853187597
 31
0.0
  0
LINE
  5
3C5
330
1A4
100
AcDbEntity
  8
Layer0
  6
AUSGEZOGEN
 62
     9
370
    18
100
AcDbLine
 10
-6.874085917036
 20
86.173853187597
 30
0.0
 11
-8.201992334883
 21
86.173853187597
 31
0.0
  0
LINE
  5
3C6
330
1A4
100
AcDbEntity
  8
Stammform
  6
AUSGEZOGEN
 62
    56
370
    18
100
AcDbLine
 10
-8.201992334883
 20
81.573853187597
 30
0.0
 11
-7.879790348078
 21
81.015779624492
 31
0.0
  0
LINE
  5
3C7
330
1A4
100
AcDbEntity
  8
Layer0
  6
AUSGEZOGEN
 62
     9
370
    18
100
AcDbLine
 10
-8.201992334883
 20
81.573853187597
 30
0.0
 11
-8.656573201475
 21
80.786496504092
 31
0.0
  0
LINE
  5
3C8
330
1A4
100
AcDbEntity
  8
Layer0
  6
AUSGEZOGEN
 62
     9
370
    18
100
AcDbLine
 10
-6.79650798193
 20
81.439483455455
 30
0.0
 11
-6.874085917036
 21
81.573853187597
 31
0.0
  0
LINE
  5
3C9
330
1A4
100
AcDbEntity
  8
Layer0
  6
AUSGEZOGEN
 62
     9
370
    18
100
AcDbLine
 10
-6.874085917036
 20
81.573853187597
 30
0.0
 11
-8.201992334883
 21
81.573853187597
 31
0.0
  0
LINE
  5
3CA
330
1A4
100
AcDbEntity
  8
Layer0
  6
AUSGEZOGEN
 62
     9
370
    18
100
AcDbLine
 10
-10.193851961653
 20
85.023853187597
 30
0.0
 11
-10.857805170576
 21
83.873853187597
 31
0.0
  0
LINE
  5
3CB
330
1A4
100
AcDbEntity
  8
Layer0
  6
AUSGEZOGEN
 62
     9
370
    18
100
AcDbLine
 10
-10.857805170576
 20
83.873853187597
 30
0.0
 11
-10.193851961653
 21
82.723853187597
 31
0.0
  0
LINE
  5
3CC
330
1A4
100
AcDbEntity
  8
Layer0
  6
AUSGEZOGEN
 62
     9
370
    18
100
AcDbLine
 10
-10.193851961653
 20
82.723853187597
 30
0.0
 11
-8.865945543806
 21
82.723853187597
 31
0.0
  0
LINE
  5
3CD
330
1A4
100
AcDbEntity
  8
Layer0
  6
AUSGEZOGEN
 62
     9
370
    18
100
AcDbLine
 10
-8.865945543806
 20
82.723853187597
 30
0.0
 11
-8.201992334883
 21
83.873853187597
 31
0.0
  0
LINE
  5
3CE
330
1A4
100
AcDbEntity
  8
Layer0
  6
AUSGEZOGEN
 62
     9
370
    18
100
AcDbLine
 10
-8.201992334883
 20
83.873853187597
 30
0.0
 11
-8.865945543806
 21
85.023853187597
 31
0.0
  0
LINE
  5
3CF
330
1A4
100
AcDbEntity
  8
Layer0
  6
AUSGEZOGEN
 62
     9
370
    18
100
AcDbLine
 10
-8.865945543806
 20
85.023853187597
 30
0.0
 11
-10.193851961653
 21
85.023853187597
 31
0.0
  0
LINE
  5
3D0
330
1A4
100
AcDbEntity
  8
Stammform
  6
AUSGEZOGEN
 62
    56
370
    18
100
AcDbLine
 10
-10.193851961653
 20
85.023853187597
 30
0.0
 11
-9.529898752729
 21
83.873853187597
 31
0.0
  0
LINE
  5
3D1
330
1A4
100
AcDbEntity
  8
Stammform
  6
AUSGEZOGEN
 62
    56
370
    18
100
AcDbLine
 10
-9.529898752729
 20
83.873853187597
 30
0.0
 11
-8.201992334883
 21
83.873853187597
 31
0.0
  0
LINE
  5
3D2
330
1A4
100
AcDbEntity
  8
Stammform
  6
AUSGEZOGEN
 62
    56
370
    18
100
AcDbLine
 10
-9.529898752729
 20
83.873853187597
 30
0.0
 11
-10.193851961653
 21
82.723853187597
 31
0.0
  0
LINE
  5
3D3
330
1A4
100
AcDbEntity
  8
Stammform
  6
AUSGEZOGEN
 62
    56
370
    18
100
AcDbLine
 10
-9.529898752729
 20
81.573853187597
 30
0.0
 11
-10.146182204149
 21
80.506419579916
 31
0.0
  0
LINE
  5
3D4
330
1A4
100
AcDbEntity
  8
Stammform
  6
AUSGEZOGEN
 62
    56
370
    18
100
AcDbLine
 10
-9.529898752729
 20
81.573853187597
 30
0.0
 11
-8.201992334883
 21
81.573853187597
 31
0.0
  0
LINE
  5
3D5
330
1A4
100
AcDbEntity
  8
Stammform
  6
AUSGEZOGEN
 62
    56
370
    18
100
AcDbLine
 10
-10.193851961653
 20
82.723853187597
 30
0.0
 11
-9.529898752729
 21
81.573853187597
 31
0.0
  0
LINE
  5
3D6
330
1A4
100
AcDbEntity
  8
Layer0
  6
AUSGEZOGEN
 62
     9
370
    18
100
AcDbLine
 10
-10.193851961653
 20
82.723853187597
 30
0.0
 11
-10.857805170576
 21
81.573853187597
 31
0.0
  0
LINE
  5
3D7
330
1A4
100
AcDbEntity
  8
Layer0
  6
AUSGEZOGEN
 62
     9
370
    18
100
AcDbLine
 10
-10.857805170576
 20
81.573853187597
 30
0.0
 11
-10.193851961653
 21
80.423853187597
 31
0.0
  0
LINE
  5
3D8
330
1A4
100
AcDbEntity
  8
Layer0
  6
AUSGEZOGEN
 62
     9
370
    18
100
AcDbLine
 10
-8.201992334883
 20
81.573853187597
 30
0.0
 11
-8.865945543806
 21
82.723853187597
 31
0.0
  0
LINE
  5
3D9
330
1A4
100
AcDbEntity
  8
Layer0
  6
AUSGEZOGEN
 62
     9
370
    18
100
AcDbLine
 10
-8.865945543806
 20
82.723853187597
 30
0.0
 11
-10.193851961653
 21
82.723853187597
 31
0.0
  0
LINE
  5
3DA
330
1A4
100
AcDbEntity
  8
Layer0
  6
AUSGEZOGEN
 62
     9
370
    18
100
AcDbLine
 10
-10.193851961653
 20
101.123853187597
 30
0.0
 11
-10.857805170576
 21
99.973853187597
 31
0.0
  0
LINE
  5
3DB
330
1A4
100
AcDbEntity
  8
Layer0
  6
AUSGEZOGEN
 62
     9
370
    18
100
AcDbLine
 10
-10.857805170576
 20
99.973853187597
 30
0.0
 11
-10.193851961653
 21
98.823853187597
 31
0.0
  0
LINE
  5
3DC
330
1A4
100
AcDbEntity
  8
Layer0
  6
AUSGEZOGEN
 62
     9
370
    18
100
AcDbLine
 10
-10.193851961653
 20
98.823853187597
 30
0.0
 11
-8.865945543806
 21
98.823853187597
 31
0.0
  0
LINE
  5
3DD
330
1A4
100
AcDbEntity
  8
Layer0
  6
AUSGEZOGEN
 62
     9
370
    18
100
AcDbLine
 10
-8.865945543806
 20
98.823853187597
 30
0.0
 11
-8.201992334883
 21
99.973853187597
 31
0.0
  0
LINE
  5
3DE
330
1A4
100
AcDbEntity
  8
Layer0
  6
AUSGEZOGEN
 62
     9
370
    18
100
AcDbLine
 10
-8.201992334883
 20
99.973853187597
 30
0.0
 11
-8.865945543806
 21
101.123853187597
 31
0.0
  0
LINE
  5
3DF
330
1A4
100
AcDbEntity
  8
Layer0
  6
AUSGEZOGEN
 62
     9
370
    18
100
AcDbLine
 10
-8.865945543806
 20
101.123853187597
 30
0.0
 11
-10.193851961653
 21
101.123853187597
 31
0.0
  0
LINE
  5
3E0
330
1A4
100
AcDbEntity
  8
Stammform
  6
AUSGEZOGEN
 62
    56
370
    18
100
AcDbLine
 10
-10.193851961653
 20
101.123853187597
 30
0.0
 11
-9.529898752729
 21
99.973853187597
 31
0.0
  0
LINE
  5
3E1
330
1A4
100
AcDbEntity
  8
Stammform
  6
AUSGEZOGEN
 62
    56
370
    18
100
AcDbLine
 10
-9.529898752729
 20
99.973853187597
 30
0.0
 11
-8.201992334883
 21
99.973853187597
 31
0.0
  0
LINE
  5
3E2
330
1A4
100
AcDbEntity
  8
Stammform
  6
AUSGEZOGEN
 62
    56
370
    18
100
AcDbLine
 10
-9.529898752729
 20
99.973853187597
 30
0.0
 11
-10.193851961653
 21
98.823853187597
 31
0.0
  0
LINE
  5
3E3
330
1A4
100
AcDbEntity
  8
Stammform
  6
AUSGEZOGEN
 62
    56
370
    18
100
AcDbLine
 10
-9.529898752729
 20
102.273853187597
 30
0.0
 11
-10.193851961653
 21
101.123853187597
 31
0.0
  0
LINE
  5
3E4
330
1A4
100
AcDbEntity
  8
Stammform
  6
AUSGEZOGEN
 62
    56
370
    18
100
AcDbLine
 10
-9.529898752729
 20
102.273853187597
 30
0.0
 11
-8.201992334883
 21
102.273853187597
 31
0.0
  0
LINE
  5
3E5
330
1A4
100
AcDbEntity
  8
Stammform
  6
AUSGEZOGEN
 62
    56
370
    18
100
AcDbLine
 10
-10.146182204149
 20
103.341286795279
 30
0.0
 11
-9.529898752729
 21
102.273853187597
 31
0.0
  0
LINE
  5
3E6
330
1A4
100
AcDbEntity
  8
Layer0
  6
AUSGEZOGEN
 62
     9
370
    18
100
AcDbLine
 10
-10.857805170576
 20
102.273853187597
 30
0.0
 11
-10.193851961653
 21
101.123853187597
 31
0.0
  0
LINE
  5
3E7
330
1A4
100
AcDbEntity
  8
Layer0
  6
AUSGEZOGEN
 62
     9
370
    18
100
AcDbLine
 10
-10.193851961653
 20
101.123853187597
 30
0.0
 11
-8.865945543806
 21
101.123853187597
 31
0.0
  0
LINE
  5
3E8
330
1A4
100
AcDbEntity
  8
Layer0
  6
AUSGEZOGEN
 62
     9
370
    18
100
AcDbLine
 10
-8.865945543806
 20
101.123853187597
 30
0.0
 11
-8.201992334883
 21
102.273853187597
 31
0.0
  0
LINE
  5
3E9
330
1A4
100
AcDbEntity
  8
Layer0
  6
AUSGEZOGEN
 62
     9
370
    18
100
AcDbLine
 10
-10.193851961653
 20
96.523853187597
 30
0.0
 11
-10.857805170576
 21
95.373853187597
 31
0.0
  0
LINE
  5
3EA
330
1A4
100
AcDbEntity
  8
Layer0
  6
AUSGEZOGEN
 62
     9
370
    18
100
AcDbLine
 10
-10.857805170576
 20
95.373853187597
 30
0.0
 11
-10.193851961653
 21
94.223853187597
 31
0.0
  0
LINE
  5
3EB
330
1A4
100
AcDbEntity
  8
Layer0
  6
AUSGEZOGEN
 62
     9
370
    18
100
AcDbLine
 10
-10.193851961653
 20
94.223853187597
 30
0.0
 11
-8.865945543806
 21
94.223853187597
 31
0.0
  0
LINE
  5
3EC
330
1A4
100
AcDbEntity
  8
Layer0
  6
AUSGEZOGEN
 62
     9
370
    18
100
AcDbLine
 10
-8.865945543806
 20
94.223853187597
 30
0.0
 11
-8.201992334883
 21
95.373853187597
 31
0.0
  0
LINE
  5
3ED
330
1A4
100
AcDbEntity
  8
Layer0
  6
AUSGEZOGEN
 62
     9
370
    18
100
AcDbLine
 10
-8.201992334883
 20
95.373853187597
 30
0.0
 11
-8.865945543806
 21
96.523853187597
 31
0.0
  0
LINE
  5
3EE
330
1A4
100
AcDbEntity
  8
Layer0
  6
AUSGEZOGEN
 62
     9
370
    18
100
AcDbLine
 10
-8.865945543806
 20
96.523853187597
 30
0.0
 11
-10.193851961653
 21
96.523853187597
 31
0.0
  0
LINE
  5
3EF
330
1A4
100
AcDbEntity
  8
Stammform
  6
AUSGEZOGEN
 62
    56
370
    18
100
AcDbLine
 10
-10.193851961653
 20
96.523853187597
 30
0.0
 11
-9.529898752729
 21
95.373853187597
 31
0.0
  0
LINE
  5
3F0
330
1A4
100
AcDbEntity
  8
Stammform
  6
AUSGEZOGEN
 62
    56
370
    18
100
AcDbLine
 10
-9.529898752729
 20
95.373853187597
 30
0.0
 11
-8.201992334883
 21
95.373853187597
 31
0.0
  0
LINE
  5
3F1
330
1A4
100
AcDbEntity
  8
Stammform
  6
AUSGEZOGEN
 62
    56
370
    18
100
AcDbLine
 10
-9.529898752729
 20
95.373853187597
 30
0.0
 11
-10.193851961653
 21
94.223853187597
 31
0.0
  0
LINE
  5
3F2
330
1A4
100
AcDbEntity
  8
Stammform
  6
AUSGEZOGEN
 62
    56
370
    18
100
AcDbLine
 10
-9.529898752729
 20
97.673853187597
 30
0.0
 11
-10.193851961653
 21
96.523853187597
 31
0.0
  0
LINE
  5
3F3
330
1A4
100
AcDbEntity
  8
Stammform
  6
AUSGEZOGEN
 62
    56
370
    18
100
AcDbLine
 10
-9.529898752729
 20
97.673853187597
 30
0.0
 11
-8.201992334883
 21
97.673853187597
 31
0.0
  0
LINE
  5
3F4
330
1A4
100
AcDbEntity
  8
Stammform
  6
AUSGEZOGEN
 62
    56
370
    18
100
AcDbLine
 10
-10.193851961653
 20
98.823853187597
 30
0.0
 11
-9.529898752729
 21
97.673853187597
 31
0.0
  0
LINE
  5
3F5
330
1A4
100
AcDbEntity
  8
Layer0
  6
AUSGEZOGEN
 62
     9
370
    18
100
AcDbLine
 10
-10.193851961653
 20
98.823853187597
 30
0.0
 11
-10.857805170576
 21
97.673853187597
 31
0.0
  0
LINE
  5
3F6
330
1A4
100
AcDbEntity
  8
Layer0
  6
AUSGEZOGEN
 62
     9
370
    18
100
AcDbLine
 10
-10.857805170576
 20
97.673853187597
 30
0.0
 11
-10.193851961653
 21
96.523853187597
 31
0.0
  0
LINE
  5
3F7
330
1A4
100
AcDbEntity
  8
Layer0
  6
AUSGEZOGEN
 62
     9
370
    18
100
AcDbLine
 10
-10.193851961653
 20
96.523853187597
 30
0.0
 11
-8.865945543806
 21
96.523853187597
 31
0.0
  0
LINE
  5
3F8
330
1A4
100
AcDbEntity
  8
Layer0
  6
AUSGEZOGEN
 62
     9
370
    18
100
AcDbLine
 10
-8.865945543806
 20
96.523853187597
 30
0.0
 11
-8.201992334883
 21
97.673853187597
 31
0.0
  0
LINE
  5
3F9
330
1A4
100
AcDbEntity
  8
Layer0
  6
AUSGEZOGEN
 62
     9
370
    18
100
AcDbLine
 10
-8.201992334883
 20
97.673853187597
 30
0.0
 11
-8.865945543806
 21
98.823853187597
 31
0.0
  0
LINE
  5
3FA
330
1A4
100
AcDbEntity
  8
Layer0
  6
AUSGEZOGEN
 62
     9
370
    18
100
AcDbLine
 10
-8.865945543806
 20
98.823853187597
 30
0.0
 11
-10.193851961653
 21
98.823853187597
 31
0.0
  0
LINE
  5
3FB
330
1A4
100
AcDbEntity
  8
Layer0
  6
AUSGEZOGEN
 62
     9
370
    18
100
AcDbLine
 10
-10.193851961653
 20
91.923853187597
 30
0.0
 11
-10.857805170576
 21
90.773853187597
 31
0.0
  0
LINE
  5
3FC
330
1A4
100
AcDbEntity
  8
Layer0
  6
AUSGEZOGEN
 62
     9
370
    18
100
AcDbLine
 10
-10.857805170576
 20
90.773853187597
 30
0.0
 11
-10.193851961653
 21
89.623853187597
 31
0.0
  0
LINE
  5
3FD
330
1A4
100
AcDbEntity
  8
Layer0
  6
AUSGEZOGEN
 62
     9
370
    18
100
AcDbLine
 10
-10.193851961653
 20
89.623853187597
 30
0.0
 11
-8.865945543806
 21
89.623853187597
 31
0.0
  0
LINE
  5
3FE
330
1A4
100
AcDbEntity
  8
Layer0
  6
AUSGEZOGEN
 62
     9
370
    18
100
AcDbLine
 10
-8.865945543806
 20
89.623853187597
 30
0.0
 11
-8.201992334883
 21
90.773853187597
 31
0.0
  0
LINE
  5
3FF
330
1A4
100
AcDbEntity
  8
Layer0
  6
AUSGEZOGEN
 62
     9
370
    18
100
AcDbLine
 10
-8.201992334883
 20
90.773853187597
 30
0.0
 11
-8.865945543806
 21
91.923853187597
 31
0.0
  0
LINE
  5
400
330
1A4
100
AcDbEntity
  8
Layer0
  6
AUSGEZOGEN
 62
     9
370
    18
100
AcDbLine
 10
-8.865945543806
 20
91.923853187597
 30
0.0
 11
-10.193851961653
 21
91.923853187597
 31
0.0
  0
LINE
  5
401
330
1A4
100
AcDbEntity
  8
Stammform
  6
AUSGEZOGEN
 62
    56
370
    18
100
AcDbLine
 10
-10.193851961653
 20
91.923853187597
 30
0.0
 11
-9.529898752729
 21
90.773853187597
 31
0.0
  0
LINE
  5
402
330
1A4
100
AcDbEntity
  8
Stammform
  6
AUSGEZOGEN
 62
    56
370
    18
100
AcDbLine
 10
-9.529898752729
 20
90.773853187597
 30
0.0
 11
-8.201992334883
 21
90.773853187597
 31
0.0
  0
LINE
  5
403
330
1A4
100
AcDbEntity
  8
Stammform
  6
AUSGEZOGEN
 62
    56
370
    18
100
AcDbLine
 10
-9.529898752729
 20
90.773853187597
 30
0.0
 11
-10.193851961653
 21
89.623853187597
 31
0.0
  0
LINE
  5
404
330
1A4
100
AcDbEntity
  8
Stammform
  6
AUSGEZOGEN
 62
    56
370
    18
100
AcDbLine
 10
-9.529898752729
 20
93.073853187597
 30
0.0
 11
-10.193851961653
 21
91.923853187597
 31
0.0
  0
LINE
  5
405
330
1A4
100
AcDbEntity
  8
Stammform
  6
AUSGEZOGEN
 62
    56
370
    18
100
AcDbLine
 10
-9.529898752729
 20
93.073853187597
 30
0.0
 11
-8.201992334883
 21
93.073853187597
 31
0.0
  0
LINE
  5
406
330
1A4
100
AcDbEntity
  8
Stammform
  6
AUSGEZOGEN
 62
    56
370
    18
100
AcDbLine
 10
-10.193851961653
 20
94.223853187597
 30
0.0
 11
-9.529898752729
 21
93.073853187597
 31
0.0
  0
LINE
  5
407
330
1A4
100
AcDbEntity
  8
Layer0
  6
AUSGEZOGEN
 62
     9
370
    18
100
AcDbLine
 10
-10.193851961653
 20
94.223853187597
 30
0.0
 11
-10.857805170576
 21
93.073853187597
 31
0.0
  0
LINE
  5
408
330
1A4
100
AcDbEntity
  8
Layer0
  6
AUSGEZOGEN
 62
     9
370
    18
100
AcDbLine
 10
-10.857805170576
 20
93.073853187597
 30
0.0
 11
-10.193851961653
 21
91.923853187597
 31
0.0
  0
LINE
  5
409
330
1A4
100
AcDbEntity
  8
Layer0
  6
AUSGEZOGEN
 62
     9
370
    18
100
AcDbLine
 10
-10.193851961653
 20
91.923853187597
 30
0.0
 11
-8.865945543806
 21
91.923853187597
 31
0.0
  0
LINE
  5
40A
330
1A4
100
AcDbEntity
  8
Layer0
  6
AUSGEZOGEN
 62
     9
370
    18
100
AcDbLine
 10
-8.865945543806
 20
91.923853187597
 30
0.0
 11
-8.201992334883
 21
93.073853187597
 31
0.0
  0
LINE
  5
40B
330
1A4
100
AcDbEntity
  8
Layer0
  6
AUSGEZOGEN
 62
     9
370
    18
100
AcDbLine
 10
-8.201992334883
 20
93.073853187597
 30
0.0
 11
-8.865945543806
 21
94.223853187597
 31
0.0
  0
LINE
  5
40C
330
1A4
100
AcDbEntity
  8
Layer0
  6
AUSGEZOGEN
 62
     9
370
    18
100
AcDbLine
 10
-8.865945543806
 20
94.223853187597
 30
0.0
 11
-10.193851961653
 21
94.223853187597
 31
0.0
  0
LINE
  5
40D
330
1A4
100
AcDbEntity
  8
Layer0
  6
AUSGEZOGEN
 62
     9
370
    18
100
AcDbLine
 10
-10.193851961653
 20
89.623853187597
 30
0.0
 11
-10.857805170576
 21
88.473853187597
 31
0.0
  0
LINE
  5
40E
330
1A4
100
AcDbEntity
  8
Layer0
  6
AUSGEZOGEN
 62
     9
370
    18
100
AcDbLine
 10
-10.857805170576
 20
88.473853187597
 30
0.0
 11
-10.193851961653
 21
87.323853187597
 31
0.0
  0
LINE
  5
40F
330
1A4
100
AcDbEntity
  8
Layer0
  6
AUSGEZOGEN
 62
     9
370
    18
100
AcDbLine
 10
-10.193851961653
 20
87.323853187597
 30
0.0
 11
-8.865945543806
 21
87.323853187597
 31
0.0
  0
LINE
  5
410
330
1A4
100
AcDbEntity
  8
Layer0
  6
AUSGEZOGEN
 62
     9
370
    18
100
AcDbLine
 10
-8.865945543806
 20
87.323853187597
 30
0.0
 11
-8.201992334883
 21
88.473853187597
 31
0.0
  0
LINE
  5
411
330
1A4
100
AcDbEntity
  8
Layer0
  6
AUSGEZOGEN
 62
     9
370
    18
100
AcDbLine
 10
-8.201992334883
 20
88.473853187597
 30
0.0
 11
-8.865945543806
 21
89.623853187597
 31
0.0
  0
LINE
  5
412
330
1A4
100
AcDbEntity
  8
Layer0
  6
AUSGEZOGEN
 62
     9
370
    18
100
AcDbLine
 10
-8.865945543806
 20
89.623853187597
 30
0.0
 11
-10.193851961653
 21
89.623853187597
 31
0.0
  0
LINE
  5
413
330
1A4
100
AcDbEntity
  8
Stammform
  6
AUSGEZOGEN
 62
    56
370
    18
100
AcDbLine
 10
-10.193851961653
 20
89.623853187597
 30
0.0
 11
-9.529898752729
 21
88.473853187597
 31
0.0
  0
LINE
  5
414
330
1A4
100
AcDbEntity
  8
Stammform
  6
AUSGEZOGEN
 62
    56
370
    18
100
AcDbLine
 10
-9.529898752729
 20
88.473853187597
 30
0.0
 11
-8.201992334883
 21
88.473853187597
 31
0.0
  0
LINE
  5
415
330
1A4
100
AcDbEntity
  8
Stammform
  6
AUSGEZOGEN
 62
    56
370
    18
100
AcDbLine
 10
-9.529898752729
 20
88.473853187597
 30
0.0
 11
-10.193851961653
 21
87.323853187597
 31
0.0
  0
LINE
  5
416
330
1A4
100
AcDbEntity
  8
Stammform
  6
AUSGEZOGEN
 62
    56
370
    18
100
AcDbLine
 10
-9.529898752729
 20
86.173853187597
 30
0.0
 11
-10.193851961653
 21
85.023853187597
 31
0.0
  0
LINE
  5
417
330
1A4
100
AcDbEntity
  8
Stammform
  6
AUSGEZOGEN
 62
    56
370
    18
100
AcDbLine
 10
-9.529898752729
 20
86.173853187597
 30
0.0
 11
-8.201992334883
 21
86.173853187597
 31
0.0
  0
LINE
  5
418
330
1A4
100
AcDbEntity
  8
Stammform
  6
AUSGEZOGEN
 62
    56
370
    18
100
AcDbLine
 10
-10.193851961653
 20
87.323853187597
 30
0.0
 11
-9.529898752729
 21
86.173853187597
 31
0.0
  0
LINE
  5
419
330
1A4
100
AcDbEntity
  8
Layer0
  6
AUSGEZOGEN
 62
     9
370
    18
100
AcDbLine
 10
-10.193851961653
 20
87.323853187597
 30
0.0
 11
-10.857805170576
 21
86.173853187597
 31
0.0
  0
LINE
  5
41A
330
1A4
100
AcDbEntity
  8
Layer0
  6
AUSGEZOGEN
 62
     9
370
    18
100
AcDbLine
 10
-10.857805170576
 20
86.173853187597
 30
0.0
 11
-10.193851961653
 21
85.023853187597
 31
0.0
  0
LINE
  5
41B
330
1A4
100
AcDbEntity
  8
Layer0
  6
AUSGEZOGEN
 62
     9
370
    18
100
AcDbLine
 10
-10.193851961653
 20
85.023853187597
 30
0.0
 11
-8.865945543806
 21
85.023853187597
 31
0.0
  0
LINE
  5
41C
330
1A4
100
AcDbEntity
  8
Layer0
  6
AUSGEZOGEN
 62
     9
370
    18
100
AcDbLine
 10
-8.865945543806
 20
85.023853187597
 30
0.0
 11
-8.201992334883
 21
86.173853187597
 31
0.0
  0
LINE
  5
41D
330
1A4
100
AcDbEntity
  8
Layer0
  6
AUSGEZOGEN
 62
     9
370
    18
100
AcDbLine
 10
-8.201992334883
 20
86.173853187597
 30
0.0
 11
-8.865945543806
 21
87.323853187597
 31
0.0
  0
LINE
  5
41E
330
1A4
100
AcDbEntity
  8
Layer0
  6
AUSGEZOGEN
 62
     9
370
    18
100
AcDbLine
 10
-8.865945543806
 20
87.323853187597
 30
0.0
 11
-10.193851961653
 21
87.323853187597
 31
0.0
  0
LINE
  5
41F
330
1A4
100
AcDbEntity
  8
Layer0
  6
AUSGEZOGEN
 62
     9
370
    18
100
AcDbLine
 10
-4.218273081343
 20
88.473853187597
 30
0.0
 11
-4.882230677168
 21
87.323853187597
 31
0.0
  0
LINE
  5
420
330
1A4
100
AcDbEntity
  8
Layer0
  6
AUSGEZOGEN
 62
     9
370
    18
100
AcDbLine
 10
-4.882230677168
 20
87.323853187597
 30
0.0
 11
-4.218273081343
 21
86.173853187597
 31
0.0
  0
LINE
  5
421
330
1A4
100
AcDbEntity
  8
Layer0
  6
AUSGEZOGEN
 62
     9
370
    18
100
AcDbLine
 10
-4.218273081343
 20
86.173853187597
 30
0.0
 11
-2.8903754373
 21
86.173853187597
 31
0.0
  0
LINE
  5
422
330
1A4
100
AcDbEntity
  8
Layer0
  6
AUSGEZOGEN
 62
     9
370
    18
100
AcDbLine
 10
-2.8903754373
 20
86.173853187597
 30
0.0
 11
-2.226417841474
 21
87.323853187597
 31
0.0
  0
LINE
  5
423
330
1A4
100
AcDbEntity
  8
Layer0
  6
AUSGEZOGEN
 62
     9
370
    18
100
AcDbLine
 10
-2.226417841474
 20
87.323853187597
 30
0.0
 11
-2.8903754373
 21
88.473853187597
 31
0.0
  0
LINE
  5
424
330
1A4
100
AcDbEntity
  8
Layer0
  6
AUSGEZOGEN
 62
     9
370
    18
100
AcDbLine
 10
-2.8903754373
 20
88.473853187597
 30
0.0
 11
-4.218273081343
 21
88.473853187597
 31
0.0
  0
LINE
  5
425
330
1A4
100
AcDbEntity
  8
Stammform
  6
AUSGEZOGEN
 62
    56
370
    18
100
AcDbLine
 10
-4.218273081343
 20
88.473853187597
 30
0.0
 11
-3.554324259321
 21
87.323853187597
 31
0.0
  0
LINE
  5
426
330
1A4
100
AcDbEntity
  8
Stammform
  6
AUSGEZOGEN
 62
    56
370
    18
100
AcDbLine
 10
-3.554324259321
 20
87.323853187597
 30
0.0
 11
-2.226417841474
 21
87.323853187597
 31
0.0
  0
LINE
  5
427
330
1A4
100
AcDbEntity
  8
Stammform
  6
AUSGEZOGEN
 62
    56
370
    18
100
AcDbLine
 10
-3.554324259321
 20
87.323853187597
 30
0.0
 11
-4.218273081343
 21
86.173853187597
 31
0.0
  0
LINE
  5
428
330
1A4
100
AcDbEntity
  8
Stammform
  6
AUSGEZOGEN
 62
    56
370
    18
100
AcDbLine
 10
-3.554324259321
 20
89.623853187597
 30
0.0
 11
-4.218273081343
 21
88.473853187597
 31
0.0
  0
LINE
  5
429
330
1A4
100
AcDbEntity
  8
Stammform
  6
AUSGEZOGEN
 62
    56
370
    18
100
AcDbLine
 10
-3.554324259321
 20
89.623853187597
 30
0.0
 11
-2.226417841474
 21
89.623853187597
 31
0.0
  0
LINE
  5
42A
330
1A4
100
AcDbEntity
  8
Stammform
  6
AUSGEZOGEN
 62
    56
370
    18
100
AcDbLine
 10
-4.218273081343
 20
90.773853187597
 30
0.0
 11
-3.554324259321
 21
89.623853187597
 31
0.0
  0
LINE
  5
42B
330
1A4
100
AcDbEntity
  8
Layer0
  6
AUSGEZOGEN
 62
     9
370
    18
100
AcDbLine
 10
-4.218273081343
 20
90.773853187597
 30
0.0
 11
-4.882230677168
 21
89.623853187597
 31
0.0
  0
LINE
  5
42C
330
1A4
100
AcDbEntity
  8
Layer0
  6
AUSGEZOGEN
 62
     9
370
    18
100
AcDbLine
 10
-4.882230677168
 20
89.623853187597
 30
0.0
 11
-4.218273081343
 21
88.473853187597
 31
0.0
  0
LINE
  5
42D
330
1A4
100
AcDbEntity
  8
Layer0
  6
AUSGEZOGEN
 62
     9
370
    18
100
AcDbLine
 10
-4.218273081343
 20
88.473853187597
 30
0.0
 11
-2.8903754373
 21
88.473853187597
 31
0.0
  0
LINE
  5
42E
330
1A4
100
AcDbEntity
  8
Layer0
  6
AUSGEZOGEN
 62
     9
370
    18
100
AcDbLine
 10
-2.8903754373
 20
88.473853187597
 30
0.0
 11
-2.226417841474
 21
89.623853187597
 31
0.0
  0
LINE
  5
42F
330
1A4
100
AcDbEntity
  8
Layer0
  6
AUSGEZOGEN
 62
     9
370
    18
100
AcDbLine
 10
-2.226417841474
 20
89.623853187597
 30
0.0
 11
-2.8903754373
 21
90.773853187597
 31
0.0
  0
LINE
  5
430
330
1A4
100
AcDbEntity
  8
Layer0
  6
AUSGEZOGEN
 62
     9
370
    18
100
AcDbLine
 10
-2.8903754373
 20
90.773853187597
 30
0.0
 11
-4.218273081343
 21
90.773853187597
 31
0.0
  0
LINE
  5
431
330
1A4
100
AcDbEntity
  8
Layer0
  6
AUSGEZOGEN
 62
     9
370
    18
100
AcDbLine
 10
-4.218273081343
 20
95.373853187597
 30
0.0
 11
-4.882230677168
 21
94.223853187597
 31
0.0
  0
LINE
  5
432
330
1A4
100
AcDbEntity
  8
Layer0
  6
AUSGEZOGEN
 62
     9
370
    18
100
AcDbLine
 10
-4.882230677168
 20
94.223853187597
 30
0.0
 11
-4.218273081343
 21
93.073853187597
 31
0.0
  0
LINE
  5
433
330
1A4
100
AcDbEntity
  8
Layer0
  6
AUSGEZOGEN
 62
     9
370
    18
100
AcDbLine
 10
-4.218273081343
 20
93.073853187597
 30
0.0
 11
-2.8903754373
 21
93.073853187597
 31
0.0
  0
LINE
  5
434
330
1A4
100
AcDbEntity
  8
Layer0
  6
AUSGEZOGEN
 62
     9
370
    18
100
AcDbLine
 10
-2.8903754373
 20
93.073853187597
 30
0.0
 11
-2.226417841474
 21
94.223853187597
 31
0.0
  0
LINE
  5
435
330
1A4
100
AcDbEntity
  8
Layer0
  6
AUSGEZOGEN
 62
     9
370
    18
100
AcDbLine
 10
-2.226417841474
 20
94.223853187597
 30
0.0
 11
-2.8903754373
 21
95.373853187597
 31
0.0
  0
LINE
  5
436
330
1A4
100
AcDbEntity
  8
Layer0
  6
AUSGEZOGEN
 62
     9
370
    18
100
AcDbLine
 10
-2.8903754373
 20
95.373853187597
 30
0.0
 11
-4.218273081343
 21
95.373853187597
 31
0.0
  0
LINE
  5
437
330
1A4
100
AcDbEntity
  8
Stammform
  6
AUSGEZOGEN
 62
    56
370
    18
100
AcDbLine
 10
-4.218273081343
 20
95.373853187597
 30
0.0
 11
-3.554324259321
 21
94.223853187597
 31
0.0
  0
LINE
  5
438
330
1A4
100
AcDbEntity
  8
Stammform
  6
AUSGEZOGEN
 62
    56
370
    18
100
AcDbLine
 10
-3.554324259321
 20
94.223853187597
 30
0.0
 11
-2.226417841474
 21
94.223853187597
 31
0.0
  0
LINE
  5
439
330
1A4
100
AcDbEntity
  8
Stammform
  6
AUSGEZOGEN
 62
    56
370
    18
100
AcDbLine
 10
-3.554324259321
 20
94.223853187597
 30
0.0
 11
-4.218273081343
 21
93.073853187597
 31
0.0
  0
LINE
  5
43A
330
1A4
100
AcDbEntity
  8
Stammform
  6
AUSGEZOGEN
 62
    56
370
    18
100
AcDbLine
 10
-3.554324259321
 20
91.923853187597
 30
0.0
 11
-4.218273081343
 21
90.773853187597
 31
0.0
  0
LINE
  5
43B
330
1A4
100
AcDbEntity
  8
Stammform
  6
AUSGEZOGEN
 62
    56
370
    18
100
AcDbLine
 10
-3.554324259321
 20
91.923853187597
 30
0.0
 11
-2.226417841474
 21
91.923853187597
 31
0.0
  0
LINE
  5
43C
330
1A4
100
AcDbEntity
  8
Stammform
  6
AUSGEZOGEN
 62
    56
370
    18
100
AcDbLine
 10
-4.218273081343
 20
93.073853187597
 30
0.0
 11
-3.554324259321
 21
91.923853187597
 31
0.0
  0
LINE
  5
43D
330
1A4
100
AcDbEntity
  8
Layer0
  6
AUSGEZOGEN
 62
     9
370
    18
100
AcDbLine
 10
-4.218273081343
 20
93.073853187597
 30
0.0
 11
-4.882230677168
 21
91.923853187597
 31
0.0
  0
LINE
  5
43E
330
1A4
100
AcDbEntity
  8
Layer0
  6
AUSGEZOGEN
 62
     9
370
    18
100
AcDbLine
 10
-4.882230677168
 20
91.923853187597
 30
0.0
 11
-4.218273081343
 21
90.773853187597
 31
0.0
  0
LINE
  5
43F
330
1A4
100
AcDbEntity
  8
Layer0
  6
AUSGEZOGEN
 62
     9
370
    18
100
AcDbLine
 10
-4.218273081343
 20
90.773853187597
 30
0.0
 11
-2.8903754373
 21
90.773853187597
 31
0.0
  0
LINE
  5
440
330
1A4
100
AcDbEntity
  8
Layer0
  6
AUSGEZOGEN
 62
     9
370
    18
100
AcDbLine
 10
-2.8903754373
 20
90.773853187597
 30
0.0
 11
-2.226417841474
 21
91.923853187597
 31
0.0
  0
LINE
  5
441
330
1A4
100
AcDbEntity
  8
Layer0
  6
AUSGEZOGEN
 62
     9
370
    18
100
AcDbLine
 10
-2.226417841474
 20
91.923853187597
 30
0.0
 11
-2.8903754373
 21
93.073853187597
 31
0.0
  0
LINE
  5
442
330
1A4
100
AcDbEntity
  8
Layer0
  6
AUSGEZOGEN
 62
     9
370
    18
100
AcDbLine
 10
-2.8903754373
 20
93.073853187597
 30
0.0
 11
-4.218273081343
 21
93.073853187597
 31
0.0
  0
LINE
  5
443
330
1A4
100
AcDbEntity
  8
Layer0
  6
AUSGEZOGEN
 62
     9
370
    18
100
AcDbLine
 10
-4.218273081343
 20
99.973853187597
 30
0.0
 11
-4.882230677168
 21
98.823853187597
 31
0.0
  0
LINE
  5
444
330
1A4
100
AcDbEntity
  8
Layer0
  6
AUSGEZOGEN
 62
     9
370
    18
100
AcDbLine
 10
-4.882230677168
 20
98.823853187597
 30
0.0
 11
-4.218273081343
 21
97.673853187597
 31
0.0
  0
LINE
  5
445
330
1A4
100
AcDbEntity
  8
Layer0
  6
AUSGEZOGEN
 62
     9
370
    18
100
AcDbLine
 10
-4.218273081343
 20
97.673853187597
 30
0.0
 11
-2.8903754373
 21
97.673853187597
 31
0.0
  0
LINE
  5
446
330
1A4
100
AcDbEntity
  8
Layer0
  6
AUSGEZOGEN
 62
     9
370
    18
100
AcDbLine
 10
-2.8903754373
 20
97.673853187597
 30
0.0
 11
-2.226417841474
 21
98.823853187597
 31
0.0
  0
LINE
  5
447
330
1A4
100
AcDbEntity
  8
Layer0
  6
AUSGEZOGEN
 62
     9
370
    18
100
AcDbLine
 10
-3.309115686675
 20
99.973853187597
 30
0.0
 11
-4.218273081343
 21
99.973853187597
 31
0.0
  0
LINE
  5
448
330
1A4
100
AcDbEntity
  8
Stammform
  6
AUSGEZOGEN
 62
    56
370
    18
100
AcDbLine
 10
-4.218273081343
 20
99.973853187597
 30
0.0
 11
-3.554324259321
 21
98.823853187597
 31
0.0
  0
LINE
  5
449
330
1A4
100
AcDbEntity
  8
Stammform
  6
AUSGEZOGEN
 62
    56
370
    18
100
AcDbLine
 10
-3.554324259321
 20
98.823853187597
 30
0.0
 11
-2.321758379499
 21
98.823853187597
 31
0.0
  0
LINE
  5
44A
330
1A4
100
AcDbEntity
  8
Stammform
  6
AUSGEZOGEN
 62
    56
370
    18
100
AcDbLine
 10
-3.554324259321
 20
98.823853187597
 30
0.0
 11
-4.218273081343
 21
97.673853187597
 31
0.0
  0
LINE
  5
44B
330
1A4
100
AcDbEntity
  8
Stammform
  6
AUSGEZOGEN
 62
    56
370
    18
100
AcDbLine
 10
-3.554324259321
 20
96.523853187597
 30
0.0
 11
-4.218273081343
 21
95.373853187597
 31
0.0
  0
LINE
  5
44C
330
1A4
100
AcDbEntity
  8
Stammform
  6
AUSGEZOGEN
 62
    56
370
    18
100
AcDbLine
 10
-3.554324259321
 20
96.523853187597
 30
0.0
 11
-2.226417841474
 21
96.523853187597
 31
0.0
  0
LINE
  5
44D
330
1A4
100
AcDbEntity
  8
Stammform
  6
AUSGEZOGEN
 62
    56
370
    18
100
AcDbLine
 10
-4.218273081343
 20
97.673853187597
 30
0.0
 11
-3.554324259321
 21
96.523853187597
 31
0.0
  0
LINE
  5
44E
330
1A4
100
AcDbEntity
  8
Layer0
  6
AUSGEZOGEN
 62
     9
370
    18
100
AcDbLine
 10
-4.218273081343
 20
97.673853187597
 30
0.0
 11
-4.882230677168
 21
96.523853187597
 31
0.0
  0
LINE
  5
44F
330
1A4
100
AcDbEntity
  8
Layer0
  6
AUSGEZOGEN
 62
     9
370
    18
100
AcDbLine
 10
-4.882230677168
 20
96.523853187597
 30
0.0
 11
-4.218273081343
 21
95.373853187597
 31
0.0
  0
LINE
  5
450
330
1A4
100
AcDbEntity
  8
Layer0
  6
AUSGEZOGEN
 62
     9
370
    18
100
AcDbLine
 10
-4.218273081343
 20
95.373853187597
 30
0.0
 11
-2.8903754373
 21
95.373853187597
 31
0.0
  0
LINE
  5
451
330
1A4
100
AcDbEntity
  8
Layer0
  6
AUSGEZOGEN
 62
     9
370
    18
100
AcDbLine
 10
-2.8903754373
 20
95.373853187597
 30
0.0
 11
-2.226417841474
 21
96.523853187597
 31
0.0
  0
LINE
  5
452
330
1A4
100
AcDbEntity
  8
Layer0
  6
AUSGEZOGEN
 62
     9
370
    18
100
AcDbLine
 10
-2.226417841474
 20
96.523853187597
 30
0.0
 11
-2.8903754373
 21
97.673853187597
 31
0.0
  0
LINE
  5
453
330
1A4
100
AcDbEntity
  8
Layer0
  6
AUSGEZOGEN
 62
     9
370
    18
100
AcDbLine
 10
-2.8903754373
 20
97.673853187597
 30
0.0
 11
-4.218273081343
 21
97.673853187597
 31
0.0
  0
LINE
  5
454
330
1A4
100
AcDbEntity
  8
Stammform
  6
AUSGEZOGEN
 62
    56
370
    18
100
AcDbLine
 10
-3.896071916264
 20
100.531925327423
 30
0.0
 11
-4.218273081343
 21
99.973853187597
 31
0.0
  0
LINE
  5
455
330
1A4
100
AcDbEntity
  8
Layer0
  6
AUSGEZOGEN
 62
     9
370
    18
100
AcDbLine
 10
-4.804651284582
 20
101.258223668536
 30
0.0
 11
-4.882230677168
 21
101.123853187597
 31
0.0
  0
LINE
  5
456
330
1A4
100
AcDbEntity
  8
Layer0
  6
AUSGEZOGEN
 62
     9
370
    18
100
AcDbLine
 10
-4.882230677168
 20
101.123853187597
 30
0.0
 11
-4.218273081343
 21
99.973853187597
 31
0.0
  0
LINE
  5
457
330
1A4
100
AcDbEntity
  8
Layer0
  6
AUSGEZOGEN
 62
     9
370
    18
100
AcDbLine
 10
-4.218273081343
 20
83.873853187597
 30
0.0
 11
-4.882230677168
 21
82.723853187597
 31
0.0
  0
LINE
  5
458
330
1A4
100
AcDbEntity
  8
Layer0
  6
AUSGEZOGEN
 62
     9
370
    18
100
AcDbLine
 10
-3.309115686675
 20
83.873853187597
 30
0.0
 11
-4.218273081343
 21
83.873853187597
 31
0.0
  0
LINE
  5
459
330
1A4
100
AcDbEntity
  8
Stammform
  6
AUSGEZOGEN
 62
    56
370
    18
100
AcDbLine
 10
-4.218273081343
 20
83.873853187597
 30
0.0
 11
-3.896071916264
 21
83.315781047772
 31
0.0
  0
LINE
  5
45A
330
1A4
100
AcDbEntity
  8
Stammform
  6
AUSGEZOGEN
 62
    56
370
    18
100
AcDbLine
 10
-3.554324259321
 20
85.023853187597
 30
0.0
 11
-4.218273081343
 21
83.873853187597
 31
0.0
  0
LINE
  5
45B
330
1A4
100
AcDbEntity
  8
Stammform
  6
AUSGEZOGEN
 62
    56
370
    18
100
AcDbLine
 10
-3.554324259321
 20
85.023853187597
 30
0.0
 11
-2.321758379499
 21
85.023853187597
 31
0.0
  0
LINE
  5
45C
330
1A4
100
AcDbEntity
  8
Stammform
  6
AUSGEZOGEN
 62
    56
370
    18
100
AcDbLine
 10
-4.218273081343
 20
86.173853187597
 30
0.0
 11
-3.554324259321
 21
85.023853187597
 31
0.0
  0
LINE
  5
45D
330
1A4
100
AcDbEntity
  8
Layer0
  6
AUSGEZOGEN
 62
     9
370
    18
100
AcDbLine
 10
-4.218273081343
 20
86.173853187597
 30
0.0
 11
-4.882230677168
 21
85.023853187597
 31
0.0
  0
LINE
  5
45E
330
1A4
100
AcDbEntity
  8
Layer0
  6
AUSGEZOGEN
 62
     9
370
    18
100
AcDbLine
 10
-4.882230677168
 20
85.023853187597
 30
0.0
 11
-4.218273081343
 21
83.873853187597
 31
0.0
  0
LINE
  5
45F
330
1A4
100
AcDbEntity
  8
Layer0
  6
AUSGEZOGEN
 62
     9
370
    18
100
AcDbLine
 10
-2.268078965872
 20
85.096011851582
 30
0.0
 11
-2.8903754373
 21
86.173853187597
 31
0.0
  0
LINE
  5
460
330
1A4
100
AcDbEntity
  8
Layer0
  6
AUSGEZOGEN
 62
     9
370
    18
100
AcDbLine
 10
-2.8903754373
 20
86.173853187597
 30
0.0
 11
-4.218273081343
 21
86.173853187597
 31
0.0
  0
LINE
  5
461
330
1A4
100
AcDbEntity
  8
Layer0
  6
AUSGEZOGEN
 62
     9
370
    18
100
AcDbLine
 10
-6.210137095014
 20
85.023853187597
 30
0.0
 11
-6.874085917036
 21
83.873853187597
 31
0.0
  0
LINE
  5
462
330
1A4
100
AcDbEntity
  8
Layer0
  6
AUSGEZOGEN
 62
     9
370
    18
100
AcDbLine
 10
-6.874085917036
 20
83.873853187597
 30
0.0
 11
-6.210137095014
 21
82.723853187597
 31
0.0
  0
LINE
  5
463
330
1A4
100
AcDbEntity
  8
Layer0
  6
AUSGEZOGEN
 62
     9
370
    18
100
AcDbLine
 10
-6.210137095014
 20
82.723853187597
 30
0.0
 11
-4.882230677168
 21
82.723853187597
 31
0.0
  0
LINE
  5
464
330
1A4
100
AcDbEntity
  8
Layer0
  6
AUSGEZOGEN
 62
     9
370
    18
100
AcDbLine
 10
-4.882230677168
 20
82.723853187597
 30
0.0
 11
-4.218273081343
 21
83.873853187597
 31
0.0
  0
LINE
  5
465
330
1A4
100
AcDbEntity
  8
Layer0
  6
AUSGEZOGEN
 62
     9
370
    18
100
AcDbLine
 10
-4.218273081343
 20
83.873853187597
 30
0.0
 11
-4.882230677168
 21
85.023853187597
 31
0.0
  0
LINE
  5
466
330
1A4
100
AcDbEntity
  8
Layer0
  6
AUSGEZOGEN
 62
     9
370
    18
100
AcDbLine
 10
-4.882230677168
 20
85.023853187597
 30
0.0
 11
-6.210137095014
 21
85.023853187597
 31
0.0
  0
LINE
  5
467
330
1A4
100
AcDbEntity
  8
Stammform
  6
AUSGEZOGEN
 62
    56
370
    18
100
AcDbLine
 10
-6.210137095014
 20
85.023853187597
 30
0.0
 11
-5.546179499189
 21
83.873853187597
 31
0.0
  0
LINE
  5
468
330
1A4
100
AcDbEntity
  8
Stammform
  6
AUSGEZOGEN
 62
    56
370
    18
100
AcDbLine
 10
-5.546179499189
 20
83.873853187597
 30
0.0
 11
-4.218273081343
 21
83.873853187597
 31
0.0
  0
LINE
  5
469
330
1A4
100
AcDbEntity
  8
Stammform
  6
AUSGEZOGEN
 62
    56
370
    18
100
AcDbLine
 10
-5.546179499189
 20
83.873853187597
 30
0.0
 11
-6.210137095014
 21
82.723853187597
 31
0.0
  0
LINE
  5
46A
330
1A4
100
AcDbEntity
  8
Stammform
  6
AUSGEZOGEN
 62
    56
370
    18
100
AcDbLine
 10
-6.210137095014
 20
82.723853187597
 30
0.0
 11
-5.771756903438
 21
81.964561896281
 31
0.0
  0
LINE
  5
46B
330
1A4
100
AcDbEntity
  8
Layer0
  6
AUSGEZOGEN
 62
     9
370
    18
100
AcDbLine
 10
-6.210137095014
 20
82.723853187597
 30
0.0
 11
-6.874085917036
 21
81.573853187597
 31
0.0
  0
LINE
  5
46C
330
1A4
100
AcDbEntity
  8
Layer0
  6
AUSGEZOGEN
 62
     9
370
    18
100
AcDbLine
 10
-4.804651284582
 20
82.589482706659
 30
0.0
 11
-4.882230677168
 21
82.723853187597
 31
0.0
  0
LINE
  5
46D
330
1A4
100
AcDbEntity
  8
Layer0
  6
AUSGEZOGEN
 62
     9
370
    18
100
AcDbLine
 10
-4.882230677168
 20
82.723853187597
 30
0.0
 11
-6.210137095014
 21
82.723853187597
 31
0.0
  0
LINE
  5
46E
330
1A4
100
AcDbEntity
  8
Layer0
  6
AUSGEZOGEN
 62
     9
370
    18
100
AcDbLine
 10
-6.210137095014
 20
101.123853187597
 30
0.0
 11
-6.874085917036
 21
99.973853187597
 31
0.0
  0
LINE
  5
46F
330
1A4
100
AcDbEntity
  8
Layer0
  6
AUSGEZOGEN
 62
     9
370
    18
100
AcDbLine
 10
-6.874085917036
 20
99.973853187597
 30
0.0
 11
-6.210137095014
 21
98.823853187597
 31
0.0
  0
LINE
  5
470
330
1A4
100
AcDbEntity
  8
Layer0
  6
AUSGEZOGEN
 62
     9
370
    18
100
AcDbLine
 10
-6.210137095014
 20
98.823853187597
 30
0.0
 11
-4.882230677168
 21
98.823853187597
 31
0.0
  0
LINE
  5
471
330
1A4
100
AcDbEntity
  8
Layer0
  6
AUSGEZOGEN
 62
     9
370
    18
100
AcDbLine
 10
-4.882230677168
 20
98.823853187597
 30
0.0
 11
-4.218273081343
 21
99.973853187597
 31
0.0
  0
LINE
  5
472
330
1A4
100
AcDbEntity
  8
Layer0
  6
AUSGEZOGEN
 62
     9
370
    18
100
AcDbLine
 10
-4.218273081343
 20
99.973853187597
 30
0.0
 11
-4.882230677168
 21
101.123853187597
 31
0.0
  0
LINE
  5
473
330
1A4
100
AcDbEntity
  8
Layer0
  6
AUSGEZOGEN
 62
     9
370
    18
100
AcDbLine
 10
-4.882230677168
 20
101.123853187597
 30
0.0
 11
-6.210137095014
 21
101.123853187597
 31
0.0
  0
LINE
  5
474
330
1A4
100
AcDbEntity
  8
Stammform
  6
AUSGEZOGEN
 62
    56
370
    18
100
AcDbLine
 10
-6.210137095014
 20
101.123853187597
 30
0.0
 11
-5.546179499189
 21
99.973853187597
 31
0.0
  0
LINE
  5
475
330
1A4
100
AcDbEntity
  8
Stammform
  6
AUSGEZOGEN
 62
    56
370
    18
100
AcDbLine
 10
-5.546179499189
 20
99.973853187597
 30
0.0
 11
-4.218273081343
 21
99.973853187597
 31
0.0
  0
LINE
  5
476
330
1A4
100
AcDbEntity
  8
Stammform
  6
AUSGEZOGEN
 62
    56
370
    18
100
AcDbLine
 10
-5.546179499189
 20
99.973853187597
 30
0.0
 11
-6.210137095014
 21
98.823853187597
 31
0.0
  0
LINE
  5
477
330
1A4
100
AcDbEntity
  8
Stammform
  6
AUSGEZOGEN
 62
    56
370
    18
100
AcDbLine
 10
-5.771756903438
 20
101.883144478914
 30
0.0
 11
-6.210137095014
 21
101.123853187597
 31
0.0
  0
LINE
  5
478
330
1A4
100
AcDbEntity
  8
Layer0
  6
AUSGEZOGEN
 62
     9
370
    18
100
AcDbLine
 10
-6.874085917036
 20
102.273853187597
 30
0.0
 11
-6.210137095014
 21
101.123853187597
 31
0.0
  0
LINE
  5
479
330
1A4
100
AcDbEntity
  8
Layer0
  6
AUSGEZOGEN
 62
     9
370
    18
100
AcDbLine
 10
-6.210137095014
 20
101.123853187597
 30
0.0
 11
-4.882230677168
 21
101.123853187597
 31
0.0
  0
LINE
  5
47A
330
1A4
100
AcDbEntity
  8
Layer0
  6
AUSGEZOGEN
 62
     9
370
    18
100
AcDbLine
 10
-6.210137095014
 20
96.523853187597
 30
0.0
 11
-6.874085917036
 21
95.373853187597
 31
0.0
  0
LINE
  5
47B
330
1A4
100
AcDbEntity
  8
Layer0
  6
AUSGEZOGEN
 62
     9
370
    18
100
AcDbLine
 10
-6.874085917036
 20
95.373853187597
 30
0.0
 11
-6.210137095014
 21
94.223853187597
 31
0.0
  0
LINE
  5
47C
330
1A4
100
AcDbEntity
  8
Layer0
  6
AUSGEZOGEN
 62
     9
370
    18
100
AcDbLine
 10
-6.210137095014
 20
94.223853187597
 30
0.0
 11
-4.882230677168
 21
94.223853187597
 31
0.0
  0
LINE
  5
47D
330
1A4
100
AcDbEntity
  8
Layer0
  6
AUSGEZOGEN
 62
     9
370
    18
100
AcDbLine
 10
-4.882230677168
 20
94.223853187597
 30
0.0
 11
-4.218273081343
 21
95.373853187597
 31
0.0
  0
LINE
  5
47E
330
1A4
100
AcDbEntity
  8
Layer0
  6
AUSGEZOGEN
 62
     9
370
    18
100
AcDbLine
 10
-4.218273081343
 20
95.373853187597
 30
0.0
 11
-4.882230677168
 21
96.523853187597
 31
0.0
  0
LINE
  5
47F
330
1A4
100
AcDbEntity
  8
Layer0
  6
AUSGEZOGEN
 62
     9
370
    18
100
AcDbLine
 10
-4.882230677168
 20
96.523853187597
 30
0.0
 11
-6.210137095014
 21
96.523853187597
 31
0.0
  0
LINE
  5
480
330
1A4
100
AcDbEntity
  8
Stammform
  6
AUSGEZOGEN
 62
    56
370
    18
100
AcDbLine
 10
-6.210137095014
 20
96.523853187597
 30
0.0
 11
-5.546179499189
 21
95.373853187597
 31
0.0
  0
LINE
  5
481
330
1A4
100
AcDbEntity
  8
Stammform
  6
AUSGEZOGEN
 62
    56
370
    18
100
AcDbLine
 10
-5.546179499189
 20
95.373853187597
 30
0.0
 11
-4.218273081343
 21
95.373853187597
 31
0.0
  0
LINE
  5
482
330
1A4
100
AcDbEntity
  8
Stammform
  6
AUSGEZOGEN
 62
    56
370
    18
100
AcDbLine
 10
-5.546179499189
 20
95.373853187597
 30
0.0
 11
-6.210137095014
 21
94.223853187597
 31
0.0
  0
LINE
  5
483
330
1A4
100
AcDbEntity
  8
Stammform
  6
AUSGEZOGEN
 62
    56
370
    18
100
AcDbLine
 10
-5.546179499189
 20
97.673853187597
 30
0.0
 11
-6.210137095014
 21
96.523853187597
 31
0.0
  0
LINE
  5
484
330
1A4
100
AcDbEntity
  8
Stammform
  6
AUSGEZOGEN
 62
    56
370
    18
100
AcDbLine
 10
-5.546179499189
 20
97.673853187597
 30
0.0
 11
-4.218273081343
 21
97.673853187597
 31
0.0
  0
LINE
  5
485
330
1A4
100
AcDbEntity
  8
Stammform
  6
AUSGEZOGEN
 62
    56
370
    18
100
AcDbLine
 10
-6.210137095014
 20
98.823853187597
 30
0.0
 11
-5.546179499189
 21
97.673853187597
 31
0.0
  0
LINE
  5
486
330
1A4
100
AcDbEntity
  8
Layer0
  6
AUSGEZOGEN
 62
     9
370
    18
100
AcDbLine
 10
-6.210137095014
 20
98.823853187597
 30
0.0
 11
-6.874085917036
 21
97.673853187597
 31
0.0
  0
LINE
  5
487
330
1A4
100
AcDbEntity
  8
Layer0
  6
AUSGEZOGEN
 62
     9
370
    18
100
AcDbLine
 10
-6.874085917036
 20
97.673853187597
 30
0.0
 11
-6.210137095014
 21
96.523853187597
 31
0.0
  0
LINE
  5
488
330
1A4
100
AcDbEntity
  8
Layer0
  6
AUSGEZOGEN
 62
     9
370
    18
100
AcDbLine
 10
-6.210137095014
 20
96.523853187597
 30
0.0
 11
-4.882230677168
 21
96.523853187597
 31
0.0
  0
LINE
  5
489
330
1A4
100
AcDbEntity
  8
Layer0
  6
AUSGEZOGEN
 62
     9
370
    18
100
AcDbLine
 10
-4.882230677168
 20
96.523853187597
 30
0.0
 11
-4.218273081343
 21
97.673853187597
 31
0.0
  0
LINE
  5
48A
330
1A4
100
AcDbEntity
  8
Layer0
  6
AUSGEZOGEN
 62
     9
370
    18
100
AcDbLine
 10
-4.218273081343
 20
97.673853187597
 30
0.0
 11
-4.882230677168
 21
98.823853187597
 31
0.0
  0
LINE
  5
48B
330
1A4
100
AcDbEntity
  8
Layer0
  6
AUSGEZOGEN
 62
     9
370
    18
100
AcDbLine
 10
-4.882230677168
 20
98.823853187597
 30
0.0
 11
-6.210137095014
 21
98.823853187597
 31
0.0
  0
LINE
  5
48C
330
1A4
100
AcDbEntity
  8
Layer0
  6
AUSGEZOGEN
 62
     9
370
    18
100
AcDbLine
 10
-6.210137095014
 20
91.923853187597
 30
0.0
 11
-6.874085917036
 21
90.773853187597
 31
0.0
  0
LINE
  5
48D
330
1A4
100
AcDbEntity
  8
Layer0
  6
AUSGEZOGEN
 62
     9
370
    18
100
AcDbLine
 10
-6.874085917036
 20
90.773853187597
 30
0.0
 11
-6.210137095014
 21
89.623853187597
 31
0.0
  0
LINE
  5
48E
330
1A4
100
AcDbEntity
  8
Layer0
  6
AUSGEZOGEN
 62
     9
370
    18
100
AcDbLine
 10
-6.210137095014
 20
89.623853187597
 30
0.0
 11
-4.882230677168
 21
89.623853187597
 31
0.0
  0
LINE
  5
48F
330
1A4
100
AcDbEntity
  8
Layer0
  6
AUSGEZOGEN
 62
     9
370
    18
100
AcDbLine
 10
-4.882230677168
 20
89.623853187597
 30
0.0
 11
-4.218273081343
 21
90.773853187597
 31
0.0
  0
LINE
  5
490
330
1A4
100
AcDbEntity
  8
Layer0
  6
AUSGEZOGEN
 62
     9
370
    18
100
AcDbLine
 10
-4.218273081343
 20
90.773853187597
 30
0.0
 11
-4.882230677168
 21
91.923853187597
 31
0.0
  0
LINE
  5
491
330
1A4
100
AcDbEntity
  8
Layer0
  6
AUSGEZOGEN
 62
     9
370
    18
100
AcDbLine
 10
-4.882230677168
 20
91.923853187597
 30
0.0
 11
-6.210137095014
 21
91.923853187597
 31
0.0
  0
LINE
  5
492
330
1A4
100
AcDbEntity
  8
Stammform
  6
AUSGEZOGEN
 62
    56
370
    18
100
AcDbLine
 10
-6.210137095014
 20
91.923853187597
 30
0.0
 11
-5.546179499189
 21
90.773853187597
 31
0.0
  0
LINE
  5
493
330
1A4
100
AcDbEntity
  8
Stammform
  6
AUSGEZOGEN
 62
    56
370
    18
100
AcDbLine
 10
-5.546179499189
 20
90.773853187597
 30
0.0
 11
-4.218273081343
 21
90.773853187597
 31
0.0
  0
LINE
  5
494
330
1A4
100
AcDbEntity
  8
Stammform
  6
AUSGEZOGEN
 62
    56
370
    18
100
AcDbLine
 10
-5.546179499189
 20
90.773853187597
 30
0.0
 11
-6.210137095014
 21
89.623853187597
 31
0.0
  0
LINE
  5
495
330
1A4
100
AcDbEntity
  8
Stammform
  6
AUSGEZOGEN
 62
    56
370
    18
100
AcDbLine
 10
-5.546179499189
 20
93.073853187597
 30
0.0
 11
-6.210137095014
 21
91.923853187597
 31
0.0
  0
LINE
  5
496
330
1A4
100
AcDbEntity
  8
Stammform
  6
AUSGEZOGEN
 62
    56
370
    18
100
AcDbLine
 10
-5.546179499189
 20
93.073853187597
 30
0.0
 11
-4.218273081343
 21
93.073853187597
 31
0.0
  0
LINE
  5
497
330
1A4
100
AcDbEntity
  8
Stammform
  6
AUSGEZOGEN
 62
    56
370
    18
100
AcDbLine
 10
-6.210137095014
 20
94.223853187597
 30
0.0
 11
-5.546179499189
 21
93.073853187597
 31
0.0
  0
LINE
  5
498
330
1A4
100
AcDbEntity
  8
Layer0
  6
AUSGEZOGEN
 62
     9
370
    18
100
AcDbLine
 10
-6.210137095014
 20
94.223853187597
 30
0.0
 11
-6.874085917036
 21
93.073853187597
 31
0.0
  0
LINE
  5
499
330
1A4
100
AcDbEntity
  8
Layer0
  6
AUSGEZOGEN
 62
     9
370
    18
100
AcDbLine
 10
-6.874085917036
 20
93.073853187597
 30
0.0
 11
-6.210137095014
 21
91.923853187597
 31
0.0
  0
LINE
  5
49A
330
1A4
100
AcDbEntity
  8
Layer0
  6
AUSGEZOGEN
 62
     9
370
    18
100
AcDbLine
 10
-6.210137095014
 20
91.923853187597
 30
0.0
 11
-4.882230677168
 21
91.923853187597
 31
0.0
  0
LINE
  5
49B
330
1A4
100
AcDbEntity
  8
Layer0
  6
AUSGEZOGEN
 62
     9
370
    18
100
AcDbLine
 10
-4.882230677168
 20
91.923853187597
 30
0.0
 11
-4.218273081343
 21
93.073853187597
 31
0.0
  0
LINE
  5
49C
330
1A4
100
AcDbEntity
  8
Layer0
  6
AUSGEZOGEN
 62
     9
370
    18
100
AcDbLine
 10
-4.218273081343
 20
93.073853187597
 30
0.0
 11
-4.882230677168
 21
94.223853187597
 31
0.0
  0
LINE
  5
49D
330
1A4
100
AcDbEntity
  8
Layer0
  6
AUSGEZOGEN
 62
     9
370
    18
100
AcDbLine
 10
-4.882230677168
 20
94.223853187597
 30
0.0
 11
-6.210137095014
 21
94.223853187597
 31
0.0
  0
LINE
  5
49E
330
1A4
100
AcDbEntity
  8
Layer0
  6
AUSGEZOGEN
 62
     9
370
    18
100
AcDbLine
 10
-6.210137095014
 20
89.623853187597
 30
0.0
 11
-6.874085917036
 21
88.473853187597
 31
0.0
  0
LINE
  5
49F
330
1A4
100
AcDbEntity
  8
Layer0
  6
AUSGEZOGEN
 62
     9
370
    18
100
AcDbLine
 10
-6.874085917036
 20
88.473853187597
 30
0.0
 11
-6.210137095014
 21
87.323853187597
 31
0.0
  0
LINE
  5
4A0
330
1A4
100
AcDbEntity
  8
Layer0
  6
AUSGEZOGEN
 62
     9
370
    18
100
AcDbLine
 10
-6.210137095014
 20
87.323853187597
 30
0.0
 11
-4.882230677168
 21
87.323853187597
 31
0.0
  0
LINE
  5
4A1
330
1A4
100
AcDbEntity
  8
Layer0
  6
AUSGEZOGEN
 62
     9
370
    18
100
AcDbLine
 10
-4.882230677168
 20
87.323853187597
 30
0.0
 11
-4.218273081343
 21
88.473853187597
 31
0.0
  0
LINE
  5
4A2
330
1A4
100
AcDbEntity
  8
Layer0
  6
AUSGEZOGEN
 62
     9
370
    18
100
AcDbLine
 10
-4.218273081343
 20
88.473853187597
 30
0.0
 11
-4.882230677168
 21
89.623853187597
 31
0.0
  0
LINE
  5
4A3
330
1A4
100
AcDbEntity
  8
Layer0
  6
AUSGEZOGEN
 62
     9
370
    18
100
AcDbLine
 10
-4.882230677168
 20
89.623853187597
 30
0.0
 11
-6.210137095014
 21
89.623853187597
 31
0.0
  0
LINE
  5
4A4
330
1A4
100
AcDbEntity
  8
Stammform
  6
AUSGEZOGEN
 62
    56
370
    18
100
AcDbLine
 10
-6.210137095014
 20
89.623853187597
 30
0.0
 11
-5.546179499189
 21
88.473853187597
 31
0.0
  0
LINE
  5
4A5
330
1A4
100
AcDbEntity
  8
Stammform
  6
AUSGEZOGEN
 62
    56
370
    18
100
AcDbLine
 10
-5.546179499189
 20
88.473853187597
 30
0.0
 11
-4.218273081343
 21
88.473853187597
 31
0.0
  0
LINE
  5
4A6
330
1A4
100
AcDbEntity
  8
Stammform
  6
AUSGEZOGEN
 62
    56
370
    18
100
AcDbLine
 10
-5.546179499189
 20
88.473853187597
 30
0.0
 11
-6.210137095014
 21
87.323853187597
 31
0.0
  0
LINE
  5
4A7
330
1A4
100
AcDbEntity
  8
Stammform
  6
AUSGEZOGEN
 62
    56
370
    18
100
AcDbLine
 10
-5.546179499189
 20
86.173853187597
 30
0.0
 11
-6.210137095014
 21
85.023853187597
 31
0.0
  0
LINE
  5
4A8
330
1A4
100
AcDbEntity
  8
Stammform
  6
AUSGEZOGEN
 62
    56
370
    18
100
AcDbLine
 10
-5.546179499189
 20
86.173853187597
 30
0.0
 11
-4.218273081343
 21
86.173853187597
 31
0.0
  0
LINE
  5
4A9
330
1A4
100
AcDbEntity
  8
Stammform
  6
AUSGEZOGEN
 62
    56
370
    18
100
AcDbLine
 10
-6.210137095014
 20
87.323853187597
 30
0.0
 11
-5.546179499189
 21
86.173853187597
 31
0.0
  0
LINE
  5
4AA
330
1A4
100
AcDbEntity
  8
Layer0
  6
AUSGEZOGEN
 62
     9
370
    18
100
AcDbLine
 10
-6.210137095014
 20
87.323853187597
 30
0.0
 11
-6.874085917036
 21
86.173853187597
 31
0.0
  0
LINE
  5
4AB
330
1A4
100
AcDbEntity
  8
Layer0
  6
AUSGEZOGEN
 62
     9
370
    18
100
AcDbLine
 10
-6.874085917036
 20
86.173853187597
 30
0.0
 11
-6.210137095014
 21
85.023853187597
 31
0.0
  0
LINE
  5
4AC
330
1A4
100
AcDbEntity
  8
Layer0
  6
AUSGEZOGEN
 62
     9
370
    18
100
AcDbLine
 10
-6.210137095014
 20
85.023853187597
 30
0.0
 11
-4.882230677168
 21
85.023853187597
 31
0.0
  0
LINE
  5
4AD
330
1A4
100
AcDbEntity
  8
Layer0
  6
AUSGEZOGEN
 62
     9
370
    18
100
AcDbLine
 10
-4.882230677168
 20
85.023853187597
 30
0.0
 11
-4.218273081343
 21
86.173853187597
 31
0.0
  0
LINE
  5
4AE
330
1A4
100
AcDbEntity
  8
Layer0
  6
AUSGEZOGEN
 62
     9
370
    18
100
AcDbLine
 10
-4.218273081343
 20
86.173853187597
 30
0.0
 11
-4.882230677168
 21
87.323853187597
 31
0.0
  0
LINE
  5
4AF
330
1A4
100
AcDbEntity
  8
Layer0
  6
AUSGEZOGEN
 62
     9
370
    18
100
AcDbLine
 10
-4.882230677168
 20
87.323853187597
 30
0.0
 11
-6.210137095014
 21
87.323853187597
 31
0.0
  0
LINE
  5
4B0
330
1A4
100
AcDbEntity
  8
Stammform
  6
AUSGEZOGEN
 62
    56
370
    18
100
AcDbLine
 10
-0.234562601606
 20
90.773853187597
 30
0.0
 11
-0.104324845261
 21
90.548276402665
 31
0.0
  0
LINE
  5
4B1
330
1A4
100
AcDbEntity
  8
Layer0
  6
AUSGEZOGEN
 62
     9
370
    18
100
AcDbLine
 10
-0.234562601606
 20
90.773853187597
 30
0.0
 11
-0.898511423628
 21
89.623853187597
 31
0.0
  0
LINE
  5
4B2
330
1A4
100
AcDbEntity
  8
Layer0
  6
AUSGEZOGEN
 62
     9
370
    18
100
AcDbLine
 10
-0.898511423628
 20
89.623853187597
 30
0.0
 11
-0.443932769413
 21
88.836495133772
 31
0.0
  0
LINE
  5
4B3
330
1A4
100
AcDbEntity
  8
Layer0
  6
AUSGEZOGEN
 62
     9
370
    18
100
AcDbLine
 10
-0.079402852773
 20
90.773853187597
 30
0.0
 11
-0.234562601606
 21
90.773853187597
 31
0.0
  0
LINE
  5
4B4
330
1A4
100
AcDbEntity
  8
Layer0
  6
AUSGEZOGEN
 62
     9
370
    18
100
AcDbLine
 10
-0.443932769413
 20
95.011211241423
 30
0.0
 11
-0.898511423628
 21
94.223853187597
 31
0.0
  0
LINE
  5
4B5
330
1A4
100
AcDbEntity
  8
Layer0
  6
AUSGEZOGEN
 62
     9
370
    18
100
AcDbLine
 10
-0.898511423628
 20
94.223853187597
 30
0.0
 11
-0.234562601606
 21
93.073853187597
 31
0.0
  0
LINE
  5
4B6
330
1A4
100
AcDbEntity
  8
Layer0
  6
AUSGEZOGEN
 62
     9
370
    18
100
AcDbLine
 10
-0.234562601606
 20
93.073853187597
 30
0.0
 11
-0.079402852773
 21
93.073853187597
 31
0.0
  0
LINE
  5
4B7
330
1A4
100
AcDbEntity
  8
Stammform
  6
AUSGEZOGEN
 62
    56
370
    18
100
AcDbLine
 10
-0.104324845261
 20
93.299429972529
 30
0.0
 11
-0.234562601606
 21
93.073853187597
 31
0.0
  0
LINE
  5
4B8
330
1A4
100
AcDbEntity
  8
Stammform
  6
AUSGEZOGEN
 62
    56
370
    18
100
AcDbLine
 10
-0.052028461428
 20
91.090009313417
 30
0.0
 11
-0.234562601606
 21
90.773853187597
 31
0.0
  0
LINE
  5
4B9
330
1A4
100
AcDbEntity
  8
Stammform
  6
AUSGEZOGEN
 62
    56
370
    18
100
AcDbLine
 10
-0.234562601606
 20
93.073853187597
 30
0.0
 11
-0.052028461428
 21
92.757697061778
 31
0.0
  0
LINE
  5
4BA
330
1A4
100
AcDbEntity
  8
Layer0
  6
AUSGEZOGEN
 62
     9
370
    18
100
AcDbLine
 10
-0.234562601606
 20
93.073853187597
 30
0.0
 11
-0.898511423628
 21
91.923853187597
 31
0.0
  0
LINE
  5
4BB
330
1A4
100
AcDbEntity
  8
Layer0
  6
AUSGEZOGEN
 62
     9
370
    18
100
AcDbLine
 10
-0.898511423628
 20
91.923853187597
 30
0.0
 11
-0.234562601606
 21
90.773853187597
 31
0.0
  0
LINE
  5
4BC
330
1A4
100
AcDbEntity
  8
Layer0
  6
AUSGEZOGEN
 62
     9
370
    18
100
AcDbLine
 10
-2.226417841474
 20
96.523853187597
 30
0.0
 11
-2.8903754373
 21
95.373853187597
 31
0.0
  0
LINE
  5
4BD
330
1A4
100
AcDbEntity
  8
Layer0
  6
AUSGEZOGEN
 62
     9
370
    18
100
AcDbLine
 10
-2.8903754373
 20
95.373853187597
 30
0.0
 11
-2.226417841474
 21
94.223853187597
 31
0.0
  0
LINE
  5
4BE
330
1A4
100
AcDbEntity
  8
Layer0
  6
AUSGEZOGEN
 62
     9
370
    18
100
AcDbLine
 10
-2.226417841474
 20
94.223853187597
 30
0.0
 11
-0.898511423628
 21
94.223853187597
 31
0.0
  0
LINE
  5
4BF
330
1A4
100
AcDbEntity
  8
Layer0
  6
AUSGEZOGEN
 62
     9
370
    18
100
AcDbLine
 10
-0.981834281101
 20
96.523853187597
 30
0.0
 11
-2.226417841474
 21
96.523853187597
 31
0.0
  0
LINE
  5
4C0
330
1A4
100
AcDbEntity
  8
Stammform
  6
AUSGEZOGEN
 62
    56
370
    18
100
AcDbLine
 10
-2.226417841474
 20
96.523853187597
 30
0.0
 11
-1.562469019453
 21
95.373853187597
 31
0.0
  0
LINE
  5
4C1
330
1A4
100
AcDbEntity
  8
Stammform
  6
AUSGEZOGEN
 62
    56
370
    18
100
AcDbLine
 10
-1.562469019453
 20
95.373853187597
 30
0.0
 11
-0.551457563204
 21
95.373853187597
 31
0.0
  0
LINE
  5
4C2
330
1A4
100
AcDbEntity
  8
Stammform
  6
AUSGEZOGEN
 62
    56
370
    18
100
AcDbLine
 10
-1.562469019453
 20
95.373853187597
 30
0.0
 11
-2.226417841474
 21
94.223853187597
 31
0.0
  0
LINE
  5
4C3
330
1A4
100
AcDbEntity
  8
Stammform
  6
AUSGEZOGEN
 62
    56
370
    18
100
AcDbLine
 10
-1.56246762772
 20
97.673855598164
 30
0.0
 11
-2.226417841474
 21
96.523853187597
 31
0.0
  0
LINE
  5
4C4
330
1A4
100
AcDbEntity
  8
Layer0
  6
AUSGEZOGEN
 62
     9
370
    18
100
AcDbLine
 10
-2.268078965872
 20
98.751694523613
 30
0.0
 11
-2.8903754373
 21
97.673853187597
 31
0.0
  0
LINE
  5
4C5
330
1A4
100
AcDbEntity
  8
Layer0
  6
AUSGEZOGEN
 62
     9
370
    18
100
AcDbLine
 10
-2.8903754373
 20
97.673853187597
 30
0.0
 11
-2.226417841474
 21
96.523853187597
 31
0.0
  0
LINE
  5
4C6
330
1A4
100
AcDbEntity
  8
Layer0
  6
AUSGEZOGEN
 62
     9
370
    18
100
AcDbLine
 10
-2.226417841474
 20
96.523853187597
 30
0.0
 11
-0.898511423628
 21
96.523853187597
 31
0.0
  0
LINE
  5
4C7
330
1A4
100
AcDbEntity
  8
Layer0
  6
AUSGEZOGEN
 62
     9
370
    18
100
AcDbLine
 10
-2.226417841474
 20
91.923853187597
 30
0.0
 11
-2.8903754373
 21
90.773853187597
 31
0.0
  0
LINE
  5
4C8
330
1A4
100
AcDbEntity
  8
Layer0
  6
AUSGEZOGEN
 62
     9
370
    18
100
AcDbLine
 10
-2.8903754373
 20
90.773853187597
 30
0.0
 11
-2.226417841474
 21
89.623853187597
 31
0.0
  0
LINE
  5
4C9
330
1A4
100
AcDbEntity
  8
Layer0
  6
AUSGEZOGEN
 62
     9
370
    18
100
AcDbLine
 10
-2.226417841474
 20
89.623853187597
 30
0.0
 11
-0.898511423628
 21
89.623853187597
 31
0.0
  0
LINE
  5
4CA
330
1A4
100
AcDbEntity
  8
Layer0
  6
AUSGEZOGEN
 62
     9
370
    18
100
AcDbLine
 10
-0.898511423628
 20
89.623853187597
 30
0.0
 11
-0.234562601606
 21
90.773853187597
 31
0.0
  0
LINE
  5
4CB
330
1A4
100
AcDbEntity
  8
Layer0
  6
AUSGEZOGEN
 62
     9
370
    18
100
AcDbLine
 10
-0.234562601606
 20
90.773853187597
 30
0.0
 11
-0.898511423628
 21
91.923853187597
 31
0.0
  0
LINE
  5
4CC
330
1A4
100
AcDbEntity
  8
Layer0
  6
AUSGEZOGEN
 62
     9
370
    18
100
AcDbLine
 10
-0.898511423628
 20
91.923853187597
 30
0.0
 11
-2.226417841474
 21
91.923853187597
 31
0.0
  0
LINE
  5
4CD
330
1A4
100
AcDbEntity
  8
Stammform
  6
AUSGEZOGEN
 62
    56
370
    18
100
AcDbLine
 10
-2.226417841474
 20
91.923853187597
 30
0.0
 11
-1.562469019453
 21
90.773853187597
 31
0.0
  0
LINE
  5
4CE
330
1A4
100
AcDbEntity
  8
Stammform
  6
AUSGEZOGEN
 62
    56
370
    18
100
AcDbLine
 10
-1.562469019453
 20
90.773853187597
 30
0.0
 11
-0.234562601606
 21
90.773853187597
 31
0.0
  0
LINE
  5
4CF
330
1A4
100
AcDbEntity
  8
Stammform
  6
AUSGEZOGEN
 62
    56
370
    18
100
AcDbLine
 10
-1.562469019453
 20
90.773853187597
 30
0.0
 11
-2.226417841474
 21
89.623853187597
 31
0.0
  0
LINE
  5
4D0
330
1A4
100
AcDbEntity
  8
Stammform
  6
AUSGEZOGEN
 62
    56
370
    18
100
AcDbLine
 10
-1.562469019453
 20
93.073853187597
 30
0.0
 11
-2.226417841474
 21
91.923853187597
 31
0.0
  0
LINE
  5
4D1
330
1A4
100
AcDbEntity
  8
Stammform
  6
AUSGEZOGEN
 62
    56
370
    18
100
AcDbLine
 10
-1.562469019453
 20
93.073853187597
 30
0.0
 11
-0.234562601606
 21
93.073853187597
 31
0.0
  0
LINE
  5
4D2
330
1A4
100
AcDbEntity
  8
Stammform
  6
AUSGEZOGEN
 62
    56
370
    18
100
AcDbLine
 10
-2.226417841474
 20
94.223853187597
 30
0.0
 11
-1.562469019453
 21
93.073853187597
 31
0.0
  0
LINE
  5
4D3
330
1A4
100
AcDbEntity
  8
Layer0
  6
AUSGEZOGEN
 62
     9
370
    18
100
AcDbLine
 10
-2.226417841474
 20
94.223853187597
 30
0.0
 11
-2.8903754373
 21
93.073853187597
 31
0.0
  0
LINE
  5
4D4
330
1A4
100
AcDbEntity
  8
Layer0
  6
AUSGEZOGEN
 62
     9
370
    18
100
AcDbLine
 10
-2.8903754373
 20
93.073853187597
 30
0.0
 11
-2.226417841474
 21
91.923853187597
 31
0.0
  0
LINE
  5
4D5
330
1A4
100
AcDbEntity
  8
Layer0
  6
AUSGEZOGEN
 62
     9
370
    18
100
AcDbLine
 10
-2.226417841474
 20
91.923853187597
 30
0.0
 11
-0.898511423628
 21
91.923853187597
 31
0.0
  0
LINE
  5
4D6
330
1A4
100
AcDbEntity
  8
Layer0
  6
AUSGEZOGEN
 62
     9
370
    18
100
AcDbLine
 10
-0.898511423628
 20
91.923853187597
 30
0.0
 11
-0.234562601606
 21
93.073853187597
 31
0.0
  0
LINE
  5
4D7
330
1A4
100
AcDbEntity
  8
Layer0
  6
AUSGEZOGEN
 62
     9
370
    18
100
AcDbLine
 10
-0.234562601606
 20
93.073853187597
 30
0.0
 11
-0.898511423628
 21
94.223853187597
 31
0.0
  0
LINE
  5
4D8
330
1A4
100
AcDbEntity
  8
Layer0
  6
AUSGEZOGEN
 62
     9
370
    18
100
AcDbLine
 10
-0.898511423628
 20
94.223853187597
 30
0.0
 11
-2.226417841474
 21
94.223853187597
 31
0.0
  0
LINE
  5
4D9
330
1A4
100
AcDbEntity
  8
Layer0
  6
AUSGEZOGEN
 62
     9
370
    18
100
AcDbLine
 10
-2.226417841474
 20
89.623853187597
 30
0.0
 11
-2.8903754373
 21
88.473853187597
 31
0.0
  0
LINE
  5
4DA
330
1A4
100
AcDbEntity
  8
Layer0
  6
AUSGEZOGEN
 62
     9
370
    18
100
AcDbLine
 10
-2.8903754373
 20
88.473853187597
 30
0.0
 11
-2.226417841474
 21
87.323853187597
 31
0.0
  0
LINE
  5
4DB
330
1A4
100
AcDbEntity
  8
Layer0
  6
AUSGEZOGEN
 62
     9
370
    18
100
AcDbLine
 10
-2.226417841474
 20
87.323853187597
 30
0.0
 11
-0.981834281101
 21
87.323853187597
 31
0.0
  0
LINE
  5
4DC
330
1A4
100
AcDbEntity
  8
Layer0
  6
AUSGEZOGEN
 62
     9
370
    18
100
AcDbLine
 10
-0.898511423628
 20
89.623853187597
 30
0.0
 11
-2.226417841474
 21
89.623853187597
 31
0.0
  0
LINE
  5
4DD
330
1A4
100
AcDbEntity
  8
Stammform
  6
AUSGEZOGEN
 62
    56
370
    18
100
AcDbLine
 10
-2.226417841474
 20
89.623853187597
 30
0.0
 11
-1.562469019453
 21
88.473853187597
 31
0.0
  0
LINE
  5
4DE
330
1A4
100
AcDbEntity
  8
Stammform
  6
AUSGEZOGEN
 62
    56
370
    18
100
AcDbLine
 10
-1.562469019453
 20
88.473853187597
 30
0.0
 11
-0.551457563204
 21
88.473853187597
 31
0.0
  0
LINE
  5
4DF
330
1A4
100
AcDbEntity
  8
Stammform
  6
AUSGEZOGEN
 62
    56
370
    18
100
AcDbLine
 10
-1.562469019453
 20
88.473853187597
 30
0.0
 11
-2.226417841474
 21
87.323853187597
 31
0.0
  0
LINE
  5
4E0
330
1A4
100
AcDbEntity
  8
Stammform
  6
AUSGEZOGEN
 62
    56
370
    18
100
AcDbLine
 10
-2.226417841474
 20
87.323853187597
 30
0.0
 11
-1.56246762772
 21
86.173850777031
 31
0.0
  0
LINE
  5
4E1
330
1A4
100
AcDbEntity
  8
Layer0
  6
AUSGEZOGEN
 62
     9
370
    18
100
AcDbLine
 10
-2.226417841474
 20
87.323853187597
 30
0.0
 11
-2.8903754373
 21
86.173853187597
 31
0.0
  0
LINE
  5
4E2
330
1A4
100
AcDbEntity
  8
Layer0
  6
AUSGEZOGEN
 62
     9
370
    18
100
AcDbLine
 10
-2.8903754373
 20
86.173853187597
 30
0.0
 11
-2.226417841474
 21
85.023853187597
 31
0.0
  0
ENDBLK
  5
1A6
330
1A4
100
AcDbEntity
  8
0
100
AcDbBlockEnd
  0
BLOCK
  5
4F6
330
4F5
100
AcDbEntity
  8
0
100
AcDbBlockBegin
  2
*D5
 70
     1
 10
0.0
 20
0.0
 30
0.0
  3
*D5
  1

  0
LINE
  5
4F8
330
4F5
100
AcDbEntity
  8
Bemassung
  6
AUSGEZOGEN
 62
   136
370
    18
100
AcDbLine
 10
-1.271758379499
 20
74.647091740992
 30
0.0
 11
-1.271758379499
 21
74.147091740992
 31
0.0
  0
LINE
  5
4F9
330
4F5
100
AcDbEntity
  8
Bemassung
  6
AUSGEZOGEN
 62
   136
370
    18
100
AcDbLine
 10
-1.271758379499
 20
74.647091740992
 30
0.0
 11
-0.021758379499
 21
74.397091740992
 31
0.0
  0
LINE
  5
4FA
330
4F5
100
AcDbEntity
  8
Bemassung
  6
AUSGEZOGEN
 62
   136
370
    18
100
AcDbLine
 10
-0.021758379499
 20
74.397091740992
 30
0.0
 11
-1.271758379499
 21
74.147091740992
 31
0.0
  0
LINE
  5
4FB
330
4F5
100
AcDbEntity
  8
Bemassung
  6
AUSGEZOGEN
 62
   136
370
    18
100
AcDbLine
 10
-21.771758379499
 20
74.147091740992
 30
0.0
 11
-21.771758379499
 21
74.647091740992
 31
0.0
  0
LINE
  5
4FC
330
4F5
100
AcDbEntity
  8
Bemassung
  6
AUSGEZOGEN
 62
   136
370
    18
100
AcDbLine
 10
-21.771758379499
 20
74.147091740992
 30
0.0
 11
-23.021758379499
 21
74.397091740992
 31
0.0
  0
LINE
  5
4FD
330
4F5
100
AcDbEntity
  8
Bemassung
  6
AUSGEZOGEN
 62
   136
370
    18
100
AcDbLine
 10
-23.021758379499
 20
74.397091740992
 30
0.0
 11
-21.771758379499
 21
74.647091740992
 31
0.0
  0
LINE
  5
4FE
330
4F5
100
AcDbEntity
  8
Bemassung
  6
AUSGEZOGEN
 62
   136
370
    18
100
AcDbLine
 10
-23.021758379499
 20
74.397091740992
 30
0.0
 11
-0.021758379499
 21
74.397091740992
 31
0.0
  0
LINE
  5
4FF
330
4F5
100
AcDbEntity
  8
Bemassung
  6
AUSGEZOGEN
 62
   136
370
    18
100
AcDbLine
 10
-23.021758379499
 20
91.923853187597
 30
0.0
 11
-23.021758379499
 21
73.682806026706
 31
0.0
  0
LINE
  5
500
330
4F5
100
AcDbEntity
  8
Bemassung
  6
AUSGEZOGEN
 62
   136
370
    18
100
AcDbLine
 10
-0.021758379499
 20
91.923853187597
 30
0.0
 11
-0.021758379499
 21
73.682806026706
 31
0.0
  0
TEXT
  5
501
330
4F5
100
AcDbEntity
  8
Bemassung
  6
AUSGEZOGEN
 62
   136
370
    18
100
AcDbText
 10
-12.394711862738
 20
75.272091740992
 30
0.0
 40
1.25
  1
23
 41
1.131075166857
  7
Arial
 72
     5
 11
-10.200426039036
 21
75.272091740992
 31
0.0
100
AcDbText
  0
ENDBLK
  5
4F7
330
4F5
100
AcDbEntity
  8
0
100
AcDbBlockEnd
  0
BLOCK
  5
504
330
503
100
AcDbEntity
  8
0
100
AcDbBlockBegin
  2
_CLOSED
 70
     0
 10
0.0
 20
0.0
 30
0.0
  3
_CLOSED
  1

  0
LINE
  5
506
330
503
100
AcDbEntity
  8
0
  6
ByBlock
 62
     0
370
    -2
100
AcDbLine
 10
-1.0
 20
0.166667
 30
0.0
 11
0.0
 21
0.0
 31
0.0
  0
LINE
  5
507
330
503
100
AcDbEntity
  8
0
  6
ByBlock
 62
     0
370
    -2
100
AcDbLine
 10
0.0
 20
0.0
 30
0.0
 11
-1.0
 21
-0.166667
 31
0.0
  0
LINE
  5
508
330
503
100
AcDbEntity
  8
0
  6
ByBlock
 62
     0
370
    -2
100
AcDbLine
 10
-1.0
 20
0.166667
 30
0.0
 11
-1.0
 21
-0.166667
 31
0.0
  0
LINE
  5
509
330
503
100
AcDbEntity
  8
0
  6
ByBlock
 62
     0
370
    -2
100
AcDbLine
 10
0.0
 20
0.0
 30
0.0
 11
-1.0
 21
0.0
 31
0.0
  0
ENDBLK
  5
505
330
503
100
AcDbEntity
  8
0
100
AcDbBlockEnd
  0
BLOCK
  5
50E
330
50D
100
AcDbEntity
  8
0
100
AcDbBlockBegin
  2
*D7
 70
     1
 10
0.0
 20
0.0
 30
0.0
  3
*D7
  1

  0
LINE
  5
510
330
50D
100
AcDbEntity
  8
Bemassung
  6
AUSGEZOGEN
 62
   136
370
    18
100
AcDbLine
 10
0.328241620501
 20
71.631132413549
 30
0.0
 11
0.328241620501
 21
71.131132413549
 31
0.0
  0
LINE
  5
511
330
50D
100
AcDbEntity
  8
Bemassung
  6
AUSGEZOGEN
 62
   136
370
    18
100
AcDbLine
 10
0.328241620501
 20
71.631132413549
 30
0.0
 11
1.578241620501
 21
71.381132413549
 31
0.0
  0
LINE
  5
512
330
50D
100
AcDbEntity
  8
Bemassung
  6
AUSGEZOGEN
 62
   136
370
    18
100
AcDbLine
 10
1.578241620501
 20
71.381132413549
 30
0.0
 11
0.328241620501
 21
71.131132413549
 31
0.0
  0
LINE
  5
513
330
50D
100
AcDbEntity
  8
Bemassung
  6
AUSGEZOGEN
 62
   136
370
    18
100
AcDbLine
 10
-23.371758379499
 20
71.131132413549
 30
0.0
 11
-23.371758379499
 21
71.631132413549
 31
0.0
  0
LINE
  5
514
330
50D
100
AcDbEntity
  8
Bemassung
  6
AUSGEZOGEN
 62
   136
370
    18
100
AcDbLine
 10
-23.371758379499
 20
71.131132413549
 30
0.0
 11
-24.621758379499
 21
71.381132413549
 31
0.0
  0
LINE
  5
515
330
50D
100
AcDbEntity
  8
Bemassung
  6
AUSGEZOGEN
 62
   136
370
    18
100
AcDbLine
 10
-24.621758379499
 20
71.381132413549
 30
0.0
 11
-23.371758379499
 21
71.631132413549
 31
0.0
  0
LINE
  5
516
330
50D
100
AcDbEntity
  8
Bemassung
  6
AUSGEZOGEN
 62
   136
370
    18
100
AcDbLine
 10
-24.621758379499
 20
71.381132413549
 30
0.0
 11
1.578241620501
 21
71.381132413549
 31
0.0
  0
LINE
  5
517
330
50D
100
AcDbEntity
  8
Bemassung
  6
AUSGEZOGEN
 62
   136
370
    18
100
AcDbLine
 10
-24.621758379499
 20
91.923853187597
 30
0.0
 11
-24.621758379499
 21
70.666846699264
 31
0.0
  0
LINE
  5
518
330
50D
100
AcDbEntity
  8
Bemassung
  6
AUSGEZOGEN
 62
   136
370
    18
100
AcDbLine
 10
1.578241620501
 20
91.923853187597
 30
0.0
 11
1.578241620501
 21
70.666846699264
 31
0.0
  0
TEXT
  5
519
330
50D
100
AcDbEntity
  8
Bemassung
  6
AUSGEZOGEN
 62
   136
370
    18
100
AcDbText
 10
-13.248589727306
 20
72.256132413549
 30
0.0
 40
1.25
  1
26.2
 41
1.209972706038
  7
Arial
 72
     5
 11
-9.140732390308
 21
72.256132413549
 31
0.0
100
AcDbText
  0
ENDBLK
  5
50F
330
50D
100
AcDbEntity
  8
0
100
AcDbBlockEnd
  0
BLOCK
  5
523
330
522
100
AcDbEntity
  8
0
100
AcDbBlockBegin
  2
*D8
 70
     1
 10
0.0
 20
0.0
 30
0.0
  3
*D8
  1

  0
LINE
  5
525
330
522
100
AcDbEntity
  8
Bemassung
  6
AUSGEZOGEN
 62
   136
370
    18
100
AcDbLine
 10
8.149764857348
 20
126.68053376966
 30
0.0
 11
8.649764857348
 21
126.68053376966
 31
0.0
  0
LINE
  5
526
330
522
100
AcDbEntity
  8
Bemassung
  6
AUSGEZOGEN
 62
   136
370
    18
100
AcDbLine
 10
8.149764857348
 20
126.68053376966
 30
0.0
 11
8.399764857348
 21
127.93053376966
 31
0.0
  0
LINE
  5
527
330
522
100
AcDbEntity
  8
Bemassung
  6
AUSGEZOGEN
 62
   136
370
    18
100
AcDbLine
 10
8.399764857348
 20
127.93053376966
 30
0.0
 11
8.649764857348
 21
126.68053376966
 31
0.0
  0
LINE
  5
528
330
522
100
AcDbEntity
  8
Bemassung
  6
AUSGEZOGEN
 62
   136
370
    18
100
AcDbLine
 10
8.649764857348
 20
122.18053376966
 30
0.0
 11
8.149764857348
 21
122.18053376966
 31
0.0
  0
LINE
  5
529
330
522
100
AcDbEntity
  8
Bemassung
  6
AUSGEZOGEN
 62
   136
370
    18
100
AcDbLine
 10
8.649764857348
 20
122.18053376966
 30
0.0
 11
8.399764857348
 21
120.93053376966
 31
0.0
  0
LINE
  5
52A
330
522
100
AcDbEntity
  8
Bemassung
  6
AUSGEZOGEN
 62
   136
370
    18
100
AcDbLine
 10
8.399764857348
 20
120.93053376966
 30
0.0
 11
8.149764857348
 21
122.18053376966
 31
0.0
  0
LINE
  5
52B
330
522
100
AcDbEntity
  8
Bemassung
  6
AUSGEZOGEN
 62
   136
370
    18
100
AcDbLine
 10
8.399764857348
 20
120.93053376966
 30
0.0
 11
8.399764857348
 21
127.93053376966
 31
0.0
  0
LINE
  5
52C
330
522
100
AcDbEntity
  8
Bemassung
  6
AUSGEZOGEN
 62
   136
370
    18
100
AcDbLine
 10
8.399764857348
 20
127.93053376966
 30
0.0
 11
8.399764857348
 21
133.014744938164
 31
0.0
  0
LINE
  5
52D
330
522
100
AcDbEntity
  8
Bemassung
  6
AUSGEZOGEN
 62
   136
370
    18
100
AcDbLine
 10
1.578241620501
 20
120.93053376966
 30
0.0
 11
9.114050571634
 21
120.93053376966
 31
0.0
  0
LINE
  5
52E
330
522
100
AcDbEntity
  8
Bemassung
  6
AUSGEZOGEN
 62
   136
370
    18
100
AcDbLine
 10
1.478241620501
 20
127.93053376966
 30
0.0
 11
9.114050571634
 21
127.93053376966
 31
0.0
  0
TEXT
  5
52F
330
522
100
AcDbEntity
  8
Bemassung
  6
AUSGEZOGEN
 62
   136
370
    18
100
AcDbText
 10
7.399764857348
 20
128.645959029823
 30
0.0
 40
1.25
  1
7
 50
90.0
 41
1.020618612004
  7
Arial
 72
     5
 11
7.399764857348
 21
129.635959083467
 31
0.0
100
AcDbText
  0
TEXT
  5
530
330
522
100
AcDbEntity
  8
Bemassung
  6
AUSGEZOGEN
 62
   136
370
    18
100
AcDbText
 10
7.212264857348
 20
129.850244799882
 30
0.0
 40
0.875
  1
%%p0.3
 50
90.0
 41
1.291250039099
  7
Arial
 72
     5
 11
7.212264857348
 21
132.907602079957
 31
0.0
100
AcDbText
  0
ENDBLK
  5
524
330
522
100
AcDbEntity
  8
0
100
AcDbBlockEnd
  0
BLOCK
  5
533
330
532
100
AcDbEntity
  8
0
100
AcDbBlockBegin
  2
SchrM4_nNn07
 70
     0
 10
0.0
 20
0.0
 30
0.0
  3
SchrM4_nNn07
  1

  0
LINE
  5
535
330
532
100
AcDbEntity
  8
Layer0
  6
AUSGEZOGEN
 62
     9
370
    18
100
AcDbLine
 10
-13.171758355657
 20
120.93053376966
 30
0.0
 11
-9.871758403341
 21
120.93053376966
 31
0.0
  0
LINE
  5
536
330
532
100
AcDbEntity
  8
Layer0
  6
AUSGEZOGEN
 62
     9
370
    18
100
AcDbLine
 10
-9.521758379499
 20
120.93053376966
 30
0.0
 11
-9.521758379499
 21
112.78053415113
 31
0.0
  0
LINE
  5
537
330
532
100
AcDbEntity
  8
Layer0
  6
AUSGEZOGEN
 62
     9
370
    18
100
AcDbLine
 10
-9.521758379499
 20
112.78053415113
 30
0.0
 11
-9.871758403341
 21
112.43053376966
 31
0.0
  0
LINE
  5
538
330
532
100
AcDbEntity
  8
Layer0
  6
AUSGEZOGEN
 62
     9
370
    18
100
AcDbLine
 10
-9.871758403341
 20
112.43053376966
 30
0.0
 11
-13.171758355657
 21
112.43053376966
 31
0.0
  0
LINE
  5
539
330
532
100
AcDbEntity
  8
Layer0
  6
AUSGEZOGEN
 62
     9
370
    18
100
AcDbLine
 10
-13.171758355657
 20
112.43053376966
 30
0.0
 11
-13.521758379499
 21
112.78053415113
 31
0.0
  0
LINE
  5
53A
330
532
100
AcDbEntity
  8
Layer0
  6
AUSGEZOGEN
 62
     9
370
    18
100
AcDbLine
 10
-13.521758379499
 20
112.78053415113
 30
0.0
 11
-13.521758379499
 21
120.93053376966
 31
0.0
  0
LINE
  5
53B
330
532
100
AcDbEntity
  8
Layer0
  6
AUSGEZOGEN
 62
     9
370
    18
100
AcDbLine
 10
-9.521758379499
 20
112.78053415113
 30
0.0
 11
-13.521758379499
 21
112.78053415113
 31
0.0
  0
LINE
  5
53C
330
532
100
AcDbEntity
  8
Layer0
  6
AUSGEZOGEN
 62
    56
370
    18
100
AcDbLine
 10
-9.871758403341
 20
120.93053376966
 30
0.0
 11
-9.871758403341
 21
112.43053376966
 31
0.0
  0
LINE
  5
53D
330
532
100
AcDbEntity
  8
Layer0
  6
AUSGEZOGEN
 62
    56
370
    18
100
AcDbLine
 10
-13.171758355657
 20
120.93053376966
 30
0.0
 11
-13.171758355657
 21
112.43053376966
 31
0.0
  0
LINE
  5
53E
330
532
100
AcDbEntity
  8
Layer0
  6
AUSGEZOGEN
 62
     9
370
    18
100
AcDbLine
 10
-14.521758379499
 20
121.93053376966
 30
0.0
 11
-11.521758379499
 21
121.93053376966
 31
0.0
  0
LINE
  5
53F
330
532
100
AcDbEntity
  8
Layer0
  6
AUSGEZOGEN
 62
     9
370
    18
100
AcDbLine
 10
-13.521758379499
 20
120.93053376966
 30
0.0
 11
-13.521758379499
 21
121.93053376966
 31
0.0
  0
LINE
  5
540
330
532
100
AcDbEntity
  8
Layer0
  6
AUSGEZOGEN
 62
     9
370
    18
100
AcDbLine
 10
-14.521758379499
 20
123.13053376966
 30
0.0
 11
-11.521758379499
 21
123.13053376966
 31
0.0
  0
LINE
  5
541
330
532
100
AcDbEntity
  8
Layer0
  6
AUSGEZOGEN
 62
     9
370
    18
100
AcDbLine
 10
-14.521758379499
 20
121.93053376966
 30
0.0
 11
-14.521758379499
 21
123.13053376966
 31
0.0
  0
LINE
  5
542
330
532
100
AcDbEntity
  8
Layer0
  6
AUSGEZOGEN
 62
     9
370
    18
100
AcDbLine
 10
-15.021758379499
 20
122.43053376966
 30
0.0
 11
-15.021758379499
 21
123.63053376966
 31
0.0
  0
LINE
  5
543
330
532
100
AcDbEntity
  8
Layer0
  6
AUSGEZOGEN
 62
     9
370
    18
100
AcDbLine
 10
-15.021758379499
 20
123.63053376966
 30
0.0
 11
-11.521758379499
 21
123.63053376966
 31
0.0
  0
LINE
  5
544
330
532
100
AcDbEntity
  8
Layer0
  6
AUSGEZOGEN
 62
     9
370
    18
100
AcDbLine
 10
-12.521758379499
 20
123.13053376966
 30
0.0
 11
-12.521758379499
 21
123.63053376966
 31
0.0
  0
ENDBLK
  5
534
330
532
100
AcDbEntity
  8
0
100
AcDbBlockEnd
  0
BLOCK
  5
548
330
547
100
AcDbEntity
  8
0
100
AcDbBlockBegin
  2
*D10
 70
     1
 10
0.0
 20
0.0
 30
0.0
  3
*D10
  1

  0
LINE
  5
54A
330
547
100
AcDbEntity
  8
Bemassung
  6
AUSGEZOGEN
 62
   136
370
    18
100
AcDbLine
 10
-10.771758379499
 20
108.519976490078
 30
0.0
 11
-10.771758379499
 21
108.019976490078
 31
0.0
  0
LINE
  5
54B
330
547
100
AcDbEntity
  8
Bemassung
  6
AUSGEZOGEN
 62
   136
370
    18
100
AcDbLine
 10
-10.771758379499
 20
108.519976490078
 30
0.0
 11
-9.521758379499
 21
108.269976490078
 31
0.0
  0
LINE
  5
54C
330
547
100
AcDbEntity
  8
Bemassung
  6
AUSGEZOGEN
 62
   136
370
    18
100
AcDbLine
 10
-9.521758379499
 20
108.269976490078
 30
0.0
 11
-10.771758379499
 21
108.019976490078
 31
0.0
  0
LINE
  5
54D
330
547
100
AcDbEntity
  8
Bemassung
  6
AUSGEZOGEN
 62
   136
370
    18
100
AcDbLine
 10
-12.271758379499
 20
108.019976490078
 30
0.0
 11
-12.271758379499
 21
108.519976490078
 31
0.0
  0
LINE
  5
54E
330
547
100
AcDbEntity
  8
Bemassung
  6
AUSGEZOGEN
 62
   136
370
    18
100
AcDbLine
 10
-12.271758379499
 20
108.019976490078
 30
0.0
 11
-13.521758379499
 21
108.269976490078
 31
0.0
  0
LINE
  5
54F
330
547
100
AcDbEntity
  8
Bemassung
  6
AUSGEZOGEN
 62
   136
370
    18
100
AcDbLine
 10
-13.521758379499
 20
108.269976490078
 30
0.0
 11
-12.271758379499
 21
108.519976490078
 31
0.0
  0
LINE
  5
550
330
547
100
AcDbEntity
  8
Bemassung
  6
AUSGEZOGEN
 62
   136
370
    18
100
AcDbLine
 10
-13.521758379499
 20
108.269976490078
 30
0.0
 11
-9.521758379499
 21
108.269976490078
 31
0.0
  0
LINE
  5
551
330
547
100
AcDbEntity
  8
Bemassung
  6
AUSGEZOGEN
 62
   136
370
    18
100
AcDbLine
 10
-13.521758379499
 20
112.78053415113
 30
0.0
 11
-13.521758379499
 21
107.555690775792
 31
0.0
  0
LINE
  5
552
330
547
100
AcDbEntity
  8
Bemassung
  6
AUSGEZOGEN
 62
   136
370
    18
100
AcDbLine
 10
-9.521758379499
 20
112.78053415113
 30
0.0
 11
-9.521758379499
 21
107.555690775792
 31
0.0
  0
TEXT
  5
553
330
547
100
AcDbEntity
  8
Bemassung
  6
AUSGEZOGEN
 62
   136
370
    18
100
AcDbText
 10
-12.801051186924
 20
109.144976490078
 30
0.0
 40
1.25
  1
M4
 41
1.109555791862
  7
Arial
 72
     5
 11
-10.111765336399
 21
109.144976490078
 31
0.0
100
AcDbText
  0
ENDBLK
  5
549
330
547
100
AcDbEntity
  8
0
100
AcDbBlockEnd
  0
BLOCK
  5
556
330
555
100
AcDbEntity
  8
0
100
AcDbBlockBegin
  2
*D11
 70
     1
 10
0.0
 20
0.0
 30
0.0
  3
*D11
  1

  0
LINE
  5
558
330
555
100
AcDbEntity
  8
Bemassung
  6
AUSGEZOGEN
 62
   136
370
    18
100
AcDbLine
 10
8.157709833958
 20
119.68053376966
 30
0.0
 11
8.657709833958
 21
119.68053376966
 31
0.0
  0
LINE
  5
559
330
555
100
AcDbEntity
  8
Bemassung
  6
AUSGEZOGEN
 62
   136
370
    18
100
AcDbLine
 10
8.157709833958
 20
119.68053376966
 30
0.0
 11
8.407709833958
 21
120.93053376966
 31
0.0
  0
LINE
  5
55A
330
555
100
AcDbEntity
  8
Bemassung
  6
AUSGEZOGEN
 62
   136
370
    18
100
AcDbLine
 10
8.407709833958
 20
120.93053376966
 30
0.0
 11
8.657709833958
 21
119.68053376966
 31
0.0
  0
LINE
  5
55B
330
555
100
AcDbEntity
  8
Bemassung
  6
AUSGEZOGEN
 62
   136
370
    18
100
AcDbLine
 10
8.657709833958
 20
113.68053376966
 30
0.0
 11
8.157709833958
 21
113.68053376966
 31
0.0
  0
LINE
  5
55C
330
555
100
AcDbEntity
  8
Bemassung
  6
AUSGEZOGEN
 62
   136
370
    18
100
AcDbLine
 10
8.657709833958
 20
113.68053376966
 30
0.0
 11
8.407709833958
 21
112.43053376966
 31
0.0
  0
LINE
  5
55D
330
555
100
AcDbEntity
  8
Bemassung
  6
AUSGEZOGEN
 62
   136
370
    18
100
AcDbLine
 10
8.407709833958
 20
112.43053376966
 30
0.0
 11
8.157709833958
 21
113.68053376966
 31
0.0
  0
LINE
  5
55E
330
555
100
AcDbEntity
  8
Bemassung
  6
AUSGEZOGEN
 62
   136
370
    18
100
AcDbLine
 10
8.407709833958
 20
112.43053376966
 30
0.0
 11
8.407709833958
 21
120.93053376966
 31
0.0
  0
LINE
  5
55F
330
555
100
AcDbEntity
  8
Bemassung
  6
AUSGEZOGEN
 62
   136
370
    18
100
AcDbLine
 10
-9.871758403341
 20
112.43053376966
 30
0.0
 11
9.121995548244
 21
112.43053376966
 31
0.0
  0
LINE
  5
560
330
555
100
AcDbEntity
  8
Bemassung
  6
AUSGEZOGEN
 62
   136
370
    18
100
AcDbLine
 10
1.578241620501
 20
120.93053376966
 30
0.0
 11
9.121995548244
 21
120.93053376966
 31
0.0
  0
TEXT
  5
561
330
555
100
AcDbEntity
  8
Bemassung
  6
AUSGEZOGEN
 62
   136
370
    18
100
AcDbText
 10
7.407709833958
 20
113.77609713973
 30
0.0
 40
1.25
  1
8.5
 50
90.0
 41
1.197349099769
  7
Arial
 72
     5
 11
7.407709833958
 21
116.679668706669
 31
0.0
100
AcDbText
  0
TEXT
  5
562
330
555
100
AcDbEntity
  8
Bemassung
  6
AUSGEZOGEN
 62
   136
370
    18
100
AcDbText
 10
7.220209833958
 20
116.893954423084
 30
0.0
 40
0.875
  1
%%p1
 50
90.0
 41
1.17790312464
  7
Arial
 72
     5
 11
7.220209833958
 21
118.483240214004
 31
0.0
100
AcDbText
  0
ENDBLK
  5
557
330
555
100
AcDbEntity
  8
0
100
AcDbBlockEnd
  0
BLOCK
  5
569
330
568
100
AcDbEntity
  8
0
100
AcDbBlockBegin
  2
QS_nNn010
 70
     0
 10
0.0
 20
0.0
 30
0.0
  3
QS_nNn010
  1

  0
TEXT
  5
56B
330
568
100
AcDbEntity
  8
Layer0
  6
AUSGEZOGEN
 62
   136
370
    18
100
AcDbText
 10
-51.984138321153
 20
57.239849944219
 30
0.0
 40
1.25
  1
Teil frei von Rissen, Grat, Blasen, Einfallstellen,
 41
1.13496141796
  7
Arial
 72
     5
 11
-10.272887509338
 21
57.239849944219
 31
0.0
100
AcDbText
  0
TEXT
  5
56C
330
568
100
AcDbEntity
  8
Layer0
  6
AUSGEZOGEN
 62
   136
370
    18
100
AcDbText
 10
-51.984138321153
 20
55.239849914417
 30
0.0
 40
1.25
  1
Fliesslinien, Einschlüssen, Formbelag, Kratzer, Schlieren
 41
1.134732261281
  7
Arial
 72
     5
 11
-2.030387348916
 21
55.239849914417
 31
0.0
100
AcDbText
  0
TEXT
  5
56D
330
568
100
AcDbEntity
  8
Layer0
  6
AUSGEZOGEN
 62
   136
370
    18
100
AcDbText
 10
-51.984138321153
 20
53.239849884615
 30
0.0
 40
1.25
  1
Grenzwertmuster werden gesondert vereinbart
 41
1.135456394682
  7
Arial
 72
     5
 11
-11.025387523983
 21
53.239849884615
 31
0.0
100
AcDbText
  0
ENDBLK
  5
56A
330
568
100
AcDbEntity
  8
0
100
AcDbBlockEnd
  0
BLOCK
  5
570
330
56F
100
AcDbEntity
  8
0
100
AcDbBlockBegin
  2
Reflexwerte_nNn011
 70
     0
 10
0.0
 20
0.0
 30
0.0
  3
Reflexwerte_nNn011
  1

  0
TEXT
  5
572
330
56F
100
AcDbEntity
  8
Layer0
  6
AUSGEZOGEN
 62
   136
370
    18
100
AcDbText
 10
-52.156087920943
 20
49.939502463536
 30
0.0
 40
1.25
  1
Reflexionswerte werden gesondert vereinbart
 41
1.135633679475
  7
Arial
 72
     5
 11
-12.291087145061
 21
49.939502463536
 31
0.0
100
AcDbText
  0
ENDBLK
  5
571
330
56F
100
AcDbEntity
  8
0
100
AcDbBlockEnd
  0
ENDSEC
  0
SECTION
  2
ENTITIES
  0
INSERT
  5
19F
330
1F
100
AcDbEntity
  8
0
100
AcDbBlockReference
  2
L1_nNn00
 10
0.0
 20
0.0
 30
0.0
  0
LINE
  5
1A0
330
1F
100
AcDbEntity
  8
Layer99
  6
AUSGEZOGEN
 62
     9
370
    18
100
AcDbLine
 10
34.894597876884
 20
37.1213234447
 30
0.0
 11
-5.619379173897
 21
37.1213234447
 31
0.0
  0
TEXT
  5
1A1
330
1F
100
AcDbEntity
  8
Text
  6
AUSGEZOGEN
 62
     9
370
    18
100
AcDbText
 10
-3.167523440364
 20
32.266627544622
 30
0.0
 40
2.35
  1
Reflektor 25DF M4
 41
1.254332834952
  7
Arial
 72
     5
 11
31.358677724746
 21
32.266627544622
 31
0.0
100
AcDbText
  0
LINE
  5
1A2
330
1F
100
AcDbEntity
  8
Layer0
  6
DASHDOT
 62
    56
370
    18
100
AcDbLine
 10
-25.554411078397
 20
91.923853187597
 30
0.0
 11
3.098727115303
 21
91.923853187597
 31
0.0
  0
LINE
  5
1A3
330
1F
100
AcDbEntity
  8
Layer0
  6
DASHDOT
 62
    56
370
    18
100
AcDbLine
 10
-11.521758379499
 20
77.861236700779
 30
0.0
 11
-11.521758379499
 21
106.182141108862
 31
0.0
  0
INSERT
  5
4E3
330
1F
100
AcDbEntity
  8
0
100
AcDbBlockReference
  2
SECHSK1_nNn03
 10
0.0
 20
0.0
 30
0.0
  0
LINE
  5
4E4
330
1F
100
AcDbEntity
  8
Layer0
  6
DASHDOT
 62
    56
370
    18
100
AcDbLine
 10
-11.521758379499
 20
111.71130189611
 30
0.0
 11
-11.521758379499
 21
130.31092391984
 31
0.0
  0
LINE
  5
4E5
330
1F
100
AcDbEntity
  8
Layer0
  6
AUSGEZOGEN
 62
     9
370
    18
100
AcDbLine
 10
-11.521758379499
 20
126.13053376966
 30
0.0
 11
1.578241620501
 21
126.13053376966
 31
0.0
  0
LINE
  5
4E6
330
1F
100
AcDbEntity
  8
Layer0
  6
AUSGEZOGEN
 62
     9
370
    18
100
AcDbLine
 10
-12.849664797346
 20
126.93053376966
 30
0.0
 11
-11.521758379499
 21
124.93053376966
 31
0.0
  0
LINE
  5
4E7
330
1F
100
AcDbEntity
  8
Layer0
  6
AUSGEZOGEN
 62
     9
370
    18
100
AcDbLine
 10
-11.521758379499
 20
124.93053376966
 30
0.0
 11
-12.849664797346
 21
126.93053376966
 31
0.0
  0
LINE
  5
4E8
330
1F
100
AcDbEntity
  8
Layer0
  6
AUSGEZOGEN
 62
     9
370
    18
100
AcDbLine
 10
-12.849664797346
 20
126.93053376966
 30
0.0
 11
-14.177571215193
 21
124.93053376966
 31
0.0
  0
LINE
  5
4E9
330
1F
100
AcDbEntity
  8
Layer0
  6
AUSGEZOGEN
 62
     9
370
    18
100
AcDbLine
 10
-14.177571215193
 20
124.93053376966
 30
0.0
 11
-15.505473246137
 21
126.93053376966
 31
0.0
  0
LINE
  5
4EA
330
1F
100
AcDbEntity
  8
Layer0
  6
AUSGEZOGEN
 62
     9
370
    18
100
AcDbLine
 10
-15.505473246137
 20
126.93053376966
 30
0.0
 11
-16.833379663984
 21
124.93053376966
 31
0.0
  0
LINE
  5
4EB
330
1F
100
AcDbEntity
  8
Layer0
  6
AUSGEZOGEN
 62
     9
370
    18
100
AcDbLine
 10
-16.833379663984
 20
124.93053376966
 30
0.0
 11
-18.161286081831
 21
126.93053376966
 31
0.0
  0
LINE
  5
4EC
330
1F
100
AcDbEntity
  8
Layer0
  6
AUSGEZOGEN
 62
     9
370
    18
100
AcDbLine
 10
-18.161286081831
 20
126.93053376966
 30
0.0
 11
-19.489192499678
 21
124.93053376966
 31
0.0
  0
LINE
  5
4ED
330
1F
100
AcDbEntity
  8
Layer0
  6
AUSGEZOGEN
 62
     9
370
    18
100
AcDbLine
 10
-19.489192499678
 20
124.93053376966
 30
0.0
 11
-20.817094530622
 21
126.93053376966
 31
0.0
  0
LINE
  5
4EE
330
1F
100
AcDbEntity
  8
Layer0
  6
AUSGEZOGEN
 62
     9
370
    18
100
AcDbLine
 10
-20.817094530622
 20
126.93053376966
 30
0.0
 11
-22.145000948469
 21
124.93053376966
 31
0.0
  0
LINE
  5
4EF
330
1F
100
AcDbEntity
  8
Layer0
  6
AUSGEZOGEN
 62
     9
370
    18
100
AcDbLine
 10
-22.145000948469
 20
124.93053376966
 30
0.0
 11
-23.021758379499
 21
126.251044641883
 31
0.0
  0
LINE
  5
4F0
330
1F
100
AcDbEntity
  8
Layer0
  6
AUSGEZOGEN
 62
     9
370
    18
100
AcDbLine
 10
-11.521758379499
 20
120.93053376966
 30
0.0
 11
1.578241620501
 21
120.93053376966
 31
0.0
  0
LINE
  5
4F1
330
1F
100
AcDbEntity
  8
Layer0
  6
AUSGEZOGEN
 62
     9
370
    18
100
AcDbLine
 10
-24.621758379499
 20
120.93053376966
 30
0.0
 11
-11.521758379499
 21
120.93053376966
 31
0.0
  0
LINE
  5
4F2
330
1F
100
AcDbEntity
  8
Layer0
  6
AUSGEZOGEN
 62
     9
370
    18
100
AcDbLine
 10
-23.121758379499
 20
122.43053376966
 30
0.0
 11
-15.021758379499
 21
122.43053376966
 31
0.0
  0
CIRCLE
  5
4F3
330
1F
100
AcDbEntity
  8
Layer0
  6
AUSGEZOGEN
 62
     9
370
    18
100
AcDbCircle
 10
-11.521758379499
 20
91.923853187597
 30
0.0
 40
13.0
  0
CIRCLE
  5
4F4
330
1F
100
AcDbEntity
  8
Layer0
  6
AUSGEZOGEN
 62
   136
370
    18
100
AcDbCircle
 10
-11.521758379499
 20
91.923853187597
 30
0.0
 40
11.5
  0
DIMENSION
  5
502
330
1F
100
AcDbEntity
  8
Bemassung
  6
AUSGEZOGEN
 62
   136
370
    18
100
AcDbDimension
  2
*D5
 10
-0.021758379499
 20
74.397091740992
 30
0.0
 11
-11.297568950887
 21
75.897091740992
 31
0.0
 70
   160
 71
     5
 42
-1.0
  3
ISO-25
100
AcDbAlignedDimension
 13
-23.021758379499
 23
91.923853187597
 33
0.0
 14
-0.021758379499
 24
91.923853187597
 34
0.0
100
AcDbRotatedDimension
1001
ACAD
1000
DSTYLE
1002
{
1070
     3
1000
<>
1070
    44
1040
0.892857142857
1070
   280
1070
     0
1070
    77
1070
     1
1070
    78
1070
     8
1070
   179
1070
     2
1070
   271
1070
     2
1070
   344
1005
503
1070
   343
1005
503
1070
   173
1070
     1
1070
    41
1040
1.25
1070
   147
1040
0.178571428571
1070
   140
1040
1.25
1070
   178
1070
   136
1070
   177
1070
   136
1070
   176
1070
   136
1002
}
  0
LINE
  5
50A
330
1F
100
AcDbEntity
  8
Layer0
  6
AUSGEZOGEN
 62
     9
370
    18
100
AcDbLine
 10
-24.521758379499
 20
127.93053376966
 30
0.0
 11
1.478241620501
 21
127.93053376966
 31
0.0
  0
LINE
  5
50B
330
1F
100
AcDbEntity
  8
Layer0
  6
AUSGEZOGEN
 62
     9
370
    18
100
AcDbLine
 10
-24.621758379499
 20
126.13053376966
 30
0.0
 11
-23.021758379499
 21
126.13053376966
 31
0.0
  0
CIRCLE
  5
50C
330
1F
100
AcDbEntity
  8
Layer0
  6
AUSGEZOGEN
 62
     9
370
    18
100
AcDbCircle
 10
-11.521758379499
 20
91.923853187597
 30
0.0
 40
13.1
  0
DIMENSION
  5
51A
330
1F
100
AcDbEntity
  8
Bemassung
  6
AUSGEZOGEN
 62
   136
370
    18
100
AcDbDimension
  2
*D7
 10
1.578241620501
 20
71.381132413549
 30
0.0
 11
-11.194661058807
 21
72.881132413549
 31
0.0
 70
   160
 71
     5
 42
-1.0
  3
ISO-25
100
AcDbAlignedDimension
 13
-24.621758379499
 23
91.923853187597
 33
0.0
 14
1.578241620501
 24
91.923853187597
 34
0.0
100
AcDbRotatedDimension
1001
ACAD
1000
DSTYLE
1002
{
1070
     3
1000
<>
1070
    44
1040
0.892857142857
1070
   280
1070
     0
1070
    77
1070
     1
1070
    78
1070
     8
1070
   179
1070
     2
1070
   271
1070
     2
1070
   344
1005
503
1070
   343
1005
503
1070
   173
1070
     1
1070
    41
1040
1.25
1070
   147
1040
0.178571428571
1070
   140
1040
1.25
1070
   178
1070
   136
1070
   177
1070
   136
1070
   176
1070
   136
1002
}
  0
LINE
  5
51B
330
1F
100
AcDbEntity
  8
Layer0
  6
AUSGEZOGEN
 62
     9
370
    18
100
AcDbLine
 10
-24.521758379499
 20
126.13053376966
 30
0.0
 11
-24.521758379499
 21
127.93053376966
 31
0.0
  0
LINE
  5
51C
330
1F
100
AcDbEntity
  8
Layer0
  6
AUSGEZOGEN
 62
     9
370
    18
100
AcDbLine
 10
-24.621758379499
 20
120.93053376966
 30
0.0
 11
-24.621758379499
 21
126.13053376966
 31
0.0
  0
LINE
  5
51D
330
1F
100
AcDbEntity
  8
Layer0
  6
AUSGEZOGEN
 62
     9
370
    18
100
AcDbLine
 10
-23.121758379499
 20
122.43053376966
 30
0.0
 11
-23.121758379499
 21
126.13053376966
 31
0.0
  0
LINE
  5
51E
330
1F
100
AcDbEntity
  8
Layer0
  6
AUSGEZOGEN
 62
     9
370
    18
100
AcDbLine
 10
-23.021758379499
 20
126.13053376966
 30
0.0
 11
-23.021758379499
 21
126.251044641883
 31
0.0
  0
LINE
  5
51F
330
1F
100
AcDbEntity
  8
Layer0
  6
AUSGEZOGEN
 62
     9
370
    18
100
AcDbLine
 10
1.478241620501
 20
126.13053376966
 30
0.0
 11
1.478241620501
 21
127.93053376966
 31
0.0
  0
LINE
  5
520
330
1F
100
AcDbEntity
  8
Layer0
  6
AUSGEZOGEN
 62
     9
370
    18
100
AcDbLine
 10
1.578241620501
 20
120.93053376966
 30
0.0
 11
1.578241620501
 21
126.13053376966
 31
0.0
  0
HATCH
  5
521
330
1F
100
AcDbEntity
  8
Schraffur
  6
AUSGEZOGEN
 62
    56
370
    18
100
AcDbHatch
 10
0.0
 20
0.0
 30
0.0
210
0.0
220
0.0
230
1.0
  2
MegaCAD_TYP1
 70
     0
 71
     0
 91
        1
 92
        2
 72
     0
 73
     1
 93
       14
 10
-22.14500094846899
 20
124.9305337696601
 10
-20.81709453062231
 20
126.9305337696601
 10
-19.48919249967751
 20
124.9305337696601
 10
-18.16128608183081
 20
126.9305337696601
 10
-16.83337966398413
 20
124.9305337696601
 10
-15.50547324613746
 20
126.9305337696601
 10
-14.17757121519266
 20
124.9305337696601
 10
-12.84966479734595
 20
126.9305337696601
 10
-11.52175837949927
 20
124.9305337696601
 10
-11.52175837949929
 20
127.9305337696601
 10
-24.52175837949927
 20
127.9305337696601
 10
-24.52175837949927
 20
126.1305337696601
 10
-23.0217583794993
 20
126.1305337696601
 10
-23.02175837949929
 20
126.2510446418826
 97
        0
 75
     0
 76
     1
 52
0.0
 41
0.25
 77
     0
 78
     1
 53
45.0
 43
0.0
 44
0.0
 45
-0.5303300858899106
 46
0.5303300858899107
 79
     0
 98
        0
  0
DIMENSION
  5
531
330
1F
100
AcDbEntity
  8
Bemassung
  6
AUSGEZOGEN
 62
   136
370
    18
100
AcDbDimension
  2
*D8
 10
8.399764857348
 20
127.93053376966
 30
0.0
 11
6.774764857348
 21
130.77678055489
 31
0.0
 70
   160
 71
     5
 42
-1.0
 53
90.0
  3
ISO-25
100
AcDbAlignedDimension
 13
1.578241620501
 23
120.93053376966
 33
0.0
 14
1.478241620501
 24
127.93053376966
 34
0.0
 50
90.0
100
AcDbRotatedDimension
1001
ACAD
1000
DSTYLE
1002
{
1070
     3
1000
<>\S%%p0.3
1070
    44
1040
0.892857142857
1070
   280
1070
     0
1070
    77
1070
     1
1070
    78
1070
     8
1070
   179
1070
     2
1070
   271
1070
     2
1070
   344
1005
503
1070
   343
1005
503
1070
   173
1070
     1
1070
    41
1040
1.25
1070
   147
1040
0.178571428571
1070
   140
1040
1.25
1070
   178
1070
   136
1070
   177
1070
   136
1070
   176
1070
   136
1002
}
  0
INSERT
  5
545
330
1F
100
AcDbEntity
  8
0
100
AcDbBlockReference
  2
SchrM4_nNn07
 10
0.0
 20
0.0
 30
0.0
  0
HATCH
  5
546
330
1F
100
AcDbEntity
  8
Schraffur
  6
AUSGEZOGEN
 62
    56
370
    18
100
AcDbHatch
 10
0.0
 20
0.0
 30
0.0
210
0.0
220
0.0
230
1.0
  2
MegaCAD_TYP1
 70
     0
 71
     0
 91
        1
 92
        2
 72
     0
 73
     1
 93
       13
 10
-23.12175837949928
 20
126.1305337696601
 10
-24.62175837949925
 20
126.1305337696601
 10
-24.62175837949927
 20
120.9305337696601
 10
-24.19237727739394
 20
120.9305337696601
 10
-13.52175837949926
 20
120.9305337696601
 10
-13.52175837949926
 20
121.9305337696601
 10
-14.52175837949926
 20
121.9305337696601
 10
-14.52175837949926
 20
123.1305337696601
 10
-12.52175837949926
 20
123.1305337696601
 10
-12.52175837949927
 20
123.6305337696601
 10
-15.02175837949926
 20
123.6305337696601
 10
-15.02175837949926
 20
122.4305337696601
 10
-23.12175837949928
 20
122.4305337696601
 97
        0
 75
     0
 76
     1
 52
90.0
 41
0.25
 77
     0
 78
     1
 53
135.0
 43
0.0
 44
0.0
 45
-0.5303300858899107
 46
-0.5303300858899106
 79
     0
 98
        0
  0
DIMENSION
  5
554
330
1F
100
AcDbEntity
  8
Bemassung
  6
AUSGEZOGEN
 62
   136
370
    18
100
AcDbDimension
  2
*D10
 10
-9.521758379499
 20
108.269976490078
 30
0.0
 11
-11.456408261661
 21
109.769976490078
 31
0.0
 70
   160
  1
M4
 71
     5
 42
-1.0
  3
ISO-25
100
AcDbAlignedDimension
 13
-13.521758379499
 23
112.78053415113
 33
0.0
 14
-9.521758379499
 24
112.78053415113
 34
0.0
100
AcDbRotatedDimension
1001
ACAD
1000
DSTYLE
1002
{
1070
    44
1040
0.892857142857
1070
   280
1070
     0
1070
    77
1070
     1
1070
    78
1070
     8
1070
   179
1070
     2
1070
   271
1070
     2
1070
   344
1005
503
1070
   343
1005
503
1070
   173
1070
     1
1070
    41
1040
1.25
1070
   147
1040
0.178571428571
1070
   140
1040
1.25
1070
   178
1070
   136
1070
   177
1070
   136
1070
   176
1070
   136
1002
}
  0
DIMENSION
  5
563
330
1F
100
AcDbEntity
  8
Bemassung
  6
AUSGEZOGEN
 62
   136
370
    18
100
AcDbDimension
  2
*D11
 10
8.407709833958
 20
120.93053376966
 30
0.0
 11
6.782709833958
 21
116.129668676867
 31
0.0
 70
   160
 71
     5
 42
-1.0
 53
90.0
  3
ISO-25
100
AcDbAlignedDimension
 13
-9.871758403341
 23
112.43053376966
 33
0.0
 14
1.578241620501
 24
120.93053376966
 34
0.0
 50
90.0
100
AcDbRotatedDimension
1001
ACAD
1000
DSTYLE
1002
{
1070
     3
1000
<>\S%%p1
1070
    44
1040
0.892857142857
1070
   280
1070
     0
1070
    77
1070
     1
1070
    78
1070
     8
1070
   179
1070
     2
1070
   271
1070
     2
1070
   344
1005
503
1070
   343
1005
503
1070
   173
1070
     1
1070
    41
1040
1.25
1070
   147
1040
0.178571428571
1070
   140
1040
1.25
1070
   178
1070
   136
1070
   177
1070
   136
1070
   176
1070
   136
1002
}
  0
CIRCLE
  5
564
330
1F
100
AcDbEntity
  8
Layer0
  6
DASHED
 62
   136
370
    18
100
AcDbCircle
 10
-11.521758379499
 20
91.923853187597
 30
0.0
 40
3.5
  0
CIRCLE
  5
565
330
1F
100
AcDbEntity
  8
Layer0
  6
DASHED
 62
   136
370
    18
100
AcDbCircle
 10
-11.521758379499
 20
91.923853187597
 30
0.0
 40
2.0
  0
ARC
  5
566
330
1F
100
AcDbEntity
  8
Layer0
  6
DASHED
 62
   136
370
    18
100
AcDbCircle
 10
-11.521758379499
 20
91.923853187597
 30
0.0
 40
1.6
100
AcDbArc
 50
30.0
 51
330.0
  0
CIRCLE
  5
567
330
1F
100
AcDbEntity
  8
Layer0
  6
DASHED
 62
   136
370
    18
100
AcDbCircle
 10
-11.521758379499
 20
91.923853187597
 30
0.0
 40
1.0
  0
INSERT
  5
56E
330
1F
100
AcDbEntity
  8
0
100
AcDbBlockReference
  2
QS_nNn010
 10
0.0
 20
0.0
 30
0.0
  0
INSERT
  5
573
330
1F
100
AcDbEntity
  8
0
100
AcDbBlockReference
  2
Reflexwerte_nNn011
 10
0.0
 20
0.0
 30
0.0
  0
TEXT
  5
574
330
1F
100
AcDbEntity
  8
Text
  6
AUSGEZOGEN
 62
   136
370
    18
100
AcDbText
 10
-51.84914579499
 20
64.791670755243
 30
0.0
 40
1.25
  1
Reflektor: PMMA glsklar
 41
1.135337341349
  7
Arial
 72
     5
 11
-30.60414579499
 21
64.791670755243
 31
0.0
100
AcDbText
  0
TEXT
  5
575
330
1F
100
AcDbEntity
  8
Text
  6
AUSGEZOGEN
 62
   136
370
    18
100
AcDbText
 10
-51.84914579499
 20
62.791670725441
 30
0.0
 40
1.25
  1
Halterung: PMMA weiss
 41
1.136037064393
  7
Arial
 72
     5
 11
-30.70039579499
 21
62.791670725441
 31
0.0
100
AcDbText
  0
TEXT
  5
576
330
1F
100
AcDbEntity
  8
Text
  6
AUSGEZOGEN
 62
   136
370
    18
100
AcDbText
 10
-51.84914579499
 20
60.791670695638
 30
0.0
 40
1.25
  1
Schraube: Ms
 41
1.135640459877
  7
Arial
 72
     5
 11
-39.62539579499
 21
60.791670695638
 31
0.0
100
AcDbText
  0
ENDSEC
  0
SECTION
  2
OBJECTS
  0
DICTIONARY
  5
C
330
0
100
AcDbDictionary
281
     1
  3
ACAD_GROUP
350
D
  3
ACAD_LAYOUT
350
1A
  3
ACAD_MATERIAL
350
3B
  3
ACAD_MLEADERSTYLE
350
59E
  3
ACAD_MLINESTYLE
350
17
  3
ACAD_PLOTSETTINGS
350
19
  3
ACAD_PLOTSTYLENAME
350
E
  3
ACAD_TABLESTYLE
350
59D
  3
ACAD_VISUALSTYLE
350
2A
  3
ACAD_WIPEOUT_VARS
350
3F
  0
DICTIONARY
  5
D
102
{ACAD_REACTORS
330
C
102
}
330
C
100
AcDbDictionary
281
     1
  0
DICTIONARY
  5
1A
102
{ACAD_REACTORS
330
C
102
}
330
C
100
AcDbDictionary
281
     1
  3
Layout1
350
1E
  3
Layout2
350
26
  3
Model
350
22
  0
DICTIONARY
  5
3B
102
{ACAD_REACTORS
330
C
102
}
330
C
100
AcDbDictionary
281
     1
  3
ByBlock
350
3D
  3
ByLayer
350
3C
  3
Global
350
3E
  0
DICTIONARY
  5
59E
102
{ACAD_REACTORS
330
C
102
}
330
C
100
AcDbDictionary
281
     1
  0
DICTIONARY
  5
17
102
{ACAD_REACTORS
330
C
102
}
330
C
100
AcDbDictionary
281
     1
  3
Standard
350
18
  0
DICTIONARY
  5
19
102
{ACAD_REACTORS
330
C
102
}
330
C
100
AcDbDictionary
281
     1
  0
ACDBDICTIONARYWDFLT
  5
E
102
{ACAD_REACTORS
330
C
102
}
330
C
100
AcDbDictionary
281
     1
  3
Normal
350
F
100
AcDbDictionaryWithDefault
340
F
  0
DICTIONARY
  5
59D
102
{ACAD_REACTORS
330
C
102
}
330
C
100
AcDbDictionary
281
     1
  0
DICTIONARY
  5
2A
102
{ACAD_REACTORS
330
C
102
}
330
C
100
AcDbDictionary
281
     1
  3
2dWireframe
350
2F
  3
3D Hidden
350
31
  3
3dWireframe
350
30
  3
Basic
350
32
  3
Brighten
350
36
  3
ColorChange
350
3A
  3
Conceptual
350
34
  3
Dim
350
35
  3
Facepattern
350
39
  3
Flat
350
2B
  3
FlatWithEdges
350
2C
  3
Gouraud
350
2D
  3
GouraudWithEdges
350
2E
  3
Linepattern
350
38
  3
Realistic
350
33
  3
Thicken
350
37
  0
WIPEOUTVARIABLES
  5
3F
102
{ACAD_REACTORS
330
C
102
}
330
C
100
AcDbWipeoutVariables
 70
     0
  0
LAYOUT
  5
1E
102
{ACAD_REACTORS
330
1A
102
}
330
1A
100
AcDbPlotSettings
  1

  2
none_device
  4

  6

 40
0.0
 41
0.0
 42
0.0
 43
0.0
 44
0.0
 45
0.0
 46
0.0
 47
0.0
 48
0.0
 49
0.0
140
0.0
141
0.0
142
1.0
143
1.0
 70
   688
 72
     0
 73
     0
 74
     5
  7

 75
    16
 76
     0
 77
     2
 78
   300
147
1.0
148
0.0
149
0.0
100
AcDbLayout
  1
Layout1
 70
     1
 71
     1
 10
0.0
 20
0.0
 11
420.0
 21
297.0
 12
0.0
 22
0.0
 32
0.0
 14
1.000000000000E+20
 24
1.000000000000E+20
 34
1.000000000000E+20
 15
-1.000000000000E+20
 25
-1.000000000000E+20
 35
-1.000000000000E+20
146
0.0
 13
0.0
 23
0.0
 33
0.0
 16
1.0
 26
0.0
 36
0.0
 17
0.0
 27
1.0
 37
0.0
 76
     0
330
1B
  0
LAYOUT
  5
26
102
{ACAD_REACTORS
330
1A
102
}
330
1A
100
AcDbPlotSettings
  1

  2
none_device
  4

  6

 40
0.0
 41
0.0
 42
0.0
 43
0.0
 44
0.0
 45
0.0
 46
0.0
 47
0.0
 48
0.0
 49
0.0
140
0.0
141
0.0
142
1.0
143
1.0
 70
   688
 72
     0
 73
     0
 74
     5
  7

 75
    16
 76
     0
 77
     2
 78
   300
147
1.0
148
0.0
149
0.0
100
AcDbLayout
  1
Layout2
 70
     1
 71
     2
 10
0.0
 20
0.0
 11
0.0
 21
0.0
 12
0.0
 22
0.0
 32
0.0
 14
0.0
 24
0.0
 34
0.0
 15
0.0
 25
0.0
 35
0.0
146
0.0
 13
0.0
 23
0.0
 33
0.0
 16
1.0
 26
0.0
 36
0.0
 17
0.0
 27
1.0
 37
0.0
 76
     0
330
23
  0
LAYOUT
  5
22
102
{ACAD_REACTORS
330
1A
102
}
330
1A
100
AcDbPlotSettings
  1

  2
none_device
  4

  6

 40
0.0
 41
0.0
 42
0.0
 43
0.0
 44
0.0
 45
0.0
 46
0.0
 47
0.0
 48
0.0
 49
0.0
140
0.0
141
0.0
142
1.0
143
1.0
 70
  1712
 72
     0
 73
     0
 74
     0
  7

 75
     0
 76
     0
 77
     2
 78
   300
147
1.0
148
0.0
149
0.0
100
AcDbLayout
  1
Model
 70
     1
 71
     0
 10
0.0
 20
0.0
 11
420.0
 21
297.0
 12
0.0
 22
0.0
 32
0.0
 14
-201.460520322234
 24
11.8118234447
 34
0.0
 15
177.249716076002
 25
165.3608234447
 35
0.0
146
0.0
 13
0.0
 23
0.0
 33
0.0
 16
1.0
 26
0.0
 36
0.0
 17
0.0
 27
1.0
 37
0.0
 76
     0
330
1F
331
29
  0
MATERIAL
  5
3D
102
{ACAD_REACTORS
330
3B
102
}
102
{ACAD_XDICTIONARY
360
599
102
}
330
3B
100
AcDbMaterial
  1
ByBlock
  0
MATERIAL
  5
3C
102
{ACAD_REACTORS
330
3B
102
}
102
{ACAD_XDICTIONARY
360
597
102
}
330
3B
100
AcDbMaterial
  1
ByLayer
  0
MATERIAL
  5
3E
102
{ACAD_REACTORS
330
3B
102
}
102
{ACAD_XDICTIONARY
360
59B
102
}
330
3B
100
AcDbMaterial
  1
Global
  0
MLINESTYLE
  5
18
102
{ACAD_REACTORS
330
17
102
}
330
17
100
AcDbMlineStyle
  2
Standard
 70
     0
  3

 62
   256
 51
90.0
 52
90.0
 71
     2
 49
0.5
 62
   256
  6
BYLAYER
 49
-0.5
 62
   256
  6
BYLAYER
  0
ACDBPLACEHOLDER
  5
F
102
{ACAD_REACTORS
330
E
102
}
330
E
  0
VISUALSTYLE
  5
2F
102
{ACAD_REACTORS
330
2A
102
}
102
{ACAD_XDICTIONARY
360
57F
102
}
330
2A
100
AcDbVisualStyle
  2
2dWireframe
 70
     4
 71
     0
 72
     2
 73
     0
 90
        0
 40
-0.6
 41
-30.0
 62
     5
 63
     7
421
 16777215
 74
     1
 91
        4
 64
     7
 65
   257
 75
     1
175
     1
 42
1.0
 92
        0
 66
   257
 43
1.0
 76
     1
 77
     6
 78
     2
 67
     7
 79
     5
170
     0
171
     0
290
     0
174
     0
 93
        1
 44
0.0
173
     0
291
     0
 45
0.0
1001
ACAD
1000
AcDbSavedByObjectVersion
1070
     0
  0
VISUALSTYLE
  5
31
102
{ACAD_REACTORS
330
2A
102
}
102
{ACAD_XDICTIONARY
360
583
102
}
330
2A
100
AcDbVisualStyle
  2
3D Hidden
 70
     6
 71
     1
 72
     2
 73
     2
 90
        0
 40
-0.6
 41
-30.0
 62
     5
 63
     7
421
 16777215
 74
     2
 91
        2
 64
     7
 65
   257
 75
     2
175
     1
 42
40.0
 92
        0
 66
   257
 43
1.0
 76
     1
 77
     6
 78
     2
 67
     7
 79
     3
170
     0
171
     0
290
     0
174
     0
 93
        1
 44
0.0
173
     0
291
     0
 45
0.0
1001
ACAD
1000
AcDbSavedByObjectVersion
1070
     0
  0
VISUALSTYLE
  5
30
102
{ACAD_REACTORS
330
2A
102
}
102
{ACAD_XDICTIONARY
360
581
102
}
330
2A
100
AcDbVisualStyle
  2
3dWireframe
 70
     5
 71
     0
 72
     2
 73
     0
 90
        0
 40
-0.6
 41
-30.0
 62
     5
 63
     7
421
 16777215
 74
     1
 91
        4
 64
     7
 65
   257
 75
     1
175
     1
 42
1.0
 92
        0
 66
   257
 43
1.0
 76
     1
 77
     6
 78
     2
 67
     7
 79
     5
170
     0
171
     0
290
     0
174
     0
 93
        1
 44
0.0
173
     0
291
     0
 45
0.0
1001
ACAD
1000
AcDbSavedByObjectVersion
1070
     0
  0
VISUALSTYLE
  5
32
102
{ACAD_REACTORS
330
2A
102
}
102
{ACAD_XDICTIONARY
360
585
102
}
330
2A
100
AcDbVisualStyle
  2
Basic
 70
     7
 71
     1
 72
     0
 73
     1
 90
        0
 40
-0.6
 41
-30.0
 62
     5
 63
     7
421
 16777215
 74
     0
 91
        4
 64
     7
 65
   257
 75
     1
175
     1
 42
1.0
 92
        8
 66
     7
 43
1.0
 76
     1
 77
     6
 78
     2
 67
     7
 79
     5
170
     0
171
     0
290
     0
174
     0
 93
        1
 44
0.0
173
     0
291
     1
 45
0.0
1001
ACAD
1000
AcDbSavedByObjectVersion
1070
     0
  0
VISUALSTYLE
  5
36
102
{ACAD_REACTORS
330
2A
102
}
102
{ACAD_XDICTIONARY
360
58D
102
}
330
2A
100
AcDbVisualStyle
  2
Brighten
 70
    12
 71
     2
 72
     2
 73
     0
 90
        0
 40
-0.6
 41
-30.0
 62
     5
 63
     7
421
 16777215
 74
     1
 91
        4
 64
     7
 65
   257
 75
     1
175
     1
 42
1.0
 92
        8
 66
     7
 43
1.0
 76
     1
 77
     6
 78
     2
 67
     7
 79
     5
170
     0
171
     0
290
     0
174
     0
 93
        1
 44
50.0
173
     0
291
     1
 45
0.0
1001
ACAD
1000
AcDbSavedByObjectVersion
1070
     0
  0
VISUALSTYLE
  5
3A
102
{ACAD_REACTORS
330
2A
102
}
102
{ACAD_XDICTIONARY
360
595
102
}
330
2A
100
AcDbVisualStyle
  2
ColorChange
 70
    16
 71
     2
 72
     2
 73
     3
 90
        0
 40
-0.6
 41
-30.0
 62
     5
 63
     8
421
  8421504
 74
     1
 91
        4
 64
     7
 65
   257
 75
     1
175
     1
 42
1.0
 92
        8
 66
     8
424
  8421504
 43
1.0
 76
     1
 77
     6
 78
     2
 67
     7
 79
     5
170
     0
171
     0
290
     0
174
     0
 93
        1
 44
0.0
173
     0
291
     1
 45
0.0
1001
ACAD
1000
AcDbSavedByObjectVersion
1070
     0
  0
VISUALSTYLE
  5
34
102
{ACAD_REACTORS
330
2A
102
}
102
{ACAD_XDICTIONARY
360
589
102
}
330
2A
100
AcDbVisualStyle
  2
Conceptual
 70
     9
 71
     3
 72
     2
 73
     0
 90
        0
 40
-0.6
 41
-30.0
 62
     5
 63
     7
421
 16777215
 74
     2
 91
        2
 64
     7
 65
   257
 75
     1
175
     1
 42
40.0
 92
        8
 66
     7
 43
1.0
 76
     1
 77
     6
 78
     2
 67
     7
 79
     3
170
     0
171
     0
290
     0
174
     0
 93
        1
 44
0.0
173
     0
291
     0
 45
0.0
1001
ACAD
1000
AcDbSavedByObjectVersion
1070
     0
  0
VISUALSTYLE
  5
35
102
{ACAD_REACTORS
330
2A
102
}
102
{ACAD_XDICTIONARY
360
58B
102
}
330
2A
100
AcDbVisualStyle
  2
Dim
 70
    11
 71
     2
 72
     2
 73
     0
 90
        0
 40
-0.6
 41
-30.0
 62
     5
 63
     7
421
 16777215
 74
     1
 91
        4
 64
     7
 65
   257
 75
     1
175
     1
 42
1.0
 92
        8
 66
     7
 43
1.0
 76
     1
 77
     6
 78
     2
 67
     7
 79
     5
170
     0
171
     0
290
     0
174
     0
 93
        1
 44
-50.0
173
     0
291
     1
 45
0.0
1001
ACAD
1000
AcDbSavedByObjectVersion
1070
     0
  0
VISUALSTYLE
  5
39
102
{ACAD_REACTORS
330
2A
102
}
102
{ACAD_XDICTIONARY
360
593
102
}
330
2A
100
AcDbVisualStyle
  2
Facepattern
 70
    15
 71
     2
 72
     2
 73
     0
 90
        0
 40
-0.6
 41
-30.0
 62
     5
 63
     7
421
 16777215
 74
     1
 91
        4
 64
     7
 65
   257
 75
     1
175
     1
 42
1.0
 92
        8
 66
     7
 43
1.0
 76
     1
 77
     6
 78
     2
 67
     7
 79
     5
170
     0
171
     0
290
     0
174
     0
 93
        1
 44
0.0
173
     0
291
     1
 45
0.0
1001
ACAD
1000
AcDbSavedByObjectVersion
1070
     0
  0
VISUALSTYLE
  5
2B
102
{ACAD_REACTORS
330
2A
102
}
102
{ACAD_XDICTIONARY
360
577
102
}
330
2A
100
AcDbVisualStyle
  2
Flat
 70
     0
 71
     2
 72
     1
 73
     1
 90
        2
 40
-0.6
 41
30.0
 62
     5
 63
     7
421
 16777215
 74
     0
 91
        4
 64
     7
 65
   257
 75
     1
175
     1
 42
1.0
 92
        8
 66
     7
 43
1.0
 76
     1
 77
     6
 78
     2
 67
     7
 79
     5
170
     0
171
     0
290
     0
174
     0
 93
       13
 44
0.0
173
     0
291
     1
 45
0.0
1001
ACAD
1000
AcDbSavedByObjectVersion
1070
     0
  0
VISUALSTYLE
  5
2C
102
{ACAD_REACTORS
330
2A
102
}
102
{ACAD_XDICTIONARY
360
579
102
}
330
2A
100
AcDbVisualStyle
  2
FlatWithEdges
 70
     1
 71
     2
 72
     1
 73
     1
 90
        2
 40
-0.6
 41
30.0
 62
     5
 63
     7
421
 16777215
 74
     1
 91
        4
 64
     7
 65
   257
 75
     1
175
     1
 42
1.0
 92
        0
 66
   257
 43
1.0
 76
     1
 77
     6
 78
     2
 67
     7
 79
     5
170
     0
171
     0
290
     0
174
     0
 93
       13
 44
0.0
173
     0
291
     1
 45
0.0
1001
ACAD
1000
AcDbSavedByObjectVersion
1070
     0
  0
VISUALSTYLE
  5
2D
102
{ACAD_REACTORS
330
2A
102
}
102
{ACAD_XDICTIONARY
360
57B
102
}
330
2A
100
AcDbVisualStyle
  2
Gouraud
 70
     2
 71
     2
 72
     2
 73
     1
 90
        2
 40
-0.6
 41
30.0
 62
     5
 63
     7
421
 16777215
 74
     0
 91
        4
 64
     7
 65
   257
 75
     1
175
     1
 42
1.0
 92
        0
 66
     7
 43
1.0
 76
     1
 77
     6
 78
     2
 67
     7
 79
     5
170
     0
171
     0
290
     0
174
     0
 93
       13
 44
0.0
173
     0
291
     1
 45
0.0
1001
ACAD
1000
AcDbSavedByObjectVersion
1070
     0
  0
VISUALSTYLE
  5
2E
102
{ACAD_REACTORS
330
2A
102
}
102
{ACAD_XDICTIONARY
360
57D
102
}
330
2A
100
AcDbVisualStyle
  2
GouraudWithEdges
 70
     3
 71
     2
 72
     2
 73
     1
 90
        2
 40
-0.6
 41
30.0
 62
     5
 63
     7
421
 16777215
 74
     1
 91
        4
 64
     7
 65
   257
 75
     1
175
     1
 42
1.0
 92
        0
 66
   257
 43
1.0
 76
     1
 77
     6
 78
     2
 67
     7
 79
     5
170
     0
171
     0
290
     0
174
     0
 93
       13
 44
0.0
173
     0
291
     1
 45
0.0
1001
ACAD
1000
AcDbSavedByObjectVersion
1070
     0
  0
VISUALSTYLE
  5
38
102
{ACAD_REACTORS
330
2A
102
}
102
{ACAD_XDICTIONARY
360
591
102
}
330
2A
100
AcDbVisualStyle
  2
Linepattern
 70
    14
 71
     2
 72
     2
 73
     0
 90
        0
 40
-0.6
 41
-30.0
 62
     5
 63
     7
421
 16777215
 74
     1
 91
        4
 64
     7
 65
   257
 75
     7
175
     7
 42
1.0
 92
        8
 66
     7
 43
1.0
 76
     1
 77
     6
 78
     2
 67
     7
 79
     5
170
     0
171
     0
290
     0
174
     0
 93
        1
 44
0.0
173
     0
291
     1
 45
0.0
1001
ACAD
1000
AcDbSavedByObjectVersion
1070
     0
  0
VISUALSTYLE
  5
33
102
{ACAD_REACTORS
330
2A
102
}
102
{ACAD_XDICTIONARY
360
587
102
}
330
2A
100
AcDbVisualStyle
  2
Realistic
 70
     8
 71
     2
 72
     2
 73
     0
 90
        0
 40
-0.6
 41
-30.0
 62
     5
 63
     7
421
 16777215
 74
     1
 91
        0
 64
     7
 65
   257
 75
     1
175
     1
 42
1.0
 92
        8
 66
     8
424
  7895160
 43
1.0
 76
     1
 77
     6
 78
     2
 67
     7
 79
     5
170
     0
171
     0
290
     0
174
     0
 93
       13
 44
0.0
173
     0
291
     0
 45
0.0
1001
ACAD
1000
AcDbSavedByObjectVersion
1070
     0
  0
VISUALSTYLE
  5
37
102
{ACAD_REACTORS
330
2A
102
}
102
{ACAD_XDICTIONARY
360
58F
102
}
330
2A
100
AcDbVisualStyle
  2
Thicken
 70
    13
 71
     2
 72
     2
 73
     0
 90
        0
 40
-0.6
 41
-30.0
 62
     5
 63
     7
421
 16777215
 74
     1
 91
        4
 64
     7
 65
   257
 75
     1
175
     1
 42
1.0
 92
       12
 66
     7
 43
1.0
 76
     1
 77
     6
 78
     2
 67
     7
 79
     5
170
     0
171
     0
290
     0
174
     0
 93
        1
 44
0.0
173
     0
291
     1
 45
0.0
1001
ACAD
1000
AcDbSavedByObjectVersion
1070
     0
  0
DICTIONARY
  5
599
330
3D
100
AcDbDictionary
280
     1
281
     1
  3
ACAD_XREC_ROUNDTRIP
360
59A
  0
DICTIONARY
  5
597
330
3C
100
AcDbDictionary
280
     1
281
     1
  3
ACAD_XREC_ROUNDTRIP
360
598
  0
DICTIONARY
  5
59B
330
3E
100
AcDbDictionary
280
     1
281
     1
  3
ACAD_XREC_ROUNDTRIP
360
59C
  0
DICTIONARY
  5
57F
330
2F
100
AcDbDictionary
280
     1
281
     1
  3
ACAD_XREC_ROUNDTRIP
360
580
  0
DICTIONARY
  5
583
330
31
100
AcDbDictionary
280
     1
281
     1
  3
ACAD_XREC_ROUNDTRIP
360
584
  0
DICTIONARY
  5
581
330
30
100
AcDbDictionary
280
     1
281
     1
  3
ACAD_XREC_ROUNDTRIP
360
582
  0
DICTIONARY
  5
585
330
32
100
AcDbDictionary
280
     1
281
     1
  3
ACAD_XREC_ROUNDTRIP
360
586
  0
DICTIONARY
  5
58D
330
36
100
AcDbDictionary
280
     1
281
     1
  3
ACAD_XREC_ROUNDTRIP
360
58E
  0
DICTIONARY
  5
595
330
3A
100
AcDbDictionary
280
     1
281
     1
  3
ACAD_XREC_ROUNDTRIP
360
596
  0
DICTIONARY
  5
589
330
34
100
AcDbDictionary
280
     1
281
     1
  3
ACAD_XREC_ROUNDTRIP
360
58A
  0
DICTIONARY
  5
58B
330
35
100
AcDbDictionary
280
     1
281
     1
  3
ACAD_XREC_ROUNDTRIP
360
58C
  0
DICTIONARY
  5
593
330
39
100
AcDbDictionary
280
     1
281
     1
  3
ACAD_XREC_ROUNDTRIP
360
594
  0
DICTIONARY
  5
577
330
2B
100
AcDbDictionary
280
     1
281
     1
  3
ACAD_XREC_ROUNDTRIP
360
578
  0
DICTIONARY
  5
579
330
2C
100
AcDbDictionary
280
     1
281
     1
  3
ACAD_XREC_ROUNDTRIP
360
57A
  0
DICTIONARY
  5
57B
330
2D
100
AcDbDictionary
280
     1
281
     1
  3
ACAD_XREC_ROUNDTRIP
360
57C
  0
DICTIONARY
  5
57D
330
2E
100
AcDbDictionary
280
     1
281
     1
  3
ACAD_XREC_ROUNDTRIP
360
57E
  0
DICTIONARY
  5
591
330
38
100
AcDbDictionary
280
     1
281
     1
  3
ACAD_XREC_ROUNDTRIP
360
592
  0
DICTIONARY
  5
587
330
33
100
AcDbDictionary
280
     1
281
     1
  3
ACAD_XREC_ROUNDTRIP
360
588
  0
DICTIONARY
  5
58F
330
37
100
AcDbDictionary
280
     1
281
     1
  3
ACAD_XREC_ROUNDTRIP
360
590
  0
XRECORD
  5
59A
102
{ACAD_REACTORS
330
599
102
}
330
599
100
AcDbXrecord
280
     1
102
MATERIAL
148
0.0
149
0.0
149
0.0
 93
        0
 94
      127
282
     0
 72
     1
 77
     1
171
     1
175
     1
179
     1
273
     0
  0
XRECORD
  5
598
102
{ACAD_REACTORS
330
597
102
}
330
597
100
AcDbXrecord
280
     1
102
MATERIAL
148
0.0
149
0.0
149
0.0
 93
        0
 94
      127
282
     0
 72
     1
 77
     1
171
     1
175
     1
179
     1
273
     0
  0
XRECORD
  5
59C
102
{ACAD_REACTORS
330
59B
102
}
330
59B
100
AcDbXrecord
280
     1
102
MATERIAL
148
0.0
149
0.0
149
0.0
 93
        0
 94
      127
282
     0
 72
     1
 77
     1
171
     1
175
     1
179
     1
273
     0
  0
XRECORD
  5
580
102
{ACAD_REACTORS
330
57F
102
}
330
57F
100
AcDbXrecord
280
     1
102
RTVSPropertyOp0
 70
     1
102
RTVSPropertyOp1
 70
     1
102
RTVSPropertyOp2
 70
     1
102
RTVSPropertyOp3
 70
     1
102
RTVSPropertyOp4
 70
     1
102
RTVSPropertyOp5
 70
     1
102
RTVSPropertyOp6
 70
     1
102
RTVSPropertyOp7
 70
     1
102
RTVSPropertyOp8
 70
     1
102
RTVSPropertyOp9
 70
     1
102
RTVSPropertyOp10
 70
     1
102
RTVSPropertyOp11
 70
     1
102
RTVSPropertyOp12
 70
     1
102
RTVSPropertyOp13
 70
     1
102
RTVSPropertyOp14
 70
     1
102
RTVSPropertyOp15
 70
     1
102
RTVSPropertyOp16
 70
     1
102
RTVSPropertyOp17
 70
     1
102
RTVSPropertyOp18
 70
     1
102
RTVSPropertyOp19
 70
     1
102
RTVSPropertyOp20
 70
     1
102
RTVSPropertyOp21
 70
     1
102
RTVSPropertyOp22
 70
     1
102
RTVSPropertyOp23
 70
     1
102
RTVSPropertyOp24
 70
     1
102
RTVSPropertyOp25
 70
     1
102
RTVSPropertyOp26
 70
     1
102
RTVSPropertyOp27
 70
     1
102
RTVSPropertyOp28
 70
     1
102
RTVSPropertyOp29
 70
     1
102
RTVSPropertyOp30
 70
     1
102
RTVSPropertyOp31
 70
     1
102
RTVSPropertyOp32
 70
     1
  0
XRECORD
  5
584
102
{ACAD_REACTORS
330
583
102
}
330
583
100
AcDbXrecord
280
     1
102
RTVSPropertyOp0
 70
     1
102
RTVSPropertyOp1
 70
     1
102
RTVSPropertyOp2
 70
     1
102
RTVSPropertyOp3
 70
     1
102
RTVSPropertyOp4
 70
     1
102
RTVSPropertyOp5
 70
     1
102
RTVSPropertyOp6
 70
     1
102
RTVSPropertyOp7
 70
     1
102
RTVSPropertyOp8
 70
     1
102
RTVSPropertyOp9
 70
     1
102
RTVSPropertyOp10
 70
     1
102
RTVSPropertyOp11
 70
     1
102
RTVSPropertyOp12
 70
     1
102
RTVSPropertyOp13
 70
     1
102
RTVSPropertyOp14
 70
     1
102
RTVSPropertyOp15
 70
     1
102
RTVSPropertyOp16
 70
     1
102
RTVSPropertyOp17
 70
     1
102
RTVSPropertyOp18
 70
     1
102
RTVSPropertyOp19
 70
     1
102
RTVSPropertyOp20
 70
     1
102
RTVSPropertyOp21
 70
     1
102
RTVSPropertyOp22
 70
     1
102
RTVSPropertyOp23
 70
     1
102
RTVSPropertyOp24
 70
     1
102
RTVSPropertyOp25
 70
     1
102
RTVSPropertyOp26
 70
     1
102
RTVSPropertyOp27
 70
     1
102
RTVSPropertyOp28
 70
     1
102
RTVSPropertyOp29
 70
     1
102
RTVSPropertyOp30
 70
     1
102
RTVSPropertyOp31
 70
     1
102
RTVSPropertyOp32
 70
     1
  0
XRECORD
  5
582
102
{ACAD_REACTORS
330
581
102
}
330
581
100
AcDbXrecord
280
     1
102
RTVSPropertyOp0
 70
     1
102
RTVSPropertyOp1
 70
     1
102
RTVSPropertyOp2
 70
     1
102
RTVSPropertyOp3
 70
     1
102
RTVSPropertyOp4
 70
     1
102
RTVSPropertyOp5
 70
     1
102
RTVSPropertyOp6
 70
     1
102
RTVSPropertyOp7
 70
     1
102
RTVSPropertyOp8
 70
     1
102
RTVSPropertyOp9
 70
     1
102
RTVSPropertyOp10
 70
     1
102
RTVSPropertyOp11
 70
     1
102
RTVSPropertyOp12
 70
     1
102
RTVSPropertyOp13
 70
     1
102
RTVSPropertyOp14
 70
     1
102
RTVSPropertyOp15
 70
     1
102
RTVSPropertyOp16
 70
     1
102
RTVSPropertyOp17
 70
     1
102
RTVSPropertyOp18
 70
     1
102
RTVSPropertyOp19
 70
     1
102
RTVSPropertyOp20
 70
     1
102
RTVSPropertyOp21
 70
     1
102
RTVSPropertyOp22
 70
     1
102
RTVSPropertyOp23
 70
     1
102
RTVSPropertyOp24
 70
     1
102
RTVSPropertyOp25
 70
     1
102
RTVSPropertyOp26
 70
     1
102
RTVSPropertyOp27
 70
     1
102
RTVSPropertyOp28
 70
     1
102
RTVSPropertyOp29
 70
     1
102
RTVSPropertyOp30
 70
     1
102
RTVSPropertyOp31
 70
     1
102
RTVSPropertyOp32
 70
     1
  0
XRECORD
  5
586
102
{ACAD_REACTORS
330
585
102
}
330
585
100
AcDbXrecord
280
     1
102
RTVSPropertyOp0
 70
     1
102
RTVSPropertyOp1
 70
     1
102
RTVSPropertyOp2
 70
     1
102
RTVSPropertyOp3
 70
     1
102
RTVSPropertyOp4
 70
     1
102
RTVSPropertyOp5
 70
     1
102
RTVSPropertyOp6
 70
     1
102
RTVSPropertyOp7
 70
     1
102
RTVSPropertyOp8
 70
     1
102
RTVSPropertyOp9
 70
     1
102
RTVSPropertyOp10
 70
     1
102
RTVSPropertyOp11
 70
     1
102
RTVSPropertyOp12
 70
     1
102
RTVSPropertyOp13
 70
     1
102
RTVSPropertyOp14
 70
     1
102
RTVSPropertyOp15
 70
     1
102
RTVSPropertyOp16
 70
     1
102
RTVSPropertyOp17
 70
     1
102
RTVSPropertyOp18
 70
     1
102
RTVSPropertyOp19
 70
     1
102
RTVSPropertyOp20
 70
     1
102
RTVSPropertyOp21
 70
     1
102
RTVSPropertyOp22
 70
     1
102
RTVSPropertyOp23
 70
     1
102
RTVSPropertyOp24
 70
     1
102
RTVSPropertyOp25
 70
     1
102
RTVSPropertyOp26
 70
     1
102
RTVSPropertyOp27
 70
     1
102
RTVSPropertyOp28
 70
     1
102
RTVSPropertyOp29
 70
     1
102
RTVSPropertyOp30
 70
     1
102
RTVSPropertyOp31
 70
     1
102
RTVSPropertyOp32
 70
     1
  0
XRECORD
  5
58E
102
{ACAD_REACTORS
330
58D
102
}
330
58D
100
AcDbXrecord
280
     1
102
RTVSPropertyOp0
 70
     1
102
RTVSPropertyOp1
 70
     1
102
RTVSPropertyOp2
 70
     1
102
RTVSPropertyOp3
 70
     1
102
RTVSPropertyOp4
 70
     1
102
RTVSPropertyOp5
 70
     1
102
RTVSPropertyOp6
 70
     1
102
RTVSPropertyOp7
 70
     1
102
RTVSPropertyOp8
 70
     1
102
RTVSPropertyOp9
 70
     1
102
RTVSPropertyOp10
 70
     1
102
RTVSPropertyOp11
 70
     1
102
RTVSPropertyOp12
 70
     1
102
RTVSPropertyOp13
 70
     1
102
RTVSPropertyOp14
 70
     1
102
RTVSPropertyOp15
 70
     1
102
RTVSPropertyOp16
 70
     1
102
RTVSPropertyOp17
 70
     1
102
RTVSPropertyOp18
 70
     1
102
RTVSPropertyOp19
 70
     1
102
RTVSPropertyOp20
 70
     1
102
RTVSPropertyOp21
 70
     1
102
RTVSPropertyOp22
 70
     1
102
RTVSPropertyOp23
 70
     1
102
RTVSPropertyOp24
 70
     1
102
RTVSPropertyOp25
 70
     1
102
RTVSPropertyOp26
 70
     1
102
RTVSPropertyOp27
 70
     1
102
RTVSPropertyOp28
 70
     1
102
RTVSPropertyOp29
 70
     1
102
RTVSPropertyOp30
 70
     1
102
RTVSPropertyOp31
 70
     1
102
RTVSPropertyOp32
 70
     1
  0
XRECORD
  5
596
102
{ACAD_REACTORS
330
595
102
}
330
595
100
AcDbXrecord
280
     1
102
RTVSPropertyOp0
 70
     1
102
RTVSPropertyOp1
 70
     1
102
RTVSPropertyOp2
 70
     1
102
RTVSPropertyOp3
 70
     1
102
RTVSPropertyOp4
 70
     1
102
RTVSPropertyOp5
 70
     1
102
RTVSPropertyOp6
 70
     1
102
RTVSPropertyOp7
 70
     1
102
RTVSPropertyOp8
 70
     1
102
RTVSPropertyOp9
 70
     1
102
RTVSPropertyOp10
 70
     1
102
RTVSPropertyOp11
 70
     1
102
RTVSPropertyOp12
 70
     1
102
RTVSPropertyOp13
 70
     1
102
RTVSPropertyOp14
 70
     1
102
RTVSPropertyOp15
 70
     1
102
RTVSPropertyOp16
 70
     1
102
RTVSPropertyOp17
 70
     1
102
RTVSPropertyOp18
 70
     1
102
RTVSPropertyOp19
 70
     1
102
RTVSPropertyOp20
 70
     1
102
RTVSPropertyOp21
 70
     1
102
RTVSPropertyOp22
 70
     1
102
RTVSPropertyOp23
 70
     1
102
RTVSPropertyOp24
 70
     1
102
RTVSPropertyOp25
 70
     1
102
RTVSPropertyOp26
 70
     1
102
RTVSPropertyOp27
 70
     1
102
RTVSPropertyOp28
 70
     1
102
RTVSPropertyOp29
 70
     1
102
RTVSPropertyOp30
 70
     1
102
RTVSPropertyOp31
 70
     1
102
RTVSPropertyOp32
 70
     1
  0
XRECORD
  5
58A
102
{ACAD_REACTORS
330
589
102
}
330
589
100
AcDbXrecord
280
     1
102
RTVSPropertyOp0
 70
     1
102
RTVSPropertyOp1
 70
     1
102
RTVSPropertyOp2
 70
     1
102
RTVSPropertyOp3
 70
     1
102
RTVSPropertyOp4
 70
     1
102
RTVSPropertyOp5
 70
     1
102
RTVSPropertyOp6
 70
     1
102
RTVSPropertyOp7
 70
     1
102
RTVSPropertyOp8
 70
     1
102
RTVSPropertyOp9
 70
     1
102
RTVSPropertyOp10
 70
     1
102
RTVSPropertyOp11
 70
     1
102
RTVSPropertyOp12
 70
     1
102
RTVSPropertyOp13
 70
     1
102
RTVSPropertyOp14
 70
     1
102
RTVSPropertyOp15
 70
     1
102
RTVSPropertyOp16
 70
     1
102
RTVSPropertyOp17
 70
     1
102
RTVSPropertyOp18
 70
     1
102
RTVSPropertyOp19
 70
     1
102
RTVSPropertyOp20
 70
     1
102
RTVSPropertyOp21
 70
     1
102
RTVSPropertyOp22
 70
     1
102
RTVSPropertyOp23
 70
     1
102
RTVSPropertyOp24
 70
     1
102
RTVSPropertyOp25
 70
     1
102
RTVSPropertyOp26
 70
     1
102
RTVSPropertyOp27
 70
     1
102
RTVSPropertyOp28
 70
     1
102
RTVSPropertyOp29
 70
     1
102
RTVSPropertyOp30
 70
     1
102
RTVSPropertyOp31
 70
     1
102
RTVSPropertyOp32
 70
     1
  0
XRECORD
  5
58C
102
{ACAD_REACTORS
330
58B
102
}
330
58B
100
AcDbXrecord
280
     1
102
RTVSPropertyOp0
 70
     1
102
RTVSPropertyOp1
 70
     1
102
RTVSPropertyOp2
 70
     1
102
RTVSPropertyOp3
 70
     1
102
RTVSPropertyOp4
 70
     1
102
RTVSPropertyOp5
 70
     1
102
RTVSPropertyOp6
 70
     1
102
RTVSPropertyOp7
 70
     1
102
RTVSPropertyOp8
 70
     1
102
RTVSPropertyOp9
 70
     1
102
RTVSPropertyOp10
 70
     1
102
RTVSPropertyOp11
 70
     1
102
RTVSPropertyOp12
 70
     1
102
RTVSPropertyOp13
 70
     1
102
RTVSPropertyOp14
 70
     1
102
RTVSPropertyOp15
 70
     1
102
RTVSPropertyOp16
 70
     1
102
RTVSPropertyOp17
 70
     1
102
RTVSPropertyOp18
 70
     1
102
RTVSPropertyOp19
 70
     1
102
RTVSPropertyOp20
 70
     1
102
RTVSPropertyOp21
 70
     1
102
RTVSPropertyOp22
 70
     1
102
RTVSPropertyOp23
 70
     1
102
RTVSPropertyOp24
 70
     1
102
RTVSPropertyOp25
 70
     1
102
RTVSPropertyOp26
 70
     1
102
RTVSPropertyOp27
 70
     1
102
RTVSPropertyOp28
 70
     1
102
RTVSPropertyOp29
 70
     1
102
RTVSPropertyOp30
 70
     1
102
RTVSPropertyOp31
 70
     1
102
RTVSPropertyOp32
 70
     1
  0
XRECORD
  5
594
102
{ACAD_REACTORS
330
593
102
}
330
593
100
AcDbXrecord
280
     1
102
RTVSPropertyOp0
 70
     1
102
RTVSPropertyOp1
 70
     1
102
RTVSPropertyOp2
 70
     1
102
RTVSPropertyOp3
 70
     1
102
RTVSPropertyOp4
 70
     1
102
RTVSPropertyOp5
 70
     1
102
RTVSPropertyOp6
 70
     1
102
RTVSPropertyOp7
 70
     1
102
RTVSPropertyOp8
 70
     1
102
RTVSPropertyOp9
 70
     1
102
RTVSPropertyOp10
 70
     1
102
RTVSPropertyOp11
 70
     1
102
RTVSPropertyOp12
 70
     1
102
RTVSPropertyOp13
 70
     1
102
RTVSPropertyOp14
 70
     1
102
RTVSPropertyOp15
 70
     1
102
RTVSPropertyOp16
 70
     1
102
RTVSPropertyOp17
 70
     1
102
RTVSPropertyOp18
 70
     1
102
RTVSPropertyOp19
 70
     1
102
RTVSPropertyOp20
 70
     1
102
RTVSPropertyOp21
 70
     1
102
RTVSPropertyOp22
 70
     1
102
RTVSPropertyOp23
 70
     1
102
RTVSPropertyOp24
 70
     1
102
RTVSPropertyOp25
 70
     1
102
RTVSPropertyOp26
 70
     1
102
RTVSPropertyOp27
 70
     1
102
RTVSPropertyOp28
 70
     1
102
RTVSPropertyOp29
 70
     1
102
RTVSPropertyOp30
 70
     1
102
RTVSPropertyOp31
 70
     1
102
RTVSPropertyOp32
 70
     1
  0
XRECORD
  5
578
102
{ACAD_REACTORS
330
577
102
}
330
577
100
AcDbXrecord
280
     1
102
RTVSPropertyOp0
 70
     1
102
RTVSPropertyOp1
 70
     1
102
RTVSPropertyOp2
 70
     1
102
RTVSPropertyOp3
 70
     1
102
RTVSPropertyOp4
 70
     1
102
RTVSPropertyOp5
 70
     1
102
RTVSPropertyOp6
 70
     1
102
RTVSPropertyOp7
 70
     1
102
RTVSPropertyOp8
 70
     1
102
RTVSPropertyOp9
 70
     1
102
RTVSPropertyOp10
 70
     1
102
RTVSPropertyOp11
 70
     1
102
RTVSPropertyOp12
 70
     1
102
RTVSPropertyOp13
 70
     1
102
RTVSPropertyOp14
 70
     1
102
RTVSPropertyOp15
 70
     1
102
RTVSPropertyOp16
 70
     1
102
RTVSPropertyOp17
 70
     1
102
RTVSPropertyOp18
 70
     1
102
RTVSPropertyOp19
 70
     1
102
RTVSPropertyOp20
 70
     1
102
RTVSPropertyOp21
 70
     1
102
RTVSPropertyOp22
 70
     1
102
RTVSPropertyOp23
 70
     1
102
RTVSPropertyOp24
 70
     1
102
RTVSPropertyOp25
 70
     1
102
RTVSPropertyOp26
 70
     1
102
RTVSPropertyOp27
 70
     1
102
RTVSPropertyOp28
 70
     1
102
RTVSPropertyOp29
 70
     1
102
RTVSPropertyOp30
 70
     1
102
RTVSPropertyOp31
 70
     1
102
RTVSPropertyOp32
 70
     1
  0
XRECORD
  5
57A
102
{ACAD_REACTORS
330
579
102
}
330
579
100
AcDbXrecord
280
     1
102
RTVSPropertyOp0
 70
     1
102
RTVSPropertyOp1
 70
     1
102
RTVSPropertyOp2
 70
     1
102
RTVSPropertyOp3
 70
     1
102
RTVSPropertyOp4
 70
     1
102
RTVSPropertyOp5
 70
     1
102
RTVSPropertyOp6
 70
     1
102
RTVSPropertyOp7
 70
     1
102
RTVSPropertyOp8
 70
     1
102
RTVSPropertyOp9
 70
     1
102
RTVSPropertyOp10
 70
     1
102
RTVSPropertyOp11
 70
     1
102
RTVSPropertyOp12
 70
     1
102
RTVSPropertyOp13
 70
     1
102
RTVSPropertyOp14
 70
     1
102
RTVSPropertyOp15
 70
     1
102
RTVSPropertyOp16
 70
     1
102
RTVSPropertyOp17
 70
     1
102
RTVSPropertyOp18
 70
     1
102
RTVSPropertyOp19
 70
     1
102
RTVSPropertyOp20
 70
     1
102
RTVSPropertyOp21
 70
     1
102
RTVSPropertyOp22
 70
     1
102
RTVSPropertyOp23
 70
     1
102
RTVSPropertyOp24
 70
     1
102
RTVSPropertyOp25
 70
     1
102
RTVSPropertyOp26
 70
     1
102
RTVSPropertyOp27
 70
     1
102
RTVSPropertyOp28
 70
     1
102
RTVSPropertyOp29
 70
     1
102
RTVSPropertyOp30
 70
     1
102
RTVSPropertyOp31
 70
     1
102
RTVSPropertyOp32
 70
     1
  0
XRECORD
  5
57C
102
{ACAD_REACTORS
330
57B
102
}
330
57B
100
AcDbXrecord
280
     1
102
RTVSPropertyOp0
 70
     1
102
RTVSPropertyOp1
 70
     1
102
RTVSPropertyOp2
 70
     1
102
RTVSPropertyOp3
 70
     1
102
RTVSPropertyOp4
 70
     1
102
RTVSPropertyOp5
 70
     1
102
RTVSPropertyOp6
 70
     1
102
RTVSPropertyOp7
 70
     1
102
RTVSPropertyOp8
 70
     1
102
RTVSPropertyOp9
 70
     1
102
RTVSPropertyOp10
 70
     1
102
RTVSPropertyOp11
 70
     1
102
RTVSPropertyOp12
 70
     1
102
RTVSPropertyOp13
 70
     1
102
RTVSPropertyOp14
 70
     1
102
RTVSPropertyOp15
 70
     1
102
RTVSPropertyOp16
 70
     1
102
RTVSPropertyOp17
 70
     1
102
RTVSPropertyOp18
 70
     1
102
RTVSPropertyOp19
 70
     1
102
RTVSPropertyOp20
 70
     1
102
RTVSPropertyOp21
 70
     1
102
RTVSPropertyOp22
 70
     1
102
RTVSPropertyOp23
 70
     1
102
RTVSPropertyOp24
 70
     1
102
RTVSPropertyOp25
 70
     1
102
RTVSPropertyOp26
 70
     1
102
RTVSPropertyOp27
 70
     1
102
RTVSPropertyOp28
 70
     1
102
RTVSPropertyOp29
 70
     1
102
RTVSPropertyOp30
 70
     1
102
RTVSPropertyOp31
 70
     1
102
RTVSPropertyOp32
 70
     1
  0
XRECORD
  5
57E
102
{ACAD_REACTORS
330
57D
102
}
330
57D
100
AcDbXrecord
280
     1
102
RTVSPropertyOp0
 70
     1
102
RTVSPropertyOp1
 70
     1
102
RTVSPropertyOp2
 70
     1
102
RTVSPropertyOp3
 70
     1
102
RTVSPropertyOp4
 70
     1
102
RTVSPropertyOp5
 70
     1
102
RTVSPropertyOp6
 70
     1
102
RTVSPropertyOp7
 70
     1
102
RTVSPropertyOp8
 70
     1
102
RTVSPropertyOp9
 70
     1
102
RTVSPropertyOp10
 70
     1
102
RTVSPropertyOp11
 70
     1
102
RTVSPropertyOp12
 70
     1
102
RTVSPropertyOp13
 70
     1
102
RTVSPropertyOp14
 70
     1
102
RTVSPropertyOp15
 70
     1
102
RTVSPropertyOp16
 70
     1
102
RTVSPropertyOp17
 70
     1
102
RTVSPropertyOp18
 70
     1
102
RTVSPropertyOp19
 70
     1
102
RTVSPropertyOp20
 70
     1
102
RTVSPropertyOp21
 70
     1
102
RTVSPropertyOp22
 70
     1
102
RTVSPropertyOp23
 70
     1
102
RTVSPropertyOp24
 70
     1
102
RTVSPropertyOp25
 70
     1
102
RTVSPropertyOp26
 70
     1
102
RTVSPropertyOp27
 70
     1
102
RTVSPropertyOp28
 70
     1
102
RTVSPropertyOp29
 70
     1
102
RTVSPropertyOp30
 70
     1
102
RTVSPropertyOp31
 70
     1
102
RTVSPropertyOp32
 70
     1
  0
XRECORD
  5
592
102
{ACAD_REACTORS
330
591
102
}
330
591
100
AcDbXrecord
280
     1
102
RTVSPropertyOp0
 70
     1
102
RTVSPropertyOp1
 70
     1
102
RTVSPropertyOp2
 70
     1
102
RTVSPropertyOp3
 70
     1
102
RTVSPropertyOp4
 70
     1
102
RTVSPropertyOp5
 70
     1
102
RTVSPropertyOp6
 70
     1
102
RTVSPropertyOp7
 70
     1
102
RTVSPropertyOp8
 70
     1
102
RTVSPropertyOp9
 70
     1
102
RTVSPropertyOp10
 70
     1
102
RTVSPropertyOp11
 70
     1
102
RTVSPropertyOp12
 70
     1
102
RTVSPropertyOp13
 70
     1
102
RTVSPropertyOp14
 70
     1
102
RTVSPropertyOp15
 70
     1
102
RTVSPropertyOp16
 70
     1
102
RTVSPropertyOp17
 70
     1
102
RTVSPropertyOp18
 70
     1
102
RTVSPropertyOp19
 70
     1
102
RTVSPropertyOp20
 70
     1
102
RTVSPropertyOp21
 70
     1
102
RTVSPropertyOp22
 70
     1
102
RTVSPropertyOp23
 70
     1
102
RTVSPropertyOp24
 70
     1
102
RTVSPropertyOp25
 70
     1
102
RTVSPropertyOp26
 70
     1
102
RTVSPropertyOp27
 70
     1
102
RTVSPropertyOp28
 70
     1
102
RTVSPropertyOp29
 70
     1
102
RTVSPropertyOp30
 70
     1
102
RTVSPropertyOp31
 70
     1
102
RTVSPropertyOp32
 70
     1
  0
XRECORD
  5
588
102
{ACAD_REACTORS
330
587
102
}
330
587
100
AcDbXrecord
280
     1
102
RTVSPropertyOp0
 70
     1
102
RTVSPropertyOp1
 70
     1
102
RTVSPropertyOp2
 70
     1
102
RTVSPropertyOp3
 70
     1
102
RTVSPropertyOp4
 70
     1
102
RTVSPropertyOp5
 70
     1
102
RTVSPropertyOp6
 70
     1
102
RTVSPropertyOp7
 70
     1
102
RTVSPropertyOp8
 70
     1
102
RTVSPropertyOp9
 70
     1
102
RTVSPropertyOp10
 70
     1
102
RTVSPropertyOp11
 70
     1
102
RTVSPropertyOp12
 70
     1
102
RTVSPropertyOp13
 70
     1
102
RTVSPropertyOp14
 70
     1
102
RTVSPropertyOp15
 70
     1
102
RTVSPropertyOp16
 70
     1
102
RTVSPropertyOp17
 70
     1
102
RTVSPropertyOp18
 70
     1
102
RTVSPropertyOp19
 70
     1
102
RTVSPropertyOp20
 70
     1
102
RTVSPropertyOp21
 70
     1
102
RTVSPropertyOp22
 70
     1
102
RTVSPropertyOp23
 70
     1
102
RTVSPropertyOp24
 70
     1
102
RTVSPropertyOp25
 70
     1
102
RTVSPropertyOp26
 70
     1
102
RTVSPropertyOp27
 70
     1
102
RTVSPropertyOp28
 70
     1
102
RTVSPropertyOp29
 70
     1
102
RTVSPropertyOp30
 70
     1
102
RTVSPropertyOp31
 70
     1
102
RTVSPropertyOp32
 70
     1
  0
XRECORD
  5
590
102
{ACAD_REACTORS
330
58F
102
}
330
58F
100
AcDbXrecord
280
     1
102
RTVSPropertyOp0
 70
     1
102
RTVSPropertyOp1
 70
     1
102
RTVSPropertyOp2
 70
     1
102
RTVSPropertyOp3
 70
     1
102
RTVSPropertyOp4
 70
     1
102
RTVSPropertyOp5
 70
     1
102
RTVSPropertyOp6
 70
     1
102
RTVSPropertyOp7
 70
     1
102
RTVSPropertyOp8
 70
     1
102
RTVSPropertyOp9
 70
     1
102
RTVSPropertyOp10
 70
     1
102
RTVSPropertyOp11
 70
     1
102
RTVSPropertyOp12
 70
     1
102
RTVSPropertyOp13
 70
     1
102
RTVSPropertyOp14
 70
     1
102
RTVSPropertyOp15
 70
     1
102
RTVSPropertyOp16
 70
     1
102
RTVSPropertyOp17
 70
     1
102
RTVSPropertyOp18
 70
     1
102
RTVSPropertyOp19
 70
     1
102
RTVSPropertyOp20
 70
     1
102
RTVSPropertyOp21
 70
     1
102
RTVSPropertyOp22
 70
     1
102
RTVSPropertyOp23
 70
     1
102
RTVSPropertyOp24
 70
     1
102
RTVSPropertyOp25
 70
     1
102
RTVSPropertyOp26
 70
     1
102
RTVSPropertyOp27
 70
     1
102
RTVSPropertyOp28
 70
     1
102
RTVSPropertyOp29
 70
     1
102
RTVSPropertyOp30
 70
     1
102
RTVSPropertyOp31
 70
     1
102
RTVSPropertyOp32
 70
     1
  0
ENDSEC
  0
EOF
