  0
SECTION
  2
HEADER
  9
$ACADVER
  1
AC1018
  9
$ACADMAINTVER
 70
     0
  9
$DWGCODEPAGE
  3
ANSI_1252
  9
$INSBASE
 10
0.0
 20
0.0
 30
0.0
  9
$EXTMIN
 10
-127.626021333565
 20
-9.652408122922
 30
0.0
  9
$EXTMAX
 10
629.794451462907
 20
297.445591877078
 30
0.0
  9
$LIMMIN
 10
0.0
 20
0.0
  9
$LIMMAX
 10
420.0
 20
297.0
  9
$ORTHOMODE
 70
     0
  9
$REGENMODE
 70
     1
  9
$FILLMODE
 70
     1
  9
$QTEXTMODE
 70
     0
  9
$MIRRTEXT
 70
     1
  9
$LTSCALE
 40
5.0
  9
$ATTMODE
 70
     1
  9
$TEXTSIZE
 40
2.5
  9
$TRACEWID
 40
1.0
  9
$TEXTSTYLE
  7
Standard
  9
$CLAYER
  8
0
  9
$CELTYPE
  6
ByLayer
  9
$CECOLOR
 62
   256
  9
$CELTSCALE
 40
1.0
  9
$DISPSILH
 70
     0
  9
$DIMSCALE
 40
1.0
  9
$DIMASZ
 40
2.5
  9
$DIMEXO
 40
0.625
  9
$DIMDLI
 40
3.75
  9
$DIMRND
 40
0.0
  9
$DIMDLE
 40
0.0
  9
$DIMEXE
 40
1.25
  9
$DIMTP
 40
0.0
  9
$DIMTM
 40
0.0
  9
$DIMTXT
 40
2.5
  9
$DIMCEN
 40
2.5
  9
$DIMTSZ
 40
0.0
  9
$DIMTOL
 70
     0
  9
$DIMLIM
 70
     0
  9
$DIMTIH
 70
     0
  9
$DIMTOH
 70
     0
  9
$DIMSE1
 70
     0
  9
$DIMSE2
 70
     0
  9
$DIMTAD
 70
     1
  9
$DIMZIN
 70
     8
  9
$DIMBLK
  1

  9
$DIMASO
 70
     1
  9
$DIMSHO
 70
     1
  9
$DIMPOST
  1

  9
$DIMAPOST
  1

  9
$DIMALT
 70
     0
  9
$DIMALTD
 70
     3
  9
$DIMALTF
 40
0.03937007874
  9
$DIMLFAC
 40
1.0
  9
$DIMTOFL
 70
     1
  9
$DIMTVP
 40
0.0
  9
$DIMTIX
 70
     0
  9
$DIMSOXD
 70
     0
  9
$DIMSAH
 70
     0
  9
$DIMBLK1
  1

  9
$DIMBLK2
  1

  9
$DIMSTYLE
  2
ISO-25
  9
$DIMCLRD
 70
     0
  9
$DIMCLRE
 70
     0
  9
$DIMCLRT
 70
     0
  9
$DIMTFAC
 40
1.0
  9
$DIMGAP
 40
0.625
  9
$DIMJUST
 70
     0
  9
$DIMSD1
 70
     0
  9
$DIMSD2
 70
     0
  9
$DIMTOLJ
 70
     0
  9
$DIMTZIN
 70
     8
  9
$DIMALTZ
 70
     0
  9
$DIMALTTZ
 70
     0
  9
$DIMUPT
 70
     0
  9
$DIMDEC
 70
     2
  9
$DIMTDEC
 70
     2
  9
$DIMALTU
 70
     2
  9
$DIMALTTD
 70
     3
  9
$DIMTXSTY
  7
Standard
  9
$DIMAUNIT
 70
     0
  9
$DIMADEC
 70
     0
  9
$DIMALTRND
 40
0.0
  9
$DIMAZIN
 70
     0
  9
$DIMDSEP
 70
    44
  9
$DIMATFIT
 70
     3
  9
$DIMFRAC
 70
     0
  9
$DIMLDRBLK
  1

  9
$DIMLUNIT
 70
     2
  9
$DIMLWD
 70
    -2
  9
$DIMLWE
 70
    -2
  9
$DIMTMOVE
 70
     0
  9
$LUNITS
 70
     2
  9
$LUPREC
 70
     4
  9
$SKETCHINC
 40
1.0
  9
$FILLETRAD
 40
10.0
  9
$AUNITS
 70
     0
  9
$AUPREC
 70
     0
  9
$MENU
  1
.
  9
$ELEVATION
 40
0.0
  9
$PELEVATION
 40
0.0
  9
$THICKNESS
 40
0.0
  9
$LIMCHECK
 70
     0
  9
$CHAMFERA
 40
10.0
  9
$CHAMFERB
 40
10.0
  9
$CHAMFERC
 40
20.0
  9
$CHAMFERD
 40
0.0
  9
$SKPOLY
 70
     0
  9
$TDCREATE
 40
2459046.532157836
  9
$TDUCREATE
 40
2459046.448824503
  9
$TDUPDATE
 40
2459046.532167974
  9
$TDUUPDATE
 40
2459046.448834641
  9
$TDINDWG
 40
0.0000000116
  9
$TDUSRTIMER
 40
0.0000000116
  9
$USRTIMER
 70
     1
  9
$ANGBASE
 50
0.0
  9
$ANGDIR
 70
     0
  9
$PDMODE
 70
     2
  9
$PDSIZE
 40
1.0
  9
$PLINEWID
 40
0.0
  9
$SPLFRAME
 70
     0
  9
$SPLINETYPE
 70
     6
  9
$SPLINESEGS
 70
     8
  9
$HANDSEED
  5
55F
  9
$SURFTAB1
 70
     6
  9
$SURFTAB2
 70
     6
  9
$SURFTYPE
 70
     6
  9
$SURFU
 70
     6
  9
$SURFV
 70
     6
  9
$UCSBASE
  2

  9
$UCSNAME
  2

  9
$UCSORG
 10
0.0
 20
0.0
 30
0.0
  9
$UCSXDIR
 10
1.0
 20
0.0
 30
0.0
  9
$UCSYDIR
 10
0.0
 20
1.0
 30
0.0
  9
$UCSORTHOREF
  2

  9
$UCSORTHOVIEW
 70
     0
  9
$UCSORGTOP
 10
0.0
 20
0.0
 30
0.0
  9
$UCSORGBOTTOM
 10
0.0
 20
0.0
 30
0.0
  9
$UCSORGLEFT
 10
0.0
 20
0.0
 30
0.0
  9
$UCSORGRIGHT
 10
0.0
 20
0.0
 30
0.0
  9
$UCSORGFRONT
 10
0.0
 20
0.0
 30
0.0
  9
$UCSORGBACK
 10
0.0
 20
0.0
 30
0.0
  9
$PUCSBASE
  2

  9
$PUCSNAME
  2

  9
$PUCSORG
 10
0.0
 20
0.0
 30
0.0
  9
$PUCSXDIR
 10
1.0
 20
0.0
 30
0.0
  9
$PUCSYDIR
 10
0.0
 20
1.0
 30
0.0
  9
$PUCSORTHOREF
  2

  9
$PUCSORTHOVIEW
 70
     0
  9
$PUCSORGTOP
 10
0.0
 20
0.0
 30
0.0
  9
$PUCSORGBOTTOM
 10
0.0
 20
0.0
 30
0.0
  9
$PUCSORGLEFT
 10
0.0
 20
0.0
 30
0.0
  9
$PUCSORGRIGHT
 10
0.0
 20
0.0
 30
0.0
  9
$PUCSORGFRONT
 10
0.0
 20
0.0
 30
0.0
  9
$PUCSORGBACK
 10
0.0
 20
0.0
 30
0.0
  9
$USERI1
 70
     0
  9
$USERI2
 70
     0
  9
$USERI3
 70
     0
  9
$USERI4
 70
     0
  9
$USERI5
 70
     0
  9
$USERR1
 40
0.0
  9
$USERR2
 40
0.0
  9
$USERR3
 40
0.0
  9
$USERR4
 40
0.0
  9
$USERR5
 40
0.0
  9
$WORLDVIEW
 70
     1
  9
$SHADEDGE
 70
     3
  9
$SHADEDIF
 70
    70
  9
$TILEMODE
 70
     1
  9
$MAXACTVP
 70
    64
  9
$PINSBASE
 10
0.0
 20
0.0
 30
0.0
  9
$PLIMCHECK
 70
     0
  9
$PEXTMIN
 10
1.000000000000E+20
 20
1.000000000000E+20
 30
1.000000000000E+20
  9
$PEXTMAX
 10
-1.000000000000E+20
 20
-1.000000000000E+20
 30
-1.000000000000E+20
  9
$PLIMMIN
 10
0.0
 20
0.0
  9
$PLIMMAX
 10
420.0
 20
297.0
  9
$UNITMODE
 70
     0
  9
$VISRETAIN
 70
     1
  9
$PLINEGEN
 70
     0
  9
$PSLTSCALE
 70
     1
  9
$TREEDEPTH
 70
  3020
  9
$CMLSTYLE
  2
Standard
  9
$CMLJUST
 70
     0
  9
$CMLSCALE
 40
20.0
  9
$PROXYGRAPHICS
 70
     1
  9
$MEASUREMENT
 70
     1
  9
$CELWEIGHT
370
    -1
  9
$ENDCAPS
280
     0
  9
$JOINSTYLE
280
     0
  9
$LWDISPLAY
290
     0
  9
$INSUNITS
 70
     4
  9
$HYPERLINKBASE
  1

  9
$STYLESHEET
  1

  9
$XEDIT
290
     1
  9
$CEPSNTYPE
380
     0
  9
$PSTYLEMODE
290
     1
  9
$FINGERPRINTGUID
  2
{713327DE-EF57-44B3-B7C5-AF19536C2F20}
  9
$VERSIONGUID
  2
{FAEB1C32-E019-11D5-929B-00C0DF256EC4}
  9
$EXTNAMES
290
     1
  9
$PSVPSCALE
 40
0.0
  9
$OLESTARTUP
290
     0
  9
$SORTENTS
280
   127
  9
$INDEXCTL
280
     0
  9
$HIDETEXT
280
     1
  9
$XCLIPFRAME
290
     0
  9
$HALOGAP
280
     0
  9
$OBSCOLOR
 70
   257
  9
$OBSLTYPE
280
     0
  9
$INTERSECTIONDISPLAY
280
     0
  9
$INTERSECTIONCOLOR
 70
   257
  9
$DIMASSOC
280
     2
  9
$PROJECTNAME
  1

  0
ENDSEC
  0
SECTION
  2
CLASSES
  0
CLASS
  1
ACDBDICTIONARYWDFLT
  2
AcDbDictionaryWithDefault
  3
ObjectDBX Classes
 90
        0
 91
        4
280
     0
281
     0
  0
CLASS
  1
VISUALSTYLE
  2
AcDbVisualStyle
  3
ObjectDBX Classes
 90
     4095
 91
        4
280
     0
281
     0
  0
CLASS
  1
MATERIAL
  2
AcDbMaterial
  3
ObjectDBX Classes
 90
     1153
 91
        4
280
     0
281
     0
  0
CLASS
  1
WIPEOUTVARIABLES
  2
AcDbWipeoutVariables
  3
WipeOut|AutoCAD Express Tool|expresstools@autodesk.com
 90
        0
 91
        4
280
     0
281
     0
  0
ENDSEC
  0
SECTION
  2
TABLES
  0
TABLE
  2
VPORT
  5
8
330
0
100
AcDbSymbolTable
 70
     1
  0
VPORT
  5
29
330
8
100
AcDbSymbolTableRecord
100
AcDbViewportTableRecord
  2
*Active
 70
     0
 10
0.0
 20
0.0
 11
1.0
 21
1.0
 12
251.084215064671
 22
143.896591877078
 13
0.0
 23
0.0
 14
10.0
 24
10.0
 15
10.0
 25
10.0
 16
0.0
 26
0.0
 36
1.0
 17
0.0
 27
0.0
 37
0.0
 40
307.098
 41
2.466380350235
 42
50.0
 43
0.0
 44
0.0
 50
0.0
 51
0.0
 71
     0
 72
   100
 73
     1
 74
     3
 75
     0
 76
     0
 77
     0
 78
     0
281
     0
 65
     1
110
0.0
120
0.0
130
0.0
111
1.0
121
0.0
131
0.0
112
0.0
122
1.0
132
0.0
 79
     0
146
0.0
  0
ENDTAB
  0
TABLE
  2
LTYPE
  5
5
330
0
100
AcDbSymbolTable
 70
     3
  0
LTYPE
  5
14
330
5
100
AcDbSymbolTableRecord
100
AcDbLinetypeTableRecord
  2
ByBlock
 70
     0
  3

 72
    65
 73
     0
 40
0.0
  0
LTYPE
  5
15
330
5
100
AcDbSymbolTableRecord
100
AcDbLinetypeTableRecord
  2
ByLayer
 70
     0
  3

 72
    65
 73
     0
 40
0.0
  0
LTYPE
  5
16
330
5
100
AcDbSymbolTableRecord
100
AcDbLinetypeTableRecord
  2
Continuous
 70
     0
  3
Solid line
 72
    65
 73
     0
 40
0.0
  0
LTYPE
  5
40
330
5
100
AcDbSymbolTableRecord
100
AcDbLinetypeTableRecord
  2
AUSGEZOGEN
 70
     0
  3

 72
    65
 73
     0
 40
0.0
  0
LTYPE
  5
43
330
5
100
AcDbSymbolTableRecord
100
AcDbLinetypeTableRecord
  2
DASHDOT
 70
     0
  3

 72
    65
 73
     4
 40
1.0
 49
0.5
 74
     0
 49
-0.25
 74
     0
 49
0.0
 74
     0
 49
-0.25
 74
     0
  0
ENDTAB
  0
TABLE
  2
LAYER
  5
2
330
0
100
AcDbSymbolTable
 70
   257
  0
LAYER
  5
10
330
2
100
AcDbSymbolTableRecord
100
AcDbLayerTableRecord
  2
0
 70
     0
 62
     7
  6
Continuous
370
    -3
390
F
  0
LAYER
  5
45
330
2
100
AcDbSymbolTableRecord
100
AcDbLayerTableRecord
  2
Layer0
 70
     0
 62
     7
  6
Continuous
370
    -3
390
F
  0
LAYER
  5
46
330
2
100
AcDbSymbolTableRecord
100
AcDbLayerTableRecord
  2
Stammform
 70
     0
 62
     7
  6
Continuous
370
    -3
390
F
  0
LAYER
  5
47
330
2
100
AcDbSymbolTableRecord
100
AcDbLayerTableRecord
  2
Formteil
 70
     0
 62
     7
  6
Continuous
370
    -3
390
F
  0
LAYER
  5
48
330
2
100
AcDbSymbolTableRecord
100
AcDbLayerTableRecord
  2
Kühlsystem
 70
     0
 62
     7
  6
Continuous
370
    -3
390
F
  0
LAYER
  5
49
330
2
100
AcDbSymbolTableRecord
100
AcDbLayerTableRecord
  2
Auswerfsystem
 70
     0
 62
     7
  6
Continuous
370
    -3
390
F
  0
LAYER
  5
4A
330
2
100
AcDbSymbolTableRecord
100
AcDbLayerTableRecord
  2
Text
 70
     0
 62
     7
  6
Continuous
370
    -3
390
F
  0
LAYER
  5
4B
330
2
100
AcDbSymbolTableRecord
100
AcDbLayerTableRecord
  2
Schraffur
 70
     0
 62
     7
  6
Continuous
370
    -3
390
F
  0
LAYER
  5
4C
330
2
100
AcDbSymbolTableRecord
100
AcDbLayerTableRecord
  2
Bemaßung
 70
     0
 62
     7
  6
Continuous
370
    -3
390
F
  0
LAYER
  5
4D
330
2
100
AcDbSymbolTableRecord
100
AcDbLayerTableRecord
  2
Heißkanal
 70
     0
 62
     7
  6
Continuous
370
    -3
390
F
  0
LAYER
  5
4E
330
2
100
AcDbSymbolTableRecord
100
AcDbLayerTableRecord
  2
Layer9
 70
     0
 62
     7
  6
Continuous
370
    -3
390
F
  0
LAYER
  5
4F
330
2
100
AcDbSymbolTableRecord
100
AcDbLayerTableRecord
  2
Hilsgeometrie
 70
     0
 62
     7
  6
Continuous
370
    -3
390
F
  0
LAYER
  5
50
330
2
100
AcDbSymbolTableRecord
100
AcDbLayerTableRecord
  2
Layer11
 70
     0
 62
     7
  6
Continuous
370
    -3
390
F
  0
LAYER
  5
51
330
2
100
AcDbSymbolTableRecord
100
AcDbLayerTableRecord
  2
Layer12
 70
     0
 62
     7
  6
Continuous
370
    -3
390
F
  0
LAYER
  5
52
330
2
100
AcDbSymbolTableRecord
100
AcDbLayerTableRecord
  2
Layer13
 70
     0
 62
     7
  6
Continuous
370
    -3
390
F
  0
LAYER
  5
53
330
2
100
AcDbSymbolTableRecord
100
AcDbLayerTableRecord
  2
Layer14
 70
     0
 62
     7
  6
Continuous
370
    -3
390
F
  0
LAYER
  5
54
330
2
100
AcDbSymbolTableRecord
100
AcDbLayerTableRecord
  2
Layer15
 70
     0
 62
     7
  6
Continuous
370
    -3
390
F
  0
LAYER
  5
55
330
2
100
AcDbSymbolTableRecord
100
AcDbLayerTableRecord
  2
Layer16
 70
     0
 62
     7
  6
Continuous
370
    -3
390
F
  0
LAYER
  5
56
330
2
100
AcDbSymbolTableRecord
100
AcDbLayerTableRecord
  2
Layer17
 70
     0
 62
     7
  6
Continuous
370
    -3
390
F
  0
LAYER
  5
57
330
2
100
AcDbSymbolTableRecord
100
AcDbLayerTableRecord
  2
Layer18
 70
     0
 62
     7
  6
Continuous
370
    -3
390
F
  0
LAYER
  5
58
330
2
100
AcDbSymbolTableRecord
100
AcDbLayerTableRecord
  2
Layer19
 70
     0
 62
     7
  6
Continuous
370
    -3
390
F
  0
LAYER
  5
59
330
2
100
AcDbSymbolTableRecord
100
AcDbLayerTableRecord
  2
Layer20
 70
     0
 62
     7
  6
Continuous
370
    -3
390
F
  0
LAYER
  5
5A
330
2
100
AcDbSymbolTableRecord
100
AcDbLayerTableRecord
  2
Layer21
 70
     0
 62
     7
  6
Continuous
370
    -3
390
F
  0
LAYER
  5
5B
330
2
100
AcDbSymbolTableRecord
100
AcDbLayerTableRecord
  2
Layer22
 70
     0
 62
     7
  6
Continuous
370
    -3
390
F
  0
LAYER
  5
5C
330
2
100
AcDbSymbolTableRecord
100
AcDbLayerTableRecord
  2
Layer23
 70
     0
 62
     7
  6
Continuous
370
    -3
390
F
  0
LAYER
  5
5D
330
2
100
AcDbSymbolTableRecord
100
AcDbLayerTableRecord
  2
Layer24
 70
     0
 62
     7
  6
Continuous
370
    -3
390
F
  0
LAYER
  5
5E
330
2
100
AcDbSymbolTableRecord
100
AcDbLayerTableRecord
  2
Layer25
 70
     0
 62
     7
  6
Continuous
370
    -3
390
F
  0
LAYER
  5
5F
330
2
100
AcDbSymbolTableRecord
100
AcDbLayerTableRecord
  2
Layer26
 70
     0
 62
     7
  6
Continuous
370
    -3
390
F
  0
LAYER
  5
60
330
2
100
AcDbSymbolTableRecord
100
AcDbLayerTableRecord
  2
Layer27
 70
     0
 62
     7
  6
Continuous
370
    -3
390
F
  0
LAYER
  5
61
330
2
100
AcDbSymbolTableRecord
100
AcDbLayerTableRecord
  2
Layer28
 70
     0
 62
     7
  6
Continuous
370
    -3
390
F
  0
LAYER
  5
62
330
2
100
AcDbSymbolTableRecord
100
AcDbLayerTableRecord
  2
Layer29
 70
     0
 62
     7
  6
Continuous
370
    -3
390
F
  0
LAYER
  5
63
330
2
100
AcDbSymbolTableRecord
100
AcDbLayerTableRecord
  2
Layer30
 70
     0
 62
     7
  6
Continuous
370
    -3
390
F
  0
LAYER
  5
64
330
2
100
AcDbSymbolTableRecord
100
AcDbLayerTableRecord
  2
Layer31
 70
     0
 62
     7
  6
Continuous
370
    -3
390
F
  0
LAYER
  5
65
330
2
100
AcDbSymbolTableRecord
100
AcDbLayerTableRecord
  2
Layer32
 70
     0
 62
     7
  6
Continuous
370
    -3
390
F
  0
LAYER
  5
66
330
2
100
AcDbSymbolTableRecord
100
AcDbLayerTableRecord
  2
Layer33
 70
     0
 62
     7
  6
Continuous
370
    -3
390
F
  0
LAYER
  5
67
330
2
100
AcDbSymbolTableRecord
100
AcDbLayerTableRecord
  2
Layer34
 70
     0
 62
     7
  6
Continuous
370
    -3
390
F
  0
LAYER
  5
68
330
2
100
AcDbSymbolTableRecord
100
AcDbLayerTableRecord
  2
Layer35
 70
     0
 62
     7
  6
Continuous
370
    -3
390
F
  0
LAYER
  5
69
330
2
100
AcDbSymbolTableRecord
100
AcDbLayerTableRecord
  2
Layer36
 70
     0
 62
     7
  6
Continuous
370
    -3
390
F
  0
LAYER
  5
6A
330
2
100
AcDbSymbolTableRecord
100
AcDbLayerTableRecord
  2
Layer37
 70
     0
 62
     7
  6
Continuous
370
    -3
390
F
  0
LAYER
  5
6B
330
2
100
AcDbSymbolTableRecord
100
AcDbLayerTableRecord
  2
Layer38
 70
     0
 62
     7
  6
Continuous
370
    -3
390
F
  0
LAYER
  5
6C
330
2
100
AcDbSymbolTableRecord
100
AcDbLayerTableRecord
  2
Layer39
 70
     0
 62
     7
  6
Continuous
370
    -3
390
F
  0
LAYER
  5
6D
330
2
100
AcDbSymbolTableRecord
100
AcDbLayerTableRecord
  2
Layer40
 70
     0
 62
     7
  6
Continuous
370
    -3
390
F
  0
LAYER
  5
6E
330
2
100
AcDbSymbolTableRecord
100
AcDbLayerTableRecord
  2
Layer41
 70
     0
 62
     7
  6
Continuous
370
    -3
390
F
  0
LAYER
  5
6F
330
2
100
AcDbSymbolTableRecord
100
AcDbLayerTableRecord
  2
Layer42
 70
     0
 62
     7
  6
Continuous
370
    -3
390
F
  0
LAYER
  5
70
330
2
100
AcDbSymbolTableRecord
100
AcDbLayerTableRecord
  2
Layer43
 70
     0
 62
     7
  6
Continuous
370
    -3
390
F
  0
LAYER
  5
71
330
2
100
AcDbSymbolTableRecord
100
AcDbLayerTableRecord
  2
Layer44
 70
     0
 62
     7
  6
Continuous
370
    -3
390
F
  0
LAYER
  5
72
330
2
100
AcDbSymbolTableRecord
100
AcDbLayerTableRecord
  2
Layer45
 70
     0
 62
     7
  6
Continuous
370
    -3
390
F
  0
LAYER
  5
73
330
2
100
AcDbSymbolTableRecord
100
AcDbLayerTableRecord
  2
Layer46
 70
     0
 62
     7
  6
Continuous
370
    -3
390
F
  0
LAYER
  5
74
330
2
100
AcDbSymbolTableRecord
100
AcDbLayerTableRecord
  2
Layer47
 70
     0
 62
     7
  6
Continuous
370
    -3
390
F
  0
LAYER
  5
75
330
2
100
AcDbSymbolTableRecord
100
AcDbLayerTableRecord
  2
Layer48
 70
     0
 62
     7
  6
Continuous
370
    -3
390
F
  0
LAYER
  5
76
330
2
100
AcDbSymbolTableRecord
100
AcDbLayerTableRecord
  2
Layer49
 70
     0
 62
     7
  6
Continuous
370
    -3
390
F
  0
LAYER
  5
77
330
2
100
AcDbSymbolTableRecord
100
AcDbLayerTableRecord
  2
Layer50
 70
     0
 62
     7
  6
Continuous
370
    -3
390
F
  0
LAYER
  5
78
330
2
100
AcDbSymbolTableRecord
100
AcDbLayerTableRecord
  2
Layer51
 70
     0
 62
     7
  6
Continuous
370
    -3
390
F
  0
LAYER
  5
79
330
2
100
AcDbSymbolTableRecord
100
AcDbLayerTableRecord
  2
Layer52
 70
     0
 62
     7
  6
Continuous
370
    -3
390
F
  0
LAYER
  5
7A
330
2
100
AcDbSymbolTableRecord
100
AcDbLayerTableRecord
  2
Layer53
 70
     0
 62
     7
  6
Continuous
370
    -3
390
F
  0
LAYER
  5
7B
330
2
100
AcDbSymbolTableRecord
100
AcDbLayerTableRecord
  2
Layer54
 70
     0
 62
     7
  6
Continuous
370
    -3
390
F
  0
LAYER
  5
7C
330
2
100
AcDbSymbolTableRecord
100
AcDbLayerTableRecord
  2
Layer55
 70
     0
 62
     7
  6
Continuous
370
    -3
390
F
  0
LAYER
  5
7D
330
2
100
AcDbSymbolTableRecord
100
AcDbLayerTableRecord
  2
Layer56
 70
     0
 62
     7
  6
Continuous
370
    -3
390
F
  0
LAYER
  5
7E
330
2
100
AcDbSymbolTableRecord
100
AcDbLayerTableRecord
  2
Layer57
 70
     0
 62
     7
  6
Continuous
370
    -3
390
F
  0
LAYER
  5
7F
330
2
100
AcDbSymbolTableRecord
100
AcDbLayerTableRecord
  2
Layer58
 70
     0
 62
     7
  6
Continuous
370
    -3
390
F
  0
LAYER
  5
80
330
2
100
AcDbSymbolTableRecord
100
AcDbLayerTableRecord
  2
Layer59
 70
     0
 62
     7
  6
Continuous
370
    -3
390
F
  0
LAYER
  5
81
330
2
100
AcDbSymbolTableRecord
100
AcDbLayerTableRecord
  2
Layer60
 70
     0
 62
     7
  6
Continuous
370
    -3
390
F
  0
LAYER
  5
82
330
2
100
AcDbSymbolTableRecord
100
AcDbLayerTableRecord
  2
Layer61
 70
     0
 62
     7
  6
Continuous
370
    -3
390
F
  0
LAYER
  5
83
330
2
100
AcDbSymbolTableRecord
100
AcDbLayerTableRecord
  2
Layer62
 70
     0
 62
     7
  6
Continuous
370
    -3
390
F
  0
LAYER
  5
84
330
2
100
AcDbSymbolTableRecord
100
AcDbLayerTableRecord
  2
Layer63
 70
     0
 62
     7
  6
Continuous
370
    -3
390
F
  0
LAYER
  5
85
330
2
100
AcDbSymbolTableRecord
100
AcDbLayerTableRecord
  2
Layer64
 70
     0
 62
     7
  6
Continuous
370
    -3
390
F
  0
LAYER
  5
86
330
2
100
AcDbSymbolTableRecord
100
AcDbLayerTableRecord
  2
Layer65
 70
     0
 62
     7
  6
Continuous
370
    -3
390
F
  0
LAYER
  5
87
330
2
100
AcDbSymbolTableRecord
100
AcDbLayerTableRecord
  2
Layer66
 70
     0
 62
     7
  6
Continuous
370
    -3
390
F
  0
LAYER
  5
88
330
2
100
AcDbSymbolTableRecord
100
AcDbLayerTableRecord
  2
Layer67
 70
     0
 62
     7
  6
Continuous
370
    -3
390
F
  0
LAYER
  5
89
330
2
100
AcDbSymbolTableRecord
100
AcDbLayerTableRecord
  2
Layer68
 70
     0
 62
     7
  6
Continuous
370
    -3
390
F
  0
LAYER
  5
8A
330
2
100
AcDbSymbolTableRecord
100
AcDbLayerTableRecord
  2
Layer69
 70
     0
 62
     7
  6
Continuous
370
    -3
390
F
  0
LAYER
  5
8B
330
2
100
AcDbSymbolTableRecord
100
AcDbLayerTableRecord
  2
Layer70
 70
     0
 62
     7
  6
Continuous
370
    -3
390
F
  0
LAYER
  5
8C
330
2
100
AcDbSymbolTableRecord
100
AcDbLayerTableRecord
  2
Layer71
 70
     0
 62
     7
  6
Continuous
370
    -3
390
F
  0
LAYER
  5
8D
330
2
100
AcDbSymbolTableRecord
100
AcDbLayerTableRecord
  2
Layer72
 70
     0
 62
     7
  6
Continuous
370
    -3
390
F
  0
LAYER
  5
8E
330
2
100
AcDbSymbolTableRecord
100
AcDbLayerTableRecord
  2
Layer73
 70
     0
 62
     7
  6
Continuous
370
    -3
390
F
  0
LAYER
  5
8F
330
2
100
AcDbSymbolTableRecord
100
AcDbLayerTableRecord
  2
Layer74
 70
     0
 62
     7
  6
Continuous
370
    -3
390
F
  0
LAYER
  5
90
330
2
100
AcDbSymbolTableRecord
100
AcDbLayerTableRecord
  2
Layer75
 70
     0
 62
     7
  6
Continuous
370
    -3
390
F
  0
LAYER
  5
91
330
2
100
AcDbSymbolTableRecord
100
AcDbLayerTableRecord
  2
Layer76
 70
     0
 62
     7
  6
Continuous
370
    -3
390
F
  0
LAYER
  5
92
330
2
100
AcDbSymbolTableRecord
100
AcDbLayerTableRecord
  2
Layer77
 70
     0
 62
     7
  6
Continuous
370
    -3
390
F
  0
LAYER
  5
93
330
2
100
AcDbSymbolTableRecord
100
AcDbLayerTableRecord
  2
Layer78
 70
     0
 62
     7
  6
Continuous
370
    -3
390
F
  0
LAYER
  5
94
330
2
100
AcDbSymbolTableRecord
100
AcDbLayerTableRecord
  2
Layer79
 70
     0
 62
     7
  6
Continuous
370
    -3
390
F
  0
LAYER
  5
95
330
2
100
AcDbSymbolTableRecord
100
AcDbLayerTableRecord
  2
Layer80
 70
     0
 62
     7
  6
Continuous
370
    -3
390
F
  0
LAYER
  5
96
330
2
100
AcDbSymbolTableRecord
100
AcDbLayerTableRecord
  2
Layer81
 70
     0
 62
     7
  6
Continuous
370
    -3
390
F
  0
LAYER
  5
97
330
2
100
AcDbSymbolTableRecord
100
AcDbLayerTableRecord
  2
Layer82
 70
     0
 62
     7
  6
Continuous
370
    -3
390
F
  0
LAYER
  5
98
330
2
100
AcDbSymbolTableRecord
100
AcDbLayerTableRecord
  2
Layer83
 70
     0
 62
     7
  6
Continuous
370
    -3
390
F
  0
LAYER
  5
99
330
2
100
AcDbSymbolTableRecord
100
AcDbLayerTableRecord
  2
Layer84
 70
     0
 62
     7
  6
Continuous
370
    -3
390
F
  0
LAYER
  5
9A
330
2
100
AcDbSymbolTableRecord
100
AcDbLayerTableRecord
  2
Layer85
 70
     0
 62
     7
  6
Continuous
370
    -3
390
F
  0
LAYER
  5
9B
330
2
100
AcDbSymbolTableRecord
100
AcDbLayerTableRecord
  2
Layer86
 70
     0
 62
     7
  6
Continuous
370
    -3
390
F
  0
LAYER
  5
9C
330
2
100
AcDbSymbolTableRecord
100
AcDbLayerTableRecord
  2
Layer87
 70
     0
 62
     7
  6
Continuous
370
    -3
390
F
  0
LAYER
  5
9D
330
2
100
AcDbSymbolTableRecord
100
AcDbLayerTableRecord
  2
Layer88
 70
     0
 62
     7
  6
Continuous
370
    -3
390
F
  0
LAYER
  5
9E
330
2
100
AcDbSymbolTableRecord
100
AcDbLayerTableRecord
  2
Layer89
 70
     0
 62
     7
  6
Continuous
370
    -3
390
F
  0
LAYER
  5
9F
330
2
100
AcDbSymbolTableRecord
100
AcDbLayerTableRecord
  2
Layer90
 70
     0
 62
     7
  6
Continuous
370
    -3
390
F
  0
LAYER
  5
A0
330
2
100
AcDbSymbolTableRecord
100
AcDbLayerTableRecord
  2
Layer91
 70
     0
 62
     7
  6
Continuous
370
    -3
390
F
  0
LAYER
  5
A1
330
2
100
AcDbSymbolTableRecord
100
AcDbLayerTableRecord
  2
Layer92
 70
     0
 62
     7
  6
Continuous
370
    -3
390
F
  0
LAYER
  5
A2
330
2
100
AcDbSymbolTableRecord
100
AcDbLayerTableRecord
  2
Layer93
 70
     0
 62
     7
  6
Continuous
370
    -3
390
F
  0
LAYER
  5
A3
330
2
100
AcDbSymbolTableRecord
100
AcDbLayerTableRecord
  2
Layer94
 70
     0
 62
     7
  6
Continuous
370
    -3
390
F
  0
LAYER
  5
A4
330
2
100
AcDbSymbolTableRecord
100
AcDbLayerTableRecord
  2
Layer95
 70
     0
 62
     7
  6
Continuous
370
    -3
390
F
  0
LAYER
  5
A5
330
2
100
AcDbSymbolTableRecord
100
AcDbLayerTableRecord
  2
Layer96
 70
     0
 62
     7
  6
Continuous
370
    -3
390
F
  0
LAYER
  5
A6
330
2
100
AcDbSymbolTableRecord
100
AcDbLayerTableRecord
  2
Layer97
 70
     0
 62
     7
  6
Continuous
370
    -3
390
F
  0
LAYER
  5
A7
330
2
100
AcDbSymbolTableRecord
100
AcDbLayerTableRecord
  2
Layer98
 70
     0
 62
     7
  6
Continuous
370
    -3
390
F
  0
LAYER
  5
A8
330
2
100
AcDbSymbolTableRecord
100
AcDbLayerTableRecord
  2
Layer99
 70
     0
 62
     7
  6
Continuous
370
    -3
390
F
  0
LAYER
  5
A9
330
2
100
AcDbSymbolTableRecord
100
AcDbLayerTableRecord
  2
Layer100
 70
     0
 62
     7
  6
Continuous
370
    -3
390
F
  0
LAYER
  5
AA
330
2
100
AcDbSymbolTableRecord
100
AcDbLayerTableRecord
  2
Layer101
 70
     0
 62
     7
  6
Continuous
370
    -3
390
F
  0
LAYER
  5
AB
330
2
100
AcDbSymbolTableRecord
100
AcDbLayerTableRecord
  2
Layer102
 70
     0
 62
     7
  6
Continuous
370
    -3
390
F
  0
LAYER
  5
AC
330
2
100
AcDbSymbolTableRecord
100
AcDbLayerTableRecord
  2
Layer103
 70
     0
 62
     7
  6
Continuous
370
    -3
390
F
  0
LAYER
  5
AD
330
2
100
AcDbSymbolTableRecord
100
AcDbLayerTableRecord
  2
Layer104
 70
     0
 62
     7
  6
Continuous
370
    -3
390
F
  0
LAYER
  5
AE
330
2
100
AcDbSymbolTableRecord
100
AcDbLayerTableRecord
  2
Layer105
 70
     0
 62
     7
  6
Continuous
370
    -3
390
F
  0
LAYER
  5
AF
330
2
100
AcDbSymbolTableRecord
100
AcDbLayerTableRecord
  2
Layer106
 70
     0
 62
     7
  6
Continuous
370
    -3
390
F
  0
LAYER
  5
B0
330
2
100
AcDbSymbolTableRecord
100
AcDbLayerTableRecord
  2
Layer107
 70
     0
 62
     7
  6
Continuous
370
    -3
390
F
  0
LAYER
  5
B1
330
2
100
AcDbSymbolTableRecord
100
AcDbLayerTableRecord
  2
Layer108
 70
     0
 62
     7
  6
Continuous
370
    -3
390
F
  0
LAYER
  5
B2
330
2
100
AcDbSymbolTableRecord
100
AcDbLayerTableRecord
  2
Layer109
 70
     0
 62
     7
  6
Continuous
370
    -3
390
F
  0
LAYER
  5
B3
330
2
100
AcDbSymbolTableRecord
100
AcDbLayerTableRecord
  2
Layer110
 70
     0
 62
     7
  6
Continuous
370
    -3
390
F
  0
LAYER
  5
B4
330
2
100
AcDbSymbolTableRecord
100
AcDbLayerTableRecord
  2
Layer111
 70
     0
 62
     7
  6
Continuous
370
    -3
390
F
  0
LAYER
  5
B5
330
2
100
AcDbSymbolTableRecord
100
AcDbLayerTableRecord
  2
Layer112
 70
     0
 62
     7
  6
Continuous
370
    -3
390
F
  0
LAYER
  5
B6
330
2
100
AcDbSymbolTableRecord
100
AcDbLayerTableRecord
  2
Layer113
 70
     0
 62
     7
  6
Continuous
370
    -3
390
F
  0
LAYER
  5
B7
330
2
100
AcDbSymbolTableRecord
100
AcDbLayerTableRecord
  2
Layer114
 70
     0
 62
     7
  6
Continuous
370
    -3
390
F
  0
LAYER
  5
B8
330
2
100
AcDbSymbolTableRecord
100
AcDbLayerTableRecord
  2
Layer115
 70
     0
 62
     7
  6
Continuous
370
    -3
390
F
  0
LAYER
  5
B9
330
2
100
AcDbSymbolTableRecord
100
AcDbLayerTableRecord
  2
Layer116
 70
     0
 62
     7
  6
Continuous
370
    -3
390
F
  0
LAYER
  5
BA
330
2
100
AcDbSymbolTableRecord
100
AcDbLayerTableRecord
  2
Layer117
 70
     0
 62
     7
  6
Continuous
370
    -3
390
F
  0
LAYER
  5
BB
330
2
100
AcDbSymbolTableRecord
100
AcDbLayerTableRecord
  2
Layer118
 70
     0
 62
     7
  6
Continuous
370
    -3
390
F
  0
LAYER
  5
BC
330
2
100
AcDbSymbolTableRecord
100
AcDbLayerTableRecord
  2
Layer119
 70
     0
 62
     7
  6
Continuous
370
    -3
390
F
  0
LAYER
  5
BD
330
2
100
AcDbSymbolTableRecord
100
AcDbLayerTableRecord
  2
Layer120
 70
     0
 62
     7
  6
Continuous
370
    -3
390
F
  0
LAYER
  5
BE
330
2
100
AcDbSymbolTableRecord
100
AcDbLayerTableRecord
  2
Layer121
 70
     0
 62
     7
  6
Continuous
370
    -3
390
F
  0
LAYER
  5
BF
330
2
100
AcDbSymbolTableRecord
100
AcDbLayerTableRecord
  2
Layer122
 70
     0
 62
     7
  6
Continuous
370
    -3
390
F
  0
LAYER
  5
C0
330
2
100
AcDbSymbolTableRecord
100
AcDbLayerTableRecord
  2
Layer123
 70
     0
 62
     7
  6
Continuous
370
    -3
390
F
  0
LAYER
  5
C1
330
2
100
AcDbSymbolTableRecord
100
AcDbLayerTableRecord
  2
Layer124
 70
     0
 62
     7
  6
Continuous
370
    -3
390
F
  0
LAYER
  5
C2
330
2
100
AcDbSymbolTableRecord
100
AcDbLayerTableRecord
  2
Layer125
 70
     0
 62
     7
  6
Continuous
370
    -3
390
F
  0
LAYER
  5
C3
330
2
100
AcDbSymbolTableRecord
100
AcDbLayerTableRecord
  2
Layer126
 70
     0
 62
     7
  6
Continuous
370
    -3
390
F
  0
LAYER
  5
C4
330
2
100
AcDbSymbolTableRecord
100
AcDbLayerTableRecord
  2
Layer127
 70
     0
 62
     7
  6
Continuous
370
    -3
390
F
  0
LAYER
  5
C5
330
2
100
AcDbSymbolTableRecord
100
AcDbLayerTableRecord
  2
Layer128
 70
     0
 62
     7
  6
Continuous
370
    -3
390
F
  0
LAYER
  5
C6
330
2
100
AcDbSymbolTableRecord
100
AcDbLayerTableRecord
  2
Layer129
 70
     0
 62
     7
  6
Continuous
370
    -3
390
F
  0
LAYER
  5
C7
330
2
100
AcDbSymbolTableRecord
100
AcDbLayerTableRecord
  2
Layer130
 70
     0
 62
     7
  6
Continuous
370
    -3
390
F
  0
LAYER
  5
C8
330
2
100
AcDbSymbolTableRecord
100
AcDbLayerTableRecord
  2
Layer131
 70
     0
 62
     7
  6
Continuous
370
    -3
390
F
  0
LAYER
  5
C9
330
2
100
AcDbSymbolTableRecord
100
AcDbLayerTableRecord
  2
Layer132
 70
     0
 62
     7
  6
Continuous
370
    -3
390
F
  0
LAYER
  5
CA
330
2
100
AcDbSymbolTableRecord
100
AcDbLayerTableRecord
  2
Layer133
 70
     0
 62
     7
  6
Continuous
370
    -3
390
F
  0
LAYER
  5
CB
330
2
100
AcDbSymbolTableRecord
100
AcDbLayerTableRecord
  2
Layer134
 70
     0
 62
     7
  6
Continuous
370
    -3
390
F
  0
LAYER
  5
CC
330
2
100
AcDbSymbolTableRecord
100
AcDbLayerTableRecord
  2
Layer135
 70
     0
 62
     7
  6
Continuous
370
    -3
390
F
  0
LAYER
  5
CD
330
2
100
AcDbSymbolTableRecord
100
AcDbLayerTableRecord
  2
Layer136
 70
     0
 62
     7
  6
Continuous
370
    -3
390
F
  0
LAYER
  5
CE
330
2
100
AcDbSymbolTableRecord
100
AcDbLayerTableRecord
  2
Layer137
 70
     0
 62
     7
  6
Continuous
370
    -3
390
F
  0
LAYER
  5
CF
330
2
100
AcDbSymbolTableRecord
100
AcDbLayerTableRecord
  2
Layer138
 70
     0
 62
     7
  6
Continuous
370
    -3
390
F
  0
LAYER
  5
D0
330
2
100
AcDbSymbolTableRecord
100
AcDbLayerTableRecord
  2
Layer139
 70
     0
 62
     7
  6
Continuous
370
    -3
390
F
  0
LAYER
  5
D1
330
2
100
AcDbSymbolTableRecord
100
AcDbLayerTableRecord
  2
Layer140
 70
     0
 62
     7
  6
Continuous
370
    -3
390
F
  0
LAYER
  5
D2
330
2
100
AcDbSymbolTableRecord
100
AcDbLayerTableRecord
  2
Layer141
 70
     0
 62
     7
  6
Continuous
370
    -3
390
F
  0
LAYER
  5
D3
330
2
100
AcDbSymbolTableRecord
100
AcDbLayerTableRecord
  2
Layer142
 70
     0
 62
     7
  6
Continuous
370
    -3
390
F
  0
LAYER
  5
D4
330
2
100
AcDbSymbolTableRecord
100
AcDbLayerTableRecord
  2
Layer143
 70
     0
 62
     7
  6
Continuous
370
    -3
390
F
  0
LAYER
  5
D5
330
2
100
AcDbSymbolTableRecord
100
AcDbLayerTableRecord
  2
Layer144
 70
     0
 62
     7
  6
Continuous
370
    -3
390
F
  0
LAYER
  5
D6
330
2
100
AcDbSymbolTableRecord
100
AcDbLayerTableRecord
  2
Layer145
 70
     0
 62
     7
  6
Continuous
370
    -3
390
F
  0
LAYER
  5
D7
330
2
100
AcDbSymbolTableRecord
100
AcDbLayerTableRecord
  2
Layer146
 70
     0
 62
     7
  6
Continuous
370
    -3
390
F
  0
LAYER
  5
D8
330
2
100
AcDbSymbolTableRecord
100
AcDbLayerTableRecord
  2
Layer147
 70
     0
 62
     7
  6
Continuous
370
    -3
390
F
  0
LAYER
  5
D9
330
2
100
AcDbSymbolTableRecord
100
AcDbLayerTableRecord
  2
Layer148
 70
     0
 62
     7
  6
Continuous
370
    -3
390
F
  0
LAYER
  5
DA
330
2
100
AcDbSymbolTableRecord
100
AcDbLayerTableRecord
  2
Layer149
 70
     0
 62
     7
  6
Continuous
370
    -3
390
F
  0
LAYER
  5
DB
330
2
100
AcDbSymbolTableRecord
100
AcDbLayerTableRecord
  2
Layer150
 70
     0
 62
     7
  6
Continuous
370
    -3
390
F
  0
LAYER
  5
DC
330
2
100
AcDbSymbolTableRecord
100
AcDbLayerTableRecord
  2
Layer151
 70
     0
 62
     7
  6
Continuous
370
    -3
390
F
  0
LAYER
  5
DD
330
2
100
AcDbSymbolTableRecord
100
AcDbLayerTableRecord
  2
Layer152
 70
     0
 62
     7
  6
Continuous
370
    -3
390
F
  0
LAYER
  5
DE
330
2
100
AcDbSymbolTableRecord
100
AcDbLayerTableRecord
  2
Layer153
 70
     0
 62
     7
  6
Continuous
370
    -3
390
F
  0
LAYER
  5
DF
330
2
100
AcDbSymbolTableRecord
100
AcDbLayerTableRecord
  2
Layer154
 70
     0
 62
     7
  6
Continuous
370
    -3
390
F
  0
LAYER
  5
E0
330
2
100
AcDbSymbolTableRecord
100
AcDbLayerTableRecord
  2
Layer155
 70
     0
 62
     7
  6
Continuous
370
    -3
390
F
  0
LAYER
  5
E1
330
2
100
AcDbSymbolTableRecord
100
AcDbLayerTableRecord
  2
Layer156
 70
     0
 62
     7
  6
Continuous
370
    -3
390
F
  0
LAYER
  5
E2
330
2
100
AcDbSymbolTableRecord
100
AcDbLayerTableRecord
  2
Layer157
 70
     0
 62
     7
  6
Continuous
370
    -3
390
F
  0
LAYER
  5
E3
330
2
100
AcDbSymbolTableRecord
100
AcDbLayerTableRecord
  2
Layer158
 70
     0
 62
     7
  6
Continuous
370
    -3
390
F
  0
LAYER
  5
E4
330
2
100
AcDbSymbolTableRecord
100
AcDbLayerTableRecord
  2
Layer159
 70
     0
 62
     7
  6
Continuous
370
    -3
390
F
  0
LAYER
  5
E5
330
2
100
AcDbSymbolTableRecord
100
AcDbLayerTableRecord
  2
Layer160
 70
     0
 62
     7
  6
Continuous
370
    -3
390
F
  0
LAYER
  5
E6
330
2
100
AcDbSymbolTableRecord
100
AcDbLayerTableRecord
  2
Layer161
 70
     0
 62
     7
  6
Continuous
370
    -3
390
F
  0
LAYER
  5
E7
330
2
100
AcDbSymbolTableRecord
100
AcDbLayerTableRecord
  2
Layer162
 70
     0
 62
     7
  6
Continuous
370
    -3
390
F
  0
LAYER
  5
E8
330
2
100
AcDbSymbolTableRecord
100
AcDbLayerTableRecord
  2
Layer163
 70
     0
 62
     7
  6
Continuous
370
    -3
390
F
  0
LAYER
  5
E9
330
2
100
AcDbSymbolTableRecord
100
AcDbLayerTableRecord
  2
Layer164
 70
     0
 62
     7
  6
Continuous
370
    -3
390
F
  0
LAYER
  5
EA
330
2
100
AcDbSymbolTableRecord
100
AcDbLayerTableRecord
  2
Layer165
 70
     0
 62
     7
  6
Continuous
370
    -3
390
F
  0
LAYER
  5
EB
330
2
100
AcDbSymbolTableRecord
100
AcDbLayerTableRecord
  2
Layer166
 70
     0
 62
     7
  6
Continuous
370
    -3
390
F
  0
LAYER
  5
EC
330
2
100
AcDbSymbolTableRecord
100
AcDbLayerTableRecord
  2
Layer167
 70
     0
 62
     7
  6
Continuous
370
    -3
390
F
  0
LAYER
  5
ED
330
2
100
AcDbSymbolTableRecord
100
AcDbLayerTableRecord
  2
Layer168
 70
     0
 62
     7
  6
Continuous
370
    -3
390
F
  0
LAYER
  5
EE
330
2
100
AcDbSymbolTableRecord
100
AcDbLayerTableRecord
  2
Layer169
 70
     0
 62
     7
  6
Continuous
370
    -3
390
F
  0
LAYER
  5
EF
330
2
100
AcDbSymbolTableRecord
100
AcDbLayerTableRecord
  2
Layer170
 70
     0
 62
     7
  6
Continuous
370
    -3
390
F
  0
LAYER
  5
F0
330
2
100
AcDbSymbolTableRecord
100
AcDbLayerTableRecord
  2
Layer171
 70
     0
 62
     7
  6
Continuous
370
    -3
390
F
  0
LAYER
  5
F1
330
2
100
AcDbSymbolTableRecord
100
AcDbLayerTableRecord
  2
Layer172
 70
     0
 62
     7
  6
Continuous
370
    -3
390
F
  0
LAYER
  5
F2
330
2
100
AcDbSymbolTableRecord
100
AcDbLayerTableRecord
  2
Layer173
 70
     0
 62
     7
  6
Continuous
370
    -3
390
F
  0
LAYER
  5
F3
330
2
100
AcDbSymbolTableRecord
100
AcDbLayerTableRecord
  2
Layer174
 70
     0
 62
     7
  6
Continuous
370
    -3
390
F
  0
LAYER
  5
F4
330
2
100
AcDbSymbolTableRecord
100
AcDbLayerTableRecord
  2
Layer175
 70
     0
 62
     7
  6
Continuous
370
    -3
390
F
  0
LAYER
  5
F5
330
2
100
AcDbSymbolTableRecord
100
AcDbLayerTableRecord
  2
Layer176
 70
     0
 62
     7
  6
Continuous
370
    -3
390
F
  0
LAYER
  5
F6
330
2
100
AcDbSymbolTableRecord
100
AcDbLayerTableRecord
  2
Layer177
 70
     0
 62
     7
  6
Continuous
370
    -3
390
F
  0
LAYER
  5
F7
330
2
100
AcDbSymbolTableRecord
100
AcDbLayerTableRecord
  2
Layer178
 70
     0
 62
     7
  6
Continuous
370
    -3
390
F
  0
LAYER
  5
F8
330
2
100
AcDbSymbolTableRecord
100
AcDbLayerTableRecord
  2
Layer179
 70
     0
 62
     7
  6
Continuous
370
    -3
390
F
  0
LAYER
  5
F9
330
2
100
AcDbSymbolTableRecord
100
AcDbLayerTableRecord
  2
Layer180
 70
     0
 62
     7
  6
Continuous
370
    -3
390
F
  0
LAYER
  5
FA
330
2
100
AcDbSymbolTableRecord
100
AcDbLayerTableRecord
  2
Layer181
 70
     0
 62
     7
  6
Continuous
370
    -3
390
F
  0
LAYER
  5
FB
330
2
100
AcDbSymbolTableRecord
100
AcDbLayerTableRecord
  2
Layer182
 70
     0
 62
     7
  6
Continuous
370
    -3
390
F
  0
LAYER
  5
FC
330
2
100
AcDbSymbolTableRecord
100
AcDbLayerTableRecord
  2
Layer183
 70
     0
 62
     7
  6
Continuous
370
    -3
390
F
  0
LAYER
  5
FD
330
2
100
AcDbSymbolTableRecord
100
AcDbLayerTableRecord
  2
Layer184
 70
     0
 62
     7
  6
Continuous
370
    -3
390
F
  0
LAYER
  5
FE
330
2
100
AcDbSymbolTableRecord
100
AcDbLayerTableRecord
  2
Layer185
 70
     0
 62
     7
  6
Continuous
370
    -3
390
F
  0
LAYER
  5
FF
330
2
100
AcDbSymbolTableRecord
100
AcDbLayerTableRecord
  2
Layer186
 70
     0
 62
     7
  6
Continuous
370
    -3
390
F
  0
LAYER
  5
100
330
2
100
AcDbSymbolTableRecord
100
AcDbLayerTableRecord
  2
Layer187
 70
     0
 62
     7
  6
Continuous
370
    -3
390
F
  0
LAYER
  5
101
330
2
100
AcDbSymbolTableRecord
100
AcDbLayerTableRecord
  2
Layer188
 70
     0
 62
     7
  6
Continuous
370
    -3
390
F
  0
LAYER
  5
102
330
2
100
AcDbSymbolTableRecord
100
AcDbLayerTableRecord
  2
Layer189
 70
     0
 62
     7
  6
Continuous
370
    -3
390
F
  0
LAYER
  5
103
330
2
100
AcDbSymbolTableRecord
100
AcDbLayerTableRecord
  2
Layer190
 70
     0
 62
     7
  6
Continuous
370
    -3
390
F
  0
LAYER
  5
104
330
2
100
AcDbSymbolTableRecord
100
AcDbLayerTableRecord
  2
Layer191
 70
     0
 62
     7
  6
Continuous
370
    -3
390
F
  0
LAYER
  5
105
330
2
100
AcDbSymbolTableRecord
100
AcDbLayerTableRecord
  2
Layer192
 70
     0
 62
     7
  6
Continuous
370
    -3
390
F
  0
LAYER
  5
106
330
2
100
AcDbSymbolTableRecord
100
AcDbLayerTableRecord
  2
Layer193
 70
     0
 62
     7
  6
Continuous
370
    -3
390
F
  0
LAYER
  5
107
330
2
100
AcDbSymbolTableRecord
100
AcDbLayerTableRecord
  2
Layer194
 70
     0
 62
     7
  6
Continuous
370
    -3
390
F
  0
LAYER
  5
108
330
2
100
AcDbSymbolTableRecord
100
AcDbLayerTableRecord
  2
Layer195
 70
     0
 62
     7
  6
Continuous
370
    -3
390
F
  0
LAYER
  5
109
330
2
100
AcDbSymbolTableRecord
100
AcDbLayerTableRecord
  2
Layer196
 70
     0
 62
     7
  6
Continuous
370
    -3
390
F
  0
LAYER
  5
10A
330
2
100
AcDbSymbolTableRecord
100
AcDbLayerTableRecord
  2
Layer197
 70
     0
 62
     7
  6
Continuous
370
    -3
390
F
  0
LAYER
  5
10B
330
2
100
AcDbSymbolTableRecord
100
AcDbLayerTableRecord
  2
Layer198
 70
     0
 62
     7
  6
Continuous
370
    -3
390
F
  0
LAYER
  5
10C
330
2
100
AcDbSymbolTableRecord
100
AcDbLayerTableRecord
  2
Layer199
 70
     0
 62
     7
  6
Continuous
370
    -3
390
F
  0
LAYER
  5
10D
330
2
100
AcDbSymbolTableRecord
100
AcDbLayerTableRecord
  2
Layer200
 70
     0
 62
     7
  6
Continuous
370
    -3
390
F
  0
LAYER
  5
10E
330
2
100
AcDbSymbolTableRecord
100
AcDbLayerTableRecord
  2
Layer201
 70
     0
 62
     7
  6
Continuous
370
    -3
390
F
  0
LAYER
  5
10F
330
2
100
AcDbSymbolTableRecord
100
AcDbLayerTableRecord
  2
Layer202
 70
     0
 62
     7
  6
Continuous
370
    -3
390
F
  0
LAYER
  5
110
330
2
100
AcDbSymbolTableRecord
100
AcDbLayerTableRecord
  2
Layer203
 70
     0
 62
     7
  6
Continuous
370
    -3
390
F
  0
LAYER
  5
111
330
2
100
AcDbSymbolTableRecord
100
AcDbLayerTableRecord
  2
Layer204
 70
     0
 62
     7
  6
Continuous
370
    -3
390
F
  0
LAYER
  5
112
330
2
100
AcDbSymbolTableRecord
100
AcDbLayerTableRecord
  2
Layer205
 70
     0
 62
     7
  6
Continuous
370
    -3
390
F
  0
LAYER
  5
113
330
2
100
AcDbSymbolTableRecord
100
AcDbLayerTableRecord
  2
Layer206
 70
     0
 62
     7
  6
Continuous
370
    -3
390
F
  0
LAYER
  5
114
330
2
100
AcDbSymbolTableRecord
100
AcDbLayerTableRecord
  2
Layer207
 70
     0
 62
     7
  6
Continuous
370
    -3
390
F
  0
LAYER
  5
115
330
2
100
AcDbSymbolTableRecord
100
AcDbLayerTableRecord
  2
Layer208
 70
     0
 62
     7
  6
Continuous
370
    -3
390
F
  0
LAYER
  5
116
330
2
100
AcDbSymbolTableRecord
100
AcDbLayerTableRecord
  2
Layer209
 70
     0
 62
     7
  6
Continuous
370
    -3
390
F
  0
LAYER
  5
117
330
2
100
AcDbSymbolTableRecord
100
AcDbLayerTableRecord
  2
Layer210
 70
     0
 62
     7
  6
Continuous
370
    -3
390
F
  0
LAYER
  5
118
330
2
100
AcDbSymbolTableRecord
100
AcDbLayerTableRecord
  2
Layer211
 70
     0
 62
     7
  6
Continuous
370
    -3
390
F
  0
LAYER
  5
119
330
2
100
AcDbSymbolTableRecord
100
AcDbLayerTableRecord
  2
Layer212
 70
     0
 62
     7
  6
Continuous
370
    -3
390
F
  0
LAYER
  5
11A
330
2
100
AcDbSymbolTableRecord
100
AcDbLayerTableRecord
  2
Layer213
 70
     0
 62
     7
  6
Continuous
370
    -3
390
F
  0
LAYER
  5
11B
330
2
100
AcDbSymbolTableRecord
100
AcDbLayerTableRecord
  2
Layer214
 70
     0
 62
     7
  6
Continuous
370
    -3
390
F
  0
LAYER
  5
11C
330
2
100
AcDbSymbolTableRecord
100
AcDbLayerTableRecord
  2
Layer215
 70
     0
 62
     7
  6
Continuous
370
    -3
390
F
  0
LAYER
  5
11D
330
2
100
AcDbSymbolTableRecord
100
AcDbLayerTableRecord
  2
Layer216
 70
     0
 62
     7
  6
Continuous
370
    -3
390
F
  0
LAYER
  5
11E
330
2
100
AcDbSymbolTableRecord
100
AcDbLayerTableRecord
  2
Layer217
 70
     0
 62
     7
  6
Continuous
370
    -3
390
F
  0
LAYER
  5
11F
330
2
100
AcDbSymbolTableRecord
100
AcDbLayerTableRecord
  2
Layer218
 70
     0
 62
     7
  6
Continuous
370
    -3
390
F
  0
LAYER
  5
120
330
2
100
AcDbSymbolTableRecord
100
AcDbLayerTableRecord
  2
Layer219
 70
     0
 62
     7
  6
Continuous
370
    -3
390
F
  0
LAYER
  5
121
330
2
100
AcDbSymbolTableRecord
100
AcDbLayerTableRecord
  2
Layer220
 70
     0
 62
     7
  6
Continuous
370
    -3
390
F
  0
LAYER
  5
122
330
2
100
AcDbSymbolTableRecord
100
AcDbLayerTableRecord
  2
Layer221
 70
     0
 62
     7
  6
Continuous
370
    -3
390
F
  0
LAYER
  5
123
330
2
100
AcDbSymbolTableRecord
100
AcDbLayerTableRecord
  2
Layer222
 70
     0
 62
     7
  6
Continuous
370
    -3
390
F
  0
LAYER
  5
124
330
2
100
AcDbSymbolTableRecord
100
AcDbLayerTableRecord
  2
Layer223
 70
     0
 62
     7
  6
Continuous
370
    -3
390
F
  0
LAYER
  5
125
330
2
100
AcDbSymbolTableRecord
100
AcDbLayerTableRecord
  2
Layer224
 70
     0
 62
     7
  6
Continuous
370
    -3
390
F
  0
LAYER
  5
126
330
2
100
AcDbSymbolTableRecord
100
AcDbLayerTableRecord
  2
Layer225
 70
     0
 62
     7
  6
Continuous
370
    -3
390
F
  0
LAYER
  5
127
330
2
100
AcDbSymbolTableRecord
100
AcDbLayerTableRecord
  2
Layer226
 70
     0
 62
     7
  6
Continuous
370
    -3
390
F
  0
LAYER
  5
128
330
2
100
AcDbSymbolTableRecord
100
AcDbLayerTableRecord
  2
Layer227
 70
     0
 62
     7
  6
Continuous
370
    -3
390
F
  0
LAYER
  5
129
330
2
100
AcDbSymbolTableRecord
100
AcDbLayerTableRecord
  2
Layer228
 70
     0
 62
     7
  6
Continuous
370
    -3
390
F
  0
LAYER
  5
12A
330
2
100
AcDbSymbolTableRecord
100
AcDbLayerTableRecord
  2
Layer229
 70
     0
 62
     7
  6
Continuous
370
    -3
390
F
  0
LAYER
  5
12B
330
2
100
AcDbSymbolTableRecord
100
AcDbLayerTableRecord
  2
Layer230
 70
     0
 62
     7
  6
Continuous
370
    -3
390
F
  0
LAYER
  5
12C
330
2
100
AcDbSymbolTableRecord
100
AcDbLayerTableRecord
  2
Layer231
 70
     0
 62
     7
  6
Continuous
370
    -3
390
F
  0
LAYER
  5
12D
330
2
100
AcDbSymbolTableRecord
100
AcDbLayerTableRecord
  2
Layer232
 70
     0
 62
     7
  6
Continuous
370
    -3
390
F
  0
LAYER
  5
12E
330
2
100
AcDbSymbolTableRecord
100
AcDbLayerTableRecord
  2
Layer233
 70
     0
 62
     7
  6
Continuous
370
    -3
390
F
  0
LAYER
  5
12F
330
2
100
AcDbSymbolTableRecord
100
AcDbLayerTableRecord
  2
Layer234
 70
     0
 62
     7
  6
Continuous
370
    -3
390
F
  0
LAYER
  5
130
330
2
100
AcDbSymbolTableRecord
100
AcDbLayerTableRecord
  2
Layer235
 70
     0
 62
     7
  6
Continuous
370
    -3
390
F
  0
LAYER
  5
131
330
2
100
AcDbSymbolTableRecord
100
AcDbLayerTableRecord
  2
Layer236
 70
     0
 62
     7
  6
Continuous
370
    -3
390
F
  0
LAYER
  5
132
330
2
100
AcDbSymbolTableRecord
100
AcDbLayerTableRecord
  2
Layer237
 70
     0
 62
     7
  6
Continuous
370
    -3
390
F
  0
LAYER
  5
133
330
2
100
AcDbSymbolTableRecord
100
AcDbLayerTableRecord
  2
Layer238
 70
     0
 62
     7
  6
Continuous
370
    -3
390
F
  0
LAYER
  5
134
330
2
100
AcDbSymbolTableRecord
100
AcDbLayerTableRecord
  2
Layer239
 70
     0
 62
     7
  6
Continuous
370
    -3
390
F
  0
LAYER
  5
135
330
2
100
AcDbSymbolTableRecord
100
AcDbLayerTableRecord
  2
Layer240
 70
     0
 62
     7
  6
Continuous
370
    -3
390
F
  0
LAYER
  5
136
330
2
100
AcDbSymbolTableRecord
100
AcDbLayerTableRecord
  2
Layer241
 70
     0
 62
     7
  6
Continuous
370
    -3
390
F
  0
LAYER
  5
137
330
2
100
AcDbSymbolTableRecord
100
AcDbLayerTableRecord
  2
Layer242
 70
     0
 62
     7
  6
Continuous
370
    -3
390
F
  0
LAYER
  5
138
330
2
100
AcDbSymbolTableRecord
100
AcDbLayerTableRecord
  2
Layer243
 70
     0
 62
     7
  6
Continuous
370
    -3
390
F
  0
LAYER
  5
139
330
2
100
AcDbSymbolTableRecord
100
AcDbLayerTableRecord
  2
Layer244
 70
     0
 62
     7
  6
Continuous
370
    -3
390
F
  0
LAYER
  5
13A
330
2
100
AcDbSymbolTableRecord
100
AcDbLayerTableRecord
  2
Layer245
 70
     0
 62
     7
  6
Continuous
370
    -3
390
F
  0
LAYER
  5
13B
330
2
100
AcDbSymbolTableRecord
100
AcDbLayerTableRecord
  2
Layer246
 70
     0
 62
     7
  6
Continuous
370
    -3
390
F
  0
LAYER
  5
13C
330
2
100
AcDbSymbolTableRecord
100
AcDbLayerTableRecord
  2
Layer247
 70
     0
 62
     7
  6
Continuous
370
    -3
390
F
  0
LAYER
  5
13D
330
2
100
AcDbSymbolTableRecord
100
AcDbLayerTableRecord
  2
Layer248
 70
     0
 62
     7
  6
Continuous
370
    -3
390
F
  0
LAYER
  5
13E
330
2
100
AcDbSymbolTableRecord
100
AcDbLayerTableRecord
  2
Layer249
 70
     0
 62
     7
  6
Continuous
370
    -3
390
F
  0
LAYER
  5
13F
330
2
100
AcDbSymbolTableRecord
100
AcDbLayerTableRecord
  2
Layer250
 70
     0
 62
     7
  6
Continuous
370
    -3
390
F
  0
LAYER
  5
140
330
2
100
AcDbSymbolTableRecord
100
AcDbLayerTableRecord
  2
Layer251
 70
     0
 62
     7
  6
Continuous
370
    -3
390
F
  0
LAYER
  5
141
330
2
100
AcDbSymbolTableRecord
100
AcDbLayerTableRecord
  2
Layer252
 70
     0
 62
     7
  6
Continuous
370
    -3
390
F
  0
LAYER
  5
142
330
2
100
AcDbSymbolTableRecord
100
AcDbLayerTableRecord
  2
Layer253
 70
     0
 62
     7
  6
Continuous
370
    -3
390
F
  0
LAYER
  5
143
330
2
100
AcDbSymbolTableRecord
100
AcDbLayerTableRecord
  2
Layer254
 70
     0
 62
     7
  6
Continuous
370
    -3
390
F
  0
LAYER
  5
144
330
2
100
AcDbSymbolTableRecord
100
AcDbLayerTableRecord
  2
Layer255
 70
     0
 62
     7
  6
Continuous
370
    -3
390
F
  0
ENDTAB
  0
TABLE
  2
STYLE
  5
3
330
0
100
AcDbSymbolTable
 70
     4
  0
STYLE
  5
11
330
3
100
AcDbSymbolTableRecord
100
AcDbTextStyleTableRecord
  2
Standard
 70
     0
 40
0.0
 41
1.0
 50
0.0
 71
     0
 42
2.5
  3
txt
  4

  0
STYLE
  5
41
330
3
100
AcDbSymbolTableRecord
100
AcDbTextStyleTableRecord
  2
Arial
 70
     0
 40
0.0
 41
1.0
 50
0.0
 71
     0
 42
0.2
  3
arial.ttf
  4

1001
ACAD
1000
Arial
1071
       34
  0
STYLE
  5
42
330
3
100
AcDbSymbolTableRecord
100
AcDbTextStyleTableRecord
  2
Arial Black
 70
     0
 40
0.0
 41
1.0
 50
0.0
 71
     0
 42
0.2
  3
ariblk.ttf
  4

1001
ACAD
1000
Arial Black
1071
       34
  0
STYLE
  5
44
330
3
100
AcDbSymbolTableRecord
100
AcDbTextStyleTableRecord
  2
Toleranzfont
 70
     0
 40
0.0
 41
1.0
 50
0.0
 71
     0
 42
0.2
  3
IGES1003.SHX
  4

  0
ENDTAB
  0
TABLE
  2
VIEW
  5
6
330
0
100
AcDbSymbolTable
 70
     0
  0
ENDTAB
  0
TABLE
  2
UCS
  5
7
330
0
100
AcDbSymbolTable
 70
     0
  0
ENDTAB
  0
TABLE
  2
APPID
  5
9
330
0
100
AcDbSymbolTable
 70
     1
  0
APPID
  5
12
330
9
100
AcDbSymbolTableRecord
100
AcDbRegAppTableRecord
  2
ACAD
 70
     0
  0
ENDTAB
  0
TABLE
  2
DIMSTYLE
  5
A
330
0
100
AcDbSymbolTable
 70
     1
100
AcDbDimStyleTable
  0
DIMSTYLE
105
27
102
{ACAD_REACTORS
330
454
330
46B
330
479
330
48B
330
499
330
4B0
330
4F7
330
507
330
515
330
526
102
}
330
A
100
AcDbSymbolTableRecord
100
AcDbDimStyleTableRecord
  2
ISO-25
 70
     0
 41
2.5
 42
0.625
 43
3.75
 44
1.25
 73
     0
 74
     0
 77
     1
 78
     8
140
2.5
141
2.5
143
0.03937007874
147
0.625
171
     3
172
     1
178
     0
271
     2
272
     2
274
     3
278
    44
283
     0
284
     8
340
11
  0
ENDTAB
  0
TABLE
  2
BLOCK_RECORD
  5
1
330
0
100
AcDbSymbolTable
 70
    21
  0
BLOCK_RECORD
  5
1F
330
1
100
AcDbSymbolTableRecord
100
AcDbBlockTableRecord
  2
*Model_Space
340
22
  0
BLOCK_RECORD
  5
1B
330
1
100
AcDbSymbolTableRecord
100
AcDbBlockTableRecord
  2
*Paper_Space
340
1E
  0
BLOCK_RECORD
  5
23
330
1
100
AcDbSymbolTableRecord
100
AcDbBlockTableRecord
  2
*Paper_Space0
340
26
  0
BLOCK_RECORD
  5
145
330
1
100
AcDbSymbolTableRecord
100
AcDbBlockTableRecord
  2
A4_nNn00
340
0
102
{BLKREFS
331
19C
102
}
  0
BLOCK_RECORD
  5
150
330
1
100
AcDbSymbolTableRecord
100
AcDbBlockTableRecord
  2
Schriftfeld_nNn01
340
0
102
{BLKREFS
331
19B
102
}
  0
BLOCK_RECORD
  5
17C
330
1
100
AcDbSymbolTableRecord
100
AcDbBlockTableRecord
  2
ULTRAREFLEX_nNn02
340
0
102
{BLKREFS
331
194
102
}
  0
BLOCK_RECORD
  5
19F
330
1
100
AcDbSymbolTableRecord
100
AcDbBlockTableRecord
  2
teat_nNn03
340
0
102
{BLKREFS
331
1A4
102
}
  0
BLOCK_RECORD
  5
1A9
330
1
100
AcDbSymbolTableRecord
100
AcDbBlockTableRecord
  2
L1_nNn04
340
0
102
{BLKREFS
331
43A
102
}
  0
BLOCK_RECORD
  5
1B2
330
1
100
AcDbSymbolTableRecord
100
AcDbBlockTableRecord
  2
SECHSK1_nNn05
340
0
102
{BLKREFS
331
435
102
}
  0
BLOCK_RECORD
  5
445
330
1
100
AcDbSymbolTableRecord
100
AcDbBlockTableRecord
  2
*D7
340
0
  0
BLOCK_RECORD
  5
455
330
1
100
AcDbSymbolTableRecord
100
AcDbBlockTableRecord
  2
_CLOSED
340
0
  0
BLOCK_RECORD
  5
45C
330
1
100
AcDbSymbolTableRecord
100
AcDbBlockTableRecord
  2
*D9
340
0
  0
BLOCK_RECORD
  5
46C
330
1
100
AcDbSymbolTableRecord
100
AcDbBlockTableRecord
  2
*D10
340
0
  0
BLOCK_RECORD
  5
47A
330
1
100
AcDbSymbolTableRecord
100
AcDbBlockTableRecord
  2
*D11
340
0
  0
BLOCK_RECORD
  5
48C
330
1
100
AcDbSymbolTableRecord
100
AcDbBlockTableRecord
  2
*D12
340
0
  0
BLOCK_RECORD
  5
49C
330
1
100
AcDbSymbolTableRecord
100
AcDbBlockTableRecord
  2
*D13
340
0
  0
BLOCK_RECORD
  5
4B1
330
1
100
AcDbSymbolTableRecord
100
AcDbBlockTableRecord
  2
ingrid1_nNn012
340
0
102
{BLKREFS
331
4C7
102
}
  0
BLOCK_RECORD
  5
4E4
330
1
100
AcDbSymbolTableRecord
100
AcDbBlockTableRecord
  2
*D15
340
0
  0
BLOCK_RECORD
  5
4F8
330
1
100
AcDbSymbolTableRecord
100
AcDbBlockTableRecord
  2
*D16
340
0
  0
BLOCK_RECORD
  5
508
330
1
100
AcDbSymbolTableRecord
100
AcDbBlockTableRecord
  2
*D17
340
0
  0
BLOCK_RECORD
  5
516
330
1
100
AcDbSymbolTableRecord
100
AcDbBlockTableRecord
  2
*D18
340
0
  0
BLOCK_RECORD
  5
52B
330
1
100
AcDbSymbolTableRecord
100
AcDbBlockTableRecord
  2
Reflexwerte_nNn017
340
0
102
{BLKREFS
331
52F
102
}
  0
BLOCK_RECORD
  5
530
330
1
100
AcDbSymbolTableRecord
100
AcDbBlockTableRecord
  2
QS_nNn018
340
0
102
{BLKREFS
331
536
102
}
  0
ENDTAB
  0
ENDSEC
  0
SECTION
  2
BLOCKS
  0
BLOCK
  5
20
330
1F
100
AcDbEntity
  8
0
100
AcDbBlockBegin
  2
*Model_Space
 70
     0
 10
0.0
 20
0.0
 30
0.0
  3
*Model_Space
  1

  0
ENDBLK
  5
21
330
1F
100
AcDbEntity
  8
0
100
AcDbBlockEnd
  0
BLOCK
  5
1C
330
1B
100
AcDbEntity
 67
     1
  8
0
100
AcDbBlockBegin
  2
*Paper_Space
 70
     0
 10
0.0
 20
0.0
 30
0.0
  3
*Paper_Space
  1

  0
ENDBLK
  5
1D
330
1B
100
AcDbEntity
 67
     1
  8
0
100
AcDbBlockEnd
  0
BLOCK
  5
24
330
23
100
AcDbEntity
  8
0
100
AcDbBlockBegin
  2
*Paper_Space0
 70
     0
 10
0.0
 20
0.0
 30
0.0
  3
*Paper_Space0
  1

  0
ENDBLK
  5
25
330
23
100
AcDbEntity
  8
0
100
AcDbBlockEnd
  0
BLOCK
  5
146
330
145
100
AcDbEntity
  8
0
100
AcDbBlockBegin
  2
A4_nNn00
 70
     0
 10
0.0
 20
0.0
 30
0.0
  3
A4_nNn00
  1

  0
LINE
  5
148
330
145
100
AcDbEntity
  8
Layer99
  6
AUSGEZOGEN
 62
     9
370
    18
100
AcDbLine
 10
157.084215064671
 20
9.006591877078
 30
0.0
 11
345.084215064671
 21
9.006591877078
 31
0.0
  0
LINE
  5
149
330
145
100
AcDbEntity
  8
Layer99
  6
AUSGEZOGEN
 62
     9
370
    18
100
AcDbLine
 10
345.084215064671
 20
9.006591877078
 30
0.0
 11
345.084215064671
 21
278.786591877078
 31
0.0
  0
LINE
  5
14A
330
145
100
AcDbEntity
  8
Layer0
  6
AUSGEZOGEN
 62
     9
370
    18
100
AcDbLine
 10
157.084215064671
 20
9.006591877078
 30
0.0
 11
157.084215064671
 21
278.786591877078
 31
0.0
  0
LINE
  5
14B
330
145
100
AcDbEntity
  8
Layer0
  6
AUSGEZOGEN
 62
     9
370
    18
100
AcDbLine
 10
157.084215064671
 20
278.786591877078
 30
0.0
 11
345.084215064671
 21
278.786591877078
 31
0.0
  0
LINE
  5
14C
330
145
100
AcDbEntity
  8
Layer0
  6
AUSGEZOGEN
 62
    56
370
    18
100
AcDbLine
 10
152.384215064671
 20
283.486591877078
 30
0.0
 11
349.784215064671
 21
283.486591877078
 31
0.0
  0
LINE
  5
14D
330
145
100
AcDbEntity
  8
Layer0
  6
AUSGEZOGEN
 62
    56
370
    18
100
AcDbLine
 10
152.384215064671
 20
4.306591877078
 30
0.0
 11
152.384215064671
 21
283.486591877078
 31
0.0
  0
LINE
  5
14E
330
145
100
AcDbEntity
  8
Layer0
  6
AUSGEZOGEN
 62
    56
370
    18
100
AcDbLine
 10
152.384215064671
 20
4.306591877078
 30
0.0
 11
349.784215064671
 21
4.306591877078
 31
0.0
  0
LINE
  5
14F
330
145
100
AcDbEntity
  8
Layer0
  6
AUSGEZOGEN
 62
    56
370
    18
100
AcDbLine
 10
349.784215064671
 20
4.306591877078
 30
0.0
 11
349.784215064671
 21
283.486591877078
 31
0.0
  0
INSERT
  5
19B
330
145
100
AcDbEntity
  8
0
100
AcDbBlockReference
  2
Schriftfeld_nNn01
 10
0.0
 20
0.0
 30
0.0
  0
ENDBLK
  5
147
330
145
100
AcDbEntity
  8
0
100
AcDbBlockEnd
  0
BLOCK
  5
151
330
150
100
AcDbEntity
  8
0
100
AcDbBlockBegin
  2
Schriftfeld_nNn01
 70
     0
 10
0.0
 20
0.0
 30
0.0
  3
Schriftfeld_nNn01
  1

  0
LINE
  5
153
330
150
100
AcDbEntity
  8
Layer99
  6
AUSGEZOGEN
 62
    56
370
    18
100
AcDbLine
 10
232.284215064671
 20
44.961591877078
 30
0.0
 11
232.284215064671
 21
28.981591877078
 31
0.0
  0
LINE
  5
154
330
150
100
AcDbEntity
  8
Layer99
  6
AUSGEZOGEN
 62
    56
370
    18
100
AcDbLine
 10
178.516260963108
 20
44.961591877078
 30
0.0
 11
178.516260963108
 21
9.006591877078
 31
0.0
  0
LINE
  5
155
330
150
100
AcDbEntity
  8
Layer99
  6
AUSGEZOGEN
 62
     9
370
    18
100
AcDbLine
 10
332.864215064671
 20
24.986591877078
 30
0.0
 11
332.864215064671
 21
13.565594028568
 31
0.0
  0
LINE
  5
156
330
150
100
AcDbEntity
  8
Layer99
  6
AUSGEZOGEN
 62
    56
370
    18
100
AcDbLine
 10
222.508192115452
 20
13.001591877078
 30
0.0
 11
171.184215064671
 21
13.001591877078
 31
0.0
  0
LINE
  5
157
330
150
100
AcDbEntity
  8
Layer99
  6
AUSGEZOGEN
 62
    56
370
    18
100
AcDbLine
 10
222.508192115452
 20
16.996591877078
 30
0.0
 11
171.184215064671
 21
16.996591877078
 31
0.0
  0
LINE
  5
158
330
150
100
AcDbEntity
  8
Layer99
  6
AUSGEZOGEN
 62
    56
370
    18
100
AcDbLine
 10
222.508192115452
 20
20.991591877078
 30
0.0
 11
171.184215064671
 21
20.991591877078
 31
0.0
  0
LINE
  5
159
330
150
100
AcDbEntity
  8
Layer99
  6
AUSGEZOGEN
 62
    56
370
    18
100
AcDbLine
 10
222.508192115452
 20
24.986591877078
 30
0.0
 11
171.184215064671
 21
24.986591877078
 31
0.0
  0
LINE
  5
15A
330
150
100
AcDbEntity
  8
Layer99
  6
AUSGEZOGEN
 62
     9
370
    18
100
AcDbLine
 10
345.084215064671
 20
24.986591877078
 30
0.0
 11
222.508192115452
 21
24.986591877078
 31
0.0
  0
LINE
  5
15B
330
150
100
AcDbEntity
  8
Layer99
  6
AUSGEZOGEN
 62
    56
370
    18
100
AcDbLine
 10
264.056260963108
 20
28.981591877078
 30
0.0
 11
171.184215064671
 21
28.981591877078
 31
0.0
  0
LINE
  5
15C
330
150
100
AcDbEntity
  8
Layer99
  6
AUSGEZOGEN
 62
    56
370
    18
100
AcDbLine
 10
264.056260963108
 20
32.976591877078
 30
0.0
 11
171.184215064671
 21
32.976591877078
 31
0.0
  0
LINE
  5
15D
330
150
100
AcDbEntity
  8
Layer99
  6
AUSGEZOGEN
 62
    56
370
    18
100
AcDbLine
 10
264.056260963108
 20
36.971591877078
 30
0.0
 11
171.184215064671
 21
36.971591877078
 31
0.0
  0
LINE
  5
15E
330
150
100
AcDbEntity
  8
Layer99
  6
AUSGEZOGEN
 62
    56
370
    18
100
AcDbLine
 10
264.056260963108
 20
40.966591877078
 30
0.0
 11
171.184215064671
 21
40.966591877078
 31
0.0
  0
LINE
  5
15F
330
150
100
AcDbEntity
  8
Layer99
  6
AUSGEZOGEN
 62
     9
370
    18
100
AcDbLine
 10
345.084215064671
 20
44.961591877078
 30
0.0
 11
171.184215064671
 21
44.961591877078
 31
0.0
  0
LINE
  5
160
330
150
100
AcDbEntity
  8
Layer99
  6
AUSGEZOGEN
 62
    56
370
    18
100
AcDbLine
 10
222.508192115452
 20
54.949091877078
 30
0.0
 11
171.184215064671
 21
54.949091877078
 31
0.0
  0
LINE
  5
161
330
150
100
AcDbEntity
  8
Layer99
  6
AUSGEZOGEN
 62
    56
370
    18
100
AcDbLine
 10
345.084215064671
 20
54.949091877078
 30
0.0
 11
264.056260963108
 21
54.949091877078
 31
0.0
  0
LINE
  5
162
330
150
100
AcDbEntity
  8
Layer99
  6
AUSGEZOGEN
 62
    56
370
    18
100
AcDbLine
 10
310.868192115452
 20
60.941591877078
 30
0.0
 11
310.868192115452
 21
54.949091877078
 31
0.0
  0
LINE
  5
163
330
150
100
AcDbEntity
  8
Layer99
  6
AUSGEZOGEN
 62
     9
370
    18
100
AcDbLine
 10
264.056260963108
 20
60.941591877078
 30
0.0
 11
264.056260963108
 21
13.565594028568
 31
0.0
  0
LINE
  5
164
330
150
100
AcDbEntity
  8
Layer99
  6
AUSGEZOGEN
 62
    56
370
    18
100
AcDbLine
 10
246.948192115452
 20
44.961591877078
 30
0.0
 11
246.948192115452
 21
24.986591877078
 31
0.0
  0
LINE
  5
165
330
150
100
AcDbEntity
  8
Layer99
  6
AUSGEZOGEN
 62
     9
370
    18
100
AcDbLine
 10
222.508192115452
 20
60.941591877078
 30
0.0
 11
222.508192115452
 21
9.006591877078
 31
0.0
  0
LINE
  5
166
330
150
100
AcDbEntity
  8
Layer99
  6
AUSGEZOGEN
 62
     9
370
    18
100
AcDbLine
 10
171.184215064671
 20
60.941591877078
 30
0.0
 11
171.184215064671
 21
9.006591877078
 31
0.0
  0
LINE
  5
167
330
150
100
AcDbEntity
  8
Layer99
  6
AUSGEZOGEN
 62
     9
370
    18
100
AcDbLine
 10
345.084215064671
 20
60.941591877078
 30
0.0
 11
171.184215064671
 21
60.941591877078
 31
0.0
  0
TEXT
  5
168
330
150
100
AcDbEntity
  8
Layer99
  6
AUSGEZOGEN
 62
    56
370
    18
100
AcDbText
 10
223.163621802952
 20
37.864902408695
 30
0.0
 40
1.88
  1
Bearb. 28.05.03   MS
 41
1.267237127053
  7
Arial
 72
     5
 11
254.587554289915
 21
37.864902408695
 31
0.0
100
AcDbText
  0
TEXT
  5
169
330
150
100
AcDbEntity
  8
Layer99
  6
AUSGEZOGEN
 62
    56
370
    18
100
AcDbText
 10
223.381065650608
 20
33.948618229007
 30
0.0
 40
1.88
  1
Gepr.
 41
1.215533862924
  7
Arial
 72
     5
 11
231.358711635687
 21
33.948618229007
 31
0.0
100
AcDbText
  0
TEXT
  5
16A
330
150
100
AcDbEntity
  8
Layer99
  6
AUSGEZOGEN
 62
    56
370
    18
100
AcDbText
 10
223.381065650608
 20
29.81477545557
 30
0.0
 40
1.88
  1
Norm
 41
1.171328125812
  7
Arial
 72
     5
 11
230.894620193317
 21
29.81477545557
 31
0.0
100
AcDbText
  0
TEXT
  5
16B
330
150
100
AcDbEntity
  8
Layer99
  6
AUSGEZOGEN
 62
    56
370
    18
100
AcDbText
 10
334.687759986546
 20
21.932172779178
 30
0.0
 40
2.35
  1
Blatt
 41
1.26499927539
  7
Arial
 72
     5
 11
342.990645980533
 21
21.932172779178
 31
0.0
100
AcDbText
  0
TEXT
  5
16C
330
150
100
AcDbEntity
  8
Layer0
  6
AUSGEZOGEN
 62
   136
370
    18
100
AcDbText
 10
225.365255103733
 20
56.708479389285
 30
0.0
 40
2.35
  1
Allgemeintoleranzen
 41
1.263559891189
  7
Arial
 72
     5
 11
262.912884940322
 21
56.708479389285
 31
0.0
100
AcDbText
  0
TEXT
  5
16D
330
150
100
AcDbEntity
  8
Layer0
  6
AUSGEZOGEN
 62
   136
370
    18
100
AcDbText
 10
224.711776099827
 20
52.350738300418
 30
0.0
 40
2.35
  1
Nach: TG4
 41
1.223038375192
  7
Arial
 72
     5
 11
244.109348186132
 21
52.350738300418
 31
0.0
100
AcDbText
  0
TEXT
  5
16E
330
150
100
AcDbEntity
  8
Layer0
  6
AUSGEZOGEN
 62
   136
370
    18
100
AcDbText
 10
224.869896217015
 20
47.992982868289
 30
0.0
 40
2.35
  1
DIN: 16742
 41
1.239741037486
  7
Arial
 72
     5
 11
245.43843976995
 21
47.992982868289
 31
0.0
100
AcDbText
  0
TEXT
  5
16F
330
150
100
AcDbEntity
  8
Layer0
  6
AUSGEZOGEN
 62
    56
370
    18
100
AcDbText
 10
312.38398801389
 20
56.926367878055
 30
0.0
 40
2.35
  1
Gewicht:
 41
1.240831402125
  7
Arial
 72
     5
 11
328.217617120709
 21
56.926367878055
 31
0.0
100
AcDbText
  0
TEXT
  5
170
330
150
100
AcDbEntity
  8
Layer0
  6
AUSGEZOGEN
 62
    56
370
    18
100
AcDbText
 10
265.290814185765
 20
56.946290668582
 30
0.0
 40
2.35
  1
Maßstab: 1:1
 41
1.251587148984
  7
Arial
 72
     5
 11
289.250072137471
 21
56.946290668582
 31
0.0
100
AcDbText
  0
TEXT
  5
171
330
150
100
AcDbEntity
  8
Layer0
  6
AUSGEZOGEN
 62
    56
370
    18
100
AcDbText
 10
172.312283912327
 20
56.946591877078
 30
0.0
 40
2.35
  1
Schwindung:
 41
1.234746274162
  7
Arial
 72
     5
 11
195.499398982879
 21
56.946591877078
 31
0.0
100
AcDbText
  0
TEXT
  5
172
330
150
100
AcDbEntity
  8
Layer0
  6
AUSGEZOGEN
 62
    56
370
    18
100
AcDbText
 10
172.425653052952
 20
51.065969318485
 30
0.0
 40
2.35
  1
Diese Zeichnung darf nur
 41
1.271210741346
  7
Arial
 72
     5
 11
219.240340342876
 21
51.065969318485
 31
0.0
100
AcDbText
  0
TEXT
  5
173
330
150
100
AcDbEntity
  8
Layer0
  6
AUSGEZOGEN
 62
    56
370
    18
100
AcDbText
 10
172.425653052952
 20
47.305969262456
 30
0.0
 40
2.35
  1
mit CAD geändert werden
 41
1.255342283876
  7
Arial
 72
     5
 11
219.797626079973
 21
47.305969262456
 31
0.0
100
AcDbText
  0
LINE
  5
174
330
150
100
AcDbEntity
  8
Layer99
  6
AUSGEZOGEN
 62
    56
370
    18
100
AcDbLine
 10
345.084215064671
 20
13.565594028568
 30
0.0
 11
264.056260963108
 21
13.565594028568
 31
0.0
  0
LINE
  5
175
330
150
100
AcDbEntity
  8
Layer99
  6
AUSGEZOGEN
 62
    56
370
    18
100
AcDbLine
 10
345.084215064671
 20
17.560594028568
 30
0.0
 11
332.864215064671
 21
17.560594028568
 31
0.0
  0
TEXT
  5
176
330
150
100
AcDbEntity
  8
Layer99
  6
AUSGEZOGEN
 62
    56
370
    18
100
AcDbText
 10
339.800272193577
 20
14.459638218021
 30
0.0
 40
2.35
  1
Bl.
 41
1.229150265254
  7
Arial
 72
     5
 11
344.505643781509
 21
14.459638218021
 31
0.0
100
AcDbText
  0
LINE
  5
177
330
150
100
AcDbEntity
  8
Layer99
  6
AUSGEZOGEN
 62
    56
370
    18
100
AcDbLine
 10
264.056260963108
 20
13.565594028568
 30
0.0
 11
222.508192115452
 21
13.565594028568
 31
0.0
  0
LINE
  5
178
330
150
100
AcDbEntity
  8
Layer99
  6
AUSGEZOGEN
 62
    56
370
    18
100
AcDbLine
 10
206.810008521702
 20
44.961591877078
 30
0.0
 11
206.810008521702
 21
9.006591877078
 31
0.0
  0
TEXT
  5
179
330
150
100
AcDbEntity
  8
Layer50
  6
AUSGEZOGEN
 62
   136
370
    18
100
AcDbText
 10
175.258791480687
 20
13.864223964786
 30
0.0
 40
1.88
  1
-  ---
 41
1.340992890965
  7
Arial
 72
     5
 11
181.904323130586
 21
13.864223964786
 31
0.0
100
AcDbText
  0
TEXT
  5
17A
330
150
100
AcDbEntity
  8
Layer50
  6
AUSGEZOGEN
 62
   136
370
    18
100
AcDbText
 10
207.030435767796
 20
14.094528339481
 30
0.0
 40
1.88
  1
--.--.--/--
 41
1.366444411798
  7
Arial
 72
     5
 11
219.577019041374
 21
14.094528339481
 31
0.0
100
AcDbText
  0
TEXT
  5
17B
330
150
100
AcDbEntity
  8
Layer0
  6
AUSGEZOGEN
 62
    56
370
    18
100
AcDbText
 10
223.678258033421
 20
10.036006425952
 30
0.0
 40
2.35
  1
Schutzvermerk nach DIN 34 beachten .        Copyright reserved
 41
1.286227457357
  7
Arial
 72
     5
 11
342.331776304033
 21
10.036006425952
 31
0.0
100
AcDbText
  0
INSERT
  5
194
330
150
100
AcDbEntity
  8
0
100
AcDbBlockReference
  2
ULTRAREFLEX_nNn02
 10
0.0
 20
0.0
 30
0.0
  0
TEXT
  5
195
330
150
100
AcDbEntity
  8
Layer50
  6
AUSGEZOGEN
 62
   136
370
    18
100
AcDbText
 10
266.079643361782
 20
26.203178761679
 30
0.0
 40
1.88
  1
---
 41
1.259600656861
  7
Arial
 72
     5
 11
269.383072044466
 21
26.203178761679
 31
0.0
100
AcDbText
  0
TEXT
  5
196
330
150
100
AcDbEntity
  8
Layer99
  6
AUSGEZOGEN
 62
    56
370
    18
100
AcDbText
 10
207.31409060616
 20
9.940293013944
 30
0.0
 40
1.88
  1
Dat./Nam.
 41
1.239717192527
  7
Arial
 72
     5
 11
221.957679672975
 21
9.940293013944
 31
0.0
100
AcDbText
  0
TEXT
  5
197
330
150
100
AcDbEntity
  8
Layer99
  6
AUSGEZOGEN
 62
    56
370
    18
100
AcDbText
 10
171.369250624685
 20
9.936030819141
 30
0.0
 40
1.88
  1
Zust.
 41
1.239906123597
  7
Arial
 72
     5
 11
178.602416583542
 21
9.936030819141
 31
0.0
100
AcDbText
  0
TEXT
  5
198
330
150
100
AcDbEntity
  8
Layer0
  6
AUSGEZOGEN
 62
    56
370
    18
100
AcDbText
 10
233.836824543951
 20
41.772984394168
 30
0.0
 40
2.35
  1
Datum
 41
1.188171149402
  7
Arial
 72
     5
 11
245.315567792652
 21
41.772984394168
 31
0.0
100
AcDbText
  0
TEXT
  5
199
330
150
100
AcDbEntity
  8
Layer0
  6
AUSGEZOGEN
 62
    56
370
    18
100
AcDbText
 10
250.442102941063
 20
41.780839706207
 30
0.0
 40
2.35
  1
Name
 41
1.15958716227
  7
Arial
 72
     5
 11
260.587389003125
 21
41.780839706207
 31
0.0
100
AcDbText
  0
TEXT
  5
19A
330
150
100
AcDbEntity
  8
Layer99
  6
AUSGEZOGEN
 62
    56
370
    18
100
AcDbText
 10
179.856774841142
 20
9.936254480896
 30
0.0
 40
1.88
  1
Änderung
 41
1.218204176926
  7
Arial
 72
     5
 11
193.717209597207
 21
9.936254480896
 31
0.0
100
AcDbText
  0
ENDBLK
  5
152
330
150
100
AcDbEntity
  8
0
100
AcDbBlockEnd
  0
BLOCK
  5
17D
330
17C
100
AcDbEntity
  8
0
100
AcDbBlockBegin
  2
ULTRAREFLEX_nNn02
 70
     0
 10
0.0
 20
0.0
 30
0.0
  3
ULTRAREFLEX_nNn02
  1

  0
LINE
  5
17F
330
17C
100
AcDbEntity
  8
Layer0
  6
AUSGEZOGEN
 62
    30
370
    18
100
AcDbLine
 10
261.05819783085
 20
22.019503966495
 30
0.0
 11
258.198120067339
 21
22.019503966495
 31
0.0
  0
LINE
  5
180
330
17C
100
AcDbEntity
  8
Layer0
  6
AUSGEZOGEN
 62
    30
370
    18
100
AcDbLine
 10
257.921338348289
 20
21.859703966495
 30
0.0
 11
256.491299466533
 21
19.382803966495
 31
0.0
  0
LINE
  5
181
330
17C
100
AcDbEntity
  8
Layer0
  6
AUSGEZOGEN
 62
    30
370
    18
100
AcDbLine
 10
256.491299466533
 20
19.063203966495
 30
0.0
 11
257.921338348289
 21
16.586303966495
 31
0.0
  0
LINE
  5
182
330
17C
100
AcDbEntity
  8
Layer0
  6
AUSGEZOGEN
 62
    30
370
    18
100
AcDbLine
 10
258.198120067339
 20
16.426503966495
 30
0.0
 11
261.05819783085
 21
16.426503966495
 31
0.0
  0
LINE
  5
183
330
17C
100
AcDbEntity
  8
Layer0
  6
AUSGEZOGEN
 62
    30
370
    18
100
AcDbLine
 10
261.3349795499
 20
16.586303966495
 30
0.0
 11
262.765018431656
 21
19.063203966495
 31
0.0
  0
LINE
  5
184
330
17C
100
AcDbEntity
  8
Layer0
  6
AUSGEZOGEN
 62
    30
370
    18
100
AcDbLine
 10
262.765018431656
 20
19.382803966495
 30
0.0
 11
261.3349795499
 21
21.859703966495
 31
0.0
  0
LINE
  5
185
330
17C
100
AcDbEntity
  8
Layer0
  6
AUSGEZOGEN
 62
    30
370
    18
100
AcDbLine
 10
259.904940668144
 20
19.382803966495
 30
0.0
 11
262.765018431656
 21
19.382803966495
 31
0.0
  0
LINE
  5
186
330
17C
100
AcDbEntity
  8
Layer0
  6
AUSGEZOGEN
 62
    30
370
    18
100
AcDbLine
 10
256.491299466533
 20
19.382803966495
 30
0.0
 11
259.351377230045
 21
19.382803966495
 31
0.0
  0
LINE
  5
187
330
17C
100
AcDbEntity
  8
Layer0
  6
AUSGEZOGEN
 62
    30
370
    18
100
AcDbLine
 10
259.904940668144
 20
19.063203966495
 30
0.0
 11
262.765018431656
 21
19.063203966495
 31
0.0
  0
LINE
  5
188
330
17C
100
AcDbEntity
  8
Layer0
  6
AUSGEZOGEN
 62
    30
370
    18
100
AcDbLine
 10
256.491299466533
 20
19.063203966495
 30
0.0
 11
259.351377230045
 21
19.063203966495
 31
0.0
  0
LINE
  5
189
330
17C
100
AcDbEntity
  8
Layer0
  6
AUSGEZOGEN
 62
    30
370
    18
100
AcDbLine
 10
259.904940668144
 20
19.063203966495
 30
0.0
 11
261.3349795499
 21
16.586303966495
 31
0.0
  0
LINE
  5
18A
330
17C
100
AcDbEntity
  8
Layer0
  6
AUSGEZOGEN
 62
    30
370
    18
100
AcDbLine
 10
258.198120067339
 20
22.019503966495
 30
0.0
 11
259.628158949095
 21
19.542603966495
 31
0.0
  0
LINE
  5
18B
330
17C
100
AcDbEntity
  8
Layer0
  6
AUSGEZOGEN
 62
    30
370
    18
100
AcDbLine
 10
259.628158949095
 20
18.903403966495
 30
0.0
 11
261.05819783085
 21
16.426503966495
 31
0.0
  0
LINE
  5
18C
330
17C
100
AcDbEntity
  8
Layer0
  6
AUSGEZOGEN
 62
    30
370
    18
100
AcDbLine
 10
257.921338348289
 20
21.859703966495
 30
0.0
 11
259.351377230045
 21
19.382803966495
 31
0.0
  0
LINE
  5
18D
330
17C
100
AcDbEntity
  8
Layer0
  6
AUSGEZOGEN
 62
    30
370
    18
100
AcDbLine
 10
259.628158949095
 20
18.903403966495
 30
0.0
 11
258.198120067339
 21
16.426503966495
 31
0.0
  0
LINE
  5
18E
330
17C
100
AcDbEntity
  8
Layer0
  6
AUSGEZOGEN
 62
    30
370
    18
100
AcDbLine
 10
261.3349795499
 20
21.859703966495
 30
0.0
 11
259.904940668144
 21
19.382803966495
 31
0.0
  0
LINE
  5
18F
330
17C
100
AcDbEntity
  8
Layer0
  6
AUSGEZOGEN
 62
    30
370
    18
100
AcDbLine
 10
259.351377230045
 20
19.063203966495
 30
0.0
 11
257.921338348289
 21
16.586303966495
 31
0.0
  0
LINE
  5
190
330
17C
100
AcDbEntity
  8
Layer0
  6
AUSGEZOGEN
 62
    30
370
    18
100
AcDbLine
 10
261.05819783085
 20
22.019503966495
 30
0.0
 11
259.628158949095
 21
19.542603966495
 31
0.0
  0
HATCH
  5
191
330
17C
100
AcDbEntity
  8
Layer0
  6
AUSGEZOGEN
 62
    30
370
    18
100
AcDbHatch
 10
0.0
 20
0.0
 30
0.0
210
0.0
220
0.0
230
1.0
  2
SOLID
 70
     1
 71
     0
 91
        6
 92
        2
 72
     0
 73
     1
 93
        3
 10
259.351377230045
 20
19.06320396649548
 10
256.4912994665333
 20
19.06320396649548
 10
257.9213383482892
 20
16.58630396649549
 97
        0
 92
        2
 72
     0
 73
     1
 93
        3
 10
259.351377230045
 20
19.38280396649549
 10
257.9213383482892
 20
21.85970396649548
 10
256.4912994665333
 20
19.38280396649549
 97
        0
 92
        2
 72
     0
 73
     1
 93
        3
 10
259.6281589490945
 20
19.54260396649548
 10
261.0581978308502
 20
22.01950396649548
 10
258.1981200673387
 20
22.01950396649548
 97
        0
 92
        2
 72
     0
 73
     1
 93
        3
 10
259.904940668144
 20
19.38280396649549
 10
262.7650184316555
 20
19.38280396649549
 10
261.3349795498999
 20
21.85970396649545
 97
        0
 92
        2
 72
     0
 73
     1
 93
        3
 10
261.3349795498999
 20
16.58630396649547
 10
262.7650184316555
 20
19.06320396649548
 10
259.904940668144
 20
19.06320396649548
 97
        0
 92
        2
 72
     0
 73
     1
 93
        3
 10
259.6281589490945
 20
18.90340396649547
 10
258.1981200673387
 20
16.42650396649548
 10
261.0581978308502
 20
16.42650396649548
 97
        0
 75
     0
 76
     1
 98
        0
  0
TEXT
  5
192
330
17C
100
AcDbEntity
  8
Layer0
  6
AUSGEZOGEN
 62
     7
370
    70
100
AcDbText
 10
239.410469670154
 20
17.422769735981
 30
0.0
 40
3.6754
  1
REFLEX
 41
0.705366510959
  7
Arial Black
 72
     5
 11
255.110819670154
 21
17.422769735981
 31
0.0
100
AcDbText
  0
TEXT
  5
193
330
17C
100
AcDbEntity
  8
Layer0
  6
AUSGEZOGEN
 62
     7
370
    18
100
AcDbText
 10
223.911457632053
 20
17.59615497284
 30
0.0
 40
2.7965
  1
ULTRA
 41
1.159777722278
  7
Arial
 72
     5
 11
238.752882632053
 21
17.59615497284
 31
0.0
100
AcDbText
  0
ENDBLK
  5
17E
330
17C
100
AcDbEntity
  8
0
100
AcDbBlockEnd
  0
BLOCK
  5
1A0
330
19F
100
AcDbEntity
  8
0
100
AcDbBlockBegin
  2
teat_nNn03
 70
     0
 10
0.0
 20
0.0
 30
0.0
  3
teat_nNn03
  1

  0
TEXT
  5
1A2
330
19F
100
AcDbEntity
  8
Layer0
  6
AUSGEZOGEN
 62
    56
370
    18
100
AcDbText
 10
265.290814185765
 20
50.410094989871
 30
0.0
 40
2.35
  1
Werkstoff/Farbe: Reflektor PMMA glasklar
 41
1.275963231013
  7
Arial
 72
     5
 11
343.441073956992
 21
50.410094989871
 31
0.0
100
AcDbText
  0
TEXT
  5
1A3
330
19F
100
AcDbEntity
  8
Layer0
  6
AUSGEZOGEN
 62
    56
370
    18
100
AcDbText
 10
265.290814185765
 20
46.650094933843
 30
0.0
 40
2.35
  1
                        Halterung PMMA weiss
 41
1.329806485169
  7
Arial
 72
     5
 11
339.720016670342
 21
46.650094933843
 31
0.0
100
AcDbText
  0
ENDBLK
  5
1A1
330
19F
100
AcDbEntity
  8
0
100
AcDbBlockEnd
  0
BLOCK
  5
1AA
330
1A9
100
AcDbEntity
  8
0
100
AcDbBlockBegin
  2
L1_nNn04
 70
     0
 10
0.0
 20
0.0
 30
0.0
  3
L1_nNn04
  1

  0
LINE
  5
1AC
330
1A9
100
AcDbEntity
  8
Layer0
  6
DASHDOT
 62
    56
370
    18
100
AcDbLine
 10
248.755772224397
 20
204.738900258749
 30
0.0
 11
248.755772224397
 21
118.643267593743
 31
0.0
  0
LINE
  5
1AD
330
1A9
100
AcDbEntity
  8
Layer0
  6
DASHDOT
 62
    56
370
    18
100
AcDbLine
 10
234.629922443219
 20
161.912657618595
 30
0.0
 11
262.740949642608
 21
161.912657618595
 31
0.0
  0
LINE
  5
1AE
330
1A9
100
AcDbEntity
  8
Layer0
  6
AUSGEZOGEN
 62
     9
370
    18
100
AcDbLine
 10
259.755772224397
 20
191.012657618595
 30
0.0
 11
259.755772224397
 21
132.812657618595
 31
0.0
  0
LINE
  5
1AF
330
1A9
100
AcDbEntity
  8
Layer0
  6
AUSGEZOGEN
 62
     9
370
    18
100
AcDbLine
 10
237.755772224397
 20
191.012657618595
 30
0.0
 11
237.755772224397
 21
132.812657618595
 31
0.0
  0
LINE
  5
1B0
330
1A9
100
AcDbEntity
  8
Layer0
  6
AUSGEZOGEN
 62
     9
370
    18
100
AcDbLine
 10
237.505772224395
 20
132.812657618595
 30
0.0
 11
260.005772224398
 21
132.812657618595
 31
0.0
  0
LINE
  5
1B1
330
1A9
100
AcDbEntity
  8
Layer0
  6
AUSGEZOGEN
 62
     9
370
    18
100
AcDbLine
 10
237.505772224397
 20
191.012657618595
 30
0.0
 11
260.005772224397
 21
191.012657618595
 31
0.0
  0
INSERT
  5
435
330
1A9
100
AcDbEntity
  8
0
100
AcDbBlockReference
  2
SECHSK1_nNn05
 10
0.0
 20
0.0
 30
0.0
  0
LINE
  5
436
330
1A9
100
AcDbEntity
  8
Layer0
  6
AUSGEZOGEN
 62
   136
370
    18
100
AcDbLine
 10
239.51816999051
 20
188.912657618595
 30
0.0
 11
239.51816999051
 21
134.912657618595
 31
0.0
  0
LINE
  5
437
330
1A9
100
AcDbEntity
  8
Layer0
  6
AUSGEZOGEN
 62
   136
370
    18
100
AcDbLine
 10
257.993374458284
 20
188.912657618595
 30
0.0
 11
257.993374458284
 21
134.912657618595
 31
0.0
  0
LINE
  5
438
330
1A9
100
AcDbEntity
  8
Layer0
  6
AUSGEZOGEN
 62
   136
370
    18
100
AcDbLine
 10
239.51816999051
 20
188.912657618595
 30
0.0
 11
257.993374458284
 21
188.912657618595
 31
0.0
  0
LINE
  5
439
330
1A9
100
AcDbEntity
  8
Layer0
  6
AUSGEZOGEN
 62
   136
370
    18
100
AcDbLine
 10
239.51816999051
 20
134.912657618595
 30
0.0
 11
257.993374458284
 21
134.912657618595
 31
0.0
  0
ENDBLK
  5
1AB
330
1A9
100
AcDbEntity
  8
0
100
AcDbBlockEnd
  0
BLOCK
  5
1B3
330
1B2
100
AcDbEntity
  8
0
100
AcDbBlockBegin
  2
SECHSK1_nNn05
 70
     0
 10
0.0
 20
0.0
 30
0.0
  3
SECHSK1_nNn05
  1

  0
LINE
  5
1B5
330
1B2
100
AcDbEntity
  8
Layer0
  6
AUSGEZOGEN
 62
     9
370
    18
100
AcDbLine
 10
254.529263130159
 20
146.912657618595
 30
0.0
 11
255.683971992463
 21
148.912657618595
 31
0.0
  0
LINE
  5
1B6
330
1B2
100
AcDbEntity
  8
Layer0
  6
AUSGEZOGEN
 62
     9
370
    18
100
AcDbLine
 10
255.683971992463
 20
148.912657618595
 30
0.0
 11
254.529263130159
 21
150.912657618595
 31
0.0
  0
LINE
  5
1B7
330
1B2
100
AcDbEntity
  8
Layer0
  6
AUSGEZOGEN
 62
     9
370
    18
100
AcDbLine
 10
254.529263130159
 20
150.912657618595
 30
0.0
 11
252.219875923127
 21
150.912657618595
 31
0.0
  0
LINE
  5
1B8
330
1B2
100
AcDbEntity
  8
Layer0
  6
AUSGEZOGEN
 62
     9
370
    18
100
AcDbLine
 10
252.219875923127
 20
150.912657618595
 30
0.0
 11
251.065167060823
 21
148.912657618595
 31
0.0
  0
LINE
  5
1B9
330
1B2
100
AcDbEntity
  8
Layer0
  6
AUSGEZOGEN
 62
     9
370
    18
100
AcDbLine
 10
251.065167060823
 20
148.912657618595
 30
0.0
 11
252.219875923127
 21
146.912657618595
 31
0.0
  0
LINE
  5
1BA
330
1B2
100
AcDbEntity
  8
Layer0
  6
AUSGEZOGEN
 62
     9
370
    18
100
AcDbLine
 10
252.219875923127
 20
146.912657618595
 30
0.0
 11
254.529263130159
 21
146.912657618595
 31
0.0
  0
LINE
  5
1BB
330
1B2
100
AcDbEntity
  8
Stammform
  6
AUSGEZOGEN
 62
    56
370
    18
100
AcDbLine
 10
254.529263130159
 20
146.912657618595
 30
0.0
 11
253.374569526643
 21
148.912657618595
 31
0.0
  0
LINE
  5
1BC
330
1B2
100
AcDbEntity
  8
Stammform
  6
AUSGEZOGEN
 62
    56
370
    18
100
AcDbLine
 10
253.374569526643
 20
148.912657618595
 30
0.0
 11
251.065167060823
 21
148.912657618595
 31
0.0
  0
LINE
  5
1BD
330
1B2
100
AcDbEntity
  8
Stammform
  6
AUSGEZOGEN
 62
    56
370
    18
100
AcDbLine
 10
253.374569526643
 20
148.912657618595
 30
0.0
 11
254.529263130159
 21
150.912657618595
 31
0.0
  0
LINE
  5
1BE
330
1B2
100
AcDbEntity
  8
Stammform
  6
AUSGEZOGEN
 62
    56
370
    18
100
AcDbLine
 10
253.374569526643
 20
144.912657618595
 30
0.0
 11
254.529263130159
 21
146.912657618595
 31
0.0
  0
LINE
  5
1BF
330
1B2
100
AcDbEntity
  8
Stammform
  6
AUSGEZOGEN
 62
    56
370
    18
100
AcDbLine
 10
253.374569526643
 20
144.912657618595
 30
0.0
 11
251.065167060823
 21
144.912657618595
 31
0.0
  0
LINE
  5
1C0
330
1B2
100
AcDbEntity
  8
Stammform
  6
AUSGEZOGEN
 62
    56
370
    18
100
AcDbLine
 10
254.529263130159
 20
142.912657618595
 30
0.0
 11
253.374569526643
 21
144.912657618595
 31
0.0
  0
LINE
  5
1C1
330
1B2
100
AcDbEntity
  8
Layer0
  6
AUSGEZOGEN
 62
     9
370
    18
100
AcDbLine
 10
254.529263130159
 20
142.912657618595
 30
0.0
 11
255.683971992463
 21
144.912657618595
 31
0.0
  0
LINE
  5
1C2
330
1B2
100
AcDbEntity
  8
Layer0
  6
AUSGEZOGEN
 62
     9
370
    18
100
AcDbLine
 10
255.683971992463
 20
144.912657618595
 30
0.0
 11
254.529263130159
 21
146.912657618595
 31
0.0
  0
LINE
  5
1C3
330
1B2
100
AcDbEntity
  8
Layer0
  6
AUSGEZOGEN
 62
     9
370
    18
100
AcDbLine
 10
254.529263130159
 20
146.912657618595
 30
0.0
 11
252.219875923127
 21
146.912657618595
 31
0.0
  0
LINE
  5
1C4
330
1B2
100
AcDbEntity
  8
Layer0
  6
AUSGEZOGEN
 62
     9
370
    18
100
AcDbLine
 10
252.219875923127
 20
146.912657618595
 30
0.0
 11
251.065167060823
 21
144.912657618595
 31
0.0
  0
LINE
  5
1C5
330
1B2
100
AcDbEntity
  8
Layer0
  6
AUSGEZOGEN
 62
     9
370
    18
100
AcDbLine
 10
251.065167060823
 20
144.912657618595
 30
0.0
 11
252.219875923127
 21
142.912657618595
 31
0.0
  0
LINE
  5
1C6
330
1B2
100
AcDbEntity
  8
Layer0
  6
AUSGEZOGEN
 62
     9
370
    18
100
AcDbLine
 10
252.219875923127
 20
142.912657618595
 30
0.0
 11
254.529263130159
 21
142.912657618595
 31
0.0
  0
LINE
  5
1C7
330
1B2
100
AcDbEntity
  8
Layer0
  6
AUSGEZOGEN
 62
     9
370
    18
100
AcDbLine
 10
254.529263130159
 20
134.912657618595
 30
0.0
 11
255.683971992463
 21
136.912657618595
 31
0.0
  0
LINE
  5
1C8
330
1B2
100
AcDbEntity
  8
Layer0
  6
AUSGEZOGEN
 62
     9
370
    18
100
AcDbLine
 10
255.683971992463
 20
136.912657618595
 30
0.0
 11
254.529263130159
 21
138.912657618595
 31
0.0
  0
LINE
  5
1C9
330
1B2
100
AcDbEntity
  8
Layer0
  6
AUSGEZOGEN
 62
     9
370
    18
100
AcDbLine
 10
254.529263130159
 20
138.912657618595
 30
0.0
 11
252.219875923127
 21
138.912657618595
 31
0.0
  0
LINE
  5
1CA
330
1B2
100
AcDbEntity
  8
Layer0
  6
AUSGEZOGEN
 62
     9
370
    18
100
AcDbLine
 10
252.219875923127
 20
138.912657618595
 30
0.0
 11
251.065167060823
 21
136.912657618595
 31
0.0
  0
LINE
  5
1CB
330
1B2
100
AcDbEntity
  8
Layer0
  6
AUSGEZOGEN
 62
     9
370
    18
100
AcDbLine
 10
251.065167060823
 20
136.912657618595
 30
0.0
 11
252.219875923127
 21
134.912657618595
 31
0.0
  0
LINE
  5
1CC
330
1B2
100
AcDbEntity
  8
Stammform
  6
AUSGEZOGEN
 62
    56
370
    18
100
AcDbLine
 10
254.529263130159
 20
134.912657618595
 30
0.0
 11
253.374569526643
 21
136.912657618595
 31
0.0
  0
LINE
  5
1CD
330
1B2
100
AcDbEntity
  8
Stammform
  6
AUSGEZOGEN
 62
    56
370
    18
100
AcDbLine
 10
253.374569526643
 20
136.912657618595
 30
0.0
 11
251.065167060823
 21
136.912657618595
 31
0.0
  0
LINE
  5
1CE
330
1B2
100
AcDbEntity
  8
Stammform
  6
AUSGEZOGEN
 62
    56
370
    18
100
AcDbLine
 10
253.374569526643
 20
136.912657618595
 30
0.0
 11
254.529263130159
 21
138.912657618595
 31
0.0
  0
LINE
  5
1CF
330
1B2
100
AcDbEntity
  8
Stammform
  6
AUSGEZOGEN
 62
    56
370
    18
100
AcDbLine
 10
253.374569526643
 20
140.912657618595
 30
0.0
 11
254.529263130159
 21
142.912657618595
 31
0.0
  0
LINE
  5
1D0
330
1B2
100
AcDbEntity
  8
Stammform
  6
AUSGEZOGEN
 62
    56
370
    18
100
AcDbLine
 10
253.374569526643
 20
140.912657618595
 30
0.0
 11
251.065167060823
 21
140.912657618595
 31
0.0
  0
LINE
  5
1D1
330
1B2
100
AcDbEntity
  8
Stammform
  6
AUSGEZOGEN
 62
    56
370
    18
100
AcDbLine
 10
254.529263130159
 20
138.912657618595
 30
0.0
 11
253.374569526643
 21
140.912657618595
 31
0.0
  0
LINE
  5
1D2
330
1B2
100
AcDbEntity
  8
Layer0
  6
AUSGEZOGEN
 62
     9
370
    18
100
AcDbLine
 10
254.529263130159
 20
138.912657618595
 30
0.0
 11
255.683971992463
 21
140.912657618595
 31
0.0
  0
LINE
  5
1D3
330
1B2
100
AcDbEntity
  8
Layer0
  6
AUSGEZOGEN
 62
     9
370
    18
100
AcDbLine
 10
255.683971992463
 20
140.912657618595
 30
0.0
 11
254.529263130159
 21
142.912657618595
 31
0.0
  0
LINE
  5
1D4
330
1B2
100
AcDbEntity
  8
Layer0
  6
AUSGEZOGEN
 62
     9
370
    18
100
AcDbLine
 10
254.529263130159
 20
142.912657618595
 30
0.0
 11
252.219875923127
 21
142.912657618595
 31
0.0
  0
LINE
  5
1D5
330
1B2
100
AcDbEntity
  8
Layer0
  6
AUSGEZOGEN
 62
     9
370
    18
100
AcDbLine
 10
252.219875923127
 20
142.912657618595
 30
0.0
 11
251.065167060823
 21
140.912657618595
 31
0.0
  0
LINE
  5
1D6
330
1B2
100
AcDbEntity
  8
Layer0
  6
AUSGEZOGEN
 62
     9
370
    18
100
AcDbLine
 10
251.065167060823
 20
140.912657618595
 30
0.0
 11
252.219875923127
 21
138.912657618595
 31
0.0
  0
LINE
  5
1D7
330
1B2
100
AcDbEntity
  8
Layer0
  6
AUSGEZOGEN
 62
     9
370
    18
100
AcDbLine
 10
252.219875923127
 20
138.912657618595
 30
0.0
 11
254.529263130159
 21
138.912657618595
 31
0.0
  0
LINE
  5
1D8
330
1B2
100
AcDbEntity
  8
Layer0
  6
AUSGEZOGEN
 62
     9
370
    18
100
AcDbLine
 10
254.529263130159
 20
154.912657618595
 30
0.0
 11
255.683971992463
 21
156.912657618595
 31
0.0
  0
LINE
  5
1D9
330
1B2
100
AcDbEntity
  8
Layer0
  6
AUSGEZOGEN
 62
     9
370
    18
100
AcDbLine
 10
255.683971992463
 20
156.912657618595
 30
0.0
 11
254.529263130159
 21
158.912657618595
 31
0.0
  0
LINE
  5
1DA
330
1B2
100
AcDbEntity
  8
Layer0
  6
AUSGEZOGEN
 62
     9
370
    18
100
AcDbLine
 10
254.529263130159
 20
158.912657618595
 30
0.0
 11
252.219875923127
 21
158.912657618595
 31
0.0
  0
LINE
  5
1DB
330
1B2
100
AcDbEntity
  8
Layer0
  6
AUSGEZOGEN
 62
     9
370
    18
100
AcDbLine
 10
252.219875923127
 20
158.912657618595
 30
0.0
 11
251.065167060823
 21
156.912657618595
 31
0.0
  0
LINE
  5
1DC
330
1B2
100
AcDbEntity
  8
Layer0
  6
AUSGEZOGEN
 62
     9
370
    18
100
AcDbLine
 10
251.065167060823
 20
156.912657618595
 30
0.0
 11
252.219875923127
 21
154.912657618595
 31
0.0
  0
LINE
  5
1DD
330
1B2
100
AcDbEntity
  8
Layer0
  6
AUSGEZOGEN
 62
     9
370
    18
100
AcDbLine
 10
252.219875923127
 20
154.912657618595
 30
0.0
 11
254.529263130159
 21
154.912657618595
 31
0.0
  0
LINE
  5
1DE
330
1B2
100
AcDbEntity
  8
Stammform
  6
AUSGEZOGEN
 62
    56
370
    18
100
AcDbLine
 10
254.529263130159
 20
154.912657618595
 30
0.0
 11
253.374569526643
 21
156.912657618595
 31
0.0
  0
LINE
  5
1DF
330
1B2
100
AcDbEntity
  8
Stammform
  6
AUSGEZOGEN
 62
    56
370
    18
100
AcDbLine
 10
253.374569526643
 20
156.912657618595
 30
0.0
 11
251.065167060823
 21
156.912657618595
 31
0.0
  0
LINE
  5
1E0
330
1B2
100
AcDbEntity
  8
Stammform
  6
AUSGEZOGEN
 62
    56
370
    18
100
AcDbLine
 10
253.374569526643
 20
156.912657618595
 30
0.0
 11
254.529263130159
 21
158.912657618595
 31
0.0
  0
LINE
  5
1E1
330
1B2
100
AcDbEntity
  8
Stammform
  6
AUSGEZOGEN
 62
    56
370
    18
100
AcDbLine
 10
253.374569526643
 20
152.912657618595
 30
0.0
 11
254.529263130159
 21
154.912657618595
 31
0.0
  0
LINE
  5
1E2
330
1B2
100
AcDbEntity
  8
Stammform
  6
AUSGEZOGEN
 62
    56
370
    18
100
AcDbLine
 10
253.374569526643
 20
152.912657618595
 30
0.0
 11
251.065167060823
 21
152.912657618595
 31
0.0
  0
LINE
  5
1E3
330
1B2
100
AcDbEntity
  8
Stammform
  6
AUSGEZOGEN
 62
    56
370
    18
100
AcDbLine
 10
254.529263130159
 20
150.912657618595
 30
0.0
 11
253.374569526643
 21
152.912657618595
 31
0.0
  0
LINE
  5
1E4
330
1B2
100
AcDbEntity
  8
Layer0
  6
AUSGEZOGEN
 62
     9
370
    18
100
AcDbLine
 10
254.529263130159
 20
150.912657618595
 30
0.0
 11
255.683971992463
 21
152.912657618595
 31
0.0
  0
LINE
  5
1E5
330
1B2
100
AcDbEntity
  8
Layer0
  6
AUSGEZOGEN
 62
     9
370
    18
100
AcDbLine
 10
255.683971992463
 20
152.912657618595
 30
0.0
 11
254.529263130159
 21
154.912657618595
 31
0.0
  0
LINE
  5
1E6
330
1B2
100
AcDbEntity
  8
Layer0
  6
AUSGEZOGEN
 62
     9
370
    18
100
AcDbLine
 10
254.529263130159
 20
154.912657618595
 30
0.0
 11
252.219875923127
 21
154.912657618595
 31
0.0
  0
LINE
  5
1E7
330
1B2
100
AcDbEntity
  8
Layer0
  6
AUSGEZOGEN
 62
     9
370
    18
100
AcDbLine
 10
252.219875923127
 20
154.912657618595
 30
0.0
 11
251.065167060823
 21
152.912657618595
 31
0.0
  0
LINE
  5
1E8
330
1B2
100
AcDbEntity
  8
Layer0
  6
AUSGEZOGEN
 62
     9
370
    18
100
AcDbLine
 10
251.065167060823
 20
152.912657618595
 30
0.0
 11
252.219875923127
 21
150.912657618595
 31
0.0
  0
LINE
  5
1E9
330
1B2
100
AcDbEntity
  8
Layer0
  6
AUSGEZOGEN
 62
     9
370
    18
100
AcDbLine
 10
252.219875923127
 20
150.912657618595
 30
0.0
 11
254.529263130159
 21
150.912657618595
 31
0.0
  0
LINE
  5
1EA
330
1B2
100
AcDbEntity
  8
Layer0
  6
AUSGEZOGEN
 62
     9
370
    18
100
AcDbLine
 10
254.529263130159
 20
162.912657618595
 30
0.0
 11
255.683971992463
 21
164.912657618595
 31
0.0
  0
LINE
  5
1EB
330
1B2
100
AcDbEntity
  8
Layer0
  6
AUSGEZOGEN
 62
     9
370
    18
100
AcDbLine
 10
255.683971992463
 20
164.912657618595
 30
0.0
 11
254.529263130159
 21
166.912657618595
 31
0.0
  0
LINE
  5
1EC
330
1B2
100
AcDbEntity
  8
Layer0
  6
AUSGEZOGEN
 62
     9
370
    18
100
AcDbLine
 10
254.529263130159
 20
166.912657618595
 30
0.0
 11
252.219875923127
 21
166.912657618595
 31
0.0
  0
LINE
  5
1ED
330
1B2
100
AcDbEntity
  8
Layer0
  6
AUSGEZOGEN
 62
     9
370
    18
100
AcDbLine
 10
252.219875923127
 20
166.912657618595
 30
0.0
 11
251.065167060823
 21
164.912657618595
 31
0.0
  0
LINE
  5
1EE
330
1B2
100
AcDbEntity
  8
Layer0
  6
AUSGEZOGEN
 62
     9
370
    18
100
AcDbLine
 10
251.065167060823
 20
164.912657618595
 30
0.0
 11
252.219875923127
 21
162.912657618595
 31
0.0
  0
LINE
  5
1EF
330
1B2
100
AcDbEntity
  8
Layer0
  6
AUSGEZOGEN
 62
     9
370
    18
100
AcDbLine
 10
252.219875923127
 20
162.912657618595
 30
0.0
 11
254.529263130159
 21
162.912657618595
 31
0.0
  0
LINE
  5
1F0
330
1B2
100
AcDbEntity
  8
Stammform
  6
AUSGEZOGEN
 62
    56
370
    18
100
AcDbLine
 10
254.529263130159
 20
162.912657618595
 30
0.0
 11
253.374569526643
 21
164.912657618595
 31
0.0
  0
LINE
  5
1F1
330
1B2
100
AcDbEntity
  8
Stammform
  6
AUSGEZOGEN
 62
    56
370
    18
100
AcDbLine
 10
253.374569526643
 20
164.912657618595
 30
0.0
 11
251.065167060823
 21
164.912657618595
 31
0.0
  0
LINE
  5
1F2
330
1B2
100
AcDbEntity
  8
Stammform
  6
AUSGEZOGEN
 62
    56
370
    18
100
AcDbLine
 10
253.374569526643
 20
164.912657618595
 30
0.0
 11
254.529263130159
 21
166.912657618595
 31
0.0
  0
LINE
  5
1F3
330
1B2
100
AcDbEntity
  8
Stammform
  6
AUSGEZOGEN
 62
    56
370
    18
100
AcDbLine
 10
253.374569526643
 20
160.912657618595
 30
0.0
 11
254.529263130159
 21
162.912657618595
 31
0.0
  0
LINE
  5
1F4
330
1B2
100
AcDbEntity
  8
Stammform
  6
AUSGEZOGEN
 62
    56
370
    18
100
AcDbLine
 10
253.374569526643
 20
160.912657618595
 30
0.0
 11
251.065167060823
 21
160.912657618595
 31
0.0
  0
LINE
  5
1F5
330
1B2
100
AcDbEntity
  8
Stammform
  6
AUSGEZOGEN
 62
    56
370
    18
100
AcDbLine
 10
254.529263130159
 20
158.912657618595
 30
0.0
 11
253.374569526643
 21
160.912657618595
 31
0.0
  0
LINE
  5
1F6
330
1B2
100
AcDbEntity
  8
Layer0
  6
AUSGEZOGEN
 62
     9
370
    18
100
AcDbLine
 10
254.529263130159
 20
158.912657618595
 30
0.0
 11
255.683971992463
 21
160.912657618595
 31
0.0
  0
LINE
  5
1F7
330
1B2
100
AcDbEntity
  8
Layer0
  6
AUSGEZOGEN
 62
     9
370
    18
100
AcDbLine
 10
255.683971992463
 20
160.912657618595
 30
0.0
 11
254.529263130159
 21
162.912657618595
 31
0.0
  0
LINE
  5
1F8
330
1B2
100
AcDbEntity
  8
Layer0
  6
AUSGEZOGEN
 62
     9
370
    18
100
AcDbLine
 10
254.529263130159
 20
162.912657618595
 30
0.0
 11
252.219875923127
 21
162.912657618595
 31
0.0
  0
LINE
  5
1F9
330
1B2
100
AcDbEntity
  8
Layer0
  6
AUSGEZOGEN
 62
     9
370
    18
100
AcDbLine
 10
252.219875923127
 20
162.912657618595
 30
0.0
 11
251.065167060823
 21
160.912657618595
 31
0.0
  0
LINE
  5
1FA
330
1B2
100
AcDbEntity
  8
Layer0
  6
AUSGEZOGEN
 62
     9
370
    18
100
AcDbLine
 10
251.065167060823
 20
160.912657618595
 30
0.0
 11
252.219875923127
 21
158.912657618595
 31
0.0
  0
LINE
  5
1FB
330
1B2
100
AcDbEntity
  8
Layer0
  6
AUSGEZOGEN
 62
     9
370
    18
100
AcDbLine
 10
252.219875923127
 20
158.912657618595
 30
0.0
 11
254.529263130159
 21
158.912657618595
 31
0.0
  0
LINE
  5
1FC
330
1B2
100
AcDbEntity
  8
Layer0
  6
AUSGEZOGEN
 62
     9
370
    18
100
AcDbLine
 10
254.529263130159
 20
170.912657618595
 30
0.0
 11
255.683971992463
 21
172.912657618595
 31
0.0
  0
LINE
  5
1FD
330
1B2
100
AcDbEntity
  8
Layer0
  6
AUSGEZOGEN
 62
     9
370
    18
100
AcDbLine
 10
255.683971992463
 20
172.912657618595
 30
0.0
 11
254.529263130159
 21
174.912657618595
 31
0.0
  0
LINE
  5
1FE
330
1B2
100
AcDbEntity
  8
Layer0
  6
AUSGEZOGEN
 62
     9
370
    18
100
AcDbLine
 10
254.529263130159
 20
174.912657618595
 30
0.0
 11
252.219875923127
 21
174.912657618595
 31
0.0
  0
LINE
  5
1FF
330
1B2
100
AcDbEntity
  8
Layer0
  6
AUSGEZOGEN
 62
     9
370
    18
100
AcDbLine
 10
252.219875923127
 20
174.912657618595
 30
0.0
 11
251.065167060823
 21
172.912657618595
 31
0.0
  0
LINE
  5
200
330
1B2
100
AcDbEntity
  8
Layer0
  6
AUSGEZOGEN
 62
     9
370
    18
100
AcDbLine
 10
251.065167060823
 20
172.912657618595
 30
0.0
 11
252.219875923127
 21
170.912657618595
 31
0.0
  0
LINE
  5
201
330
1B2
100
AcDbEntity
  8
Layer0
  6
AUSGEZOGEN
 62
     9
370
    18
100
AcDbLine
 10
252.219875923127
 20
170.912657618595
 30
0.0
 11
254.529263130159
 21
170.912657618595
 31
0.0
  0
LINE
  5
202
330
1B2
100
AcDbEntity
  8
Stammform
  6
AUSGEZOGEN
 62
    56
370
    18
100
AcDbLine
 10
254.529263130159
 20
170.912657618595
 30
0.0
 11
253.374569526643
 21
172.912657618595
 31
0.0
  0
LINE
  5
203
330
1B2
100
AcDbEntity
  8
Stammform
  6
AUSGEZOGEN
 62
    56
370
    18
100
AcDbLine
 10
253.374569526643
 20
172.912657618595
 30
0.0
 11
251.065167060823
 21
172.912657618595
 31
0.0
  0
LINE
  5
204
330
1B2
100
AcDbEntity
  8
Stammform
  6
AUSGEZOGEN
 62
    56
370
    18
100
AcDbLine
 10
253.374569526643
 20
172.912657618595
 30
0.0
 11
254.529263130159
 21
174.912657618595
 31
0.0
  0
LINE
  5
205
330
1B2
100
AcDbEntity
  8
Stammform
  6
AUSGEZOGEN
 62
    56
370
    18
100
AcDbLine
 10
253.374569526643
 20
168.912657618595
 30
0.0
 11
254.529263130159
 21
170.912657618595
 31
0.0
  0
LINE
  5
206
330
1B2
100
AcDbEntity
  8
Stammform
  6
AUSGEZOGEN
 62
    56
370
    18
100
AcDbLine
 10
253.374569526643
 20
168.912657618595
 30
0.0
 11
251.065167060823
 21
168.912657618595
 31
0.0
  0
LINE
  5
207
330
1B2
100
AcDbEntity
  8
Stammform
  6
AUSGEZOGEN
 62
    56
370
    18
100
AcDbLine
 10
254.529263130159
 20
166.912657618595
 30
0.0
 11
253.374569526643
 21
168.912657618595
 31
0.0
  0
LINE
  5
208
330
1B2
100
AcDbEntity
  8
Layer0
  6
AUSGEZOGEN
 62
     9
370
    18
100
AcDbLine
 10
254.529263130159
 20
166.912657618595
 30
0.0
 11
255.683971992463
 21
168.912657618595
 31
0.0
  0
LINE
  5
209
330
1B2
100
AcDbEntity
  8
Layer0
  6
AUSGEZOGEN
 62
     9
370
    18
100
AcDbLine
 10
255.683971992463
 20
168.912657618595
 30
0.0
 11
254.529263130159
 21
170.912657618595
 31
0.0
  0
LINE
  5
20A
330
1B2
100
AcDbEntity
  8
Layer0
  6
AUSGEZOGEN
 62
     9
370
    18
100
AcDbLine
 10
254.529263130159
 20
170.912657618595
 30
0.0
 11
252.219875923127
 21
170.912657618595
 31
0.0
  0
LINE
  5
20B
330
1B2
100
AcDbEntity
  8
Layer0
  6
AUSGEZOGEN
 62
     9
370
    18
100
AcDbLine
 10
252.219875923127
 20
170.912657618595
 30
0.0
 11
251.065167060823
 21
168.912657618595
 31
0.0
  0
LINE
  5
20C
330
1B2
100
AcDbEntity
  8
Layer0
  6
AUSGEZOGEN
 62
     9
370
    18
100
AcDbLine
 10
251.065167060823
 20
168.912657618595
 30
0.0
 11
252.219875923127
 21
166.912657618595
 31
0.0
  0
LINE
  5
20D
330
1B2
100
AcDbEntity
  8
Layer0
  6
AUSGEZOGEN
 62
     9
370
    18
100
AcDbLine
 10
252.219875923127
 20
166.912657618595
 30
0.0
 11
254.529263130159
 21
166.912657618595
 31
0.0
  0
LINE
  5
20E
330
1B2
100
AcDbEntity
  8
Layer0
  6
AUSGEZOGEN
 62
     9
370
    18
100
AcDbLine
 10
254.529263130159
 20
178.91266524799
 30
0.0
 11
255.683971992463
 21
180.91266524799
 31
0.0
  0
LINE
  5
20F
330
1B2
100
AcDbEntity
  8
Layer0
  6
AUSGEZOGEN
 62
     9
370
    18
100
AcDbLine
 10
255.683971992463
 20
180.91266524799
 30
0.0
 11
254.529263130159
 21
182.91266524799
 31
0.0
  0
LINE
  5
210
330
1B2
100
AcDbEntity
  8
Layer0
  6
AUSGEZOGEN
 62
     9
370
    18
100
AcDbLine
 10
254.529263130159
 20
182.91266524799
 30
0.0
 11
252.219875923127
 21
182.91266524799
 31
0.0
  0
LINE
  5
211
330
1B2
100
AcDbEntity
  8
Layer0
  6
AUSGEZOGEN
 62
     9
370
    18
100
AcDbLine
 10
252.219875923127
 20
182.91266524799
 30
0.0
 11
251.065167060823
 21
180.91266524799
 31
0.0
  0
LINE
  5
212
330
1B2
100
AcDbEntity
  8
Layer0
  6
AUSGEZOGEN
 62
     9
370
    18
100
AcDbLine
 10
251.065167060823
 20
180.91266524799
 30
0.0
 11
252.219875923127
 21
178.91266524799
 31
0.0
  0
LINE
  5
213
330
1B2
100
AcDbEntity
  8
Layer0
  6
AUSGEZOGEN
 62
     9
370
    18
100
AcDbLine
 10
252.219875923127
 20
178.91266524799
 30
0.0
 11
254.529263130159
 21
178.91266524799
 31
0.0
  0
LINE
  5
214
330
1B2
100
AcDbEntity
  8
Stammform
  6
AUSGEZOGEN
 62
    56
370
    18
100
AcDbLine
 10
254.529263130159
 20
178.91266524799
 30
0.0
 11
253.374569526643
 21
180.91266524799
 31
0.0
  0
LINE
  5
215
330
1B2
100
AcDbEntity
  8
Stammform
  6
AUSGEZOGEN
 62
    56
370
    18
100
AcDbLine
 10
253.374569526643
 20
180.91266524799
 30
0.0
 11
251.065167060823
 21
180.91266524799
 31
0.0
  0
LINE
  5
216
330
1B2
100
AcDbEntity
  8
Stammform
  6
AUSGEZOGEN
 62
    56
370
    18
100
AcDbLine
 10
253.374569526643
 20
180.91266524799
 30
0.0
 11
254.529263130159
 21
182.91266524799
 31
0.0
  0
LINE
  5
217
330
1B2
100
AcDbEntity
  8
Stammform
  6
AUSGEZOGEN
 62
    56
370
    18
100
AcDbLine
 10
253.374569526643
 20
176.91266524799
 30
0.0
 11
254.529263130159
 21
178.91266524799
 31
0.0
  0
LINE
  5
218
330
1B2
100
AcDbEntity
  8
Stammform
  6
AUSGEZOGEN
 62
    56
370
    18
100
AcDbLine
 10
253.374569526643
 20
176.91266524799
 30
0.0
 11
251.065167060823
 21
176.91266524799
 31
0.0
  0
LINE
  5
219
330
1B2
100
AcDbEntity
  8
Stammform
  6
AUSGEZOGEN
 62
    56
370
    18
100
AcDbLine
 10
254.529263130159
 20
174.912657618595
 30
0.0
 11
253.374569526643
 21
176.91266524799
 31
0.0
  0
LINE
  5
21A
330
1B2
100
AcDbEntity
  8
Layer0
  6
AUSGEZOGEN
 62
     9
370
    18
100
AcDbLine
 10
254.529263130159
 20
174.912657618595
 30
0.0
 11
255.683971992463
 21
176.91266524799
 31
0.0
  0
LINE
  5
21B
330
1B2
100
AcDbEntity
  8
Layer0
  6
AUSGEZOGEN
 62
     9
370
    18
100
AcDbLine
 10
255.683971992463
 20
176.91266524799
 30
0.0
 11
254.529263130159
 21
178.91266524799
 31
0.0
  0
LINE
  5
21C
330
1B2
100
AcDbEntity
  8
Layer0
  6
AUSGEZOGEN
 62
     9
370
    18
100
AcDbLine
 10
254.529263130159
 20
178.91266524799
 30
0.0
 11
252.219875923127
 21
178.91266524799
 31
0.0
  0
LINE
  5
21D
330
1B2
100
AcDbEntity
  8
Layer0
  6
AUSGEZOGEN
 62
     9
370
    18
100
AcDbLine
 10
252.219875923127
 20
178.91266524799
 30
0.0
 11
251.065167060823
 21
176.91266524799
 31
0.0
  0
LINE
  5
21E
330
1B2
100
AcDbEntity
  8
Layer0
  6
AUSGEZOGEN
 62
     9
370
    18
100
AcDbLine
 10
251.065167060823
 20
176.91266524799
 30
0.0
 11
252.219875923127
 21
174.912657618595
 31
0.0
  0
LINE
  5
21F
330
1B2
100
AcDbEntity
  8
Layer0
  6
AUSGEZOGEN
 62
     9
370
    18
100
AcDbLine
 10
252.219875923127
 20
174.912657618595
 30
0.0
 11
254.529263130159
 21
174.912657618595
 31
0.0
  0
LINE
  5
220
330
1B2
100
AcDbEntity
  8
Layer0
  6
AUSGEZOGEN
 62
     9
370
    18
100
AcDbLine
 10
254.529263130159
 20
182.91266524799
 30
0.0
 11
255.683971992463
 21
184.91266524799
 31
0.0
  0
LINE
  5
221
330
1B2
100
AcDbEntity
  8
Layer0
  6
AUSGEZOGEN
 62
     9
370
    18
100
AcDbLine
 10
255.683971992463
 20
184.91266524799
 30
0.0
 11
254.529263130159
 21
186.912657618595
 31
0.0
  0
LINE
  5
222
330
1B2
100
AcDbEntity
  8
Layer0
  6
AUSGEZOGEN
 62
     9
370
    18
100
AcDbLine
 10
254.529263130159
 20
186.912657618595
 30
0.0
 11
252.219875923127
 21
186.912657618595
 31
0.0
  0
LINE
  5
223
330
1B2
100
AcDbEntity
  8
Layer0
  6
AUSGEZOGEN
 62
     9
370
    18
100
AcDbLine
 10
252.219875923127
 20
186.912657618595
 30
0.0
 11
251.065167060823
 21
184.91266524799
 31
0.0
  0
LINE
  5
224
330
1B2
100
AcDbEntity
  8
Layer0
  6
AUSGEZOGEN
 62
     9
370
    18
100
AcDbLine
 10
251.065167060823
 20
184.91266524799
 30
0.0
 11
252.219875923127
 21
182.91266524799
 31
0.0
  0
LINE
  5
225
330
1B2
100
AcDbEntity
  8
Layer0
  6
AUSGEZOGEN
 62
     9
370
    18
100
AcDbLine
 10
252.219875923127
 20
182.91266524799
 30
0.0
 11
254.529263130159
 21
182.91266524799
 31
0.0
  0
LINE
  5
226
330
1B2
100
AcDbEntity
  8
Stammform
  6
AUSGEZOGEN
 62
    56
370
    18
100
AcDbLine
 10
254.529263130159
 20
182.91266524799
 30
0.0
 11
253.374569526643
 21
184.91266524799
 31
0.0
  0
LINE
  5
227
330
1B2
100
AcDbEntity
  8
Stammform
  6
AUSGEZOGEN
 62
    56
370
    18
100
AcDbLine
 10
253.374569526643
 20
184.91266524799
 30
0.0
 11
251.065167060823
 21
184.91266524799
 31
0.0
  0
LINE
  5
228
330
1B2
100
AcDbEntity
  8
Stammform
  6
AUSGEZOGEN
 62
    56
370
    18
100
AcDbLine
 10
253.374569526643
 20
184.91266524799
 30
0.0
 11
254.529263130159
 21
186.912657618595
 31
0.0
  0
LINE
  5
229
330
1B2
100
AcDbEntity
  8
Stammform
  6
AUSGEZOGEN
 62
    56
370
    18
100
AcDbLine
 10
254.529263130159
 20
186.912657618595
 30
0.0
 11
253.374569526643
 21
188.912657618595
 31
0.0
  0
LINE
  5
22A
330
1B2
100
AcDbEntity
  8
Layer0
  6
AUSGEZOGEN
 62
     9
370
    18
100
AcDbLine
 10
254.529263130159
 20
186.912657618595
 30
0.0
 11
255.683971992463
 21
188.912657618595
 31
0.0
  0
LINE
  5
22B
330
1B2
100
AcDbEntity
  8
Layer0
  6
AUSGEZOGEN
 62
     9
370
    18
100
AcDbLine
 10
251.065167060823
 20
188.912657618595
 30
0.0
 11
252.219875923127
 21
186.912657618595
 31
0.0
  0
LINE
  5
22C
330
1B2
100
AcDbEntity
  8
Layer0
  6
AUSGEZOGEN
 62
     9
370
    18
100
AcDbLine
 10
252.219875923127
 20
186.912657618595
 30
0.0
 11
254.529263130159
 21
186.912657618595
 31
0.0
  0
LINE
  5
22D
330
1B2
100
AcDbEntity
  8
Stammform
  6
AUSGEZOGEN
 62
    56
370
    18
100
AcDbLine
 10
256.838665595979
 20
186.912657618595
 30
0.0
 11
257.993374458284
 21
188.912657618595
 31
0.0
  0
LINE
  5
22E
330
1B2
100
AcDbEntity
  8
Stammform
  6
AUSGEZOGEN
 62
    56
370
    18
100
AcDbLine
 10
256.838665595979
 20
186.912657618595
 30
0.0
 11
254.529263130159
 21
186.912657618595
 31
0.0
  0
LINE
  5
22F
330
1B2
100
AcDbEntity
  8
Stammform
  6
AUSGEZOGEN
 62
    56
370
    18
100
AcDbLine
 10
257.993374458284
 20
184.91266524799
 30
0.0
 11
256.838665595979
 21
186.912657618595
 31
0.0
  0
LINE
  5
230
330
1B2
100
AcDbEntity
  8
Layer0
  6
AUSGEZOGEN
 62
     9
370
    18
100
AcDbLine
 10
255.683971992463
 20
188.912657618595
 30
0.0
 11
254.529263130159
 21
186.912657618595
 31
0.0
  0
LINE
  5
231
330
1B2
100
AcDbEntity
  8
Layer0
  6
AUSGEZOGEN
 62
     9
370
    18
100
AcDbLine
 10
254.529263130159
 20
186.912657618595
 30
0.0
 11
255.683971992463
 21
184.91266524799
 31
0.0
  0
LINE
  5
232
330
1B2
100
AcDbEntity
  8
Layer0
  6
AUSGEZOGEN
 62
     9
370
    18
100
AcDbLine
 10
255.683971992463
 20
184.91266524799
 30
0.0
 11
257.993374458284
 21
184.91266524799
 31
0.0
  0
LINE
  5
233
330
1B2
100
AcDbEntity
  8
Layer0
  6
AUSGEZOGEN
 62
     9
370
    18
100
AcDbLine
 10
257.993374458284
 20
180.91266524799
 30
0.0
 11
255.683971992463
 21
180.91266524799
 31
0.0
  0
LINE
  5
234
330
1B2
100
AcDbEntity
  8
Layer0
  6
AUSGEZOGEN
 62
     9
370
    18
100
AcDbLine
 10
255.683971992463
 20
180.91266524799
 30
0.0
 11
254.529263130159
 21
178.91266524799
 31
0.0
  0
LINE
  5
235
330
1B2
100
AcDbEntity
  8
Layer0
  6
AUSGEZOGEN
 62
     9
370
    18
100
AcDbLine
 10
254.529263130159
 20
178.91266524799
 30
0.0
 11
255.683971992463
 21
176.91266524799
 31
0.0
  0
LINE
  5
236
330
1B2
100
AcDbEntity
  8
Layer0
  6
AUSGEZOGEN
 62
     9
370
    18
100
AcDbLine
 10
255.683971992463
 20
176.91266524799
 30
0.0
 11
257.993374458284
 21
176.91266524799
 31
0.0
  0
LINE
  5
237
330
1B2
100
AcDbEntity
  8
Stammform
  6
AUSGEZOGEN
 62
    56
370
    18
100
AcDbLine
 10
257.993374458284
 20
176.91266524799
 30
0.0
 11
256.838665595979
 21
178.91266524799
 31
0.0
  0
LINE
  5
238
330
1B2
100
AcDbEntity
  8
Stammform
  6
AUSGEZOGEN
 62
    56
370
    18
100
AcDbLine
 10
256.838665595979
 20
178.91266524799
 30
0.0
 11
254.529263130159
 21
178.91266524799
 31
0.0
  0
LINE
  5
239
330
1B2
100
AcDbEntity
  8
Stammform
  6
AUSGEZOGEN
 62
    56
370
    18
100
AcDbLine
 10
256.838665595979
 20
178.91266524799
 30
0.0
 11
257.993374458284
 21
180.91266524799
 31
0.0
  0
LINE
  5
23A
330
1B2
100
AcDbEntity
  8
Stammform
  6
AUSGEZOGEN
 62
    56
370
    18
100
AcDbLine
 10
256.838665595979
 20
182.91266524799
 30
0.0
 11
257.993374458284
 21
184.91266524799
 31
0.0
  0
LINE
  5
23B
330
1B2
100
AcDbEntity
  8
Stammform
  6
AUSGEZOGEN
 62
    56
370
    18
100
AcDbLine
 10
256.838665595979
 20
182.91266524799
 30
0.0
 11
254.529263130159
 21
182.91266524799
 31
0.0
  0
LINE
  5
23C
330
1B2
100
AcDbEntity
  8
Stammform
  6
AUSGEZOGEN
 62
    56
370
    18
100
AcDbLine
 10
257.993374458284
 20
180.91266524799
 30
0.0
 11
256.838665595979
 21
182.91266524799
 31
0.0
  0
LINE
  5
23D
330
1B2
100
AcDbEntity
  8
Layer0
  6
AUSGEZOGEN
 62
     9
370
    18
100
AcDbLine
 10
257.993374458284
 20
184.91266524799
 30
0.0
 11
255.683971992463
 21
184.91266524799
 31
0.0
  0
LINE
  5
23E
330
1B2
100
AcDbEntity
  8
Layer0
  6
AUSGEZOGEN
 62
     9
370
    18
100
AcDbLine
 10
255.683971992463
 20
184.91266524799
 30
0.0
 11
254.529263130159
 21
182.91266524799
 31
0.0
  0
LINE
  5
23F
330
1B2
100
AcDbEntity
  8
Layer0
  6
AUSGEZOGEN
 62
     9
370
    18
100
AcDbLine
 10
254.529263130159
 20
182.91266524799
 30
0.0
 11
255.683971992463
 21
180.91266524799
 31
0.0
  0
LINE
  5
240
330
1B2
100
AcDbEntity
  8
Layer0
  6
AUSGEZOGEN
 62
     9
370
    18
100
AcDbLine
 10
255.683971992463
 20
180.91266524799
 30
0.0
 11
257.993374458284
 21
180.91266524799
 31
0.0
  0
LINE
  5
241
330
1B2
100
AcDbEntity
  8
Layer0
  6
AUSGEZOGEN
 62
     9
370
    18
100
AcDbLine
 10
257.993374458284
 20
172.912657618595
 30
0.0
 11
255.683971992463
 21
172.912657618595
 31
0.0
  0
LINE
  5
242
330
1B2
100
AcDbEntity
  8
Layer0
  6
AUSGEZOGEN
 62
     9
370
    18
100
AcDbLine
 10
255.683971992463
 20
172.912657618595
 30
0.0
 11
254.529263130159
 21
170.912657618595
 31
0.0
  0
LINE
  5
243
330
1B2
100
AcDbEntity
  8
Layer0
  6
AUSGEZOGEN
 62
     9
370
    18
100
AcDbLine
 10
254.529263130159
 20
170.912657618595
 30
0.0
 11
255.683971992463
 21
168.912657618595
 31
0.0
  0
LINE
  5
244
330
1B2
100
AcDbEntity
  8
Layer0
  6
AUSGEZOGEN
 62
     9
370
    18
100
AcDbLine
 10
255.683971992463
 20
168.912657618595
 30
0.0
 11
257.993374458284
 21
168.912657618595
 31
0.0
  0
LINE
  5
245
330
1B2
100
AcDbEntity
  8
Stammform
  6
AUSGEZOGEN
 62
    56
370
    18
100
AcDbLine
 10
257.993374458284
 20
168.912657618595
 30
0.0
 11
256.838665595979
 21
170.912657618595
 31
0.0
  0
LINE
  5
246
330
1B2
100
AcDbEntity
  8
Stammform
  6
AUSGEZOGEN
 62
    56
370
    18
100
AcDbLine
 10
256.838665595979
 20
170.912657618595
 30
0.0
 11
254.529263130159
 21
170.912657618595
 31
0.0
  0
LINE
  5
247
330
1B2
100
AcDbEntity
  8
Stammform
  6
AUSGEZOGEN
 62
    56
370
    18
100
AcDbLine
 10
256.838665595979
 20
170.912657618595
 30
0.0
 11
257.993374458284
 21
172.912657618595
 31
0.0
  0
LINE
  5
248
330
1B2
100
AcDbEntity
  8
Stammform
  6
AUSGEZOGEN
 62
    56
370
    18
100
AcDbLine
 10
256.838665595979
 20
174.912657618595
 30
0.0
 11
257.993374458284
 21
176.91266524799
 31
0.0
  0
LINE
  5
249
330
1B2
100
AcDbEntity
  8
Stammform
  6
AUSGEZOGEN
 62
    56
370
    18
100
AcDbLine
 10
256.838665595979
 20
174.912657618595
 30
0.0
 11
254.529263130159
 21
174.912657618595
 31
0.0
  0
LINE
  5
24A
330
1B2
100
AcDbEntity
  8
Stammform
  6
AUSGEZOGEN
 62
    56
370
    18
100
AcDbLine
 10
257.993374458284
 20
172.912657618595
 30
0.0
 11
256.838665595979
 21
174.912657618595
 31
0.0
  0
LINE
  5
24B
330
1B2
100
AcDbEntity
  8
Layer0
  6
AUSGEZOGEN
 62
     9
370
    18
100
AcDbLine
 10
257.993374458284
 20
176.91266524799
 30
0.0
 11
255.683971992463
 21
176.91266524799
 31
0.0
  0
LINE
  5
24C
330
1B2
100
AcDbEntity
  8
Layer0
  6
AUSGEZOGEN
 62
     9
370
    18
100
AcDbLine
 10
255.683971992463
 20
176.91266524799
 30
0.0
 11
254.529263130159
 21
174.912657618595
 31
0.0
  0
LINE
  5
24D
330
1B2
100
AcDbEntity
  8
Layer0
  6
AUSGEZOGEN
 62
     9
370
    18
100
AcDbLine
 10
254.529263130159
 20
174.912657618595
 30
0.0
 11
255.683971992463
 21
172.912657618595
 31
0.0
  0
LINE
  5
24E
330
1B2
100
AcDbEntity
  8
Layer0
  6
AUSGEZOGEN
 62
     9
370
    18
100
AcDbLine
 10
255.683971992463
 20
172.912657618595
 30
0.0
 11
257.993374458284
 21
172.912657618595
 31
0.0
  0
LINE
  5
24F
330
1B2
100
AcDbEntity
  8
Layer0
  6
AUSGEZOGEN
 62
     9
370
    18
100
AcDbLine
 10
257.993374458284
 20
164.912657618595
 30
0.0
 11
255.683971992463
 21
164.912657618595
 31
0.0
  0
LINE
  5
250
330
1B2
100
AcDbEntity
  8
Layer0
  6
AUSGEZOGEN
 62
     9
370
    18
100
AcDbLine
 10
255.683971992463
 20
164.912657618595
 30
0.0
 11
254.529263130159
 21
162.912657618595
 31
0.0
  0
LINE
  5
251
330
1B2
100
AcDbEntity
  8
Layer0
  6
AUSGEZOGEN
 62
     9
370
    18
100
AcDbLine
 10
254.529263130159
 20
162.912657618595
 30
0.0
 11
255.683971992463
 21
160.912657618595
 31
0.0
  0
LINE
  5
252
330
1B2
100
AcDbEntity
  8
Layer0
  6
AUSGEZOGEN
 62
     9
370
    18
100
AcDbLine
 10
255.683971992463
 20
160.912657618595
 30
0.0
 11
257.993374458284
 21
160.912657618595
 31
0.0
  0
LINE
  5
253
330
1B2
100
AcDbEntity
  8
Stammform
  6
AUSGEZOGEN
 62
    56
370
    18
100
AcDbLine
 10
257.993374458284
 20
160.912657618595
 30
0.0
 11
256.838665595979
 21
162.912657618595
 31
0.0
  0
LINE
  5
254
330
1B2
100
AcDbEntity
  8
Stammform
  6
AUSGEZOGEN
 62
    56
370
    18
100
AcDbLine
 10
256.838665595979
 20
162.912657618595
 30
0.0
 11
254.529263130159
 21
162.912657618595
 31
0.0
  0
LINE
  5
255
330
1B2
100
AcDbEntity
  8
Stammform
  6
AUSGEZOGEN
 62
    56
370
    18
100
AcDbLine
 10
256.838665595979
 20
162.912657618595
 30
0.0
 11
257.993374458284
 21
164.912657618595
 31
0.0
  0
LINE
  5
256
330
1B2
100
AcDbEntity
  8
Stammform
  6
AUSGEZOGEN
 62
    56
370
    18
100
AcDbLine
 10
256.838665595979
 20
166.912657618595
 30
0.0
 11
257.993374458284
 21
168.912657618595
 31
0.0
  0
LINE
  5
257
330
1B2
100
AcDbEntity
  8
Stammform
  6
AUSGEZOGEN
 62
    56
370
    18
100
AcDbLine
 10
256.838665595979
 20
166.912657618595
 30
0.0
 11
254.529263130159
 21
166.912657618595
 31
0.0
  0
LINE
  5
258
330
1B2
100
AcDbEntity
  8
Stammform
  6
AUSGEZOGEN
 62
    56
370
    18
100
AcDbLine
 10
257.993374458284
 20
164.912657618595
 30
0.0
 11
256.838665595979
 21
166.912657618595
 31
0.0
  0
LINE
  5
259
330
1B2
100
AcDbEntity
  8
Layer0
  6
AUSGEZOGEN
 62
     9
370
    18
100
AcDbLine
 10
257.993374458284
 20
168.912657618595
 30
0.0
 11
255.683971992463
 21
168.912657618595
 31
0.0
  0
LINE
  5
25A
330
1B2
100
AcDbEntity
  8
Layer0
  6
AUSGEZOGEN
 62
     9
370
    18
100
AcDbLine
 10
255.683971992463
 20
168.912657618595
 30
0.0
 11
254.529263130159
 21
166.912657618595
 31
0.0
  0
LINE
  5
25B
330
1B2
100
AcDbEntity
  8
Layer0
  6
AUSGEZOGEN
 62
     9
370
    18
100
AcDbLine
 10
254.529263130159
 20
166.912657618595
 30
0.0
 11
255.683971992463
 21
164.912657618595
 31
0.0
  0
LINE
  5
25C
330
1B2
100
AcDbEntity
  8
Layer0
  6
AUSGEZOGEN
 62
     9
370
    18
100
AcDbLine
 10
255.683971992463
 20
164.912657618595
 30
0.0
 11
257.993374458284
 21
164.912657618595
 31
0.0
  0
LINE
  5
25D
330
1B2
100
AcDbEntity
  8
Layer0
  6
AUSGEZOGEN
 62
     9
370
    18
100
AcDbLine
 10
257.993374458284
 20
156.912657618595
 30
0.0
 11
255.683971992463
 21
156.912657618595
 31
0.0
  0
LINE
  5
25E
330
1B2
100
AcDbEntity
  8
Layer0
  6
AUSGEZOGEN
 62
     9
370
    18
100
AcDbLine
 10
255.683971992463
 20
156.912657618595
 30
0.0
 11
254.529263130159
 21
154.912657618595
 31
0.0
  0
LINE
  5
25F
330
1B2
100
AcDbEntity
  8
Layer0
  6
AUSGEZOGEN
 62
     9
370
    18
100
AcDbLine
 10
254.529263130159
 20
154.912657618595
 30
0.0
 11
255.683971992463
 21
152.912657618595
 31
0.0
  0
LINE
  5
260
330
1B2
100
AcDbEntity
  8
Layer0
  6
AUSGEZOGEN
 62
     9
370
    18
100
AcDbLine
 10
255.683971992463
 20
152.912657618595
 30
0.0
 11
257.993374458284
 21
152.912657618595
 31
0.0
  0
LINE
  5
261
330
1B2
100
AcDbEntity
  8
Stammform
  6
AUSGEZOGEN
 62
    56
370
    18
100
AcDbLine
 10
257.993374458284
 20
152.912657618595
 30
0.0
 11
256.838665595979
 21
154.912657618595
 31
0.0
  0
LINE
  5
262
330
1B2
100
AcDbEntity
  8
Stammform
  6
AUSGEZOGEN
 62
    56
370
    18
100
AcDbLine
 10
256.838665595979
 20
154.912657618595
 30
0.0
 11
254.529263130159
 21
154.912657618595
 31
0.0
  0
LINE
  5
263
330
1B2
100
AcDbEntity
  8
Stammform
  6
AUSGEZOGEN
 62
    56
370
    18
100
AcDbLine
 10
256.838665595979
 20
154.912657618595
 30
0.0
 11
257.993374458284
 21
156.912657618595
 31
0.0
  0
LINE
  5
264
330
1B2
100
AcDbEntity
  8
Stammform
  6
AUSGEZOGEN
 62
    56
370
    18
100
AcDbLine
 10
256.838665595979
 20
158.912657618595
 30
0.0
 11
257.993374458284
 21
160.912657618595
 31
0.0
  0
LINE
  5
265
330
1B2
100
AcDbEntity
  8
Stammform
  6
AUSGEZOGEN
 62
    56
370
    18
100
AcDbLine
 10
256.838665595979
 20
158.912657618595
 30
0.0
 11
254.529263130159
 21
158.912657618595
 31
0.0
  0
LINE
  5
266
330
1B2
100
AcDbEntity
  8
Stammform
  6
AUSGEZOGEN
 62
    56
370
    18
100
AcDbLine
 10
257.993374458284
 20
156.912657618595
 30
0.0
 11
256.838665595979
 21
158.912657618595
 31
0.0
  0
LINE
  5
267
330
1B2
100
AcDbEntity
  8
Layer0
  6
AUSGEZOGEN
 62
     9
370
    18
100
AcDbLine
 10
257.993374458284
 20
160.912657618595
 30
0.0
 11
255.683971992463
 21
160.912657618595
 31
0.0
  0
LINE
  5
268
330
1B2
100
AcDbEntity
  8
Layer0
  6
AUSGEZOGEN
 62
     9
370
    18
100
AcDbLine
 10
255.683971992463
 20
160.912657618595
 30
0.0
 11
254.529263130159
 21
158.912657618595
 31
0.0
  0
LINE
  5
269
330
1B2
100
AcDbEntity
  8
Layer0
  6
AUSGEZOGEN
 62
     9
370
    18
100
AcDbLine
 10
254.529263130159
 20
158.912657618595
 30
0.0
 11
255.683971992463
 21
156.912657618595
 31
0.0
  0
LINE
  5
26A
330
1B2
100
AcDbEntity
  8
Layer0
  6
AUSGEZOGEN
 62
     9
370
    18
100
AcDbLine
 10
255.683971992463
 20
156.912657618595
 30
0.0
 11
257.993374458284
 21
156.912657618595
 31
0.0
  0
LINE
  5
26B
330
1B2
100
AcDbEntity
  8
Layer0
  6
AUSGEZOGEN
 62
     9
370
    18
100
AcDbLine
 10
257.993374458284
 20
136.912657618595
 30
0.0
 11
255.683971992463
 21
136.912657618595
 31
0.0
  0
LINE
  5
26C
330
1B2
100
AcDbEntity
  8
Layer0
  6
AUSGEZOGEN
 62
     9
370
    18
100
AcDbLine
 10
255.683971992463
 20
136.912657618595
 30
0.0
 11
254.529263130159
 21
134.912657618595
 31
0.0
  0
LINE
  5
26D
330
1B2
100
AcDbEntity
  8
Stammform
  6
AUSGEZOGEN
 62
    56
370
    18
100
AcDbLine
 10
256.838665595979
 20
134.912657618595
 30
0.0
 11
257.993374458284
 21
136.912657618595
 31
0.0
  0
LINE
  5
26E
330
1B2
100
AcDbEntity
  8
Layer0
  6
AUSGEZOGEN
 62
     9
370
    18
100
AcDbLine
 10
257.993374458284
 20
144.912657618595
 30
0.0
 11
255.683971992463
 21
144.912657618595
 31
0.0
  0
LINE
  5
26F
330
1B2
100
AcDbEntity
  8
Layer0
  6
AUSGEZOGEN
 62
     9
370
    18
100
AcDbLine
 10
255.683971992463
 20
144.912657618595
 30
0.0
 11
254.529263130159
 21
142.912657618595
 31
0.0
  0
LINE
  5
270
330
1B2
100
AcDbEntity
  8
Layer0
  6
AUSGEZOGEN
 62
     9
370
    18
100
AcDbLine
 10
254.529263130159
 20
142.912657618595
 30
0.0
 11
255.683971992463
 21
140.912657618595
 31
0.0
  0
LINE
  5
271
330
1B2
100
AcDbEntity
  8
Layer0
  6
AUSGEZOGEN
 62
     9
370
    18
100
AcDbLine
 10
255.683971992463
 20
140.912657618595
 30
0.0
 11
257.993374458284
 21
140.912657618595
 31
0.0
  0
LINE
  5
272
330
1B2
100
AcDbEntity
  8
Stammform
  6
AUSGEZOGEN
 62
    56
370
    18
100
AcDbLine
 10
257.993374458284
 20
140.912657618595
 30
0.0
 11
256.838665595979
 21
142.912657618595
 31
0.0
  0
LINE
  5
273
330
1B2
100
AcDbEntity
  8
Stammform
  6
AUSGEZOGEN
 62
    56
370
    18
100
AcDbLine
 10
256.838665595979
 20
142.912657618595
 30
0.0
 11
254.529263130159
 21
142.912657618595
 31
0.0
  0
LINE
  5
274
330
1B2
100
AcDbEntity
  8
Stammform
  6
AUSGEZOGEN
 62
    56
370
    18
100
AcDbLine
 10
256.838665595979
 20
142.912657618595
 30
0.0
 11
257.993374458284
 21
144.912657618595
 31
0.0
  0
LINE
  5
275
330
1B2
100
AcDbEntity
  8
Stammform
  6
AUSGEZOGEN
 62
    56
370
    18
100
AcDbLine
 10
256.838665595979
 20
138.912657618595
 30
0.0
 11
257.993374458284
 21
140.912657618595
 31
0.0
  0
LINE
  5
276
330
1B2
100
AcDbEntity
  8
Stammform
  6
AUSGEZOGEN
 62
    56
370
    18
100
AcDbLine
 10
256.838665595979
 20
138.912657618595
 30
0.0
 11
254.529263130159
 21
138.912657618595
 31
0.0
  0
LINE
  5
277
330
1B2
100
AcDbEntity
  8
Stammform
  6
AUSGEZOGEN
 62
    56
370
    18
100
AcDbLine
 10
257.993374458284
 20
136.912657618595
 30
0.0
 11
256.838665595979
 21
138.912657618595
 31
0.0
  0
LINE
  5
278
330
1B2
100
AcDbEntity
  8
Layer0
  6
AUSGEZOGEN
 62
     9
370
    18
100
AcDbLine
 10
257.993374458284
 20
140.912657618595
 30
0.0
 11
255.683971992463
 21
140.912657618595
 31
0.0
  0
LINE
  5
279
330
1B2
100
AcDbEntity
  8
Layer0
  6
AUSGEZOGEN
 62
     9
370
    18
100
AcDbLine
 10
255.683971992463
 20
140.912657618595
 30
0.0
 11
254.529263130159
 21
138.912657618595
 31
0.0
  0
LINE
  5
27A
330
1B2
100
AcDbEntity
  8
Layer0
  6
AUSGEZOGEN
 62
     9
370
    18
100
AcDbLine
 10
254.529263130159
 20
138.912657618595
 30
0.0
 11
255.683971992463
 21
136.912657618595
 31
0.0
  0
LINE
  5
27B
330
1B2
100
AcDbEntity
  8
Layer0
  6
AUSGEZOGEN
 62
     9
370
    18
100
AcDbLine
 10
255.683971992463
 20
136.912657618595
 30
0.0
 11
257.993374458284
 21
136.912657618595
 31
0.0
  0
LINE
  5
27C
330
1B2
100
AcDbEntity
  8
Layer0
  6
AUSGEZOGEN
 62
     9
370
    18
100
AcDbLine
 10
257.993374458284
 20
148.912657618595
 30
0.0
 11
255.683971992463
 21
148.912657618595
 31
0.0
  0
LINE
  5
27D
330
1B2
100
AcDbEntity
  8
Layer0
  6
AUSGEZOGEN
 62
     9
370
    18
100
AcDbLine
 10
255.683971992463
 20
148.912657618595
 30
0.0
 11
254.529263130159
 21
146.912657618595
 31
0.0
  0
LINE
  5
27E
330
1B2
100
AcDbEntity
  8
Layer0
  6
AUSGEZOGEN
 62
     9
370
    18
100
AcDbLine
 10
254.529263130159
 20
146.912657618595
 30
0.0
 11
255.683971992463
 21
144.912657618595
 31
0.0
  0
LINE
  5
27F
330
1B2
100
AcDbEntity
  8
Layer0
  6
AUSGEZOGEN
 62
     9
370
    18
100
AcDbLine
 10
255.683971992463
 20
144.912657618595
 30
0.0
 11
257.993374458284
 21
144.912657618595
 31
0.0
  0
LINE
  5
280
330
1B2
100
AcDbEntity
  8
Stammform
  6
AUSGEZOGEN
 62
    56
370
    18
100
AcDbLine
 10
257.993374458284
 20
144.912657618595
 30
0.0
 11
256.838665595979
 21
146.912657618595
 31
0.0
  0
LINE
  5
281
330
1B2
100
AcDbEntity
  8
Stammform
  6
AUSGEZOGEN
 62
    56
370
    18
100
AcDbLine
 10
256.838665595979
 20
146.912657618595
 30
0.0
 11
254.529263130159
 21
146.912657618595
 31
0.0
  0
LINE
  5
282
330
1B2
100
AcDbEntity
  8
Stammform
  6
AUSGEZOGEN
 62
    56
370
    18
100
AcDbLine
 10
256.838665595979
 20
146.912657618595
 30
0.0
 11
257.993374458284
 21
148.912657618595
 31
0.0
  0
LINE
  5
283
330
1B2
100
AcDbEntity
  8
Stammform
  6
AUSGEZOGEN
 62
    56
370
    18
100
AcDbLine
 10
256.838665595979
 20
150.912657618595
 30
0.0
 11
257.993374458284
 21
152.912657618595
 31
0.0
  0
LINE
  5
284
330
1B2
100
AcDbEntity
  8
Stammform
  6
AUSGEZOGEN
 62
    56
370
    18
100
AcDbLine
 10
256.838665595979
 20
150.912657618595
 30
0.0
 11
254.529263130159
 21
150.912657618595
 31
0.0
  0
LINE
  5
285
330
1B2
100
AcDbEntity
  8
Stammform
  6
AUSGEZOGEN
 62
    56
370
    18
100
AcDbLine
 10
257.993374458284
 20
148.912657618595
 30
0.0
 11
256.838665595979
 21
150.912657618595
 31
0.0
  0
LINE
  5
286
330
1B2
100
AcDbEntity
  8
Layer0
  6
AUSGEZOGEN
 62
     9
370
    18
100
AcDbLine
 10
257.993374458284
 20
152.912657618595
 30
0.0
 11
255.683971992463
 21
152.912657618595
 31
0.0
  0
LINE
  5
287
330
1B2
100
AcDbEntity
  8
Layer0
  6
AUSGEZOGEN
 62
     9
370
    18
100
AcDbLine
 10
255.683971992463
 20
152.912657618595
 30
0.0
 11
254.529263130159
 21
150.912657618595
 31
0.0
  0
LINE
  5
288
330
1B2
100
AcDbEntity
  8
Layer0
  6
AUSGEZOGEN
 62
     9
370
    18
100
AcDbLine
 10
254.529263130159
 20
150.912657618595
 30
0.0
 11
255.683971992463
 21
148.912657618595
 31
0.0
  0
LINE
  5
289
330
1B2
100
AcDbEntity
  8
Layer0
  6
AUSGEZOGEN
 62
     9
370
    18
100
AcDbLine
 10
255.683971992463
 20
148.912657618595
 30
0.0
 11
257.993374458284
 21
148.912657618595
 31
0.0
  0
LINE
  5
28A
330
1B2
100
AcDbEntity
  8
Layer0
  6
AUSGEZOGEN
 62
     9
370
    18
100
AcDbLine
 10
247.601070991487
 20
146.912657618595
 30
0.0
 11
248.755764595002
 21
148.912657618595
 31
0.0
  0
LINE
  5
28B
330
1B2
100
AcDbEntity
  8
Layer0
  6
AUSGEZOGEN
 62
     9
370
    18
100
AcDbLine
 10
248.755764595002
 20
148.912657618595
 30
0.0
 11
247.601070991487
 21
150.912657618595
 31
0.0
  0
LINE
  5
28C
330
1B2
100
AcDbEntity
  8
Layer0
  6
AUSGEZOGEN
 62
     9
370
    18
100
AcDbLine
 10
247.601070991487
 20
150.912657618595
 30
0.0
 11
245.291668525666
 21
150.912657618595
 31
0.0
  0
LINE
  5
28D
330
1B2
100
AcDbEntity
  8
Layer0
  6
AUSGEZOGEN
 62
     9
370
    18
100
AcDbLine
 10
245.291668525666
 20
150.912657618595
 30
0.0
 11
244.136959663362
 21
148.912657618595
 31
0.0
  0
LINE
  5
28E
330
1B2
100
AcDbEntity
  8
Layer0
  6
AUSGEZOGEN
 62
     9
370
    18
100
AcDbLine
 10
244.136959663362
 20
148.912657618595
 30
0.0
 11
245.291668525666
 21
146.912657618595
 31
0.0
  0
LINE
  5
28F
330
1B2
100
AcDbEntity
  8
Layer0
  6
AUSGEZOGEN
 62
     9
370
    18
100
AcDbLine
 10
245.291668525666
 20
146.912657618595
 30
0.0
 11
247.601070991487
 21
146.912657618595
 31
0.0
  0
LINE
  5
290
330
1B2
100
AcDbEntity
  8
Stammform
  6
AUSGEZOGEN
 62
    56
370
    18
100
AcDbLine
 10
247.601070991487
 20
146.912657618595
 30
0.0
 11
246.446362129182
 21
148.912657618595
 31
0.0
  0
LINE
  5
291
330
1B2
100
AcDbEntity
  8
Stammform
  6
AUSGEZOGEN
 62
    56
370
    18
100
AcDbLine
 10
246.446362129182
 20
148.912657618595
 30
0.0
 11
244.136959663362
 21
148.912657618595
 31
0.0
  0
LINE
  5
292
330
1B2
100
AcDbEntity
  8
Stammform
  6
AUSGEZOGEN
 62
    56
370
    18
100
AcDbLine
 10
246.446362129182
 20
148.912657618595
 30
0.0
 11
247.601070991487
 21
150.912657618595
 31
0.0
  0
LINE
  5
293
330
1B2
100
AcDbEntity
  8
Stammform
  6
AUSGEZOGEN
 62
    56
370
    18
100
AcDbLine
 10
246.446362129182
 20
144.912657618595
 30
0.0
 11
247.601070991487
 21
146.912657618595
 31
0.0
  0
LINE
  5
294
330
1B2
100
AcDbEntity
  8
Stammform
  6
AUSGEZOGEN
 62
    56
370
    18
100
AcDbLine
 10
246.446362129182
 20
144.912657618595
 30
0.0
 11
244.136959663362
 21
144.912657618595
 31
0.0
  0
LINE
  5
295
330
1B2
100
AcDbEntity
  8
Stammform
  6
AUSGEZOGEN
 62
    56
370
    18
100
AcDbLine
 10
247.601070991487
 20
142.912657618595
 30
0.0
 11
246.446362129182
 21
144.912657618595
 31
0.0
  0
LINE
  5
296
330
1B2
100
AcDbEntity
  8
Layer0
  6
AUSGEZOGEN
 62
     9
370
    18
100
AcDbLine
 10
247.601070991487
 20
142.912657618595
 30
0.0
 11
248.755764595002
 21
144.912657618595
 31
0.0
  0
LINE
  5
297
330
1B2
100
AcDbEntity
  8
Layer0
  6
AUSGEZOGEN
 62
     9
370
    18
100
AcDbLine
 10
248.755764595002
 20
144.912657618595
 30
0.0
 11
247.601070991487
 21
146.912657618595
 31
0.0
  0
LINE
  5
298
330
1B2
100
AcDbEntity
  8
Layer0
  6
AUSGEZOGEN
 62
     9
370
    18
100
AcDbLine
 10
247.601070991487
 20
146.912657618595
 30
0.0
 11
245.291668525666
 21
146.912657618595
 31
0.0
  0
LINE
  5
299
330
1B2
100
AcDbEntity
  8
Layer0
  6
AUSGEZOGEN
 62
     9
370
    18
100
AcDbLine
 10
245.291668525666
 20
146.912657618595
 30
0.0
 11
244.136959663362
 21
144.912657618595
 31
0.0
  0
LINE
  5
29A
330
1B2
100
AcDbEntity
  8
Layer0
  6
AUSGEZOGEN
 62
     9
370
    18
100
AcDbLine
 10
244.136959663362
 20
144.912657618595
 30
0.0
 11
245.291668525666
 21
142.912657618595
 31
0.0
  0
LINE
  5
29B
330
1B2
100
AcDbEntity
  8
Layer0
  6
AUSGEZOGEN
 62
     9
370
    18
100
AcDbLine
 10
245.291668525666
 20
142.912657618595
 30
0.0
 11
247.601070991487
 21
142.912657618595
 31
0.0
  0
LINE
  5
29C
330
1B2
100
AcDbEntity
  8
Layer0
  6
AUSGEZOGEN
 62
     9
370
    18
100
AcDbLine
 10
247.601070991487
 20
134.912657618595
 30
0.0
 11
248.755764595002
 21
136.912657618595
 31
0.0
  0
LINE
  5
29D
330
1B2
100
AcDbEntity
  8
Layer0
  6
AUSGEZOGEN
 62
     9
370
    18
100
AcDbLine
 10
248.755764595002
 20
136.912657618595
 30
0.0
 11
247.601070991487
 21
138.912657618595
 31
0.0
  0
LINE
  5
29E
330
1B2
100
AcDbEntity
  8
Layer0
  6
AUSGEZOGEN
 62
     9
370
    18
100
AcDbLine
 10
247.601070991487
 20
138.912657618595
 30
0.0
 11
245.291668525666
 21
138.912657618595
 31
0.0
  0
LINE
  5
29F
330
1B2
100
AcDbEntity
  8
Layer0
  6
AUSGEZOGEN
 62
     9
370
    18
100
AcDbLine
 10
245.291668525666
 20
138.912657618595
 30
0.0
 11
244.136959663362
 21
136.912657618595
 31
0.0
  0
LINE
  5
2A0
330
1B2
100
AcDbEntity
  8
Layer0
  6
AUSGEZOGEN
 62
     9
370
    18
100
AcDbLine
 10
244.136959663362
 20
136.912657618595
 30
0.0
 11
245.291668525666
 21
134.912657618595
 31
0.0
  0
LINE
  5
2A1
330
1B2
100
AcDbEntity
  8
Stammform
  6
AUSGEZOGEN
 62
    56
370
    18
100
AcDbLine
 10
247.601070991487
 20
134.912657618595
 30
0.0
 11
246.446362129182
 21
136.912657618595
 31
0.0
  0
LINE
  5
2A2
330
1B2
100
AcDbEntity
  8
Stammform
  6
AUSGEZOGEN
 62
    56
370
    18
100
AcDbLine
 10
246.446362129182
 20
136.912657618595
 30
0.0
 11
244.136959663362
 21
136.912657618595
 31
0.0
  0
LINE
  5
2A3
330
1B2
100
AcDbEntity
  8
Stammform
  6
AUSGEZOGEN
 62
    56
370
    18
100
AcDbLine
 10
246.446362129182
 20
136.912657618595
 30
0.0
 11
247.601070991487
 21
138.912657618595
 31
0.0
  0
LINE
  5
2A4
330
1B2
100
AcDbEntity
  8
Stammform
  6
AUSGEZOGEN
 62
    56
370
    18
100
AcDbLine
 10
246.446362129182
 20
140.912657618595
 30
0.0
 11
247.601070991487
 21
142.912657618595
 31
0.0
  0
LINE
  5
2A5
330
1B2
100
AcDbEntity
  8
Stammform
  6
AUSGEZOGEN
 62
    56
370
    18
100
AcDbLine
 10
246.446362129182
 20
140.912657618595
 30
0.0
 11
244.136959663362
 21
140.912657618595
 31
0.0
  0
LINE
  5
2A6
330
1B2
100
AcDbEntity
  8
Stammform
  6
AUSGEZOGEN
 62
    56
370
    18
100
AcDbLine
 10
247.601070991487
 20
138.912657618595
 30
0.0
 11
246.446362129182
 21
140.912657618595
 31
0.0
  0
LINE
  5
2A7
330
1B2
100
AcDbEntity
  8
Layer0
  6
AUSGEZOGEN
 62
     9
370
    18
100
AcDbLine
 10
247.601070991487
 20
138.912657618595
 30
0.0
 11
248.755764595002
 21
140.912657618595
 31
0.0
  0
LINE
  5
2A8
330
1B2
100
AcDbEntity
  8
Layer0
  6
AUSGEZOGEN
 62
     9
370
    18
100
AcDbLine
 10
248.755764595002
 20
140.912657618595
 30
0.0
 11
247.601070991487
 21
142.912657618595
 31
0.0
  0
LINE
  5
2A9
330
1B2
100
AcDbEntity
  8
Layer0
  6
AUSGEZOGEN
 62
     9
370
    18
100
AcDbLine
 10
247.601070991487
 20
142.912657618595
 30
0.0
 11
245.291668525666
 21
142.912657618595
 31
0.0
  0
LINE
  5
2AA
330
1B2
100
AcDbEntity
  8
Layer0
  6
AUSGEZOGEN
 62
     9
370
    18
100
AcDbLine
 10
245.291668525666
 20
142.912657618595
 30
0.0
 11
244.136959663362
 21
140.912657618595
 31
0.0
  0
LINE
  5
2AB
330
1B2
100
AcDbEntity
  8
Layer0
  6
AUSGEZOGEN
 62
     9
370
    18
100
AcDbLine
 10
244.136959663362
 20
140.912657618595
 30
0.0
 11
245.291668525666
 21
138.912657618595
 31
0.0
  0
LINE
  5
2AC
330
1B2
100
AcDbEntity
  8
Layer0
  6
AUSGEZOGEN
 62
     9
370
    18
100
AcDbLine
 10
245.291668525666
 20
138.912657618595
 30
0.0
 11
247.601070991487
 21
138.912657618595
 31
0.0
  0
LINE
  5
2AD
330
1B2
100
AcDbEntity
  8
Layer0
  6
AUSGEZOGEN
 62
     9
370
    18
100
AcDbLine
 10
247.601070991487
 20
154.912657618595
 30
0.0
 11
248.755764595002
 21
156.912657618595
 31
0.0
  0
LINE
  5
2AE
330
1B2
100
AcDbEntity
  8
Layer0
  6
AUSGEZOGEN
 62
     9
370
    18
100
AcDbLine
 10
248.755764595002
 20
156.912657618595
 30
0.0
 11
247.601070991487
 21
158.912657618595
 31
0.0
  0
LINE
  5
2AF
330
1B2
100
AcDbEntity
  8
Layer0
  6
AUSGEZOGEN
 62
     9
370
    18
100
AcDbLine
 10
247.601070991487
 20
158.912657618595
 30
0.0
 11
245.291668525666
 21
158.912657618595
 31
0.0
  0
LINE
  5
2B0
330
1B2
100
AcDbEntity
  8
Layer0
  6
AUSGEZOGEN
 62
     9
370
    18
100
AcDbLine
 10
245.291668525666
 20
158.912657618595
 30
0.0
 11
244.136959663362
 21
156.912657618595
 31
0.0
  0
LINE
  5
2B1
330
1B2
100
AcDbEntity
  8
Layer0
  6
AUSGEZOGEN
 62
     9
370
    18
100
AcDbLine
 10
244.136959663362
 20
156.912657618595
 30
0.0
 11
245.291668525666
 21
154.912657618595
 31
0.0
  0
LINE
  5
2B2
330
1B2
100
AcDbEntity
  8
Layer0
  6
AUSGEZOGEN
 62
     9
370
    18
100
AcDbLine
 10
245.291668525666
 20
154.912657618595
 30
0.0
 11
247.601070991487
 21
154.912657618595
 31
0.0
  0
LINE
  5
2B3
330
1B2
100
AcDbEntity
  8
Stammform
  6
AUSGEZOGEN
 62
    56
370
    18
100
AcDbLine
 10
247.601070991487
 20
154.912657618595
 30
0.0
 11
246.446362129182
 21
156.912657618595
 31
0.0
  0
LINE
  5
2B4
330
1B2
100
AcDbEntity
  8
Stammform
  6
AUSGEZOGEN
 62
    56
370
    18
100
AcDbLine
 10
246.446362129182
 20
156.912657618595
 30
0.0
 11
244.136959663362
 21
156.912657618595
 31
0.0
  0
LINE
  5
2B5
330
1B2
100
AcDbEntity
  8
Stammform
  6
AUSGEZOGEN
 62
    56
370
    18
100
AcDbLine
 10
246.446362129182
 20
156.912657618595
 30
0.0
 11
247.601070991487
 21
158.912657618595
 31
0.0
  0
LINE
  5
2B6
330
1B2
100
AcDbEntity
  8
Stammform
  6
AUSGEZOGEN
 62
    56
370
    18
100
AcDbLine
 10
246.446362129182
 20
152.912657618595
 30
0.0
 11
247.601070991487
 21
154.912657618595
 31
0.0
  0
LINE
  5
2B7
330
1B2
100
AcDbEntity
  8
Stammform
  6
AUSGEZOGEN
 62
    56
370
    18
100
AcDbLine
 10
246.446362129182
 20
152.912657618595
 30
0.0
 11
244.136959663362
 21
152.912657618595
 31
0.0
  0
LINE
  5
2B8
330
1B2
100
AcDbEntity
  8
Stammform
  6
AUSGEZOGEN
 62
    56
370
    18
100
AcDbLine
 10
247.601070991487
 20
150.912657618595
 30
0.0
 11
246.446362129182
 21
152.912657618595
 31
0.0
  0
LINE
  5
2B9
330
1B2
100
AcDbEntity
  8
Layer0
  6
AUSGEZOGEN
 62
     9
370
    18
100
AcDbLine
 10
247.601070991487
 20
150.912657618595
 30
0.0
 11
248.755764595002
 21
152.912657618595
 31
0.0
  0
LINE
  5
2BA
330
1B2
100
AcDbEntity
  8
Layer0
  6
AUSGEZOGEN
 62
     9
370
    18
100
AcDbLine
 10
248.755764595002
 20
152.912657618595
 30
0.0
 11
247.601070991487
 21
154.912657618595
 31
0.0
  0
LINE
  5
2BB
330
1B2
100
AcDbEntity
  8
Layer0
  6
AUSGEZOGEN
 62
     9
370
    18
100
AcDbLine
 10
247.601070991487
 20
154.912657618595
 30
0.0
 11
245.291668525666
 21
154.912657618595
 31
0.0
  0
LINE
  5
2BC
330
1B2
100
AcDbEntity
  8
Layer0
  6
AUSGEZOGEN
 62
     9
370
    18
100
AcDbLine
 10
245.291668525666
 20
154.912657618595
 30
0.0
 11
244.136959663362
 21
152.912657618595
 31
0.0
  0
LINE
  5
2BD
330
1B2
100
AcDbEntity
  8
Layer0
  6
AUSGEZOGEN
 62
     9
370
    18
100
AcDbLine
 10
244.136959663362
 20
152.912657618595
 30
0.0
 11
245.291668525666
 21
150.912657618595
 31
0.0
  0
LINE
  5
2BE
330
1B2
100
AcDbEntity
  8
Layer0
  6
AUSGEZOGEN
 62
     9
370
    18
100
AcDbLine
 10
245.291668525666
 20
150.912657618595
 30
0.0
 11
247.601070991487
 21
150.912657618595
 31
0.0
  0
LINE
  5
2BF
330
1B2
100
AcDbEntity
  8
Layer0
  6
AUSGEZOGEN
 62
     9
370
    18
100
AcDbLine
 10
247.601070991487
 20
162.912657618595
 30
0.0
 11
248.755764595002
 21
164.912657618595
 31
0.0
  0
LINE
  5
2C0
330
1B2
100
AcDbEntity
  8
Layer0
  6
AUSGEZOGEN
 62
     9
370
    18
100
AcDbLine
 10
248.755764595002
 20
164.912657618595
 30
0.0
 11
247.601070991487
 21
166.912657618595
 31
0.0
  0
LINE
  5
2C1
330
1B2
100
AcDbEntity
  8
Layer0
  6
AUSGEZOGEN
 62
     9
370
    18
100
AcDbLine
 10
247.601070991487
 20
166.912657618595
 30
0.0
 11
245.291668525666
 21
166.912657618595
 31
0.0
  0
LINE
  5
2C2
330
1B2
100
AcDbEntity
  8
Layer0
  6
AUSGEZOGEN
 62
     9
370
    18
100
AcDbLine
 10
245.291668525666
 20
166.912657618595
 30
0.0
 11
244.136959663362
 21
164.912657618595
 31
0.0
  0
LINE
  5
2C3
330
1B2
100
AcDbEntity
  8
Layer0
  6
AUSGEZOGEN
 62
     9
370
    18
100
AcDbLine
 10
244.136959663362
 20
164.912657618595
 30
0.0
 11
245.291668525666
 21
162.912657618595
 31
0.0
  0
LINE
  5
2C4
330
1B2
100
AcDbEntity
  8
Layer0
  6
AUSGEZOGEN
 62
     9
370
    18
100
AcDbLine
 10
245.291668525666
 20
162.912657618595
 30
0.0
 11
247.601070991487
 21
162.912657618595
 31
0.0
  0
LINE
  5
2C5
330
1B2
100
AcDbEntity
  8
Stammform
  6
AUSGEZOGEN
 62
    56
370
    18
100
AcDbLine
 10
247.601070991487
 20
162.912657618595
 30
0.0
 11
246.446362129182
 21
164.912657618595
 31
0.0
  0
LINE
  5
2C6
330
1B2
100
AcDbEntity
  8
Stammform
  6
AUSGEZOGEN
 62
    56
370
    18
100
AcDbLine
 10
246.446362129182
 20
164.912657618595
 30
0.0
 11
244.136959663362
 21
164.912657618595
 31
0.0
  0
LINE
  5
2C7
330
1B2
100
AcDbEntity
  8
Stammform
  6
AUSGEZOGEN
 62
    56
370
    18
100
AcDbLine
 10
246.446362129182
 20
164.912657618595
 30
0.0
 11
247.601070991487
 21
166.912657618595
 31
0.0
  0
LINE
  5
2C8
330
1B2
100
AcDbEntity
  8
Stammform
  6
AUSGEZOGEN
 62
    56
370
    18
100
AcDbLine
 10
246.446362129182
 20
160.912657618595
 30
0.0
 11
247.601070991487
 21
162.912657618595
 31
0.0
  0
LINE
  5
2C9
330
1B2
100
AcDbEntity
  8
Stammform
  6
AUSGEZOGEN
 62
    56
370
    18
100
AcDbLine
 10
246.446362129182
 20
160.912657618595
 30
0.0
 11
244.136959663362
 21
160.912657618595
 31
0.0
  0
LINE
  5
2CA
330
1B2
100
AcDbEntity
  8
Stammform
  6
AUSGEZOGEN
 62
    56
370
    18
100
AcDbLine
 10
247.601070991487
 20
158.912657618595
 30
0.0
 11
246.446362129182
 21
160.912657618595
 31
0.0
  0
LINE
  5
2CB
330
1B2
100
AcDbEntity
  8
Layer0
  6
AUSGEZOGEN
 62
     9
370
    18
100
AcDbLine
 10
247.601070991487
 20
158.912657618595
 30
0.0
 11
248.755764595002
 21
160.912657618595
 31
0.0
  0
LINE
  5
2CC
330
1B2
100
AcDbEntity
  8
Layer0
  6
AUSGEZOGEN
 62
     9
370
    18
100
AcDbLine
 10
248.755764595002
 20
160.912657618595
 30
0.0
 11
247.601070991487
 21
162.912657618595
 31
0.0
  0
LINE
  5
2CD
330
1B2
100
AcDbEntity
  8
Layer0
  6
AUSGEZOGEN
 62
     9
370
    18
100
AcDbLine
 10
247.601070991487
 20
162.912657618595
 30
0.0
 11
245.291668525666
 21
162.912657618595
 31
0.0
  0
LINE
  5
2CE
330
1B2
100
AcDbEntity
  8
Layer0
  6
AUSGEZOGEN
 62
     9
370
    18
100
AcDbLine
 10
245.291668525666
 20
162.912657618595
 30
0.0
 11
244.136959663362
 21
160.912657618595
 31
0.0
  0
LINE
  5
2CF
330
1B2
100
AcDbEntity
  8
Layer0
  6
AUSGEZOGEN
 62
     9
370
    18
100
AcDbLine
 10
244.136959663362
 20
160.912657618595
 30
0.0
 11
245.291668525666
 21
158.912657618595
 31
0.0
  0
LINE
  5
2D0
330
1B2
100
AcDbEntity
  8
Layer0
  6
AUSGEZOGEN
 62
     9
370
    18
100
AcDbLine
 10
245.291668525666
 20
158.912657618595
 30
0.0
 11
247.601070991487
 21
158.912657618595
 31
0.0
  0
LINE
  5
2D1
330
1B2
100
AcDbEntity
  8
Layer0
  6
AUSGEZOGEN
 62
     9
370
    18
100
AcDbLine
 10
247.601070991487
 20
170.912657618595
 30
0.0
 11
248.755764595002
 21
172.912657618595
 31
0.0
  0
LINE
  5
2D2
330
1B2
100
AcDbEntity
  8
Layer0
  6
AUSGEZOGEN
 62
     9
370
    18
100
AcDbLine
 10
248.755764595002
 20
172.912657618595
 30
0.0
 11
247.601070991487
 21
174.912657618595
 31
0.0
  0
LINE
  5
2D3
330
1B2
100
AcDbEntity
  8
Layer0
  6
AUSGEZOGEN
 62
     9
370
    18
100
AcDbLine
 10
247.601070991487
 20
174.912657618595
 30
0.0
 11
245.291668525666
 21
174.912657618595
 31
0.0
  0
LINE
  5
2D4
330
1B2
100
AcDbEntity
  8
Layer0
  6
AUSGEZOGEN
 62
     9
370
    18
100
AcDbLine
 10
245.291668525666
 20
174.912657618595
 30
0.0
 11
244.136959663362
 21
172.912657618595
 31
0.0
  0
LINE
  5
2D5
330
1B2
100
AcDbEntity
  8
Layer0
  6
AUSGEZOGEN
 62
     9
370
    18
100
AcDbLine
 10
244.136959663362
 20
172.912657618595
 30
0.0
 11
245.291668525666
 21
170.912657618595
 31
0.0
  0
LINE
  5
2D6
330
1B2
100
AcDbEntity
  8
Layer0
  6
AUSGEZOGEN
 62
     9
370
    18
100
AcDbLine
 10
245.291668525666
 20
170.912657618595
 30
0.0
 11
247.601070991487
 21
170.912657618595
 31
0.0
  0
LINE
  5
2D7
330
1B2
100
AcDbEntity
  8
Stammform
  6
AUSGEZOGEN
 62
    56
370
    18
100
AcDbLine
 10
247.601070991487
 20
170.912657618595
 30
0.0
 11
246.446362129182
 21
172.912657618595
 31
0.0
  0
LINE
  5
2D8
330
1B2
100
AcDbEntity
  8
Stammform
  6
AUSGEZOGEN
 62
    56
370
    18
100
AcDbLine
 10
246.446362129182
 20
172.912657618595
 30
0.0
 11
244.136959663362
 21
172.912657618595
 31
0.0
  0
LINE
  5
2D9
330
1B2
100
AcDbEntity
  8
Stammform
  6
AUSGEZOGEN
 62
    56
370
    18
100
AcDbLine
 10
246.446362129182
 20
172.912657618595
 30
0.0
 11
247.601070991487
 21
174.912657618595
 31
0.0
  0
LINE
  5
2DA
330
1B2
100
AcDbEntity
  8
Stammform
  6
AUSGEZOGEN
 62
    56
370
    18
100
AcDbLine
 10
246.446362129182
 20
168.912657618595
 30
0.0
 11
247.601070991487
 21
170.912657618595
 31
0.0
  0
LINE
  5
2DB
330
1B2
100
AcDbEntity
  8
Stammform
  6
AUSGEZOGEN
 62
    56
370
    18
100
AcDbLine
 10
246.446362129182
 20
168.912657618595
 30
0.0
 11
244.136959663362
 21
168.912657618595
 31
0.0
  0
LINE
  5
2DC
330
1B2
100
AcDbEntity
  8
Stammform
  6
AUSGEZOGEN
 62
    56
370
    18
100
AcDbLine
 10
247.601070991487
 20
166.912657618595
 30
0.0
 11
246.446362129182
 21
168.912657618595
 31
0.0
  0
LINE
  5
2DD
330
1B2
100
AcDbEntity
  8
Layer0
  6
AUSGEZOGEN
 62
     9
370
    18
100
AcDbLine
 10
247.601070991487
 20
166.912657618595
 30
0.0
 11
248.755764595002
 21
168.912657618595
 31
0.0
  0
LINE
  5
2DE
330
1B2
100
AcDbEntity
  8
Layer0
  6
AUSGEZOGEN
 62
     9
370
    18
100
AcDbLine
 10
248.755764595002
 20
168.912657618595
 30
0.0
 11
247.601070991487
 21
170.912657618595
 31
0.0
  0
LINE
  5
2DF
330
1B2
100
AcDbEntity
  8
Layer0
  6
AUSGEZOGEN
 62
     9
370
    18
100
AcDbLine
 10
247.601070991487
 20
170.912657618595
 30
0.0
 11
245.291668525666
 21
170.912657618595
 31
0.0
  0
LINE
  5
2E0
330
1B2
100
AcDbEntity
  8
Layer0
  6
AUSGEZOGEN
 62
     9
370
    18
100
AcDbLine
 10
245.291668525666
 20
170.912657618595
 30
0.0
 11
244.136959663362
 21
168.912657618595
 31
0.0
  0
LINE
  5
2E1
330
1B2
100
AcDbEntity
  8
Layer0
  6
AUSGEZOGEN
 62
     9
370
    18
100
AcDbLine
 10
244.136959663362
 20
168.912657618595
 30
0.0
 11
245.291668525666
 21
166.912657618595
 31
0.0
  0
LINE
  5
2E2
330
1B2
100
AcDbEntity
  8
Layer0
  6
AUSGEZOGEN
 62
     9
370
    18
100
AcDbLine
 10
245.291668525666
 20
166.912657618595
 30
0.0
 11
247.601070991487
 21
166.912657618595
 31
0.0
  0
LINE
  5
2E3
330
1B2
100
AcDbEntity
  8
Layer0
  6
AUSGEZOGEN
 62
     9
370
    18
100
AcDbLine
 10
247.601070991487
 20
178.91266524799
 30
0.0
 11
248.755764595002
 21
180.91266524799
 31
0.0
  0
LINE
  5
2E4
330
1B2
100
AcDbEntity
  8
Layer0
  6
AUSGEZOGEN
 62
     9
370
    18
100
AcDbLine
 10
248.755764595002
 20
180.91266524799
 30
0.0
 11
247.601070991487
 21
182.91266524799
 31
0.0
  0
LINE
  5
2E5
330
1B2
100
AcDbEntity
  8
Layer0
  6
AUSGEZOGEN
 62
     9
370
    18
100
AcDbLine
 10
247.601070991487
 20
182.91266524799
 30
0.0
 11
245.291668525666
 21
182.91266524799
 31
0.0
  0
LINE
  5
2E6
330
1B2
100
AcDbEntity
  8
Layer0
  6
AUSGEZOGEN
 62
     9
370
    18
100
AcDbLine
 10
245.291668525666
 20
182.91266524799
 30
0.0
 11
244.136959663362
 21
180.91266524799
 31
0.0
  0
LINE
  5
2E7
330
1B2
100
AcDbEntity
  8
Layer0
  6
AUSGEZOGEN
 62
     9
370
    18
100
AcDbLine
 10
244.136959663362
 20
180.91266524799
 30
0.0
 11
245.291668525666
 21
178.91266524799
 31
0.0
  0
LINE
  5
2E8
330
1B2
100
AcDbEntity
  8
Layer0
  6
AUSGEZOGEN
 62
     9
370
    18
100
AcDbLine
 10
245.291668525666
 20
178.91266524799
 30
0.0
 11
247.601070991487
 21
178.91266524799
 31
0.0
  0
LINE
  5
2E9
330
1B2
100
AcDbEntity
  8
Stammform
  6
AUSGEZOGEN
 62
    56
370
    18
100
AcDbLine
 10
247.601070991487
 20
178.91266524799
 30
0.0
 11
246.446362129182
 21
180.91266524799
 31
0.0
  0
LINE
  5
2EA
330
1B2
100
AcDbEntity
  8
Stammform
  6
AUSGEZOGEN
 62
    56
370
    18
100
AcDbLine
 10
246.446362129182
 20
180.91266524799
 30
0.0
 11
244.136959663362
 21
180.91266524799
 31
0.0
  0
LINE
  5
2EB
330
1B2
100
AcDbEntity
  8
Stammform
  6
AUSGEZOGEN
 62
    56
370
    18
100
AcDbLine
 10
246.446362129182
 20
180.91266524799
 30
0.0
 11
247.601070991487
 21
182.91266524799
 31
0.0
  0
LINE
  5
2EC
330
1B2
100
AcDbEntity
  8
Stammform
  6
AUSGEZOGEN
 62
    56
370
    18
100
AcDbLine
 10
246.446362129182
 20
176.91266524799
 30
0.0
 11
247.601070991487
 21
178.91266524799
 31
0.0
  0
LINE
  5
2ED
330
1B2
100
AcDbEntity
  8
Stammform
  6
AUSGEZOGEN
 62
    56
370
    18
100
AcDbLine
 10
246.446362129182
 20
176.91266524799
 30
0.0
 11
244.136959663362
 21
176.91266524799
 31
0.0
  0
LINE
  5
2EE
330
1B2
100
AcDbEntity
  8
Stammform
  6
AUSGEZOGEN
 62
    56
370
    18
100
AcDbLine
 10
247.601070991487
 20
174.912657618595
 30
0.0
 11
246.446362129182
 21
176.91266524799
 31
0.0
  0
LINE
  5
2EF
330
1B2
100
AcDbEntity
  8
Layer0
  6
AUSGEZOGEN
 62
     9
370
    18
100
AcDbLine
 10
247.601070991487
 20
174.912657618595
 30
0.0
 11
248.755764595002
 21
176.91266524799
 31
0.0
  0
LINE
  5
2F0
330
1B2
100
AcDbEntity
  8
Layer0
  6
AUSGEZOGEN
 62
     9
370
    18
100
AcDbLine
 10
248.755764595002
 20
176.91266524799
 30
0.0
 11
247.601070991487
 21
178.91266524799
 31
0.0
  0
LINE
  5
2F1
330
1B2
100
AcDbEntity
  8
Layer0
  6
AUSGEZOGEN
 62
     9
370
    18
100
AcDbLine
 10
247.601070991487
 20
178.91266524799
 30
0.0
 11
245.291668525666
 21
178.91266524799
 31
0.0
  0
LINE
  5
2F2
330
1B2
100
AcDbEntity
  8
Layer0
  6
AUSGEZOGEN
 62
     9
370
    18
100
AcDbLine
 10
245.291668525666
 20
178.91266524799
 30
0.0
 11
244.136959663362
 21
176.91266524799
 31
0.0
  0
LINE
  5
2F3
330
1B2
100
AcDbEntity
  8
Layer0
  6
AUSGEZOGEN
 62
     9
370
    18
100
AcDbLine
 10
244.136959663362
 20
176.91266524799
 30
0.0
 11
245.291668525666
 21
174.912657618595
 31
0.0
  0
LINE
  5
2F4
330
1B2
100
AcDbEntity
  8
Layer0
  6
AUSGEZOGEN
 62
     9
370
    18
100
AcDbLine
 10
245.291668525666
 20
174.912657618595
 30
0.0
 11
247.601070991487
 21
174.912657618595
 31
0.0
  0
LINE
  5
2F5
330
1B2
100
AcDbEntity
  8
Layer0
  6
AUSGEZOGEN
 62
     9
370
    18
100
AcDbLine
 10
247.601070991487
 20
182.91266524799
 30
0.0
 11
248.755764595002
 21
184.91266524799
 31
0.0
  0
LINE
  5
2F6
330
1B2
100
AcDbEntity
  8
Layer0
  6
AUSGEZOGEN
 62
     9
370
    18
100
AcDbLine
 10
248.755764595002
 20
184.91266524799
 30
0.0
 11
247.601070991487
 21
186.912657618595
 31
0.0
  0
LINE
  5
2F7
330
1B2
100
AcDbEntity
  8
Layer0
  6
AUSGEZOGEN
 62
     9
370
    18
100
AcDbLine
 10
247.601070991487
 20
186.912657618595
 30
0.0
 11
245.291668525666
 21
186.912657618595
 31
0.0
  0
LINE
  5
2F8
330
1B2
100
AcDbEntity
  8
Layer0
  6
AUSGEZOGEN
 62
     9
370
    18
100
AcDbLine
 10
245.291668525666
 20
186.912657618595
 30
0.0
 11
244.136959663362
 21
184.91266524799
 31
0.0
  0
LINE
  5
2F9
330
1B2
100
AcDbEntity
  8
Layer0
  6
AUSGEZOGEN
 62
     9
370
    18
100
AcDbLine
 10
244.136959663362
 20
184.91266524799
 30
0.0
 11
245.291668525666
 21
182.91266524799
 31
0.0
  0
LINE
  5
2FA
330
1B2
100
AcDbEntity
  8
Layer0
  6
AUSGEZOGEN
 62
     9
370
    18
100
AcDbLine
 10
245.291668525666
 20
182.91266524799
 30
0.0
 11
247.601070991487
 21
182.91266524799
 31
0.0
  0
LINE
  5
2FB
330
1B2
100
AcDbEntity
  8
Stammform
  6
AUSGEZOGEN
 62
    56
370
    18
100
AcDbLine
 10
247.601070991487
 20
182.91266524799
 30
0.0
 11
246.446362129182
 21
184.91266524799
 31
0.0
  0
LINE
  5
2FC
330
1B2
100
AcDbEntity
  8
Stammform
  6
AUSGEZOGEN
 62
    56
370
    18
100
AcDbLine
 10
246.446362129182
 20
184.91266524799
 30
0.0
 11
244.136959663362
 21
184.91266524799
 31
0.0
  0
LINE
  5
2FD
330
1B2
100
AcDbEntity
  8
Stammform
  6
AUSGEZOGEN
 62
    56
370
    18
100
AcDbLine
 10
246.446362129182
 20
184.91266524799
 30
0.0
 11
247.601070991487
 21
186.912657618595
 31
0.0
  0
LINE
  5
2FE
330
1B2
100
AcDbEntity
  8
Stammform
  6
AUSGEZOGEN
 62
    56
370
    18
100
AcDbLine
 10
247.601070991487
 20
186.912657618595
 30
0.0
 11
246.446362129182
 21
188.912657618595
 31
0.0
  0
LINE
  5
2FF
330
1B2
100
AcDbEntity
  8
Layer0
  6
AUSGEZOGEN
 62
     9
370
    18
100
AcDbLine
 10
247.601070991487
 20
186.912657618595
 30
0.0
 11
248.755764595002
 21
188.912657618595
 31
0.0
  0
LINE
  5
300
330
1B2
100
AcDbEntity
  8
Layer0
  6
AUSGEZOGEN
 62
     9
370
    18
100
AcDbLine
 10
244.136959663362
 20
188.912657618595
 30
0.0
 11
245.291668525666
 21
186.912657618595
 31
0.0
  0
LINE
  5
301
330
1B2
100
AcDbEntity
  8
Layer0
  6
AUSGEZOGEN
 62
     9
370
    18
100
AcDbLine
 10
245.291668525666
 20
186.912657618595
 30
0.0
 11
247.601070991487
 21
186.912657618595
 31
0.0
  0
LINE
  5
302
330
1B2
100
AcDbEntity
  8
Stammform
  6
AUSGEZOGEN
 62
    56
370
    18
100
AcDbLine
 10
249.910473457307
 20
186.912657618595
 30
0.0
 11
251.065167060823
 21
188.912657618595
 31
0.0
  0
LINE
  5
303
330
1B2
100
AcDbEntity
  8
Stammform
  6
AUSGEZOGEN
 62
    56
370
    18
100
AcDbLine
 10
249.910473457307
 20
186.912657618595
 30
0.0
 11
247.601070991487
 21
186.912657618595
 31
0.0
  0
LINE
  5
304
330
1B2
100
AcDbEntity
  8
Stammform
  6
AUSGEZOGEN
 62
    56
370
    18
100
AcDbLine
 10
251.065167060823
 20
184.91266524799
 30
0.0
 11
249.910473457307
 21
186.912657618595
 31
0.0
  0
LINE
  5
305
330
1B2
100
AcDbEntity
  8
Layer0
  6
AUSGEZOGEN
 62
     9
370
    18
100
AcDbLine
 10
251.065167060823
 20
184.91266524799
 30
0.0
 11
252.219875923127
 21
186.912657618595
 31
0.0
  0
LINE
  5
306
330
1B2
100
AcDbEntity
  8
Layer0
  6
AUSGEZOGEN
 62
     9
370
    18
100
AcDbLine
 10
252.219875923127
 20
186.912657618595
 30
0.0
 11
251.065167060823
 21
188.912657618595
 31
0.0
  0
LINE
  5
307
330
1B2
100
AcDbEntity
  8
Layer0
  6
AUSGEZOGEN
 62
     9
370
    18
100
AcDbLine
 10
248.755764595002
 20
188.912657618595
 30
0.0
 11
247.601070991487
 21
186.912657618595
 31
0.0
  0
LINE
  5
308
330
1B2
100
AcDbEntity
  8
Layer0
  6
AUSGEZOGEN
 62
     9
370
    18
100
AcDbLine
 10
247.601070991487
 20
186.912657618595
 30
0.0
 11
248.755764595002
 21
184.91266524799
 31
0.0
  0
LINE
  5
309
330
1B2
100
AcDbEntity
  8
Layer0
  6
AUSGEZOGEN
 62
     9
370
    18
100
AcDbLine
 10
248.755764595002
 20
184.91266524799
 30
0.0
 11
251.065167060823
 21
184.91266524799
 31
0.0
  0
LINE
  5
30A
330
1B2
100
AcDbEntity
  8
Layer0
  6
AUSGEZOGEN
 62
     9
370
    18
100
AcDbLine
 10
251.065167060823
 20
176.91266524799
 30
0.0
 11
252.219875923127
 21
178.91266524799
 31
0.0
  0
LINE
  5
30B
330
1B2
100
AcDbEntity
  8
Layer0
  6
AUSGEZOGEN
 62
     9
370
    18
100
AcDbLine
 10
252.219875923127
 20
178.91266524799
 30
0.0
 11
251.065167060823
 21
180.91266524799
 31
0.0
  0
LINE
  5
30C
330
1B2
100
AcDbEntity
  8
Layer0
  6
AUSGEZOGEN
 62
     9
370
    18
100
AcDbLine
 10
251.065167060823
 20
180.91266524799
 30
0.0
 11
248.755764595002
 21
180.91266524799
 31
0.0
  0
LINE
  5
30D
330
1B2
100
AcDbEntity
  8
Layer0
  6
AUSGEZOGEN
 62
     9
370
    18
100
AcDbLine
 10
248.755764595002
 20
180.91266524799
 30
0.0
 11
247.601070991487
 21
178.91266524799
 31
0.0
  0
LINE
  5
30E
330
1B2
100
AcDbEntity
  8
Layer0
  6
AUSGEZOGEN
 62
     9
370
    18
100
AcDbLine
 10
247.601070991487
 20
178.91266524799
 30
0.0
 11
248.755764595002
 21
176.91266524799
 31
0.0
  0
LINE
  5
30F
330
1B2
100
AcDbEntity
  8
Layer0
  6
AUSGEZOGEN
 62
     9
370
    18
100
AcDbLine
 10
248.755764595002
 20
176.91266524799
 30
0.0
 11
251.065167060823
 21
176.91266524799
 31
0.0
  0
LINE
  5
310
330
1B2
100
AcDbEntity
  8
Stammform
  6
AUSGEZOGEN
 62
    56
370
    18
100
AcDbLine
 10
251.065167060823
 20
176.91266524799
 30
0.0
 11
249.910473457307
 21
178.91266524799
 31
0.0
  0
LINE
  5
311
330
1B2
100
AcDbEntity
  8
Stammform
  6
AUSGEZOGEN
 62
    56
370
    18
100
AcDbLine
 10
249.910473457307
 20
178.91266524799
 30
0.0
 11
247.601070991487
 21
178.91266524799
 31
0.0
  0
LINE
  5
312
330
1B2
100
AcDbEntity
  8
Stammform
  6
AUSGEZOGEN
 62
    56
370
    18
100
AcDbLine
 10
249.910473457307
 20
178.91266524799
 30
0.0
 11
251.065167060823
 21
180.91266524799
 31
0.0
  0
LINE
  5
313
330
1B2
100
AcDbEntity
  8
Stammform
  6
AUSGEZOGEN
 62
    56
370
    18
100
AcDbLine
 10
249.910473457307
 20
182.91266524799
 30
0.0
 11
251.065167060823
 21
184.91266524799
 31
0.0
  0
LINE
  5
314
330
1B2
100
AcDbEntity
  8
Stammform
  6
AUSGEZOGEN
 62
    56
370
    18
100
AcDbLine
 10
249.910473457307
 20
182.91266524799
 30
0.0
 11
247.601070991487
 21
182.91266524799
 31
0.0
  0
LINE
  5
315
330
1B2
100
AcDbEntity
  8
Stammform
  6
AUSGEZOGEN
 62
    56
370
    18
100
AcDbLine
 10
251.065167060823
 20
180.91266524799
 30
0.0
 11
249.910473457307
 21
182.91266524799
 31
0.0
  0
LINE
  5
316
330
1B2
100
AcDbEntity
  8
Layer0
  6
AUSGEZOGEN
 62
     9
370
    18
100
AcDbLine
 10
251.065167060823
 20
180.91266524799
 30
0.0
 11
252.219875923127
 21
182.91266524799
 31
0.0
  0
LINE
  5
317
330
1B2
100
AcDbEntity
  8
Layer0
  6
AUSGEZOGEN
 62
     9
370
    18
100
AcDbLine
 10
252.219875923127
 20
182.91266524799
 30
0.0
 11
251.065167060823
 21
184.91266524799
 31
0.0
  0
LINE
  5
318
330
1B2
100
AcDbEntity
  8
Layer0
  6
AUSGEZOGEN
 62
     9
370
    18
100
AcDbLine
 10
251.065167060823
 20
184.91266524799
 30
0.0
 11
248.755764595002
 21
184.91266524799
 31
0.0
  0
LINE
  5
319
330
1B2
100
AcDbEntity
  8
Layer0
  6
AUSGEZOGEN
 62
     9
370
    18
100
AcDbLine
 10
248.755764595002
 20
184.91266524799
 30
0.0
 11
247.601070991487
 21
182.91266524799
 31
0.0
  0
LINE
  5
31A
330
1B2
100
AcDbEntity
  8
Layer0
  6
AUSGEZOGEN
 62
     9
370
    18
100
AcDbLine
 10
247.601070991487
 20
182.91266524799
 30
0.0
 11
248.755764595002
 21
180.91266524799
 31
0.0
  0
LINE
  5
31B
330
1B2
100
AcDbEntity
  8
Layer0
  6
AUSGEZOGEN
 62
     9
370
    18
100
AcDbLine
 10
248.755764595002
 20
180.91266524799
 30
0.0
 11
251.065167060823
 21
180.91266524799
 31
0.0
  0
LINE
  5
31C
330
1B2
100
AcDbEntity
  8
Layer0
  6
AUSGEZOGEN
 62
     9
370
    18
100
AcDbLine
 10
251.065167060823
 20
168.912657618595
 30
0.0
 11
252.219875923127
 21
170.912657618595
 31
0.0
  0
LINE
  5
31D
330
1B2
100
AcDbEntity
  8
Layer0
  6
AUSGEZOGEN
 62
     9
370
    18
100
AcDbLine
 10
252.219875923127
 20
170.912657618595
 30
0.0
 11
251.065167060823
 21
172.912657618595
 31
0.0
  0
LINE
  5
31E
330
1B2
100
AcDbEntity
  8
Layer0
  6
AUSGEZOGEN
 62
     9
370
    18
100
AcDbLine
 10
251.065167060823
 20
172.912657618595
 30
0.0
 11
248.755764595002
 21
172.912657618595
 31
0.0
  0
LINE
  5
31F
330
1B2
100
AcDbEntity
  8
Layer0
  6
AUSGEZOGEN
 62
     9
370
    18
100
AcDbLine
 10
248.755764595002
 20
172.912657618595
 30
0.0
 11
247.601070991487
 21
170.912657618595
 31
0.0
  0
LINE
  5
320
330
1B2
100
AcDbEntity
  8
Layer0
  6
AUSGEZOGEN
 62
     9
370
    18
100
AcDbLine
 10
247.601070991487
 20
170.912657618595
 30
0.0
 11
248.755764595002
 21
168.912657618595
 31
0.0
  0
LINE
  5
321
330
1B2
100
AcDbEntity
  8
Layer0
  6
AUSGEZOGEN
 62
     9
370
    18
100
AcDbLine
 10
248.755764595002
 20
168.912657618595
 30
0.0
 11
251.065167060823
 21
168.912657618595
 31
0.0
  0
LINE
  5
322
330
1B2
100
AcDbEntity
  8
Stammform
  6
AUSGEZOGEN
 62
    56
370
    18
100
AcDbLine
 10
251.065167060823
 20
168.912657618595
 30
0.0
 11
249.910473457307
 21
170.912657618595
 31
0.0
  0
LINE
  5
323
330
1B2
100
AcDbEntity
  8
Stammform
  6
AUSGEZOGEN
 62
    56
370
    18
100
AcDbLine
 10
249.910473457307
 20
170.912657618595
 30
0.0
 11
247.601070991487
 21
170.912657618595
 31
0.0
  0
LINE
  5
324
330
1B2
100
AcDbEntity
  8
Stammform
  6
AUSGEZOGEN
 62
    56
370
    18
100
AcDbLine
 10
249.910473457307
 20
170.912657618595
 30
0.0
 11
251.065167060823
 21
172.912657618595
 31
0.0
  0
LINE
  5
325
330
1B2
100
AcDbEntity
  8
Stammform
  6
AUSGEZOGEN
 62
    56
370
    18
100
AcDbLine
 10
249.910473457307
 20
174.912657618595
 30
0.0
 11
251.065167060823
 21
176.91266524799
 31
0.0
  0
LINE
  5
326
330
1B2
100
AcDbEntity
  8
Stammform
  6
AUSGEZOGEN
 62
    56
370
    18
100
AcDbLine
 10
249.910473457307
 20
174.912657618595
 30
0.0
 11
247.601070991487
 21
174.912657618595
 31
0.0
  0
LINE
  5
327
330
1B2
100
AcDbEntity
  8
Stammform
  6
AUSGEZOGEN
 62
    56
370
    18
100
AcDbLine
 10
251.065167060823
 20
172.912657618595
 30
0.0
 11
249.910473457307
 21
174.912657618595
 31
0.0
  0
LINE
  5
328
330
1B2
100
AcDbEntity
  8
Layer0
  6
AUSGEZOGEN
 62
     9
370
    18
100
AcDbLine
 10
251.065167060823
 20
172.912657618595
 30
0.0
 11
252.219875923127
 21
174.912657618595
 31
0.0
  0
LINE
  5
329
330
1B2
100
AcDbEntity
  8
Layer0
  6
AUSGEZOGEN
 62
     9
370
    18
100
AcDbLine
 10
252.219875923127
 20
174.912657618595
 30
0.0
 11
251.065167060823
 21
176.91266524799
 31
0.0
  0
LINE
  5
32A
330
1B2
100
AcDbEntity
  8
Layer0
  6
AUSGEZOGEN
 62
     9
370
    18
100
AcDbLine
 10
251.065167060823
 20
176.91266524799
 30
0.0
 11
248.755764595002
 21
176.91266524799
 31
0.0
  0
LINE
  5
32B
330
1B2
100
AcDbEntity
  8
Layer0
  6
AUSGEZOGEN
 62
     9
370
    18
100
AcDbLine
 10
248.755764595002
 20
176.91266524799
 30
0.0
 11
247.601070991487
 21
174.912657618595
 31
0.0
  0
LINE
  5
32C
330
1B2
100
AcDbEntity
  8
Layer0
  6
AUSGEZOGEN
 62
     9
370
    18
100
AcDbLine
 10
247.601070991487
 20
174.912657618595
 30
0.0
 11
248.755764595002
 21
172.912657618595
 31
0.0
  0
LINE
  5
32D
330
1B2
100
AcDbEntity
  8
Layer0
  6
AUSGEZOGEN
 62
     9
370
    18
100
AcDbLine
 10
248.755764595002
 20
172.912657618595
 30
0.0
 11
251.065167060823
 21
172.912657618595
 31
0.0
  0
LINE
  5
32E
330
1B2
100
AcDbEntity
  8
Layer0
  6
AUSGEZOGEN
 62
     9
370
    18
100
AcDbLine
 10
251.065167060823
 20
160.912657618595
 30
0.0
 11
252.219875923127
 21
162.912657618595
 31
0.0
  0
LINE
  5
32F
330
1B2
100
AcDbEntity
  8
Layer0
  6
AUSGEZOGEN
 62
     9
370
    18
100
AcDbLine
 10
252.219875923127
 20
162.912657618595
 30
0.0
 11
251.065167060823
 21
164.912657618595
 31
0.0
  0
LINE
  5
330
330
1B2
100
AcDbEntity
  8
Layer0
  6
AUSGEZOGEN
 62
     9
370
    18
100
AcDbLine
 10
251.065167060823
 20
164.912657618595
 30
0.0
 11
248.755764595002
 21
164.912657618595
 31
0.0
  0
LINE
  5
331
330
1B2
100
AcDbEntity
  8
Layer0
  6
AUSGEZOGEN
 62
     9
370
    18
100
AcDbLine
 10
248.755764595002
 20
164.912657618595
 30
0.0
 11
247.601070991487
 21
162.912657618595
 31
0.0
  0
LINE
  5
332
330
1B2
100
AcDbEntity
  8
Layer0
  6
AUSGEZOGEN
 62
     9
370
    18
100
AcDbLine
 10
247.601070991487
 20
162.912657618595
 30
0.0
 11
248.755764595002
 21
160.912657618595
 31
0.0
  0
LINE
  5
333
330
1B2
100
AcDbEntity
  8
Layer0
  6
AUSGEZOGEN
 62
     9
370
    18
100
AcDbLine
 10
248.755764595002
 20
160.912657618595
 30
0.0
 11
251.065167060823
 21
160.912657618595
 31
0.0
  0
LINE
  5
334
330
1B2
100
AcDbEntity
  8
Stammform
  6
AUSGEZOGEN
 62
    56
370
    18
100
AcDbLine
 10
251.065167060823
 20
160.912657618595
 30
0.0
 11
249.910473457307
 21
162.912657618595
 31
0.0
  0
LINE
  5
335
330
1B2
100
AcDbEntity
  8
Stammform
  6
AUSGEZOGEN
 62
    56
370
    18
100
AcDbLine
 10
249.910473457307
 20
162.912657618595
 30
0.0
 11
247.601070991487
 21
162.912657618595
 31
0.0
  0
LINE
  5
336
330
1B2
100
AcDbEntity
  8
Stammform
  6
AUSGEZOGEN
 62
    56
370
    18
100
AcDbLine
 10
249.910473457307
 20
162.912657618595
 30
0.0
 11
251.065167060823
 21
164.912657618595
 31
0.0
  0
LINE
  5
337
330
1B2
100
AcDbEntity
  8
Stammform
  6
AUSGEZOGEN
 62
    56
370
    18
100
AcDbLine
 10
249.910473457307
 20
166.912657618595
 30
0.0
 11
251.065167060823
 21
168.912657618595
 31
0.0
  0
LINE
  5
338
330
1B2
100
AcDbEntity
  8
Stammform
  6
AUSGEZOGEN
 62
    56
370
    18
100
AcDbLine
 10
249.910473457307
 20
166.912657618595
 30
0.0
 11
247.601070991487
 21
166.912657618595
 31
0.0
  0
LINE
  5
339
330
1B2
100
AcDbEntity
  8
Stammform
  6
AUSGEZOGEN
 62
    56
370
    18
100
AcDbLine
 10
251.065167060823
 20
164.912657618595
 30
0.0
 11
249.910473457307
 21
166.912657618595
 31
0.0
  0
LINE
  5
33A
330
1B2
100
AcDbEntity
  8
Layer0
  6
AUSGEZOGEN
 62
     9
370
    18
100
AcDbLine
 10
251.065167060823
 20
164.912657618595
 30
0.0
 11
252.219875923127
 21
166.912657618595
 31
0.0
  0
LINE
  5
33B
330
1B2
100
AcDbEntity
  8
Layer0
  6
AUSGEZOGEN
 62
     9
370
    18
100
AcDbLine
 10
252.219875923127
 20
166.912657618595
 30
0.0
 11
251.065167060823
 21
168.912657618595
 31
0.0
  0
LINE
  5
33C
330
1B2
100
AcDbEntity
  8
Layer0
  6
AUSGEZOGEN
 62
     9
370
    18
100
AcDbLine
 10
251.065167060823
 20
168.912657618595
 30
0.0
 11
248.755764595002
 21
168.912657618595
 31
0.0
  0
LINE
  5
33D
330
1B2
100
AcDbEntity
  8
Layer0
  6
AUSGEZOGEN
 62
     9
370
    18
100
AcDbLine
 10
248.755764595002
 20
168.912657618595
 30
0.0
 11
247.601070991487
 21
166.912657618595
 31
0.0
  0
LINE
  5
33E
330
1B2
100
AcDbEntity
  8
Layer0
  6
AUSGEZOGEN
 62
     9
370
    18
100
AcDbLine
 10
247.601070991487
 20
166.912657618595
 30
0.0
 11
248.755764595002
 21
164.912657618595
 31
0.0
  0
LINE
  5
33F
330
1B2
100
AcDbEntity
  8
Layer0
  6
AUSGEZOGEN
 62
     9
370
    18
100
AcDbLine
 10
248.755764595002
 20
164.912657618595
 30
0.0
 11
251.065167060823
 21
164.912657618595
 31
0.0
  0
LINE
  5
340
330
1B2
100
AcDbEntity
  8
Layer0
  6
AUSGEZOGEN
 62
     9
370
    18
100
AcDbLine
 10
251.065167060823
 20
152.912657618595
 30
0.0
 11
252.219875923127
 21
154.912657618595
 31
0.0
  0
LINE
  5
341
330
1B2
100
AcDbEntity
  8
Layer0
  6
AUSGEZOGEN
 62
     9
370
    18
100
AcDbLine
 10
252.219875923127
 20
154.912657618595
 30
0.0
 11
251.065167060823
 21
156.912657618595
 31
0.0
  0
LINE
  5
342
330
1B2
100
AcDbEntity
  8
Layer0
  6
AUSGEZOGEN
 62
     9
370
    18
100
AcDbLine
 10
251.065167060823
 20
156.912657618595
 30
0.0
 11
248.755764595002
 21
156.912657618595
 31
0.0
  0
LINE
  5
343
330
1B2
100
AcDbEntity
  8
Layer0
  6
AUSGEZOGEN
 62
     9
370
    18
100
AcDbLine
 10
248.755764595002
 20
156.912657618595
 30
0.0
 11
247.601070991487
 21
154.912657618595
 31
0.0
  0
LINE
  5
344
330
1B2
100
AcDbEntity
  8
Layer0
  6
AUSGEZOGEN
 62
     9
370
    18
100
AcDbLine
 10
247.601070991487
 20
154.912657618595
 30
0.0
 11
248.755764595002
 21
152.912657618595
 31
0.0
  0
LINE
  5
345
330
1B2
100
AcDbEntity
  8
Layer0
  6
AUSGEZOGEN
 62
     9
370
    18
100
AcDbLine
 10
248.755764595002
 20
152.912657618595
 30
0.0
 11
251.065167060823
 21
152.912657618595
 31
0.0
  0
LINE
  5
346
330
1B2
100
AcDbEntity
  8
Stammform
  6
AUSGEZOGEN
 62
    56
370
    18
100
AcDbLine
 10
251.065167060823
 20
152.912657618595
 30
0.0
 11
249.910473457307
 21
154.912657618595
 31
0.0
  0
LINE
  5
347
330
1B2
100
AcDbEntity
  8
Stammform
  6
AUSGEZOGEN
 62
    56
370
    18
100
AcDbLine
 10
249.910473457307
 20
154.912657618595
 30
0.0
 11
247.601070991487
 21
154.912657618595
 31
0.0
  0
LINE
  5
348
330
1B2
100
AcDbEntity
  8
Stammform
  6
AUSGEZOGEN
 62
    56
370
    18
100
AcDbLine
 10
249.910473457307
 20
154.912657618595
 30
0.0
 11
251.065167060823
 21
156.912657618595
 31
0.0
  0
LINE
  5
349
330
1B2
100
AcDbEntity
  8
Stammform
  6
AUSGEZOGEN
 62
    56
370
    18
100
AcDbLine
 10
249.910473457307
 20
158.912657618595
 30
0.0
 11
251.065167060823
 21
160.912657618595
 31
0.0
  0
LINE
  5
34A
330
1B2
100
AcDbEntity
  8
Stammform
  6
AUSGEZOGEN
 62
    56
370
    18
100
AcDbLine
 10
249.910473457307
 20
158.912657618595
 30
0.0
 11
247.601070991487
 21
158.912657618595
 31
0.0
  0
LINE
  5
34B
330
1B2
100
AcDbEntity
  8
Stammform
  6
AUSGEZOGEN
 62
    56
370
    18
100
AcDbLine
 10
251.065167060823
 20
156.912657618595
 30
0.0
 11
249.910473457307
 21
158.912657618595
 31
0.0
  0
LINE
  5
34C
330
1B2
100
AcDbEntity
  8
Layer0
  6
AUSGEZOGEN
 62
     9
370
    18
100
AcDbLine
 10
251.065167060823
 20
156.912657618595
 30
0.0
 11
252.219875923127
 21
158.912657618595
 31
0.0
  0
LINE
  5
34D
330
1B2
100
AcDbEntity
  8
Layer0
  6
AUSGEZOGEN
 62
     9
370
    18
100
AcDbLine
 10
252.219875923127
 20
158.912657618595
 30
0.0
 11
251.065167060823
 21
160.912657618595
 31
0.0
  0
LINE
  5
34E
330
1B2
100
AcDbEntity
  8
Layer0
  6
AUSGEZOGEN
 62
     9
370
    18
100
AcDbLine
 10
251.065167060823
 20
160.912657618595
 30
0.0
 11
248.755764595002
 21
160.912657618595
 31
0.0
  0
LINE
  5
34F
330
1B2
100
AcDbEntity
  8
Layer0
  6
AUSGEZOGEN
 62
     9
370
    18
100
AcDbLine
 10
248.755764595002
 20
160.912657618595
 30
0.0
 11
247.601070991487
 21
158.912657618595
 31
0.0
  0
LINE
  5
350
330
1B2
100
AcDbEntity
  8
Layer0
  6
AUSGEZOGEN
 62
     9
370
    18
100
AcDbLine
 10
247.601070991487
 20
158.912657618595
 30
0.0
 11
248.755764595002
 21
156.912657618595
 31
0.0
  0
LINE
  5
351
330
1B2
100
AcDbEntity
  8
Layer0
  6
AUSGEZOGEN
 62
     9
370
    18
100
AcDbLine
 10
248.755764595002
 20
156.912657618595
 30
0.0
 11
251.065167060823
 21
156.912657618595
 31
0.0
  0
LINE
  5
352
330
1B2
100
AcDbEntity
  8
Layer0
  6
AUSGEZOGEN
 62
     9
370
    18
100
AcDbLine
 10
252.219875923127
 20
134.912657618595
 30
0.0
 11
251.065167060823
 21
136.912657618595
 31
0.0
  0
LINE
  5
353
330
1B2
100
AcDbEntity
  8
Layer0
  6
AUSGEZOGEN
 62
     9
370
    18
100
AcDbLine
 10
251.065167060823
 20
136.912657618595
 30
0.0
 11
248.755764595002
 21
136.912657618595
 31
0.0
  0
LINE
  5
354
330
1B2
100
AcDbEntity
  8
Layer0
  6
AUSGEZOGEN
 62
     9
370
    18
100
AcDbLine
 10
248.755764595002
 20
136.912657618595
 30
0.0
 11
247.601070991487
 21
134.912657618595
 31
0.0
  0
LINE
  5
355
330
1B2
100
AcDbEntity
  8
Stammform
  6
AUSGEZOGEN
 62
    56
370
    18
100
AcDbLine
 10
249.910473457307
 20
134.912657618595
 30
0.0
 11
251.065167060823
 21
136.912657618595
 31
0.0
  0
LINE
  5
356
330
1B2
100
AcDbEntity
  8
Layer0
  6
AUSGEZOGEN
 62
     9
370
    18
100
AcDbLine
 10
251.065167060823
 20
140.912657618595
 30
0.0
 11
252.219875923127
 21
142.912657618595
 31
0.0
  0
LINE
  5
357
330
1B2
100
AcDbEntity
  8
Layer0
  6
AUSGEZOGEN
 62
     9
370
    18
100
AcDbLine
 10
252.219875923127
 20
142.912657618595
 30
0.0
 11
251.065167060823
 21
144.912657618595
 31
0.0
  0
LINE
  5
358
330
1B2
100
AcDbEntity
  8
Layer0
  6
AUSGEZOGEN
 62
     9
370
    18
100
AcDbLine
 10
251.065167060823
 20
144.912657618595
 30
0.0
 11
248.755764595002
 21
144.912657618595
 31
0.0
  0
LINE
  5
359
330
1B2
100
AcDbEntity
  8
Layer0
  6
AUSGEZOGEN
 62
     9
370
    18
100
AcDbLine
 10
248.755764595002
 20
144.912657618595
 30
0.0
 11
247.601070991487
 21
142.912657618595
 31
0.0
  0
LINE
  5
35A
330
1B2
100
AcDbEntity
  8
Layer0
  6
AUSGEZOGEN
 62
     9
370
    18
100
AcDbLine
 10
247.601070991487
 20
142.912657618595
 30
0.0
 11
248.755764595002
 21
140.912657618595
 31
0.0
  0
LINE
  5
35B
330
1B2
100
AcDbEntity
  8
Layer0
  6
AUSGEZOGEN
 62
     9
370
    18
100
AcDbLine
 10
248.755764595002
 20
140.912657618595
 30
0.0
 11
251.065167060823
 21
140.912657618595
 31
0.0
  0
LINE
  5
35C
330
1B2
100
AcDbEntity
  8
Stammform
  6
AUSGEZOGEN
 62
    56
370
    18
100
AcDbLine
 10
251.065167060823
 20
140.912657618595
 30
0.0
 11
249.910473457307
 21
142.912657618595
 31
0.0
  0
LINE
  5
35D
330
1B2
100
AcDbEntity
  8
Stammform
  6
AUSGEZOGEN
 62
    56
370
    18
100
AcDbLine
 10
249.910473457307
 20
142.912657618595
 30
0.0
 11
247.601070991487
 21
142.912657618595
 31
0.0
  0
LINE
  5
35E
330
1B2
100
AcDbEntity
  8
Stammform
  6
AUSGEZOGEN
 62
    56
370
    18
100
AcDbLine
 10
249.910473457307
 20
142.912657618595
 30
0.0
 11
251.065167060823
 21
144.912657618595
 31
0.0
  0
LINE
  5
35F
330
1B2
100
AcDbEntity
  8
Stammform
  6
AUSGEZOGEN
 62
    56
370
    18
100
AcDbLine
 10
249.910473457307
 20
138.912657618595
 30
0.0
 11
251.065167060823
 21
140.912657618595
 31
0.0
  0
LINE
  5
360
330
1B2
100
AcDbEntity
  8
Stammform
  6
AUSGEZOGEN
 62
    56
370
    18
100
AcDbLine
 10
249.910473457307
 20
138.912657618595
 30
0.0
 11
247.601070991487
 21
138.912657618595
 31
0.0
  0
LINE
  5
361
330
1B2
100
AcDbEntity
  8
Stammform
  6
AUSGEZOGEN
 62
    56
370
    18
100
AcDbLine
 10
251.065167060823
 20
136.912657618595
 30
0.0
 11
249.910473457307
 21
138.912657618595
 31
0.0
  0
LINE
  5
362
330
1B2
100
AcDbEntity
  8
Layer0
  6
AUSGEZOGEN
 62
     9
370
    18
100
AcDbLine
 10
251.065167060823
 20
136.912657618595
 30
0.0
 11
252.219875923127
 21
138.912657618595
 31
0.0
  0
LINE
  5
363
330
1B2
100
AcDbEntity
  8
Layer0
  6
AUSGEZOGEN
 62
     9
370
    18
100
AcDbLine
 10
252.219875923127
 20
138.912657618595
 30
0.0
 11
251.065167060823
 21
140.912657618595
 31
0.0
  0
LINE
  5
364
330
1B2
100
AcDbEntity
  8
Layer0
  6
AUSGEZOGEN
 62
     9
370
    18
100
AcDbLine
 10
251.065167060823
 20
140.912657618595
 30
0.0
 11
248.755764595002
 21
140.912657618595
 31
0.0
  0
LINE
  5
365
330
1B2
100
AcDbEntity
  8
Layer0
  6
AUSGEZOGEN
 62
     9
370
    18
100
AcDbLine
 10
248.755764595002
 20
140.912657618595
 30
0.0
 11
247.601070991487
 21
138.912657618595
 31
0.0
  0
LINE
  5
366
330
1B2
100
AcDbEntity
  8
Layer0
  6
AUSGEZOGEN
 62
     9
370
    18
100
AcDbLine
 10
247.601070991487
 20
138.912657618595
 30
0.0
 11
248.755764595002
 21
136.912657618595
 31
0.0
  0
LINE
  5
367
330
1B2
100
AcDbEntity
  8
Layer0
  6
AUSGEZOGEN
 62
     9
370
    18
100
AcDbLine
 10
248.755764595002
 20
136.912657618595
 30
0.0
 11
251.065167060823
 21
136.912657618595
 31
0.0
  0
LINE
  5
368
330
1B2
100
AcDbEntity
  8
Layer0
  6
AUSGEZOGEN
 62
     9
370
    18
100
AcDbLine
 10
251.065167060823
 20
144.912657618595
 30
0.0
 11
252.219875923127
 21
146.912657618595
 31
0.0
  0
LINE
  5
369
330
1B2
100
AcDbEntity
  8
Layer0
  6
AUSGEZOGEN
 62
     9
370
    18
100
AcDbLine
 10
252.219875923127
 20
146.912657618595
 30
0.0
 11
251.065167060823
 21
148.912657618595
 31
0.0
  0
LINE
  5
36A
330
1B2
100
AcDbEntity
  8
Layer0
  6
AUSGEZOGEN
 62
     9
370
    18
100
AcDbLine
 10
251.065167060823
 20
148.912657618595
 30
0.0
 11
248.755764595002
 21
148.912657618595
 31
0.0
  0
LINE
  5
36B
330
1B2
100
AcDbEntity
  8
Layer0
  6
AUSGEZOGEN
 62
     9
370
    18
100
AcDbLine
 10
248.755764595002
 20
148.912657618595
 30
0.0
 11
247.601070991487
 21
146.912657618595
 31
0.0
  0
LINE
  5
36C
330
1B2
100
AcDbEntity
  8
Layer0
  6
AUSGEZOGEN
 62
     9
370
    18
100
AcDbLine
 10
247.601070991487
 20
146.912657618595
 30
0.0
 11
248.755764595002
 21
144.912657618595
 31
0.0
  0
LINE
  5
36D
330
1B2
100
AcDbEntity
  8
Layer0
  6
AUSGEZOGEN
 62
     9
370
    18
100
AcDbLine
 10
248.755764595002
 20
144.912657618595
 30
0.0
 11
251.065167060823
 21
144.912657618595
 31
0.0
  0
LINE
  5
36E
330
1B2
100
AcDbEntity
  8
Stammform
  6
AUSGEZOGEN
 62
    56
370
    18
100
AcDbLine
 10
251.065167060823
 20
144.912657618595
 30
0.0
 11
249.910473457307
 21
146.912657618595
 31
0.0
  0
LINE
  5
36F
330
1B2
100
AcDbEntity
  8
Stammform
  6
AUSGEZOGEN
 62
    56
370
    18
100
AcDbLine
 10
249.910473457307
 20
146.912657618595
 30
0.0
 11
247.601070991487
 21
146.912657618595
 31
0.0
  0
LINE
  5
370
330
1B2
100
AcDbEntity
  8
Stammform
  6
AUSGEZOGEN
 62
    56
370
    18
100
AcDbLine
 10
249.910473457307
 20
146.912657618595
 30
0.0
 11
251.065167060823
 21
148.912657618595
 31
0.0
  0
LINE
  5
371
330
1B2
100
AcDbEntity
  8
Stammform
  6
AUSGEZOGEN
 62
    56
370
    18
100
AcDbLine
 10
249.910473457307
 20
150.912657618595
 30
0.0
 11
251.065167060823
 21
152.912657618595
 31
0.0
  0
LINE
  5
372
330
1B2
100
AcDbEntity
  8
Stammform
  6
AUSGEZOGEN
 62
    56
370
    18
100
AcDbLine
 10
249.910473457307
 20
150.912657618595
 30
0.0
 11
247.601070991487
 21
150.912657618595
 31
0.0
  0
LINE
  5
373
330
1B2
100
AcDbEntity
  8
Stammform
  6
AUSGEZOGEN
 62
    56
370
    18
100
AcDbLine
 10
251.065167060823
 20
148.912657618595
 30
0.0
 11
249.910473457307
 21
150.912657618595
 31
0.0
  0
LINE
  5
374
330
1B2
100
AcDbEntity
  8
Layer0
  6
AUSGEZOGEN
 62
     9
370
    18
100
AcDbLine
 10
251.065167060823
 20
148.912657618595
 30
0.0
 11
252.219875923127
 21
150.912657618595
 31
0.0
  0
LINE
  5
375
330
1B2
100
AcDbEntity
  8
Layer0
  6
AUSGEZOGEN
 62
     9
370
    18
100
AcDbLine
 10
252.219875923127
 20
150.912657618595
 30
0.0
 11
251.065167060823
 21
152.912657618595
 31
0.0
  0
LINE
  5
376
330
1B2
100
AcDbEntity
  8
Layer0
  6
AUSGEZOGEN
 62
     9
370
    18
100
AcDbLine
 10
251.065167060823
 20
152.912657618595
 30
0.0
 11
248.755764595002
 21
152.912657618595
 31
0.0
  0
LINE
  5
377
330
1B2
100
AcDbEntity
  8
Layer0
  6
AUSGEZOGEN
 62
     9
370
    18
100
AcDbLine
 10
248.755764595002
 20
152.912657618595
 30
0.0
 11
247.601070991487
 21
150.912657618595
 31
0.0
  0
LINE
  5
378
330
1B2
100
AcDbEntity
  8
Layer0
  6
AUSGEZOGEN
 62
     9
370
    18
100
AcDbLine
 10
247.601070991487
 20
150.912657618595
 30
0.0
 11
248.755764595002
 21
148.912657618595
 31
0.0
  0
LINE
  5
379
330
1B2
100
AcDbEntity
  8
Layer0
  6
AUSGEZOGEN
 62
     9
370
    18
100
AcDbLine
 10
248.755764595002
 20
148.912657618595
 30
0.0
 11
251.065167060823
 21
148.912657618595
 31
0.0
  0
LINE
  5
37A
330
1B2
100
AcDbEntity
  8
Layer0
  6
AUSGEZOGEN
 62
     9
370
    18
100
AcDbLine
 10
240.672863594026
 20
146.912657618595
 30
0.0
 11
241.827557197541
 21
148.912657618595
 31
0.0
  0
LINE
  5
37B
330
1B2
100
AcDbEntity
  8
Layer0
  6
AUSGEZOGEN
 62
     9
370
    18
100
AcDbLine
 10
241.827557197541
 20
148.912657618595
 30
0.0
 11
240.672863594026
 21
150.912657618595
 31
0.0
  0
LINE
  5
37C
330
1B2
100
AcDbEntity
  8
Layer0
  6
AUSGEZOGEN
 62
     9
370
    18
100
AcDbLine
 10
240.672863594026
 20
150.912657618595
 30
0.0
 11
239.51816999051
 21
150.912657618595
 31
0.0
  0
LINE
  5
37D
330
1B2
100
AcDbEntity
  8
Layer0
  6
AUSGEZOGEN
 62
     9
370
    18
100
AcDbLine
 10
239.51816999051
 20
146.912657618595
 30
0.0
 11
240.672863594026
 21
146.912657618595
 31
0.0
  0
LINE
  5
37E
330
1B2
100
AcDbEntity
  8
Stammform
  6
AUSGEZOGEN
 62
    56
370
    18
100
AcDbLine
 10
240.672863594026
 20
146.912657618595
 30
0.0
 11
239.51816999051
 21
148.912657618595
 31
0.0
  0
LINE
  5
37F
330
1B2
100
AcDbEntity
  8
Stammform
  6
AUSGEZOGEN
 62
    56
370
    18
100
AcDbLine
 10
239.51816999051
 20
148.912657618595
 30
0.0
 11
240.672863594026
 21
150.912657618595
 31
0.0
  0
LINE
  5
380
330
1B2
100
AcDbEntity
  8
Stammform
  6
AUSGEZOGEN
 62
    56
370
    18
100
AcDbLine
 10
239.51816999051
 20
144.912657618595
 30
0.0
 11
240.672863594026
 21
146.912657618595
 31
0.0
  0
LINE
  5
381
330
1B2
100
AcDbEntity
  8
Stammform
  6
AUSGEZOGEN
 62
    56
370
    18
100
AcDbLine
 10
240.672863594026
 20
142.912657618595
 30
0.0
 11
239.51816999051
 21
144.912657618595
 31
0.0
  0
LINE
  5
382
330
1B2
100
AcDbEntity
  8
Layer0
  6
AUSGEZOGEN
 62
     9
370
    18
100
AcDbLine
 10
240.672863594026
 20
142.912657618595
 30
0.0
 11
241.827557197541
 21
144.912657618595
 31
0.0
  0
LINE
  5
383
330
1B2
100
AcDbEntity
  8
Layer0
  6
AUSGEZOGEN
 62
     9
370
    18
100
AcDbLine
 10
241.827557197541
 20
144.912657618595
 30
0.0
 11
240.672863594026
 21
146.912657618595
 31
0.0
  0
LINE
  5
384
330
1B2
100
AcDbEntity
  8
Layer0
  6
AUSGEZOGEN
 62
     9
370
    18
100
AcDbLine
 10
239.51816999051
 20
142.912657618595
 30
0.0
 11
240.672863594026
 21
142.912657618595
 31
0.0
  0
LINE
  5
385
330
1B2
100
AcDbEntity
  8
Layer0
  6
AUSGEZOGEN
 62
     9
370
    18
100
AcDbLine
 10
240.672863594026
 20
134.912657618595
 30
0.0
 11
241.827557197541
 21
136.912657618595
 31
0.0
  0
LINE
  5
386
330
1B2
100
AcDbEntity
  8
Layer0
  6
AUSGEZOGEN
 62
     9
370
    18
100
AcDbLine
 10
241.827557197541
 20
136.912657618595
 30
0.0
 11
240.672863594026
 21
138.912657618595
 31
0.0
  0
LINE
  5
387
330
1B2
100
AcDbEntity
  8
Layer0
  6
AUSGEZOGEN
 62
     9
370
    18
100
AcDbLine
 10
240.672863594026
 20
138.912657618595
 30
0.0
 11
239.51816999051
 21
138.912657618595
 31
0.0
  0
LINE
  5
388
330
1B2
100
AcDbEntity
  8
Stammform
  6
AUSGEZOGEN
 62
    56
370
    18
100
AcDbLine
 10
240.672863594026
 20
134.912657618595
 30
0.0
 11
239.51816999051
 21
136.912657618595
 31
0.0
  0
LINE
  5
389
330
1B2
100
AcDbEntity
  8
Stammform
  6
AUSGEZOGEN
 62
    56
370
    18
100
AcDbLine
 10
239.51816999051
 20
136.912657618595
 30
0.0
 11
240.672863594026
 21
138.912657618595
 31
0.0
  0
LINE
  5
38A
330
1B2
100
AcDbEntity
  8
Stammform
  6
AUSGEZOGEN
 62
    56
370
    18
100
AcDbLine
 10
239.51816999051
 20
140.912657618595
 30
0.0
 11
240.672863594026
 21
142.912657618595
 31
0.0
  0
LINE
  5
38B
330
1B2
100
AcDbEntity
  8
Stammform
  6
AUSGEZOGEN
 62
    56
370
    18
100
AcDbLine
 10
240.672863594026
 20
138.912657618595
 30
0.0
 11
239.51816999051
 21
140.912657618595
 31
0.0
  0
LINE
  5
38C
330
1B2
100
AcDbEntity
  8
Layer0
  6
AUSGEZOGEN
 62
     9
370
    18
100
AcDbLine
 10
240.672863594026
 20
138.912657618595
 30
0.0
 11
241.827557197541
 21
140.912657618595
 31
0.0
  0
LINE
  5
38D
330
1B2
100
AcDbEntity
  8
Layer0
  6
AUSGEZOGEN
 62
     9
370
    18
100
AcDbLine
 10
241.827557197541
 20
140.912657618595
 30
0.0
 11
240.672863594026
 21
142.912657618595
 31
0.0
  0
LINE
  5
38E
330
1B2
100
AcDbEntity
  8
Layer0
  6
AUSGEZOGEN
 62
     9
370
    18
100
AcDbLine
 10
240.672863594026
 20
154.912657618595
 30
0.0
 11
241.827557197541
 21
156.912657618595
 31
0.0
  0
LINE
  5
38F
330
1B2
100
AcDbEntity
  8
Layer0
  6
AUSGEZOGEN
 62
     9
370
    18
100
AcDbLine
 10
241.827557197541
 20
156.912657618595
 30
0.0
 11
240.672863594026
 21
158.912657618595
 31
0.0
  0
LINE
  5
390
330
1B2
100
AcDbEntity
  8
Layer0
  6
AUSGEZOGEN
 62
     9
370
    18
100
AcDbLine
 10
240.672863594026
 20
158.912657618595
 30
0.0
 11
239.51816999051
 21
158.912657618595
 31
0.0
  0
LINE
  5
391
330
1B2
100
AcDbEntity
  8
Layer0
  6
AUSGEZOGEN
 62
     9
370
    18
100
AcDbLine
 10
239.51816999051
 20
154.912657618595
 30
0.0
 11
240.672863594026
 21
154.912657618595
 31
0.0
  0
LINE
  5
392
330
1B2
100
AcDbEntity
  8
Stammform
  6
AUSGEZOGEN
 62
    56
370
    18
100
AcDbLine
 10
240.672863594026
 20
154.912657618595
 30
0.0
 11
239.51816999051
 21
156.912657618595
 31
0.0
  0
LINE
  5
393
330
1B2
100
AcDbEntity
  8
Stammform
  6
AUSGEZOGEN
 62
    56
370
    18
100
AcDbLine
 10
239.51816999051
 20
156.912657618595
 30
0.0
 11
240.672863594026
 21
158.912657618595
 31
0.0
  0
LINE
  5
394
330
1B2
100
AcDbEntity
  8
Stammform
  6
AUSGEZOGEN
 62
    56
370
    18
100
AcDbLine
 10
239.51816999051
 20
152.912657618595
 30
0.0
 11
240.672863594026
 21
154.912657618595
 31
0.0
  0
LINE
  5
395
330
1B2
100
AcDbEntity
  8
Stammform
  6
AUSGEZOGEN
 62
    56
370
    18
100
AcDbLine
 10
240.672863594026
 20
150.912657618595
 30
0.0
 11
239.51816999051
 21
152.912657618595
 31
0.0
  0
LINE
  5
396
330
1B2
100
AcDbEntity
  8
Layer0
  6
AUSGEZOGEN
 62
     9
370
    18
100
AcDbLine
 10
240.672863594026
 20
150.912657618595
 30
0.0
 11
241.827557197541
 21
152.912657618595
 31
0.0
  0
LINE
  5
397
330
1B2
100
AcDbEntity
  8
Layer0
  6
AUSGEZOGEN
 62
     9
370
    18
100
AcDbLine
 10
241.827557197541
 20
152.912657618595
 30
0.0
 11
240.672863594026
 21
154.912657618595
 31
0.0
  0
LINE
  5
398
330
1B2
100
AcDbEntity
  8
Layer0
  6
AUSGEZOGEN
 62
     9
370
    18
100
AcDbLine
 10
240.672863594026
 20
162.912657618595
 30
0.0
 11
241.827557197541
 21
164.912657618595
 31
0.0
  0
LINE
  5
399
330
1B2
100
AcDbEntity
  8
Layer0
  6
AUSGEZOGEN
 62
     9
370
    18
100
AcDbLine
 10
241.827557197541
 20
164.912657618595
 30
0.0
 11
240.672863594026
 21
166.912657618595
 31
0.0
  0
LINE
  5
39A
330
1B2
100
AcDbEntity
  8
Layer0
  6
AUSGEZOGEN
 62
     9
370
    18
100
AcDbLine
 10
240.672863594026
 20
166.912657618595
 30
0.0
 11
239.51816999051
 21
166.912657618595
 31
0.0
  0
LINE
  5
39B
330
1B2
100
AcDbEntity
  8
Layer0
  6
AUSGEZOGEN
 62
     9
370
    18
100
AcDbLine
 10
239.51816999051
 20
162.912657618595
 30
0.0
 11
240.672863594026
 21
162.912657618595
 31
0.0
  0
LINE
  5
39C
330
1B2
100
AcDbEntity
  8
Stammform
  6
AUSGEZOGEN
 62
    56
370
    18
100
AcDbLine
 10
240.672863594026
 20
162.912657618595
 30
0.0
 11
239.51816999051
 21
164.912657618595
 31
0.0
  0
LINE
  5
39D
330
1B2
100
AcDbEntity
  8
Stammform
  6
AUSGEZOGEN
 62
    56
370
    18
100
AcDbLine
 10
239.51816999051
 20
164.912657618595
 30
0.0
 11
240.672863594026
 21
166.912657618595
 31
0.0
  0
LINE
  5
39E
330
1B2
100
AcDbEntity
  8
Stammform
  6
AUSGEZOGEN
 62
    56
370
    18
100
AcDbLine
 10
239.51816999051
 20
160.912657618595
 30
0.0
 11
240.672863594026
 21
162.912657618595
 31
0.0
  0
LINE
  5
39F
330
1B2
100
AcDbEntity
  8
Stammform
  6
AUSGEZOGEN
 62
    56
370
    18
100
AcDbLine
 10
240.672863594026
 20
158.912657618595
 30
0.0
 11
239.51816999051
 21
160.912657618595
 31
0.0
  0
LINE
  5
3A0
330
1B2
100
AcDbEntity
  8
Layer0
  6
AUSGEZOGEN
 62
     9
370
    18
100
AcDbLine
 10
240.672863594026
 20
158.912657618595
 30
0.0
 11
241.827557197541
 21
160.912657618595
 31
0.0
  0
LINE
  5
3A1
330
1B2
100
AcDbEntity
  8
Layer0
  6
AUSGEZOGEN
 62
     9
370
    18
100
AcDbLine
 10
241.827557197541
 20
160.912657618595
 30
0.0
 11
240.672863594026
 21
162.912657618595
 31
0.0
  0
LINE
  5
3A2
330
1B2
100
AcDbEntity
  8
Layer0
  6
AUSGEZOGEN
 62
     9
370
    18
100
AcDbLine
 10
240.672863594026
 20
170.912657618595
 30
0.0
 11
241.827557197541
 21
172.912657618595
 31
0.0
  0
LINE
  5
3A3
330
1B2
100
AcDbEntity
  8
Layer0
  6
AUSGEZOGEN
 62
     9
370
    18
100
AcDbLine
 10
241.827557197541
 20
172.912657618595
 30
0.0
 11
240.672863594026
 21
174.912657618595
 31
0.0
  0
LINE
  5
3A4
330
1B2
100
AcDbEntity
  8
Layer0
  6
AUSGEZOGEN
 62
     9
370
    18
100
AcDbLine
 10
240.672863594026
 20
174.912657618595
 30
0.0
 11
239.51816999051
 21
174.912657618595
 31
0.0
  0
LINE
  5
3A5
330
1B2
100
AcDbEntity
  8
Layer0
  6
AUSGEZOGEN
 62
     9
370
    18
100
AcDbLine
 10
239.51816999051
 20
170.912657618595
 30
0.0
 11
240.672863594026
 21
170.912657618595
 31
0.0
  0
LINE
  5
3A6
330
1B2
100
AcDbEntity
  8
Stammform
  6
AUSGEZOGEN
 62
    56
370
    18
100
AcDbLine
 10
240.672863594026
 20
170.912657618595
 30
0.0
 11
239.51816999051
 21
172.912657618595
 31
0.0
  0
LINE
  5
3A7
330
1B2
100
AcDbEntity
  8
Stammform
  6
AUSGEZOGEN
 62
    56
370
    18
100
AcDbLine
 10
239.51816999051
 20
172.912657618595
 30
0.0
 11
240.672863594026
 21
174.912657618595
 31
0.0
  0
LINE
  5
3A8
330
1B2
100
AcDbEntity
  8
Stammform
  6
AUSGEZOGEN
 62
    56
370
    18
100
AcDbLine
 10
239.51816999051
 20
168.912657618595
 30
0.0
 11
240.672863594026
 21
170.912657618595
 31
0.0
  0
LINE
  5
3A9
330
1B2
100
AcDbEntity
  8
Stammform
  6
AUSGEZOGEN
 62
    56
370
    18
100
AcDbLine
 10
240.672863594026
 20
166.912657618595
 30
0.0
 11
239.51816999051
 21
168.912657618595
 31
0.0
  0
LINE
  5
3AA
330
1B2
100
AcDbEntity
  8
Layer0
  6
AUSGEZOGEN
 62
     9
370
    18
100
AcDbLine
 10
240.672863594026
 20
166.912657618595
 30
0.0
 11
241.827557197541
 21
168.912657618595
 31
0.0
  0
LINE
  5
3AB
330
1B2
100
AcDbEntity
  8
Layer0
  6
AUSGEZOGEN
 62
     9
370
    18
100
AcDbLine
 10
241.827557197541
 20
168.912657618595
 30
0.0
 11
240.672863594026
 21
170.912657618595
 31
0.0
  0
LINE
  5
3AC
330
1B2
100
AcDbEntity
  8
Layer0
  6
AUSGEZOGEN
 62
     9
370
    18
100
AcDbLine
 10
240.672863594026
 20
178.91266524799
 30
0.0
 11
241.827557197541
 21
180.91266524799
 31
0.0
  0
LINE
  5
3AD
330
1B2
100
AcDbEntity
  8
Layer0
  6
AUSGEZOGEN
 62
     9
370
    18
100
AcDbLine
 10
241.827557197541
 20
180.91266524799
 30
0.0
 11
240.672863594026
 21
182.91266524799
 31
0.0
  0
LINE
  5
3AE
330
1B2
100
AcDbEntity
  8
Layer0
  6
AUSGEZOGEN
 62
     9
370
    18
100
AcDbLine
 10
240.672863594026
 20
182.91266524799
 30
0.0
 11
239.51816999051
 21
182.91266524799
 31
0.0
  0
LINE
  5
3AF
330
1B2
100
AcDbEntity
  8
Layer0
  6
AUSGEZOGEN
 62
     9
370
    18
100
AcDbLine
 10
239.51816999051
 20
178.91266524799
 30
0.0
 11
240.672863594026
 21
178.91266524799
 31
0.0
  0
LINE
  5
3B0
330
1B2
100
AcDbEntity
  8
Stammform
  6
AUSGEZOGEN
 62
    56
370
    18
100
AcDbLine
 10
240.672863594026
 20
178.91266524799
 30
0.0
 11
239.51816999051
 21
180.91266524799
 31
0.0
  0
LINE
  5
3B1
330
1B2
100
AcDbEntity
  8
Stammform
  6
AUSGEZOGEN
 62
    56
370
    18
100
AcDbLine
 10
239.51816999051
 20
180.91266524799
 30
0.0
 11
240.672863594026
 21
182.91266524799
 31
0.0
  0
LINE
  5
3B2
330
1B2
100
AcDbEntity
  8
Stammform
  6
AUSGEZOGEN
 62
    56
370
    18
100
AcDbLine
 10
239.51816999051
 20
176.91266524799
 30
0.0
 11
240.672863594026
 21
178.91266524799
 31
0.0
  0
LINE
  5
3B3
330
1B2
100
AcDbEntity
  8
Stammform
  6
AUSGEZOGEN
 62
    56
370
    18
100
AcDbLine
 10
240.672863594026
 20
174.912657618595
 30
0.0
 11
239.51816999051
 21
176.91266524799
 31
0.0
  0
LINE
  5
3B4
330
1B2
100
AcDbEntity
  8
Layer0
  6
AUSGEZOGEN
 62
     9
370
    18
100
AcDbLine
 10
240.672863594026
 20
174.912657618595
 30
0.0
 11
241.827557197541
 21
176.91266524799
 31
0.0
  0
LINE
  5
3B5
330
1B2
100
AcDbEntity
  8
Layer0
  6
AUSGEZOGEN
 62
     9
370
    18
100
AcDbLine
 10
241.827557197541
 20
176.91266524799
 30
0.0
 11
240.672863594026
 21
178.91266524799
 31
0.0
  0
LINE
  5
3B6
330
1B2
100
AcDbEntity
  8
Layer0
  6
AUSGEZOGEN
 62
     9
370
    18
100
AcDbLine
 10
240.672863594026
 20
182.91266524799
 30
0.0
 11
241.827557197541
 21
184.91266524799
 31
0.0
  0
LINE
  5
3B7
330
1B2
100
AcDbEntity
  8
Layer0
  6
AUSGEZOGEN
 62
     9
370
    18
100
AcDbLine
 10
241.827557197541
 20
184.91266524799
 30
0.0
 11
240.672863594026
 21
186.912657618595
 31
0.0
  0
LINE
  5
3B8
330
1B2
100
AcDbEntity
  8
Layer0
  6
AUSGEZOGEN
 62
     9
370
    18
100
AcDbLine
 10
240.672863594026
 20
186.912657618595
 30
0.0
 11
239.51816999051
 21
186.912657618595
 31
0.0
  0
LINE
  5
3B9
330
1B2
100
AcDbEntity
  8
Stammform
  6
AUSGEZOGEN
 62
    56
370
    18
100
AcDbLine
 10
240.672863594026
 20
182.91266524799
 30
0.0
 11
239.51816999051
 21
184.91266524799
 31
0.0
  0
LINE
  5
3BA
330
1B2
100
AcDbEntity
  8
Stammform
  6
AUSGEZOGEN
 62
    56
370
    18
100
AcDbLine
 10
239.51816999051
 20
184.91266524799
 30
0.0
 11
240.672863594026
 21
186.912657618595
 31
0.0
  0
LINE
  5
3BB
330
1B2
100
AcDbEntity
  8
Stammform
  6
AUSGEZOGEN
 62
    56
370
    18
100
AcDbLine
 10
240.672863594026
 20
186.912657618595
 30
0.0
 11
239.51816999051
 21
188.912657618595
 31
0.0
  0
LINE
  5
3BC
330
1B2
100
AcDbEntity
  8
Layer0
  6
AUSGEZOGEN
 62
     9
370
    18
100
AcDbLine
 10
240.672863594026
 20
186.912657618595
 30
0.0
 11
241.827557197541
 21
188.912657618595
 31
0.0
  0
LINE
  5
3BD
330
1B2
100
AcDbEntity
  8
Stammform
  6
AUSGEZOGEN
 62
    56
370
    18
100
AcDbLine
 10
242.982266059846
 20
186.912657618595
 30
0.0
 11
244.136959663362
 21
188.912657618595
 31
0.0
  0
LINE
  5
3BE
330
1B2
100
AcDbEntity
  8
Stammform
  6
AUSGEZOGEN
 62
    56
370
    18
100
AcDbLine
 10
242.982266059846
 20
186.912657618595
 30
0.0
 11
240.672863594026
 21
186.912657618595
 31
0.0
  0
LINE
  5
3BF
330
1B2
100
AcDbEntity
  8
Stammform
  6
AUSGEZOGEN
 62
    56
370
    18
100
AcDbLine
 10
244.136959663362
 20
184.91266524799
 30
0.0
 11
242.982266059846
 21
186.912657618595
 31
0.0
  0
LINE
  5
3C0
330
1B2
100
AcDbEntity
  8
Layer0
  6
AUSGEZOGEN
 62
     9
370
    18
100
AcDbLine
 10
244.136959663362
 20
184.91266524799
 30
0.0
 11
245.291668525666
 21
186.912657618595
 31
0.0
  0
LINE
  5
3C1
330
1B2
100
AcDbEntity
  8
Layer0
  6
AUSGEZOGEN
 62
     9
370
    18
100
AcDbLine
 10
245.291668525666
 20
186.912657618595
 30
0.0
 11
244.136959663362
 21
188.912657618595
 31
0.0
  0
LINE
  5
3C2
330
1B2
100
AcDbEntity
  8
Layer0
  6
AUSGEZOGEN
 62
     9
370
    18
100
AcDbLine
 10
241.827557197541
 20
188.912657618595
 30
0.0
 11
240.672863594026
 21
186.912657618595
 31
0.0
  0
LINE
  5
3C3
330
1B2
100
AcDbEntity
  8
Layer0
  6
AUSGEZOGEN
 62
     9
370
    18
100
AcDbLine
 10
240.672863594026
 20
186.912657618595
 30
0.0
 11
241.827557197541
 21
184.91266524799
 31
0.0
  0
LINE
  5
3C4
330
1B2
100
AcDbEntity
  8
Layer0
  6
AUSGEZOGEN
 62
     9
370
    18
100
AcDbLine
 10
241.827557197541
 20
184.91266524799
 30
0.0
 11
244.136959663362
 21
184.91266524799
 31
0.0
  0
LINE
  5
3C5
330
1B2
100
AcDbEntity
  8
Layer0
  6
AUSGEZOGEN
 62
     9
370
    18
100
AcDbLine
 10
244.136959663362
 20
176.91266524799
 30
0.0
 11
245.291668525666
 21
178.91266524799
 31
0.0
  0
LINE
  5
3C6
330
1B2
100
AcDbEntity
  8
Layer0
  6
AUSGEZOGEN
 62
     9
370
    18
100
AcDbLine
 10
245.291668525666
 20
178.91266524799
 30
0.0
 11
244.136959663362
 21
180.91266524799
 31
0.0
  0
LINE
  5
3C7
330
1B2
100
AcDbEntity
  8
Layer0
  6
AUSGEZOGEN
 62
     9
370
    18
100
AcDbLine
 10
244.136959663362
 20
180.91266524799
 30
0.0
 11
241.827557197541
 21
180.91266524799
 31
0.0
  0
LINE
  5
3C8
330
1B2
100
AcDbEntity
  8
Layer0
  6
AUSGEZOGEN
 62
     9
370
    18
100
AcDbLine
 10
241.827557197541
 20
180.91266524799
 30
0.0
 11
240.672863594026
 21
178.91266524799
 31
0.0
  0
LINE
  5
3C9
330
1B2
100
AcDbEntity
  8
Layer0
  6
AUSGEZOGEN
 62
     9
370
    18
100
AcDbLine
 10
240.672863594026
 20
178.91266524799
 30
0.0
 11
241.827557197541
 21
176.91266524799
 31
0.0
  0
LINE
  5
3CA
330
1B2
100
AcDbEntity
  8
Layer0
  6
AUSGEZOGEN
 62
     9
370
    18
100
AcDbLine
 10
241.827557197541
 20
176.91266524799
 30
0.0
 11
244.136959663362
 21
176.91266524799
 31
0.0
  0
LINE
  5
3CB
330
1B2
100
AcDbEntity
  8
Stammform
  6
AUSGEZOGEN
 62
    56
370
    18
100
AcDbLine
 10
244.136959663362
 20
176.91266524799
 30
0.0
 11
242.982266059846
 21
178.91266524799
 31
0.0
  0
LINE
  5
3CC
330
1B2
100
AcDbEntity
  8
Stammform
  6
AUSGEZOGEN
 62
    56
370
    18
100
AcDbLine
 10
242.982266059846
 20
178.91266524799
 30
0.0
 11
240.672863594026
 21
178.91266524799
 31
0.0
  0
LINE
  5
3CD
330
1B2
100
AcDbEntity
  8
Stammform
  6
AUSGEZOGEN
 62
    56
370
    18
100
AcDbLine
 10
242.982266059846
 20
178.91266524799
 30
0.0
 11
244.136959663362
 21
180.91266524799
 31
0.0
  0
LINE
  5
3CE
330
1B2
100
AcDbEntity
  8
Stammform
  6
AUSGEZOGEN
 62
    56
370
    18
100
AcDbLine
 10
242.982266059846
 20
182.91266524799
 30
0.0
 11
244.136959663362
 21
184.91266524799
 31
0.0
  0
LINE
  5
3CF
330
1B2
100
AcDbEntity
  8
Stammform
  6
AUSGEZOGEN
 62
    56
370
    18
100
AcDbLine
 10
242.982266059846
 20
182.91266524799
 30
0.0
 11
240.672863594026
 21
182.91266524799
 31
0.0
  0
LINE
  5
3D0
330
1B2
100
AcDbEntity
  8
Stammform
  6
AUSGEZOGEN
 62
    56
370
    18
100
AcDbLine
 10
244.136959663362
 20
180.91266524799
 30
0.0
 11
242.982266059846
 21
182.91266524799
 31
0.0
  0
LINE
  5
3D1
330
1B2
100
AcDbEntity
  8
Layer0
  6
AUSGEZOGEN
 62
     9
370
    18
100
AcDbLine
 10
244.136959663362
 20
180.91266524799
 30
0.0
 11
245.291668525666
 21
182.91266524799
 31
0.0
  0
LINE
  5
3D2
330
1B2
100
AcDbEntity
  8
Layer0
  6
AUSGEZOGEN
 62
     9
370
    18
100
AcDbLine
 10
245.291668525666
 20
182.91266524799
 30
0.0
 11
244.136959663362
 21
184.91266524799
 31
0.0
  0
LINE
  5
3D3
330
1B2
100
AcDbEntity
  8
Layer0
  6
AUSGEZOGEN
 62
     9
370
    18
100
AcDbLine
 10
244.136959663362
 20
184.91266524799
 30
0.0
 11
241.827557197541
 21
184.91266524799
 31
0.0
  0
LINE
  5
3D4
330
1B2
100
AcDbEntity
  8
Layer0
  6
AUSGEZOGEN
 62
     9
370
    18
100
AcDbLine
 10
241.827557197541
 20
184.91266524799
 30
0.0
 11
240.672863594026
 21
182.91266524799
 31
0.0
  0
LINE
  5
3D5
330
1B2
100
AcDbEntity
  8
Layer0
  6
AUSGEZOGEN
 62
     9
370
    18
100
AcDbLine
 10
240.672863594026
 20
182.91266524799
 30
0.0
 11
241.827557197541
 21
180.91266524799
 31
0.0
  0
LINE
  5
3D6
330
1B2
100
AcDbEntity
  8
Layer0
  6
AUSGEZOGEN
 62
     9
370
    18
100
AcDbLine
 10
241.827557197541
 20
180.91266524799
 30
0.0
 11
244.136959663362
 21
180.91266524799
 31
0.0
  0
LINE
  5
3D7
330
1B2
100
AcDbEntity
  8
Layer0
  6
AUSGEZOGEN
 62
     9
370
    18
100
AcDbLine
 10
244.136959663362
 20
168.912657618595
 30
0.0
 11
245.291668525666
 21
170.912657618595
 31
0.0
  0
LINE
  5
3D8
330
1B2
100
AcDbEntity
  8
Layer0
  6
AUSGEZOGEN
 62
     9
370
    18
100
AcDbLine
 10
245.291668525666
 20
170.912657618595
 30
0.0
 11
244.136959663362
 21
172.912657618595
 31
0.0
  0
LINE
  5
3D9
330
1B2
100
AcDbEntity
  8
Layer0
  6
AUSGEZOGEN
 62
     9
370
    18
100
AcDbLine
 10
244.136959663362
 20
172.912657618595
 30
0.0
 11
241.827557197541
 21
172.912657618595
 31
0.0
  0
LINE
  5
3DA
330
1B2
100
AcDbEntity
  8
Layer0
  6
AUSGEZOGEN
 62
     9
370
    18
100
AcDbLine
 10
241.827557197541
 20
172.912657618595
 30
0.0
 11
240.672863594026
 21
170.912657618595
 31
0.0
  0
LINE
  5
3DB
330
1B2
100
AcDbEntity
  8
Layer0
  6
AUSGEZOGEN
 62
     9
370
    18
100
AcDbLine
 10
240.672863594026
 20
170.912657618595
 30
0.0
 11
241.827557197541
 21
168.912657618595
 31
0.0
  0
LINE
  5
3DC
330
1B2
100
AcDbEntity
  8
Layer0
  6
AUSGEZOGEN
 62
     9
370
    18
100
AcDbLine
 10
241.827557197541
 20
168.912657618595
 30
0.0
 11
244.136959663362
 21
168.912657618595
 31
0.0
  0
LINE
  5
3DD
330
1B2
100
AcDbEntity
  8
Stammform
  6
AUSGEZOGEN
 62
    56
370
    18
100
AcDbLine
 10
244.136959663362
 20
168.912657618595
 30
0.0
 11
242.982266059846
 21
170.912657618595
 31
0.0
  0
LINE
  5
3DE
330
1B2
100
AcDbEntity
  8
Stammform
  6
AUSGEZOGEN
 62
    56
370
    18
100
AcDbLine
 10
242.982266059846
 20
170.912657618595
 30
0.0
 11
240.672863594026
 21
170.912657618595
 31
0.0
  0
LINE
  5
3DF
330
1B2
100
AcDbEntity
  8
Stammform
  6
AUSGEZOGEN
 62
    56
370
    18
100
AcDbLine
 10
242.982266059846
 20
170.912657618595
 30
0.0
 11
244.136959663362
 21
172.912657618595
 31
0.0
  0
LINE
  5
3E0
330
1B2
100
AcDbEntity
  8
Stammform
  6
AUSGEZOGEN
 62
    56
370
    18
100
AcDbLine
 10
242.982266059846
 20
174.912657618595
 30
0.0
 11
244.136959663362
 21
176.91266524799
 31
0.0
  0
LINE
  5
3E1
330
1B2
100
AcDbEntity
  8
Stammform
  6
AUSGEZOGEN
 62
    56
370
    18
100
AcDbLine
 10
242.982266059846
 20
174.912657618595
 30
0.0
 11
240.672863594026
 21
174.912657618595
 31
0.0
  0
LINE
  5
3E2
330
1B2
100
AcDbEntity
  8
Stammform
  6
AUSGEZOGEN
 62
    56
370
    18
100
AcDbLine
 10
244.136959663362
 20
172.912657618595
 30
0.0
 11
242.982266059846
 21
174.912657618595
 31
0.0
  0
LINE
  5
3E3
330
1B2
100
AcDbEntity
  8
Layer0
  6
AUSGEZOGEN
 62
     9
370
    18
100
AcDbLine
 10
244.136959663362
 20
172.912657618595
 30
0.0
 11
245.291668525666
 21
174.912657618595
 31
0.0
  0
LINE
  5
3E4
330
1B2
100
AcDbEntity
  8
Layer0
  6
AUSGEZOGEN
 62
     9
370
    18
100
AcDbLine
 10
245.291668525666
 20
174.912657618595
 30
0.0
 11
244.136959663362
 21
176.91266524799
 31
0.0
  0
LINE
  5
3E5
330
1B2
100
AcDbEntity
  8
Layer0
  6
AUSGEZOGEN
 62
     9
370
    18
100
AcDbLine
 10
244.136959663362
 20
176.91266524799
 30
0.0
 11
241.827557197541
 21
176.91266524799
 31
0.0
  0
LINE
  5
3E6
330
1B2
100
AcDbEntity
  8
Layer0
  6
AUSGEZOGEN
 62
     9
370
    18
100
AcDbLine
 10
241.827557197541
 20
176.91266524799
 30
0.0
 11
240.672863594026
 21
174.912657618595
 31
0.0
  0
LINE
  5
3E7
330
1B2
100
AcDbEntity
  8
Layer0
  6
AUSGEZOGEN
 62
     9
370
    18
100
AcDbLine
 10
240.672863594026
 20
174.912657618595
 30
0.0
 11
241.827557197541
 21
172.912657618595
 31
0.0
  0
LINE
  5
3E8
330
1B2
100
AcDbEntity
  8
Layer0
  6
AUSGEZOGEN
 62
     9
370
    18
100
AcDbLine
 10
241.827557197541
 20
172.912657618595
 30
0.0
 11
244.136959663362
 21
172.912657618595
 31
0.0
  0
LINE
  5
3E9
330
1B2
100
AcDbEntity
  8
Layer0
  6
AUSGEZOGEN
 62
     9
370
    18
100
AcDbLine
 10
244.136959663362
 20
160.912657618595
 30
0.0
 11
245.291668525666
 21
162.912657618595
 31
0.0
  0
LINE
  5
3EA
330
1B2
100
AcDbEntity
  8
Layer0
  6
AUSGEZOGEN
 62
     9
370
    18
100
AcDbLine
 10
245.291668525666
 20
162.912657618595
 30
0.0
 11
244.136959663362
 21
164.912657618595
 31
0.0
  0
LINE
  5
3EB
330
1B2
100
AcDbEntity
  8
Layer0
  6
AUSGEZOGEN
 62
     9
370
    18
100
AcDbLine
 10
244.136959663362
 20
164.912657618595
 30
0.0
 11
241.827557197541
 21
164.912657618595
 31
0.0
  0
LINE
  5
3EC
330
1B2
100
AcDbEntity
  8
Layer0
  6
AUSGEZOGEN
 62
     9
370
    18
100
AcDbLine
 10
241.827557197541
 20
164.912657618595
 30
0.0
 11
240.672863594026
 21
162.912657618595
 31
0.0
  0
LINE
  5
3ED
330
1B2
100
AcDbEntity
  8
Layer0
  6
AUSGEZOGEN
 62
     9
370
    18
100
AcDbLine
 10
240.672863594026
 20
162.912657618595
 30
0.0
 11
241.827557197541
 21
160.912657618595
 31
0.0
  0
LINE
  5
3EE
330
1B2
100
AcDbEntity
  8
Layer0
  6
AUSGEZOGEN
 62
     9
370
    18
100
AcDbLine
 10
241.827557197541
 20
160.912657618595
 30
0.0
 11
244.136959663362
 21
160.912657618595
 31
0.0
  0
LINE
  5
3EF
330
1B2
100
AcDbEntity
  8
Stammform
  6
AUSGEZOGEN
 62
    56
370
    18
100
AcDbLine
 10
244.136959663362
 20
160.912657618595
 30
0.0
 11
242.982266059846
 21
162.912657618595
 31
0.0
  0
LINE
  5
3F0
330
1B2
100
AcDbEntity
  8
Stammform
  6
AUSGEZOGEN
 62
    56
370
    18
100
AcDbLine
 10
242.982266059846
 20
162.912657618595
 30
0.0
 11
240.672863594026
 21
162.912657618595
 31
0.0
  0
LINE
  5
3F1
330
1B2
100
AcDbEntity
  8
Stammform
  6
AUSGEZOGEN
 62
    56
370
    18
100
AcDbLine
 10
242.982266059846
 20
162.912657618595
 30
0.0
 11
244.136959663362
 21
164.912657618595
 31
0.0
  0
LINE
  5
3F2
330
1B2
100
AcDbEntity
  8
Stammform
  6
AUSGEZOGEN
 62
    56
370
    18
100
AcDbLine
 10
242.982266059846
 20
166.912657618595
 30
0.0
 11
244.136959663362
 21
168.912657618595
 31
0.0
  0
LINE
  5
3F3
330
1B2
100
AcDbEntity
  8
Stammform
  6
AUSGEZOGEN
 62
    56
370
    18
100
AcDbLine
 10
242.982266059846
 20
166.912657618595
 30
0.0
 11
240.672863594026
 21
166.912657618595
 31
0.0
  0
LINE
  5
3F4
330
1B2
100
AcDbEntity
  8
Stammform
  6
AUSGEZOGEN
 62
    56
370
    18
100
AcDbLine
 10
244.136959663362
 20
164.912657618595
 30
0.0
 11
242.982266059846
 21
166.912657618595
 31
0.0
  0
LINE
  5
3F5
330
1B2
100
AcDbEntity
  8
Layer0
  6
AUSGEZOGEN
 62
     9
370
    18
100
AcDbLine
 10
244.136959663362
 20
164.912657618595
 30
0.0
 11
245.291668525666
 21
166.912657618595
 31
0.0
  0
LINE
  5
3F6
330
1B2
100
AcDbEntity
  8
Layer0
  6
AUSGEZOGEN
 62
     9
370
    18
100
AcDbLine
 10
245.291668525666
 20
166.912657618595
 30
0.0
 11
244.136959663362
 21
168.912657618595
 31
0.0
  0
LINE
  5
3F7
330
1B2
100
AcDbEntity
  8
Layer0
  6
AUSGEZOGEN
 62
     9
370
    18
100
AcDbLine
 10
244.136959663362
 20
168.912657618595
 30
0.0
 11
241.827557197541
 21
168.912657618595
 31
0.0
  0
LINE
  5
3F8
330
1B2
100
AcDbEntity
  8
Layer0
  6
AUSGEZOGEN
 62
     9
370
    18
100
AcDbLine
 10
241.827557197541
 20
168.912657618595
 30
0.0
 11
240.672863594026
 21
166.912657618595
 31
0.0
  0
LINE
  5
3F9
330
1B2
100
AcDbEntity
  8
Layer0
  6
AUSGEZOGEN
 62
     9
370
    18
100
AcDbLine
 10
240.672863594026
 20
166.912657618595
 30
0.0
 11
241.827557197541
 21
164.912657618595
 31
0.0
  0
LINE
  5
3FA
330
1B2
100
AcDbEntity
  8
Layer0
  6
AUSGEZOGEN
 62
     9
370
    18
100
AcDbLine
 10
241.827557197541
 20
164.912657618595
 30
0.0
 11
244.136959663362
 21
164.912657618595
 31
0.0
  0
LINE
  5
3FB
330
1B2
100
AcDbEntity
  8
Layer0
  6
AUSGEZOGEN
 62
     9
370
    18
100
AcDbLine
 10
244.136959663362
 20
152.912657618595
 30
0.0
 11
245.291668525666
 21
154.912657618595
 31
0.0
  0
LINE
  5
3FC
330
1B2
100
AcDbEntity
  8
Layer0
  6
AUSGEZOGEN
 62
     9
370
    18
100
AcDbLine
 10
245.291668525666
 20
154.912657618595
 30
0.0
 11
244.136959663362
 21
156.912657618595
 31
0.0
  0
LINE
  5
3FD
330
1B2
100
AcDbEntity
  8
Layer0
  6
AUSGEZOGEN
 62
     9
370
    18
100
AcDbLine
 10
244.136959663362
 20
156.912657618595
 30
0.0
 11
241.827557197541
 21
156.912657618595
 31
0.0
  0
LINE
  5
3FE
330
1B2
100
AcDbEntity
  8
Layer0
  6
AUSGEZOGEN
 62
     9
370
    18
100
AcDbLine
 10
241.827557197541
 20
156.912657618595
 30
0.0
 11
240.672863594026
 21
154.912657618595
 31
0.0
  0
LINE
  5
3FF
330
1B2
100
AcDbEntity
  8
Layer0
  6
AUSGEZOGEN
 62
     9
370
    18
100
AcDbLine
 10
240.672863594026
 20
154.912657618595
 30
0.0
 11
241.827557197541
 21
152.912657618595
 31
0.0
  0
LINE
  5
400
330
1B2
100
AcDbEntity
  8
Layer0
  6
AUSGEZOGEN
 62
     9
370
    18
100
AcDbLine
 10
241.827557197541
 20
152.912657618595
 30
0.0
 11
244.136959663362
 21
152.912657618595
 31
0.0
  0
LINE
  5
401
330
1B2
100
AcDbEntity
  8
Stammform
  6
AUSGEZOGEN
 62
    56
370
    18
100
AcDbLine
 10
244.136959663362
 20
152.912657618595
 30
0.0
 11
242.982266059846
 21
154.912657618595
 31
0.0
  0
LINE
  5
402
330
1B2
100
AcDbEntity
  8
Stammform
  6
AUSGEZOGEN
 62
    56
370
    18
100
AcDbLine
 10
242.982266059846
 20
154.912657618595
 30
0.0
 11
240.672863594026
 21
154.912657618595
 31
0.0
  0
LINE
  5
403
330
1B2
100
AcDbEntity
  8
Stammform
  6
AUSGEZOGEN
 62
    56
370
    18
100
AcDbLine
 10
242.982266059846
 20
154.912657618595
 30
0.0
 11
244.136959663362
 21
156.912657618595
 31
0.0
  0
LINE
  5
404
330
1B2
100
AcDbEntity
  8
Stammform
  6
AUSGEZOGEN
 62
    56
370
    18
100
AcDbLine
 10
242.982266059846
 20
158.912657618595
 30
0.0
 11
244.136959663362
 21
160.912657618595
 31
0.0
  0
LINE
  5
405
330
1B2
100
AcDbEntity
  8
Stammform
  6
AUSGEZOGEN
 62
    56
370
    18
100
AcDbLine
 10
242.982266059846
 20
158.912657618595
 30
0.0
 11
240.672863594026
 21
158.912657618595
 31
0.0
  0
LINE
  5
406
330
1B2
100
AcDbEntity
  8
Stammform
  6
AUSGEZOGEN
 62
    56
370
    18
100
AcDbLine
 10
244.136959663362
 20
156.912657618595
 30
0.0
 11
242.982266059846
 21
158.912657618595
 31
0.0
  0
LINE
  5
407
330
1B2
100
AcDbEntity
  8
Layer0
  6
AUSGEZOGEN
 62
     9
370
    18
100
AcDbLine
 10
244.136959663362
 20
156.912657618595
 30
0.0
 11
245.291668525666
 21
158.912657618595
 31
0.0
  0
LINE
  5
408
330
1B2
100
AcDbEntity
  8
Layer0
  6
AUSGEZOGEN
 62
     9
370
    18
100
AcDbLine
 10
245.291668525666
 20
158.912657618595
 30
0.0
 11
244.136959663362
 21
160.912657618595
 31
0.0
  0
LINE
  5
409
330
1B2
100
AcDbEntity
  8
Layer0
  6
AUSGEZOGEN
 62
     9
370
    18
100
AcDbLine
 10
244.136959663362
 20
160.912657618595
 30
0.0
 11
241.827557197541
 21
160.912657618595
 31
0.0
  0
LINE
  5
40A
330
1B2
100
AcDbEntity
  8
Layer0
  6
AUSGEZOGEN
 62
     9
370
    18
100
AcDbLine
 10
241.827557197541
 20
160.912657618595
 30
0.0
 11
240.672863594026
 21
158.912657618595
 31
0.0
  0
LINE
  5
40B
330
1B2
100
AcDbEntity
  8
Layer0
  6
AUSGEZOGEN
 62
     9
370
    18
100
AcDbLine
 10
240.672863594026
 20
158.912657618595
 30
0.0
 11
241.827557197541
 21
156.912657618595
 31
0.0
  0
LINE
  5
40C
330
1B2
100
AcDbEntity
  8
Layer0
  6
AUSGEZOGEN
 62
     9
370
    18
100
AcDbLine
 10
241.827557197541
 20
156.912657618595
 30
0.0
 11
244.136959663362
 21
156.912657618595
 31
0.0
  0
LINE
  5
40D
330
1B2
100
AcDbEntity
  8
Layer0
  6
AUSGEZOGEN
 62
     9
370
    18
100
AcDbLine
 10
245.291668525666
 20
134.912657618595
 30
0.0
 11
244.136959663362
 21
136.912657618595
 31
0.0
  0
LINE
  5
40E
330
1B2
100
AcDbEntity
  8
Layer0
  6
AUSGEZOGEN
 62
     9
370
    18
100
AcDbLine
 10
244.136959663362
 20
136.912657618595
 30
0.0
 11
241.827557197541
 21
136.912657618595
 31
0.0
  0
LINE
  5
40F
330
1B2
100
AcDbEntity
  8
Layer0
  6
AUSGEZOGEN
 62
     9
370
    18
100
AcDbLine
 10
241.827557197541
 20
136.912657618595
 30
0.0
 11
240.672863594026
 21
134.912657618595
 31
0.0
  0
LINE
  5
410
330
1B2
100
AcDbEntity
  8
Stammform
  6
AUSGEZOGEN
 62
    56
370
    18
100
AcDbLine
 10
242.982266059846
 20
134.912657618595
 30
0.0
 11
244.136959663362
 21
136.912657618595
 31
0.0
  0
LINE
  5
411
330
1B2
100
AcDbEntity
  8
Layer0
  6
AUSGEZOGEN
 62
     9
370
    18
100
AcDbLine
 10
244.136959663362
 20
140.912657618595
 30
0.0
 11
245.291668525666
 21
142.912657618595
 31
0.0
  0
LINE
  5
412
330
1B2
100
AcDbEntity
  8
Layer0
  6
AUSGEZOGEN
 62
     9
370
    18
100
AcDbLine
 10
245.291668525666
 20
142.912657618595
 30
0.0
 11
244.136959663362
 21
144.912657618595
 31
0.0
  0
LINE
  5
413
330
1B2
100
AcDbEntity
  8
Layer0
  6
AUSGEZOGEN
 62
     9
370
    18
100
AcDbLine
 10
244.136959663362
 20
144.912657618595
 30
0.0
 11
241.827557197541
 21
144.912657618595
 31
0.0
  0
LINE
  5
414
330
1B2
100
AcDbEntity
  8
Layer0
  6
AUSGEZOGEN
 62
     9
370
    18
100
AcDbLine
 10
241.827557197541
 20
144.912657618595
 30
0.0
 11
240.672863594026
 21
142.912657618595
 31
0.0
  0
LINE
  5
415
330
1B2
100
AcDbEntity
  8
Layer0
  6
AUSGEZOGEN
 62
     9
370
    18
100
AcDbLine
 10
240.672863594026
 20
142.912657618595
 30
0.0
 11
241.827557197541
 21
140.912657618595
 31
0.0
  0
LINE
  5
416
330
1B2
100
AcDbEntity
  8
Layer0
  6
AUSGEZOGEN
 62
     9
370
    18
100
AcDbLine
 10
241.827557197541
 20
140.912657618595
 30
0.0
 11
244.136959663362
 21
140.912657618595
 31
0.0
  0
LINE
  5
417
330
1B2
100
AcDbEntity
  8
Stammform
  6
AUSGEZOGEN
 62
    56
370
    18
100
AcDbLine
 10
244.136959663362
 20
140.912657618595
 30
0.0
 11
242.982266059846
 21
142.912657618595
 31
0.0
  0
LINE
  5
418
330
1B2
100
AcDbEntity
  8
Stammform
  6
AUSGEZOGEN
 62
    56
370
    18
100
AcDbLine
 10
242.982266059846
 20
142.912657618595
 30
0.0
 11
240.672863594026
 21
142.912657618595
 31
0.0
  0
LINE
  5
419
330
1B2
100
AcDbEntity
  8
Stammform
  6
AUSGEZOGEN
 62
    56
370
    18
100
AcDbLine
 10
242.982266059846
 20
142.912657618595
 30
0.0
 11
244.136959663362
 21
144.912657618595
 31
0.0
  0
LINE
  5
41A
330
1B2
100
AcDbEntity
  8
Stammform
  6
AUSGEZOGEN
 62
    56
370
    18
100
AcDbLine
 10
242.982266059846
 20
138.912657618595
 30
0.0
 11
244.136959663362
 21
140.912657618595
 31
0.0
  0
LINE
  5
41B
330
1B2
100
AcDbEntity
  8
Stammform
  6
AUSGEZOGEN
 62
    56
370
    18
100
AcDbLine
 10
242.982266059846
 20
138.912657618595
 30
0.0
 11
240.672863594026
 21
138.912657618595
 31
0.0
  0
LINE
  5
41C
330
1B2
100
AcDbEntity
  8
Stammform
  6
AUSGEZOGEN
 62
    56
370
    18
100
AcDbLine
 10
244.136959663362
 20
136.912657618595
 30
0.0
 11
242.982266059846
 21
138.912657618595
 31
0.0
  0
LINE
  5
41D
330
1B2
100
AcDbEntity
  8
Layer0
  6
AUSGEZOGEN
 62
     9
370
    18
100
AcDbLine
 10
244.136959663362
 20
136.912657618595
 30
0.0
 11
245.291668525666
 21
138.912657618595
 31
0.0
  0
LINE
  5
41E
330
1B2
100
AcDbEntity
  8
Layer0
  6
AUSGEZOGEN
 62
     9
370
    18
100
AcDbLine
 10
245.291668525666
 20
138.912657618595
 30
0.0
 11
244.136959663362
 21
140.912657618595
 31
0.0
  0
LINE
  5
41F
330
1B2
100
AcDbEntity
  8
Layer0
  6
AUSGEZOGEN
 62
     9
370
    18
100
AcDbLine
 10
244.136959663362
 20
140.912657618595
 30
0.0
 11
241.827557197541
 21
140.912657618595
 31
0.0
  0
LINE
  5
420
330
1B2
100
AcDbEntity
  8
Layer0
  6
AUSGEZOGEN
 62
     9
370
    18
100
AcDbLine
 10
241.827557197541
 20
140.912657618595
 30
0.0
 11
240.672863594026
 21
138.912657618595
 31
0.0
  0
LINE
  5
421
330
1B2
100
AcDbEntity
  8
Layer0
  6
AUSGEZOGEN
 62
     9
370
    18
100
AcDbLine
 10
240.672863594026
 20
138.912657618595
 30
0.0
 11
241.827557197541
 21
136.912657618595
 31
0.0
  0
LINE
  5
422
330
1B2
100
AcDbEntity
  8
Layer0
  6
AUSGEZOGEN
 62
     9
370
    18
100
AcDbLine
 10
241.827557197541
 20
136.912657618595
 30
0.0
 11
244.136959663362
 21
136.912657618595
 31
0.0
  0
LINE
  5
423
330
1B2
100
AcDbEntity
  8
Layer0
  6
AUSGEZOGEN
 62
     9
370
    18
100
AcDbLine
 10
244.136959663362
 20
144.912657618595
 30
0.0
 11
245.291668525666
 21
146.912657618595
 31
0.0
  0
LINE
  5
424
330
1B2
100
AcDbEntity
  8
Layer0
  6
AUSGEZOGEN
 62
     9
370
    18
100
AcDbLine
 10
245.291668525666
 20
146.912657618595
 30
0.0
 11
244.136959663362
 21
148.912657618595
 31
0.0
  0
LINE
  5
425
330
1B2
100
AcDbEntity
  8
Layer0
  6
AUSGEZOGEN
 62
     9
370
    18
100
AcDbLine
 10
244.136959663362
 20
148.912657618595
 30
0.0
 11
241.827557197541
 21
148.912657618595
 31
0.0
  0
LINE
  5
426
330
1B2
100
AcDbEntity
  8
Layer0
  6
AUSGEZOGEN
 62
     9
370
    18
100
AcDbLine
 10
241.827557197541
 20
148.912657618595
 30
0.0
 11
240.672863594026
 21
146.912657618595
 31
0.0
  0
LINE
  5
427
330
1B2
100
AcDbEntity
  8
Layer0
  6
AUSGEZOGEN
 62
     9
370
    18
100
AcDbLine
 10
240.672863594026
 20
146.912657618595
 30
0.0
 11
241.827557197541
 21
144.912657618595
 31
0.0
  0
LINE
  5
428
330
1B2
100
AcDbEntity
  8
Layer0
  6
AUSGEZOGEN
 62
     9
370
    18
100
AcDbLine
 10
241.827557197541
 20
144.912657618595
 30
0.0
 11
244.136959663362
 21
144.912657618595
 31
0.0
  0
LINE
  5
429
330
1B2
100
AcDbEntity
  8
Stammform
  6
AUSGEZOGEN
 62
    56
370
    18
100
AcDbLine
 10
244.136959663362
 20
144.912657618595
 30
0.0
 11
242.982266059846
 21
146.912657618595
 31
0.0
  0
LINE
  5
42A
330
1B2
100
AcDbEntity
  8
Stammform
  6
AUSGEZOGEN
 62
    56
370
    18
100
AcDbLine
 10
242.982266059846
 20
146.912657618595
 30
0.0
 11
240.672863594026
 21
146.912657618595
 31
0.0
  0
LINE
  5
42B
330
1B2
100
AcDbEntity
  8
Stammform
  6
AUSGEZOGEN
 62
    56
370
    18
100
AcDbLine
 10
242.982266059846
 20
146.912657618595
 30
0.0
 11
244.136959663362
 21
148.912657618595
 31
0.0
  0
LINE
  5
42C
330
1B2
100
AcDbEntity
  8
Stammform
  6
AUSGEZOGEN
 62
    56
370
    18
100
AcDbLine
 10
242.982266059846
 20
150.912657618595
 30
0.0
 11
244.136959663362
 21
152.912657618595
 31
0.0
  0
LINE
  5
42D
330
1B2
100
AcDbEntity
  8
Stammform
  6
AUSGEZOGEN
 62
    56
370
    18
100
AcDbLine
 10
242.982266059846
 20
150.912657618595
 30
0.0
 11
240.672863594026
 21
150.912657618595
 31
0.0
  0
LINE
  5
42E
330
1B2
100
AcDbEntity
  8
Stammform
  6
AUSGEZOGEN
 62
    56
370
    18
100
AcDbLine
 10
244.136959663362
 20
148.912657618595
 30
0.0
 11
242.982266059846
 21
150.912657618595
 31
0.0
  0
LINE
  5
42F
330
1B2
100
AcDbEntity
  8
Layer0
  6
AUSGEZOGEN
 62
     9
370
    18
100
AcDbLine
 10
244.136959663362
 20
148.912657618595
 30
0.0
 11
245.291668525666
 21
150.912657618595
 31
0.0
  0
LINE
  5
430
330
1B2
100
AcDbEntity
  8
Layer0
  6
AUSGEZOGEN
 62
     9
370
    18
100
AcDbLine
 10
245.291668525666
 20
150.912657618595
 30
0.0
 11
244.136959663362
 21
152.912657618595
 31
0.0
  0
LINE
  5
431
330
1B2
100
AcDbEntity
  8
Layer0
  6
AUSGEZOGEN
 62
     9
370
    18
100
AcDbLine
 10
244.136959663362
 20
152.912657618595
 30
0.0
 11
241.827557197541
 21
152.912657618595
 31
0.0
  0
LINE
  5
432
330
1B2
100
AcDbEntity
  8
Layer0
  6
AUSGEZOGEN
 62
     9
370
    18
100
AcDbLine
 10
241.827557197541
 20
152.912657618595
 30
0.0
 11
240.672863594026
 21
150.912657618595
 31
0.0
  0
LINE
  5
433
330
1B2
100
AcDbEntity
  8
Layer0
  6
AUSGEZOGEN
 62
     9
370
    18
100
AcDbLine
 10
240.672863594026
 20
150.912657618595
 30
0.0
 11
241.827557197541
 21
148.912657618595
 31
0.0
  0
LINE
  5
434
330
1B2
100
AcDbEntity
  8
Layer0
  6
AUSGEZOGEN
 62
     9
370
    18
100
AcDbLine
 10
241.827557197541
 20
148.912657618595
 30
0.0
 11
244.136959663362
 21
148.912657618595
 31
0.0
  0
ENDBLK
  5
1B4
330
1B2
100
AcDbEntity
  8
0
100
AcDbBlockEnd
  0
BLOCK
  5
446
330
445
100
AcDbEntity
  8
0
100
AcDbBlockBegin
  2
*D7
 70
     1
 10
0.0
 20
0.0
 30
0.0
  3
*D7
  1

  0
LINE
  5
448
330
445
100
AcDbEntity
  8
Layer0
  6
AUSGEZOGEN
 62
   136
370
    18
100
AcDbLine
 10
268.681627581938
 20
136.912657618595
 30
0.0
 11
267.881627581938
 21
136.912657618595
 31
0.0
  0
LINE
  5
449
330
445
100
AcDbEntity
  8
Layer0
  6
AUSGEZOGEN
 62
   136
370
    18
100
AcDbLine
 10
268.681627581938
 20
136.912657618595
 30
0.0
 11
268.281627581938
 21
134.912657618595
 31
0.0
  0
LINE
  5
44A
330
445
100
AcDbEntity
  8
Layer0
  6
AUSGEZOGEN
 62
   136
370
    18
100
AcDbLine
 10
268.281627581938
 20
134.912657618595
 30
0.0
 11
267.881627581938
 21
136.912657618595
 31
0.0
  0
LINE
  5
44B
330
445
100
AcDbEntity
  8
Layer0
  6
AUSGEZOGEN
 62
   136
370
    18
100
AcDbLine
 10
267.881627581938
 20
186.912657618595
 30
0.0
 11
268.681627581938
 21
186.912657618595
 31
0.0
  0
LINE
  5
44C
330
445
100
AcDbEntity
  8
Layer0
  6
AUSGEZOGEN
 62
   136
370
    18
100
AcDbLine
 10
267.881627581938
 20
186.912657618595
 30
0.0
 11
268.281627581938
 21
188.912657618595
 31
0.0
  0
LINE
  5
44D
330
445
100
AcDbEntity
  8
Layer0
  6
AUSGEZOGEN
 62
   136
370
    18
100
AcDbLine
 10
268.281627581938
 20
188.912657618595
 30
0.0
 11
268.681627581938
 21
186.912657618595
 31
0.0
  0
LINE
  5
44E
330
445
100
AcDbEntity
  8
Layer0
  6
AUSGEZOGEN
 62
   136
370
    18
100
AcDbLine
 10
268.281627581938
 20
188.912657618595
 30
0.0
 11
268.281627581938
 21
134.912657618595
 31
0.0
  0
LINE
  5
44F
330
445
100
AcDbEntity
  8
Layer0
  6
AUSGEZOGEN
 62
   136
370
    18
100
AcDbLine
 10
257.993374458284
 20
188.912657618595
 30
0.0
 11
259.255772224397
 21
188.912657618595
 31
0.0
  0
LINE
  5
450
330
445
100
AcDbEntity
  8
Layer0
  6
AUSGEZOGEN
 62
   136
370
    18
100
AcDbLine
 10
260.505772224397
 20
188.912657618595
 30
0.0
 11
269.424484724795
 21
188.912657618595
 31
0.0
  0
LINE
  5
451
330
445
100
AcDbEntity
  8
Layer0
  6
AUSGEZOGEN
 62
   136
370
    18
100
AcDbLine
 10
257.993374458284
 20
134.912657618595
 30
0.0
 11
259.255772224397
 21
134.912657618595
 31
0.0
  0
LINE
  5
452
330
445
100
AcDbEntity
  8
Layer0
  6
AUSGEZOGEN
 62
   136
370
    18
100
AcDbLine
 10
260.505772224398
 20
134.912657618595
 30
0.0
 11
269.424484724795
 21
134.912657618595
 31
0.0
  0
TEXT
  5
453
330
445
100
AcDbEntity
  8
Layer0
  6
AUSGEZOGEN
 62
   136
370
    18
100
AcDbText
 10
267.281627581938
 20
159.505781105991
 30
0.0
 40
2.0
  1
54
 50
90.0
 41
1.136597918788
  7
Arial
 72
     5
 11
267.281627581938
 21
163.033781045909
 31
0.0
100
AcDbText
  0
ENDBLK
  5
447
330
445
100
AcDbEntity
  8
0
100
AcDbBlockEnd
  0
BLOCK
  5
456
330
455
100
AcDbEntity
  8
0
100
AcDbBlockBegin
  2
_CLOSED
 70
     0
 10
0.0
 20
0.0
 30
0.0
  3
_CLOSED
  1

  0
LINE
  5
458
330
455
100
AcDbEntity
  8
0
  6
ByBlock
 62
     0
370
    -2
100
AcDbLine
 10
-1.0
 20
0.166667
 30
0.0
 11
0.0
 21
0.0
 31
0.0
  0
LINE
  5
459
330
455
100
AcDbEntity
  8
0
  6
ByBlock
 62
     0
370
    -2
100
AcDbLine
 10
0.0
 20
0.0
 30
0.0
 11
-1.0
 21
-0.166667
 31
0.0
  0
LINE
  5
45A
330
455
100
AcDbEntity
  8
0
  6
ByBlock
 62
     0
370
    -2
100
AcDbLine
 10
-1.0
 20
0.166667
 30
0.0
 11
-1.0
 21
-0.166667
 31
0.0
  0
LINE
  5
45B
330
455
100
AcDbEntity
  8
0
  6
ByBlock
 62
     0
370
    -2
100
AcDbLine
 10
0.0
 20
0.0
 30
0.0
 11
-1.0
 21
0.0
 31
0.0
  0
ENDBLK
  5
457
330
455
100
AcDbEntity
  8
0
100
AcDbBlockEnd
  0
BLOCK
  5
45D
330
45C
100
AcDbEntity
  8
0
100
AcDbBlockBegin
  2
*D9
 70
     1
 10
0.0
 20
0.0
 30
0.0
  3
*D9
  1

  0
LINE
  5
45F
330
45C
100
AcDbEntity
  8
Layer0
  6
AUSGEZOGEN
 62
   136
370
    18
100
AcDbLine
 10
272.881627581938
 20
195.412657618595
 30
0.0
 11
273.681627581938
 21
195.412657618595
 31
0.0
  0
LINE
  5
460
330
45C
100
AcDbEntity
  8
Layer0
  6
AUSGEZOGEN
 62
   136
370
    18
100
AcDbLine
 10
272.881627581938
 20
195.412657618595
 30
0.0
 11
273.281627581938
 21
197.412657618595
 31
0.0
  0
LINE
  5
461
330
45C
100
AcDbEntity
  8
Layer0
  6
AUSGEZOGEN
 62
   136
370
    18
100
AcDbLine
 10
273.281627581938
 20
197.412657618595
 30
0.0
 11
273.681627581938
 21
195.412657618595
 31
0.0
  0
LINE
  5
462
330
45C
100
AcDbEntity
  8
Layer0
  6
AUSGEZOGEN
 62
   136
370
    18
100
AcDbLine
 10
273.681627581938
 20
128.412657618595
 30
0.0
 11
272.881627581938
 21
128.412657618595
 31
0.0
  0
LINE
  5
463
330
45C
100
AcDbEntity
  8
Layer0
  6
AUSGEZOGEN
 62
   136
370
    18
100
AcDbLine
 10
273.681627581938
 20
128.412657618595
 30
0.0
 11
273.281627581938
 21
126.412657618595
 31
0.0
  0
LINE
  5
464
330
45C
100
AcDbEntity
  8
Layer0
  6
AUSGEZOGEN
 62
   136
370
    18
100
AcDbLine
 10
273.281627581938
 20
126.412657618595
 30
0.0
 11
272.881627581938
 21
128.412657618595
 31
0.0
  0
LINE
  5
465
330
45C
100
AcDbEntity
  8
Layer0
  6
AUSGEZOGEN
 62
   136
370
    18
100
AcDbLine
 10
273.281627581938
 20
126.412657618595
 30
0.0
 11
273.281627581938
 21
197.412657618595
 31
0.0
  0
LINE
  5
466
330
45C
100
AcDbEntity
  8
Layer0
  6
AUSGEZOGEN
 62
   136
370
    18
100
AcDbLine
 10
253.528471068335
 20
126.412657618595
 30
0.0
 11
259.505772224399
 21
126.412657618595
 31
0.0
  0
LINE
  5
467
330
45C
100
AcDbEntity
  8
Layer0
  6
AUSGEZOGEN
 62
   136
370
    18
100
AcDbLine
 10
260.505772224399
 20
126.412657618595
 30
0.0
 11
274.424484724795
 21
126.412657618595
 31
0.0
  0
LINE
  5
468
330
45C
100
AcDbEntity
  8
Layer0
  6
AUSGEZOGEN
 62
   136
370
    18
100
AcDbLine
 10
253.528471068335
 20
197.412657618595
 30
0.0
 11
259.505772224397
 21
197.412657618595
 31
0.0
  0
LINE
  5
469
330
45C
100
AcDbEntity
  8
Layer0
  6
AUSGEZOGEN
 62
   136
370
    18
100
AcDbLine
 10
260.505772224397
 20
197.412657618595
 30
0.0
 11
274.424484724795
 21
197.412657618595
 31
0.0
  0
TEXT
  5
46A
330
45C
100
AcDbEntity
  8
Layer0
  6
AUSGEZOGEN
 62
   136
370
    18
100
AcDbText
 10
272.281627581938
 20
159.505781105991
 30
0.0
 40
2.0
  1
71
 50
90.0
 41
1.136597918788
  7
Arial
 72
     5
 11
272.281627581938
 21
163.033781045909
 31
0.0
100
AcDbText
  0
ENDBLK
  5
45E
330
45C
100
AcDbEntity
  8
0
100
AcDbBlockEnd
  0
BLOCK
  5
46D
330
46C
100
AcDbEntity
  8
0
100
AcDbBlockBegin
  2
*D10
 70
     1
 10
0.0
 20
0.0
 30
0.0
  3
*D10
  1

  0
LINE
  5
46F
330
46C
100
AcDbEntity
  8
Layer0
  6
AUSGEZOGEN
 62
   136
370
    18
100
AcDbLine
 10
278.881627581938
 20
200.912657618595
 30
0.0
 11
279.681627581938
 21
200.912657618595
 31
0.0
  0
LINE
  5
470
330
46C
100
AcDbEntity
  8
Layer0
  6
AUSGEZOGEN
 62
   136
370
    18
100
AcDbLine
 10
278.881627581938
 20
200.912657618595
 30
0.0
 11
279.281627581938
 21
202.912657618595
 31
0.0
  0
LINE
  5
471
330
46C
100
AcDbEntity
  8
Layer0
  6
AUSGEZOGEN
 62
   136
370
    18
100
AcDbLine
 10
279.281627581938
 20
202.912657618595
 30
0.0
 11
279.681627581938
 21
200.912657618595
 31
0.0
  0
LINE
  5
472
330
46C
100
AcDbEntity
  8
Layer0
  6
AUSGEZOGEN
 62
   136
370
    18
100
AcDbLine
 10
279.681627581938
 20
122.912657618595
 30
0.0
 11
278.881627581938
 21
122.912657618595
 31
0.0
  0
LINE
  5
473
330
46C
100
AcDbEntity
  8
Layer0
  6
AUSGEZOGEN
 62
   136
370
    18
100
AcDbLine
 10
279.681627581938
 20
122.912657618595
 30
0.0
 11
279.281627581938
 21
120.912657618595
 31
0.0
  0
LINE
  5
474
330
46C
100
AcDbEntity
  8
Layer0
  6
AUSGEZOGEN
 62
   136
370
    18
100
AcDbLine
 10
279.281627581938
 20
120.912657618595
 30
0.0
 11
278.881627581938
 21
122.912657618595
 31
0.0
  0
LINE
  5
475
330
46C
100
AcDbEntity
  8
Layer0
  6
AUSGEZOGEN
 62
   136
370
    18
100
AcDbLine
 10
279.281627581938
 20
120.912657618595
 30
0.0
 11
279.281627581938
 21
202.912657618595
 31
0.0
  0
LINE
  5
476
330
46C
100
AcDbEntity
  8
Layer0
  6
AUSGEZOGEN
 62
   136
370
    18
100
AcDbLine
 10
257.506152986499
 20
120.912657618595
 30
0.0
 11
280.424484724795
 21
120.912657618595
 31
0.0
  0
LINE
  5
477
330
46C
100
AcDbEntity
  8
Layer0
  6
AUSGEZOGEN
 62
   136
370
    18
100
AcDbLine
 10
257.506152986497
 20
202.912657618595
 30
0.0
 11
280.424484724795
 21
202.912657618595
 31
0.0
  0
TEXT
  5
478
330
46C
100
AcDbEntity
  8
Layer0
  6
AUSGEZOGEN
 62
   136
370
    18
100
AcDbText
 10
278.281627581938
 20
159.505781105991
 30
0.0
 40
2.0
  1
82
 50
90.0
 41
1.136597918788
  7
Arial
 72
     5
 11
278.281627581938
 21
163.033781045909
 31
0.0
100
AcDbText
  0
ENDBLK
  5
46E
330
46C
100
AcDbEntity
  8
0
100
AcDbBlockEnd
  0
BLOCK
  5
47B
330
47A
100
AcDbEntity
  8
0
100
AcDbBlockBegin
  2
*D11
 70
     1
 10
0.0
 20
0.0
 30
0.0
  3
*D11
  1

  0
LINE
  5
47D
330
47A
100
AcDbEntity
  8
Layer0
  6
AUSGEZOGEN
 62
   136
370
    18
100
AcDbLine
 10
255.993374458284
 20
113.905781105991
 30
0.0
 11
255.993374458284
 21
113.105781105991
 31
0.0
  0
LINE
  5
47E
330
47A
100
AcDbEntity
  8
Layer0
  6
AUSGEZOGEN
 62
   136
370
    18
100
AcDbLine
 10
255.993374458284
 20
113.905781105991
 30
0.0
 11
257.993374458284
 21
113.505781105991
 31
0.0
  0
LINE
  5
47F
330
47A
100
AcDbEntity
  8
Layer0
  6
AUSGEZOGEN
 62
   136
370
    18
100
AcDbLine
 10
257.993374458284
 20
113.505781105991
 30
0.0
 11
255.993374458284
 21
113.105781105991
 31
0.0
  0
LINE
  5
480
330
47A
100
AcDbEntity
  8
Layer0
  6
AUSGEZOGEN
 62
   136
370
    18
100
AcDbLine
 10
241.51816999051
 20
113.105781105991
 30
0.0
 11
241.51816999051
 21
113.905781105991
 31
0.0
  0
LINE
  5
481
330
47A
100
AcDbEntity
  8
Layer0
  6
AUSGEZOGEN
 62
   136
370
    18
100
AcDbLine
 10
241.51816999051
 20
113.105781105991
 30
0.0
 11
239.51816999051
 21
113.505781105991
 31
0.0
  0
LINE
  5
482
330
47A
100
AcDbEntity
  8
Layer0
  6
AUSGEZOGEN
 62
   136
370
    18
100
AcDbLine
 10
239.51816999051
 20
113.505781105991
 30
0.0
 11
241.51816999051
 21
113.905781105991
 31
0.0
  0
LINE
  5
483
330
47A
100
AcDbEntity
  8
Layer0
  6
AUSGEZOGEN
 62
   136
370
    18
100
AcDbLine
 10
239.51816999051
 20
113.505781105991
 30
0.0
 11
257.993374458284
 21
113.505781105991
 31
0.0
  0
LINE
  5
484
330
47A
100
AcDbEntity
  8
Layer0
  6
AUSGEZOGEN
 62
   136
370
    18
100
AcDbLine
 10
239.51816999051
 20
134.912657618595
 30
0.0
 11
239.51816999051
 21
133.312657618595
 31
0.0
  0
LINE
  5
485
330
47A
100
AcDbEntity
  8
Layer0
  6
AUSGEZOGEN
 62
   136
370
    18
100
AcDbLine
 10
239.51816999051
 20
132.312657618595
 30
0.0
 11
239.51816999051
 21
121.460669840993
 31
0.0
  0
LINE
  5
486
330
47A
100
AcDbEntity
  8
Layer0
  6
AUSGEZOGEN
 62
   136
370
    18
100
AcDbLine
 10
239.51816999051
 20
120.460669840993
 30
0.0
 11
239.51816999051
 21
112.362923963134
 31
0.0
  0
LINE
  5
487
330
47A
100
AcDbEntity
  8
Layer0
  6
AUSGEZOGEN
 62
   136
370
    18
100
AcDbLine
 10
257.993374458284
 20
134.912657618595
 30
0.0
 11
257.993374458284
 21
133.312657618595
 31
0.0
  0
LINE
  5
488
330
47A
100
AcDbEntity
  8
Layer0
  6
AUSGEZOGEN
 62
   136
370
    18
100
AcDbLine
 10
257.993374458284
 20
132.312657618595
 30
0.0
 11
257.993374458284
 21
121.460669840993
 31
0.0
  0
LINE
  5
489
330
47A
100
AcDbEntity
  8
Layer0
  6
AUSGEZOGEN
 62
   136
370
    18
100
AcDbLine
 10
257.993374458284
 20
120.460669840993
 30
0.0
 11
257.993374458284
 21
112.362923963134
 31
0.0
  0
TEXT
  5
48A
330
47A
100
AcDbEntity
  8
Layer0
  6
AUSGEZOGEN
 62
   136
370
    18
100
AcDbText
 10
244.281627581938
 20
114.505781105991
 30
0.0
 40
2.0
  1
18.48
 41
1.136597918788
  7
Arial
 72
     5
 11
252.219627446755
 21
114.505781105991
 31
0.0
100
AcDbText
  0
ENDBLK
  5
47C
330
47A
100
AcDbEntity
  8
0
100
AcDbBlockEnd
  0
BLOCK
  5
48D
330
48C
100
AcDbEntity
  8
0
100
AcDbBlockBegin
  2
*D12
 70
     1
 10
0.0
 20
0.0
 30
0.0
  3
*D12
  1

  0
LINE
  5
48F
330
48C
100
AcDbEntity
  8
Layer0
  6
AUSGEZOGEN
 62
   136
370
    18
100
AcDbLine
 10
258.005772224399
 20
108.905781105991
 30
0.0
 11
258.005772224399
 21
108.105781105991
 31
0.0
  0
LINE
  5
490
330
48C
100
AcDbEntity
  8
Layer0
  6
AUSGEZOGEN
 62
   136
370
    18
100
AcDbLine
 10
258.005772224399
 20
108.905781105991
 30
0.0
 11
260.005772224399
 21
108.505781105991
 31
0.0
  0
LINE
  5
491
330
48C
100
AcDbEntity
  8
Layer0
  6
AUSGEZOGEN
 62
   136
370
    18
100
AcDbLine
 10
260.005772224399
 20
108.505781105991
 30
0.0
 11
258.005772224399
 21
108.105781105991
 31
0.0
  0
LINE
  5
492
330
48C
100
AcDbEntity
  8
Layer0
  6
AUSGEZOGEN
 62
   136
370
    18
100
AcDbLine
 10
239.505772224395
 20
108.105781105991
 30
0.0
 11
239.505772224395
 21
108.905781105991
 31
0.0
  0
LINE
  5
493
330
48C
100
AcDbEntity
  8
Layer0
  6
AUSGEZOGEN
 62
   136
370
    18
100
AcDbLine
 10
239.505772224395
 20
108.105781105991
 30
0.0
 11
237.505772224395
 21
108.505781105991
 31
0.0
  0
LINE
  5
494
330
48C
100
AcDbEntity
  8
Layer0
  6
AUSGEZOGEN
 62
   136
370
    18
100
AcDbLine
 10
237.505772224395
 20
108.505781105991
 30
0.0
 11
239.505772224395
 21
108.905781105991
 31
0.0
  0
LINE
  5
495
330
48C
100
AcDbEntity
  8
Layer0
  6
AUSGEZOGEN
 62
   136
370
    18
100
AcDbLine
 10
237.505772224395
 20
108.505781105991
 30
0.0
 11
260.005772224399
 21
108.505781105991
 31
0.0
  0
LINE
  5
496
330
48C
100
AcDbEntity
  8
Layer0
  6
AUSGEZOGEN
 62
   136
370
    18
100
AcDbLine
 10
237.505772224395
 20
123.412276856495
 30
0.0
 11
237.505772224395
 21
107.362923963134
 31
0.0
  0
LINE
  5
497
330
48C
100
AcDbEntity
  8
Layer0
  6
AUSGEZOGEN
 62
   136
370
    18
100
AcDbLine
 10
260.005772224399
 20
123.412276856495
 30
0.0
 11
260.005772224399
 21
107.362923963134
 31
0.0
  0
TEXT
  5
498
330
48C
100
AcDbEntity
  8
Layer0
  6
AUSGEZOGEN
 62
   136
370
    18
100
AcDbText
 10
246.281627581938
 20
109.505781105991
 30
0.0
 40
2.0
  1
22.5
 41
1.136597918788
  7
Arial
 72
     5
 11
252.455627476795
 21
109.505781105991
 31
0.0
100
AcDbText
  0
ENDBLK
  5
48E
330
48C
100
AcDbEntity
  8
0
100
AcDbBlockEnd
  0
BLOCK
  5
49D
330
49C
100
AcDbEntity
  8
0
100
AcDbBlockBegin
  2
*D13
 70
     1
 10
0.0
 20
0.0
 30
0.0
  3
*D13
  1

  0
LINE
  5
49F
330
49C
100
AcDbEntity
  8
Layer0
  6
AUSGEZOGEN
 62
   136
370
    18
100
AcDbLine
 10
232.681627581938
 20
150.837657618595
 30
0.0
 11
231.881627581938
 21
150.837657618595
 31
0.0
  0
LINE
  5
4A0
330
49C
100
AcDbEntity
  8
Layer0
  6
AUSGEZOGEN
 62
   136
370
    18
100
AcDbLine
 10
232.681627581938
 20
150.837657618595
 30
0.0
 11
232.281627581938
 21
148.837657618595
 31
0.0
  0
LINE
  5
4A1
330
49C
100
AcDbEntity
  8
Layer0
  6
AUSGEZOGEN
 62
   136
370
    18
100
AcDbLine
 10
232.281627581938
 20
148.837657618595
 30
0.0
 11
231.881627581938
 21
150.837657618595
 31
0.0
  0
LINE
  5
4A2
330
49C
100
AcDbEntity
  8
Layer0
  6
AUSGEZOGEN
 62
   136
370
    18
100
AcDbLine
 10
231.881627581938
 20
142.987657618595
 30
0.0
 11
232.681627581938
 21
142.987657618595
 31
0.0
  0
LINE
  5
4A3
330
49C
100
AcDbEntity
  8
Layer0
  6
AUSGEZOGEN
 62
   136
370
    18
100
AcDbLine
 10
231.881627581938
 20
142.987657618595
 30
0.0
 11
232.281627581938
 21
144.987657618595
 31
0.0
  0
LINE
  5
4A4
330
49C
100
AcDbEntity
  8
Layer0
  6
AUSGEZOGEN
 62
   136
370
    18
100
AcDbLine
 10
232.281627581938
 20
144.987657618595
 30
0.0
 11
232.681627581938
 21
142.987657618595
 31
0.0
  0
LINE
  5
4A5
330
49C
100
AcDbEntity
  8
Layer0
  6
AUSGEZOGEN
 62
   136
370
    18
100
AcDbLine
 10
232.281627581938
 20
144.987657618595
 30
0.0
 11
232.281627581938
 21
148.837657618595
 31
0.0
  0
LINE
  5
4A6
330
49C
100
AcDbEntity
  8
Layer0
  6
AUSGEZOGEN
 62
   136
370
    18
100
AcDbLine
 10
232.281627581938
 20
148.837657618595
 30
0.0
 11
232.281627581938
 21
152.837657618595
 31
0.0
  0
LINE
  5
4A7
330
49C
100
AcDbEntity
  8
Layer0
  6
AUSGEZOGEN
 62
   136
370
    18
100
AcDbLine
 10
232.281627581938
 20
144.987657618595
 30
0.0
 11
232.281627581938
 21
140.987657618595
 31
0.0
  0
LINE
  5
4A8
330
49C
100
AcDbEntity
  8
Layer0
  6
AUSGEZOGEN
 62
   136
370
    18
100
AcDbLine
 10
232.281627581938
 20
148.837657618595
 30
0.0
 11
232.281627581938
 21
158.679781000848
 31
0.0
  0
LINE
  5
4A9
330
49C
100
AcDbEntity
  8
Layer0
  6
AUSGEZOGEN
 62
   136
370
    18
100
AcDbLine
 10
240.672863594026
 20
144.987657618595
 30
0.0
 11
240.061471000642
 21
144.987657618595
 31
0.0
  0
LINE
  5
4AA
330
49C
100
AcDbEntity
  8
Layer0
  6
AUSGEZOGEN
 62
   136
370
    18
100
AcDbLine
 10
239.01816999051
 20
144.987657618595
 30
0.0
 11
238.255772224397
 21
144.987657618595
 31
0.0
  0
LINE
  5
4AB
330
49C
100
AcDbEntity
  8
Layer0
  6
AUSGEZOGEN
 62
   136
370
    18
100
AcDbLine
 10
237.005772224396
 20
144.987657618595
 30
0.0
 11
231.138770439081
 21
144.987657618595
 31
0.0
  0
LINE
  5
4AC
330
49C
100
AcDbEntity
  8
Layer0
  6
AUSGEZOGEN
 62
   136
370
    18
100
AcDbLine
 10
240.672863594026
 20
148.837657618595
 30
0.0
 11
240.061471000642
 21
148.837657618595
 31
0.0
  0
LINE
  5
4AD
330
49C
100
AcDbEntity
  8
Layer0
  6
AUSGEZOGEN
 62
   136
370
    18
100
AcDbLine
 10
239.01816999051
 20
148.837657618595
 30
0.0
 11
238.255772224397
 21
148.837657618595
 31
0.0
  0
LINE
  5
4AE
330
49C
100
AcDbEntity
  8
Layer0
  6
AUSGEZOGEN
 62
   136
370
    18
100
AcDbLine
 10
237.005772224396
 20
148.837657618595
 30
0.0
 11
231.138770439081
 21
148.837657618595
 31
0.0
  0
TEXT
  5
4AF
330
49C
100
AcDbEntity
  8
Layer0
  6
AUSGEZOGEN
 62
   136
370
    18
100
AcDbText
 10
231.281627581938
 20
152.505781105991
 30
0.0
 40
2.0
  1
3.85
 50
90.0
 41
1.136597918788
  7
Arial
 72
     5
 11
231.281627581938
 21
158.679781000848
 31
0.0
100
AcDbText
  0
ENDBLK
  5
49E
330
49C
100
AcDbEntity
  8
0
100
AcDbBlockEnd
  0
BLOCK
  5
4B2
330
4B1
100
AcDbEntity
  8
0
100
AcDbBlockBegin
  2
ingrid1_nNn012
 70
     0
 10
0.0
 20
0.0
 30
0.0
  3
ingrid1_nNn012
  1

  0
LINE
  5
4B4
330
4B1
100
AcDbEntity
  8
Layer0
  6
AUSGEZOGEN
 62
     9
370
    18
100
AcDbLine
 10
251.147727910847
 20
233.573647355837
 30
0.0
 11
251.150836254697
 21
233.570539011987
 31
0.0
  0
LINE
  5
4B5
330
4B1
100
AcDbEntity
  8
Layer0
  6
AUSGEZOGEN
 62
     9
370
    18
100
AcDbLine
 10
244.759582918997
 20
233.570539011987
 30
0.0
 11
244.633868148837
 21
237.170539011987
 31
0.0
  0
LINE
  5
4B6
330
4B1
100
AcDbEntity
  8
Layer0
  6
AUSGEZOGEN
 62
     9
370
    18
100
AcDbLine
 10
238.855772224397
 20
233.770539011987
 30
0.0
 11
237.505772224397
 21
233.770539011987
 31
0.0
  0
LINE
  5
4B7
330
4B1
100
AcDbEntity
  8
Layer0
  6
AUSGEZOGEN
 62
     9
370
    18
100
AcDbLine
 10
246.363707992197
 20
233.570539011987
 30
0.0
 11
244.759582918997
 21
233.570539011987
 31
0.0
  0
LINE
  5
4B8
330
4B1
100
AcDbEntity
  8
Layer0
  6
AUSGEZOGEN
 62
     9
370
    18
100
AcDbLine
 10
237.505772224397
 20
233.770539011987
 30
0.0
 11
237.596538562038
 21
238.970539011987
 31
0.0
  0
LINE
  5
4B9
330
4B1
100
AcDbEntity
  8
Layer0
  6
AUSGEZOGEN
 62
     9
370
    18
100
AcDbLine
 10
260.005772224397
 20
233.770539011987
 30
0.0
 11
258.505772224397
 21
233.770539011987
 31
0.0
  0
LINE
  5
4BA
330
4B1
100
AcDbEntity
  8
Layer0
  6
AUSGEZOGEN
 62
     9
370
    18
100
AcDbLine
 10
258.29275553049
 20
239.870539011987
 30
0.0
 11
258.505772224397
 21
233.770539011987
 31
0.0
  0
LINE
  5
4BB
330
4B1
100
AcDbEntity
  8
Layer0
  6
AUSGEZOGEN
 62
     9
370
    18
100
AcDbLine
 10
252.877676300007
 20
237.170539011987
 30
0.0
 11
252.751961529847
 21
233.570539011987
 31
0.0
  0
LINE
  5
4BC
330
4B1
100
AcDbEntity
  8
Layer0
  6
AUSGEZOGEN
 62
     9
370
    18
100
AcDbLine
 10
252.751961529847
 20
233.570539011987
 30
0.0
 11
251.147836456597
 21
233.570539011987
 31
0.0
  0
LINE
  5
4BD
330
4B1
100
AcDbEntity
  8
Layer0
  6
AUSGEZOGEN
 62
     9
370
    18
100
AcDbLine
 10
259.869622717983
 20
241.570539011987
 30
0.0
 11
260.005772224397
 21
233.770539011987
 31
0.0
  0
LINE
  5
4BE
330
4B1
100
AcDbEntity
  8
Layer0
  6
AUSGEZOGEN
 62
     9
370
    18
100
AcDbLine
 10
246.363707992197
 20
233.570539011987
 30
0.0
 11
251.147836456597
 21
233.570539011987
 31
0.0
  0
LINE
  5
4BF
330
4B1
100
AcDbEntity
  8
Layer0
  6
AUSGEZOGEN
 62
     9
370
    18
100
AcDbLine
 10
258.505772224397
 20
233.770539011987
 30
0.0
 11
252.758945683745
 21
233.770539011987
 31
0.0
  0
LINE
  5
4C0
330
4B1
100
AcDbEntity
  8
Layer0
  6
AUSGEZOGEN
 62
     9
370
    18
100
AcDbLine
 10
244.752598765099
 20
233.770539011987
 30
0.0
 11
238.855772224397
 21
233.770539011987
 31
0.0
  0
LINE
  5
4C1
330
4B1
100
AcDbEntity
  8
Layer0
  6
DASHDOT
 62
    56
370
    18
100
AcDbLine
 10
248.755772224397
 20
244.040042546952
 30
0.0
 11
248.755772224397
 21
231.898602523485
 31
0.0
  0
LINE
  5
4C2
330
4B1
100
AcDbEntity
  8
Layer0
  6
DASHDOT
 62
     9
370
    18
100
AcDbLine
 10
241.425008688445
 20
241.570539011987
 30
0.0
 11
241.425008688445
 21
233.770539011987
 31
0.0
  0
LINE
  5
4C3
330
4B1
100
AcDbEntity
  8
Layer0
  6
AUSGEZOGEN
 62
     9
370
    18
100
AcDbLine
 10
241.425008688445
 20
235.270539011987
 30
0.0
 11
239.330829003572
 21
235.270539011987
 31
0.0
  0
LINE
  5
4C4
330
4B1
100
AcDbEntity
  8
Layer0
  6
AUSGEZOGEN
 62
     9
370
    18
100
AcDbLine
 10
239.330829003572
 20
235.270539011987
 30
0.0
 11
239.26624526333
 21
238.970539011987
 31
0.0
  0
LINE
  5
4C5
330
4B1
100
AcDbEntity
  8
Layer0
  6
AUSGEZOGEN
 62
     9
370
    18
100
AcDbLine
 10
251.005772224397
 20
238.170539011987
 30
0.0
 11
251.005772224397
 21
233.570539011987
 31
0.0
  0
LINE
  5
4C6
330
4B1
100
AcDbEntity
  8
Layer0
  6
AUSGEZOGEN
 62
     9
370
    18
100
AcDbLine
 10
246.505772224397
 20
238.170539011987
 30
0.0
 11
246.505772224397
 21
233.570539011987
 31
0.0
  0
ENDBLK
  5
4B3
330
4B1
100
AcDbEntity
  8
0
100
AcDbBlockEnd
  0
BLOCK
  5
4E5
330
4E4
100
AcDbEntity
  8
0
100
AcDbBlockBegin
  2
*D15
 70
     1
 10
0.0
 20
0.0
 30
0.0
  3
*D15
  1

  0
LINE
  5
4E7
330
4E4
100
AcDbEntity
  8
Layer0
  6
AUSGEZOGEN
 62
   136
370
    18
100
AcDbLine
 10
263.881627581938
 20
236.170539011987
 30
0.0
 11
264.681627581938
 21
236.170539011987
 31
0.0
  0
LINE
  5
4E8
330
4E4
100
AcDbEntity
  8
Layer0
  6
AUSGEZOGEN
 62
   136
370
    18
100
AcDbLine
 10
263.881627581938
 20
236.170539011987
 30
0.0
 11
264.281627581938
 21
238.170539011987
 31
0.0
  0
LINE
  5
4E9
330
4E4
100
AcDbEntity
  8
Layer0
  6
AUSGEZOGEN
 62
   136
370
    18
100
AcDbLine
 10
264.281627581938
 20
238.170539011987
 30
0.0
 11
264.681627581938
 21
236.170539011987
 31
0.0
  0
LINE
  5
4EA
330
4E4
100
AcDbEntity
  8
Layer0
  6
AUSGEZOGEN
 62
   136
370
    18
100
AcDbLine
 10
264.681627581938
 20
243.570539011987
 30
0.0
 11
263.881627581938
 21
243.570539011987
 31
0.0
  0
LINE
  5
4EB
330
4E4
100
AcDbEntity
  8
Layer0
  6
AUSGEZOGEN
 62
   136
370
    18
100
AcDbLine
 10
264.681627581938
 20
243.570539011987
 30
0.0
 11
264.281627581938
 21
241.570539011987
 31
0.0
  0
LINE
  5
4EC
330
4E4
100
AcDbEntity
  8
Layer0
  6
AUSGEZOGEN
 62
   136
370
    18
100
AcDbLine
 10
264.281627581938
 20
241.570539011987
 30
0.0
 11
263.881627581938
 21
243.570539011987
 31
0.0
  0
LINE
  5
4ED
330
4E4
100
AcDbEntity
  8
Layer0
  6
AUSGEZOGEN
 62
   136
370
    18
100
AcDbLine
 10
264.281627581938
 20
241.570539011987
 30
0.0
 11
264.281627581938
 21
238.170539011987
 31
0.0
  0
LINE
  5
4EE
330
4E4
100
AcDbEntity
  8
Layer0
  6
AUSGEZOGEN
 62
   136
370
    18
100
AcDbLine
 10
264.281627581938
 20
238.170539011987
 30
0.0
 11
264.281627581938
 21
234.170539011987
 31
0.0
  0
LINE
  5
4EF
330
4E4
100
AcDbEntity
  8
Layer0
  6
AUSGEZOGEN
 62
   136
370
    18
100
AcDbLine
 10
264.281627581938
 20
241.570539011987
 30
0.0
 11
264.281627581938
 21
245.570539011987
 31
0.0
  0
LINE
  5
4F0
330
4E4
100
AcDbEntity
  8
Layer0
  6
AUSGEZOGEN
 62
   136
370
    18
100
AcDbLine
 10
264.281627581938
 20
241.570539011987
 30
0.0
 11
264.281627581938
 21
248.915781030889
 31
0.0
  0
LINE
  5
4F1
330
4E4
100
AcDbEntity
  8
Layer0
  6
AUSGEZOGEN
 62
   136
370
    18
100
AcDbLine
 10
259.859149679028
 20
241.570539011987
 30
0.0
 11
265.424484724795
 21
241.570539011987
 31
0.0
  0
LINE
  5
4F2
330
4E4
100
AcDbEntity
  8
Layer0
  6
AUSGEZOGEN
 62
   136
370
    18
100
AcDbLine
 10
252.505772224397
 20
238.170539011987
 30
0.0
 11
253.183549531197
 21
238.170539011987
 31
0.0
  0
LINE
  5
4F3
330
4E4
100
AcDbEntity
  8
Layer0
  6
AUSGEZOGEN
 62
   136
370
    18
100
AcDbLine
 10
254.183549531197
 20
238.170539011987
 30
0.0
 11
257.852120838628
 21
238.170539011987
 31
0.0
  0
LINE
  5
4F4
330
4E4
100
AcDbEntity
  8
Layer0
  6
AUSGEZOGEN
 62
   136
370
    18
100
AcDbLine
 10
258.852120838628
 20
238.170539011987
 30
0.0
 11
259.428969938728
 21
238.170539011987
 31
0.0
  0
LINE
  5
4F5
330
4E4
100
AcDbEntity
  8
Layer0
  6
AUSGEZOGEN
 62
   136
370
    18
100
AcDbLine
 10
260.428969938728
 20
238.170539011987
 30
0.0
 11
265.424484724795
 21
238.170539011987
 31
0.0
  0
TEXT
  5
4F6
330
4E4
100
AcDbEntity
  8
Layer0
  6
AUSGEZOGEN
 62
   136
370
    18
100
AcDbText
 10
263.281627581938
 20
244.505781105991
 30
0.0
 40
2.0
  1
3.4
 50
90.0
 41
1.136597918788
  7
Arial
 72
     5
 11
263.281627581938
 21
248.915781030889
 31
0.0
100
AcDbText
  0
ENDBLK
  5
4E6
330
4E4
100
AcDbEntity
  8
0
100
AcDbBlockEnd
  0
BLOCK
  5
4F9
330
4F8
100
AcDbEntity
  8
0
100
AcDbBlockBegin
  2
*D16
 70
     1
 10
0.0
 20
0.0
 30
0.0
  3
*D16
  1

  0
LINE
  5
4FB
330
4F8
100
AcDbEntity
  8
Layer0
  6
AUSGEZOGEN
 62
   136
370
    18
100
AcDbLine
 10
270.693087214139
 20
235.570539011987
 30
0.0
 11
269.893087214139
 21
235.570539011987
 31
0.0
  0
LINE
  5
4FC
330
4F8
100
AcDbEntity
  8
Layer0
  6
AUSGEZOGEN
 62
   136
370
    18
100
AcDbLine
 10
270.693087214139
 20
235.570539011987
 30
0.0
 11
270.293087214139
 21
233.570539011987
 31
0.0
  0
LINE
  5
4FD
330
4F8
100
AcDbEntity
  8
Layer0
  6
AUSGEZOGEN
 62
   136
370
    18
100
AcDbLine
 10
270.293087214139
 20
233.570539011987
 30
0.0
 11
269.893087214139
 21
235.570539011987
 31
0.0
  0
LINE
  5
4FE
330
4F8
100
AcDbEntity
  8
Layer0
  6
AUSGEZOGEN
 62
   136
370
    18
100
AcDbLine
 10
269.893087214139
 20
239.570539011987
 30
0.0
 11
270.693087214139
 21
239.570539011987
 31
0.0
  0
LINE
  5
4FF
330
4F8
100
AcDbEntity
  8
Layer0
  6
AUSGEZOGEN
 62
   136
370
    18
100
AcDbLine
 10
269.893087214139
 20
239.570539011987
 30
0.0
 11
270.293087214139
 21
241.570539011987
 31
0.0
  0
LINE
  5
500
330
4F8
100
AcDbEntity
  8
Layer0
  6
AUSGEZOGEN
 62
   136
370
    18
100
AcDbLine
 10
270.293087214139
 20
241.570539011987
 30
0.0
 11
270.693087214139
 21
239.570539011987
 31
0.0
  0
LINE
  5
501
330
4F8
100
AcDbEntity
  8
Layer0
  6
AUSGEZOGEN
 62
   136
370
    18
100
AcDbLine
 10
270.293087214139
 20
241.570539011987
 30
0.0
 11
270.293087214139
 21
233.570539011987
 31
0.0
  0
LINE
  5
502
330
4F8
100
AcDbEntity
  8
Layer0
  6
AUSGEZOGEN
 62
   136
370
    18
100
AcDbLine
 10
259.859149679028
 20
241.570539011987
 30
0.0
 11
263.781627581938
 21
241.570539011987
 31
0.0
  0
LINE
  5
503
330
4F8
100
AcDbEntity
  8
Layer0
  6
AUSGEZOGEN
 62
   136
370
    18
100
AcDbLine
 10
264.781627581938
 20
241.570539011987
 30
0.0
 11
271.435944356996
 21
241.570539011987
 31
0.0
  0
LINE
  5
504
330
4F8
100
AcDbEntity
  8
Layer0
  6
AUSGEZOGEN
 62
   136
370
    18
100
AcDbLine
 10
252.751961529847
 20
233.570539011987
 30
0.0
 11
271.435944356996
 21
233.570539011987
 31
0.0
  0
TEXT
  5
505
330
4F8
100
AcDbEntity
  8
Layer0
  6
AUSGEZOGEN
 62
   136
370
    18
100
AcDbText
 10
269.293087214139
 20
234.785641702252
 30
0.0
 40
2.0
  1
8
 50
90.0
 41
1.136597918788
  7
Arial
 72
     5
 11
269.293087214139
 21
236.549641672212
 31
0.0
100
AcDbText
  0
TEXT
  5
506
330
4F8
100
AcDbEntity
  8
Layer0
  6
AUSGEZOGEN
 62
   136
370
    18
100
AcDbText
 10
268.993087214139
 20
236.549641672212
 30
0.0
 40
1.4
  1
%%p0.3
 50
90.0
 41
1.135624518724
  7
Arial
 72
     5
 11
268.993087214139
 21
240.851841598946
 31
0.0
100
AcDbText
  0
ENDBLK
  5
4FA
330
4F8
100
AcDbEntity
  8
0
100
AcDbBlockEnd
  0
BLOCK
  5
509
330
508
100
AcDbEntity
  8
0
100
AcDbBlockBegin
  2
*D17
 70
     1
 10
0.0
 20
0.0
 30
0.0
  3
*D17
  1

  0
LINE
  5
50B
330
508
100
AcDbEntity
  8
Layer0
  6
AUSGEZOGEN
 62
   136
370
    18
100
AcDbLine
 10
250.505772224397
 20
246.905781105991
 30
0.0
 11
250.505772224397
 21
246.105781105991
 31
0.0
  0
LINE
  5
50C
330
508
100
AcDbEntity
  8
Layer0
  6
AUSGEZOGEN
 62
   136
370
    18
100
AcDbLine
 10
250.505772224397
 20
246.905781105991
 30
0.0
 11
252.505772224397
 21
246.505781105991
 31
0.0
  0
LINE
  5
50D
330
508
100
AcDbEntity
  8
Layer0
  6
AUSGEZOGEN
 62
   136
370
    18
100
AcDbLine
 10
252.505772224397
 20
246.505781105991
 30
0.0
 11
250.505772224397
 21
246.105781105991
 31
0.0
  0
LINE
  5
50E
330
508
100
AcDbEntity
  8
Layer0
  6
AUSGEZOGEN
 62
   136
370
    18
100
AcDbLine
 10
247.005772224397
 20
246.105781105991
 30
0.0
 11
247.005772224397
 21
246.905781105991
 31
0.0
  0
LINE
  5
50F
330
508
100
AcDbEntity
  8
Layer0
  6
AUSGEZOGEN
 62
   136
370
    18
100
AcDbLine
 10
247.005772224397
 20
246.105781105991
 30
0.0
 11
245.005772224397
 21
246.505781105991
 31
0.0
  0
LINE
  5
510
330
508
100
AcDbEntity
  8
Layer0
  6
AUSGEZOGEN
 62
   136
370
    18
100
AcDbLine
 10
245.005772224397
 20
246.505781105991
 30
0.0
 11
247.005772224397
 21
246.905781105991
 31
0.0
  0
LINE
  5
511
330
508
100
AcDbEntity
  8
Layer0
  6
AUSGEZOGEN
 62
   136
370
    18
100
AcDbLine
 10
245.005772224397
 20
246.505781105991
 30
0.0
 11
252.505772224397
 21
246.505781105991
 31
0.0
  0
LINE
  5
512
330
508
100
AcDbEntity
  8
Layer0
  6
AUSGEZOGEN
 62
   136
370
    18
100
AcDbLine
 10
245.005772224397
 20
241.370539011987
 30
0.0
 11
245.005772224397
 21
247.648638248848
 31
0.0
  0
LINE
  5
513
330
508
100
AcDbEntity
  8
Layer0
  6
AUSGEZOGEN
 62
   136
370
    18
100
AcDbLine
 10
252.505772224397
 20
241.370539011987
 30
0.0
 11
252.505772224397
 21
247.648638248848
 31
0.0
  0
TEXT
  5
514
330
508
100
AcDbEntity
  8
Layer0
  6
AUSGEZOGEN
 62
   136
370
    18
100
AcDbText
 10
245.281627581938
 20
247.505781105991
 30
0.0
 40
2.0
  1
%%c7.5
 41
1.047918025776
  7
Arial
 72
     5
 11
251.623627473934
 21
247.505781105991
 31
0.0
100
AcDbText
  0
ENDBLK
  5
50A
330
508
100
AcDbEntity
  8
0
100
AcDbBlockEnd
  0
BLOCK
  5
517
330
516
100
AcDbEntity
  8
0
100
AcDbBlockBegin
  2
*D18
 70
     1
 10
0.0
 20
0.0
 30
0.0
  3
*D18
  1

  0
LINE
  5
519
330
516
100
AcDbEntity
  8
Layer0
  6
AUSGEZOGEN
 62
   136
370
    18
100
AcDbLine
 10
253.005772224397
 20
227.105781105991
 30
0.0
 11
253.005772224397
 21
227.905781105991
 31
0.0
  0
LINE
  5
51A
330
516
100
AcDbEntity
  8
Layer0
  6
AUSGEZOGEN
 62
   136
370
    18
100
AcDbLine
 10
253.005772224397
 20
227.105781105991
 30
0.0
 11
251.005772224397
 21
227.505781105991
 31
0.0
  0
LINE
  5
51B
330
516
100
AcDbEntity
  8
Layer0
  6
AUSGEZOGEN
 62
   136
370
    18
100
AcDbLine
 10
251.005772224397
 20
227.505781105991
 30
0.0
 11
253.005772224397
 21
227.905781105991
 31
0.0
  0
LINE
  5
51C
330
516
100
AcDbEntity
  8
Layer0
  6
AUSGEZOGEN
 62
   136
370
    18
100
AcDbLine
 10
244.505772224397
 20
227.905781105991
 30
0.0
 11
244.505772224397
 21
227.105781105991
 31
0.0
  0
LINE
  5
51D
330
516
100
AcDbEntity
  8
Layer0
  6
AUSGEZOGEN
 62
   136
370
    18
100
AcDbLine
 10
244.505772224397
 20
227.905781105991
 30
0.0
 11
246.505772224397
 21
227.505781105991
 31
0.0
  0
LINE
  5
51E
330
516
100
AcDbEntity
  8
Layer0
  6
AUSGEZOGEN
 62
   136
370
    18
100
AcDbLine
 10
246.505772224397
 20
227.505781105991
 30
0.0
 11
244.505772224397
 21
227.105781105991
 31
0.0
  0
LINE
  5
51F
330
516
100
AcDbEntity
  8
Layer0
  6
AUSGEZOGEN
 62
   136
370
    18
100
AcDbLine
 10
246.505772224397
 20
227.505781105991
 30
0.0
 11
251.005772224397
 21
227.505781105991
 31
0.0
  0
LINE
  5
520
330
516
100
AcDbEntity
  8
Layer0
  6
AUSGEZOGEN
 62
   136
370
    18
100
AcDbLine
 10
251.005772224397
 20
227.505781105991
 30
0.0
 11
255.005772224397
 21
227.505781105991
 31
0.0
  0
LINE
  5
521
330
516
100
AcDbEntity
  8
Layer0
  6
AUSGEZOGEN
 62
   136
370
    18
100
AcDbLine
 10
246.505772224397
 20
227.505781105991
 30
0.0
 11
242.505772224397
 21
227.505781105991
 31
0.0
  0
LINE
  5
522
330
516
100
AcDbEntity
  8
Layer0
  6
AUSGEZOGEN
 62
   136
370
    18
100
AcDbLine
 10
251.005772224397
 20
227.505781105991
 30
0.0
 11
259.623627473934
 21
227.505781105991
 31
0.0
  0
LINE
  5
523
330
516
100
AcDbEntity
  8
Layer0
  6
AUSGEZOGEN
 62
   136
370
    18
100
AcDbLine
 10
246.505772224397
 20
233.570539011987
 30
0.0
 11
246.505772224397
 21
226.362923963134
 31
0.0
  0
LINE
  5
524
330
516
100
AcDbEntity
  8
Layer0
  6
AUSGEZOGEN
 62
   136
370
    18
100
AcDbLine
 10
251.005772224397
 20
233.570539011987
 30
0.0
 11
251.005772224397
 21
226.362923963134
 31
0.0
  0
TEXT
  5
525
330
516
100
AcDbEntity
  8
Layer0
  6
AUSGEZOGEN
 62
   136
370
    18
100
AcDbText
 10
253.281627581938
 20
228.505781105991
 30
0.0
 40
2.0
  1
%%c4.5
 41
1.047918025776
  7
Arial
 72
     5
 11
259.623627473934
 21
228.505781105991
 31
0.0
100
AcDbText
  0
ENDBLK
  5
518
330
516
100
AcDbEntity
  8
0
100
AcDbBlockEnd
  0
BLOCK
  5
52C
330
52B
100
AcDbEntity
  8
0
100
AcDbBlockBegin
  2
Reflexwerte_nNn017
 70
     0
 10
0.0
 20
0.0
 30
0.0
  3
Reflexwerte_nNn017
  1

  0
TEXT
  5
52E
330
52B
100
AcDbEntity
  8
Layer0
  6
AUSGEZOGEN
 62
   136
370
    18
100
AcDbText
 10
170.897732159105
 20
64.201334608886
 30
0.0
 40
2.5
  1
Reflexionswerte werden gesondert vereinbart
 41
1.135633679475
  7
Arial
 72
     5
 11
250.62773371087
 21
64.201334608886
 31
0.0
100
AcDbText
  0
ENDBLK
  5
52D
330
52B
100
AcDbEntity
  8
0
100
AcDbBlockEnd
  0
BLOCK
  5
531
330
530
100
AcDbEntity
  8
0
100
AcDbBlockBegin
  2
QS_nNn018
 70
     0
 10
0.0
 20
0.0
 30
0.0
  3
QS_nNn018
  1

  0
TEXT
  5
533
330
530
100
AcDbEntity
  8
Layer0
  6
AUSGEZOGEN
 62
   136
370
    18
100
AcDbText
 10
170.666672482319
 20
78.131627020479
 30
0.0
 40
2.5
  1
Teil frei von Rissen, Grat, Blasen, Einfallstellen,
 41
1.13496141796
  7
Arial
 72
     5
 11
254.08917410595
 21
78.131627020479
 31
0.0
100
AcDbText
  0
TEXT
  5
534
330
530
100
AcDbEntity
  8
Layer0
  6
AUSGEZOGEN
 62
   136
370
    18
100
AcDbText
 10
170.666672482319
 20
74.131626960874
 30
0.0
 40
2.5
  1
Fliesslinien, Einschlüssen, Formbelag, Kratzer, Schlieren
 41
1.134732261281
  7
Arial
 72
     5
 11
270.574174426793
 21
74.131626960874
 31
0.0
100
AcDbText
  0
TEXT
  5
535
330
530
100
AcDbEntity
  8
Layer0
  6
AUSGEZOGEN
 62
   136
370
    18
100
AcDbText
 10
170.666672482319
 20
70.13162690127
 30
0.0
 40
2.5
  1
Grenzwertmuster werden gesondert vereinbart
 41
1.135456394682
  7
Arial
 72
     5
 11
252.584174076659
 21
70.13162690127
 31
0.0
100
AcDbText
  0
ENDBLK
  5
532
330
530
100
AcDbEntity
  8
0
100
AcDbBlockEnd
  0
ENDSEC
  0
SECTION
  2
ENTITIES
  0
INSERT
  5
19C
330
1F
100
AcDbEntity
  8
0
100
AcDbBlockReference
  2
A4_nNn00
 10
0.0
 20
0.0
 30
0.0
  0
TEXT
  5
19D
330
1F
100
AcDbEntity
  8
Layer50
  6
AUSGEZOGEN
 62
     9
370
    18
100
AcDbText
 10
282.565254399094
 20
16.847133297061
 30
0.0
 40
4.7
  1
03254500k
 41
1.218898721598
  7
Arial
 72
     5
 11
322.128512884471
 21
16.847133297061
 31
0.0
100
AcDbText
  0
TEXT
  5
19E
330
1F
100
AcDbEntity
  8
Layer50
  6
AUSGEZOGEN
 62
     9
370
    18
100
AcDbText
 10
265.236003379241
 20
34.858716822013
 30
0.0
 40
4.7
  1
Reflektor 58x22LHF
 41
1.254730487529
  7
Arial
 72
     5
 11
338.432462991909
 21
34.858716822013
 31
0.0
100
AcDbText
  0
INSERT
  5
1A4
330
1F
100
AcDbEntity
  8
0
100
AcDbBlockReference
  2
teat_nNn03
 10
0.0
 20
0.0
 30
0.0
  0
CIRCLE
  5
1A5
330
1F
100
AcDbEntity
  8
Layer0
  6
AUSGEZOGEN
 62
     9
370
    18
100
AcDbCircle
 10
248.755772224397
 20
197.412657618595
 30
0.0
 40
3.75
  0
CIRCLE
  5
1A6
330
1F
100
AcDbEntity
  8
Layer0
  6
AUSGEZOGEN
 62
     9
370
    18
100
AcDbCircle
 10
248.755772224397
 20
197.412657618595
 30
0.0
 40
2.3
  0
CIRCLE
  5
1A7
330
1F
100
AcDbEntity
  8
Layer0
  6
AUSGEZOGEN
 62
     9
370
    18
100
AcDbCircle
 10
248.755772224397
 20
126.412657618595
 30
0.0
 40
3.75
  0
CIRCLE
  5
1A8
330
1F
100
AcDbEntity
  8
Layer0
  6
AUSGEZOGEN
 62
     9
370
    18
100
AcDbCircle
 10
248.755772224397
 20
126.412657618595
 30
0.0
 40
2.3
  0
INSERT
  5
43A
330
1F
100
AcDbEntity
  8
0
100
AcDbBlockReference
  2
L1_nNn04
 10
0.0
 20
0.0
 30
0.0
  0
LINE
  5
43B
330
1F
100
AcDbEntity
  8
Layer0
  6
AUSGEZOGEN
 62
     9
370
    18
100
AcDbLine
 10
237.505772224397
 20
200.412657618595
 30
0.0
 11
237.505772224397
 21
161.912657618595
 31
0.0
  0
LINE
  5
43C
330
1F
100
AcDbEntity
  8
Layer0
  6
AUSGEZOGEN
 62
     9
370
    18
100
AcDbLine
 10
248.755772224397
 20
202.912657618595
 30
0.0
 11
240.005772224397
 21
202.912657618595
 31
0.0
  0
LINE
  5
43D
330
1F
100
AcDbEntity
  8
Layer0
  6
AUSGEZOGEN
 62
     9
370
    18
100
AcDbLine
 10
260.005772224397
 20
200.412657618595
 30
0.0
 11
260.005772224397
 21
161.912657618595
 31
0.0
  0
LINE
  5
43E
330
1F
100
AcDbEntity
  8
Layer0
  6
AUSGEZOGEN
 62
     9
370
    18
100
AcDbLine
 10
248.755772224397
 20
202.912657618595
 30
0.0
 11
257.505772224397
 21
202.912657618595
 31
0.0
  0
LINE
  5
43F
330
1F
100
AcDbEntity
  8
Layer0
  6
AUSGEZOGEN
 62
     9
370
    18
100
AcDbLine
 10
237.505772224395
 20
123.412657618595
 30
0.0
 11
237.505772224397
 21
161.912657618595
 31
0.0
  0
LINE
  5
440
330
1F
100
AcDbEntity
  8
Layer0
  6
AUSGEZOGEN
 62
     9
370
    18
100
AcDbLine
 10
248.755772224395
 20
120.912657618594
 30
0.0
 11
240.005772224395
 21
120.912657618595
 31
0.0
  0
LINE
  5
441
330
1F
100
AcDbEntity
  8
Layer0
  6
AUSGEZOGEN
 62
     9
370
    18
100
AcDbLine
 10
260.005772224399
 20
123.412657618595
 30
0.0
 11
260.005772224397
 21
161.912657618595
 31
0.0
  0
LINE
  5
442
330
1F
100
AcDbEntity
  8
Layer0
  6
AUSGEZOGEN
 62
     9
370
    18
100
AcDbLine
 10
248.755772224399
 20
120.912657618594
 30
0.0
 11
257.505772224399
 21
120.912657618595
 31
0.0
  0
LINE
  5
443
330
1F
100
AcDbEntity
  8
Layer0
  6
DASHDOT
 62
    56
370
    18
100
AcDbLine
 10
243.471088391418
 20
126.412657618595
 30
0.0
 11
253.528471068335
 21
126.412657618595
 31
0.0
  0
LINE
  5
444
330
1F
100
AcDbEntity
  8
Layer0
  6
DASHDOT
 62
    56
370
    18
100
AcDbLine
 10
243.471088391418
 20
197.412657618595
 30
0.0
 11
253.528471068335
 21
197.412657618595
 31
0.0
  0
DIMENSION
  5
454
330
1F
100
AcDbEntity
  8
Layer0
  6
AUSGEZOGEN
 62
   136
370
    18
100
AcDbDimension
  2
*D7
 10
268.281627581938
 20
134.912657618595
 30
0.0
 11
266.281627581938
 21
161.26978107595
 31
0.0
 70
   160
 71
     5
 42
-1.0
 53
90.0
  3
ISO-25
100
AcDbAlignedDimension
 13
257.993374458284
 23
188.912657618595
 33
0.0
 14
257.993374458284
 24
134.912657618595
 34
0.0
 50
-90.0
100
AcDbRotatedDimension
1001
ACAD
1000
DSTYLE
1002
{
1070
     3
1000
<>
1070
    44
1040
1.428571428571
1070
   280
1070
     0
1070
    77
1070
     1
1070
    78
1070
     8
1070
   179
1070
     2
1070
   271
1070
     2
1070
   344
1005
455
1070
   343
1005
455
1070
   173
1070
     1
1070
    41
1040
2.0
1070
   147
1040
0.285714285714
1070
   140
1040
2.0
1070
   178
1070
   136
1070
   177
1070
   136
1070
   176
1070
   136
1002
}
  0
DIMENSION
  5
46B
330
1F
100
AcDbEntity
  8
Layer0
  6
AUSGEZOGEN
 62
   136
370
    18
100
AcDbDimension
  2
*D9
 10
273.281627581938
 20
197.412657618595
 30
0.0
 11
271.281627581938
 21
161.26978107595
 31
0.0
 70
   160
 71
     5
 42
-1.0
 53
90.0
  3
ISO-25
100
AcDbAlignedDimension
 13
253.528471068335
 23
126.412657618595
 33
0.0
 14
253.528471068335
 24
197.412657618595
 34
0.0
 50
90.0
100
AcDbRotatedDimension
1001
ACAD
1000
DSTYLE
1002
{
1070
     3
1000
<>
1070
    44
1040
1.428571428571
1070
   280
1070
     0
1070
    77
1070
     1
1070
    78
1070
     8
1070
   179
1070
     2
1070
   271
1070
     2
1070
   344
1005
455
1070
   343
1005
455
1070
   173
1070
     1
1070
    41
1040
2.0
1070
   147
1040
0.285714285714
1070
   140
1040
2.0
1070
   178
1070
   136
1070
   177
1070
   136
1070
   176
1070
   136
1002
}
  0
DIMENSION
  5
479
330
1F
100
AcDbEntity
  8
Layer0
  6
AUSGEZOGEN
 62
   136
370
    18
100
AcDbDimension
  2
*D10
 10
279.281627581938
 20
202.912657618595
 30
0.0
 11
277.281627581938
 21
161.26978107595
 31
0.0
 70
   160
 71
     5
 42
-1.0
 53
90.0
  3
ISO-25
100
AcDbAlignedDimension
 13
257.506152986499
 23
120.912657618595
 33
0.0
 14
257.506152986497
 24
202.912657618595
 34
0.0
 50
90.0
100
AcDbRotatedDimension
1001
ACAD
1000
DSTYLE
1002
{
1070
     3
1000
<>
1070
    44
1040
1.428571428571
1070
   280
1070
     0
1070
    77
1070
     1
1070
    78
1070
     8
1070
   179
1070
     2
1070
   271
1070
     2
1070
   344
1005
455
1070
   343
1005
455
1070
   173
1070
     1
1070
    41
1040
2.0
1070
   147
1040
0.285714285714
1070
   140
1040
2.0
1070
   178
1070
   136
1070
   177
1070
   136
1070
   176
1070
   136
1002
}
  0
DIMENSION
  5
48B
330
1F
100
AcDbEntity
  8
Layer0
  6
AUSGEZOGEN
 62
   136
370
    18
100
AcDbDimension
  2
*D11
 10
257.993374458284
 20
113.505781105991
 30
0.0
 11
248.250627514346
 21
115.505781105991
 31
0.0
 70
   160
 71
     5
 42
-1.0
  3
ISO-25
100
AcDbAlignedDimension
 13
239.51816999051
 23
134.912657618595
 33
0.0
 14
257.993374458284
 24
134.912657618595
 34
0.0
100
AcDbRotatedDimension
1001
ACAD
1000
DSTYLE
1002
{
1070
     3
1000
<>
1070
    44
1040
1.428571428571
1070
   280
1070
     0
1070
    77
1070
     1
1070
    78
1070
     8
1070
   179
1070
     2
1070
   271
1070
     2
1070
   344
1005
455
1070
   343
1005
455
1070
   173
1070
     1
1070
    41
1040
2.0
1070
   147
1040
0.285714285714
1070
   140
1040
2.0
1070
   178
1070
   136
1070
   177
1070
   136
1070
   176
1070
   136
1002
}
  0
DIMENSION
  5
499
330
1F
100
AcDbEntity
  8
Layer0
  6
AUSGEZOGEN
 62
   136
370
    18
100
AcDbDimension
  2
*D12
 10
260.005772224399
 20
108.505781105991
 30
0.0
 11
249.368627529367
 21
110.505781105991
 31
0.0
 70
   160
 71
     5
 42
-1.0
  3
ISO-25
100
AcDbAlignedDimension
 13
237.505772224395
 23
123.412276856495
 33
0.0
 14
260.005772224399
 24
123.412276856495
 34
0.0
100
AcDbRotatedDimension
1001
ACAD
1000
DSTYLE
1002
{
1070
     3
1000
<>
1070
    44
1040
1.428571428571
1070
   280
1070
     0
1070
    77
1070
     1
1070
    78
1070
     8
1070
   179
1070
     2
1070
   271
1070
     2
1070
   344
1005
455
1070
   343
1005
455
1070
   173
1070
     1
1070
    41
1040
2.0
1070
   147
1040
0.285714285714
1070
   140
1040
2.0
1070
   178
1070
   136
1070
   177
1070
   136
1070
   176
1070
   136
1002
}
  0
LINE
  5
49A
330
1F
100
AcDbEntity
  8
Layer0
  6
AUSGEZOGEN
 62
   136
370
    18
100
AcDbLine
 10
242.982266059846
 20
148.837657618595
 30
0.0
 11
240.672863594026
 21
148.837657618595
 31
0.0
  0
LINE
  5
49B
330
1F
100
AcDbEntity
  8
Layer0
  6
AUSGEZOGEN
 62
   136
370
    18
100
AcDbLine
 10
242.982266059846
 20
144.987657618595
 30
0.0
 11
240.672863594026
 21
144.987657618595
 31
0.0
  0
DIMENSION
  5
4B0
330
1F
100
AcDbEntity
  8
Layer0
  6
AUSGEZOGEN
 62
   136
370
    18
100
AcDbDimension
  2
*D13
 10
232.281627581938
 20
148.837657618595
 30
0.0
 11
230.281627581938
 21
155.592781053419
 31
0.0
 70
   160
 71
     5
 42
-1.0
 53
90.0
  3
ISO-25
100
AcDbAlignedDimension
 13
240.672863594026
 23
144.987657618595
 33
0.0
 14
240.672863594026
 24
148.837657618595
 34
0.0
 50
90.0
100
AcDbRotatedDimension
1001
ACAD
1000
DSTYLE
1002
{
1070
     3
1000
<>
1070
    44
1040
1.428571428571
1070
   280
1070
     0
1070
    77
1070
     1
1070
    78
1070
     8
1070
   179
1070
     2
1070
   271
1070
     2
1070
   344
1005
455
1070
   343
1005
455
1070
   173
1070
     1
1070
    41
1040
2.0
1070
   147
1040
0.285714285714
1070
   140
1040
2.0
1070
   178
1070
   136
1070
   177
1070
   136
1070
   176
1070
   136
1002
}
  0
INSERT
  5
4C7
330
1F
100
AcDbEntity
  8
0
100
AcDbBlockReference
  2
ingrid1_nNn012
 10
0.0
 20
0.0
 30
0.0
  0
LINE
  5
4C8
330
1F
100
AcDbEntity
  8
Layer0
  6
AUSGEZOGEN
 62
     9
370
    18
100
AcDbLine
 10
245.005772224397
 20
238.170539011987
 30
0.0
 11
245.005772224397
 21
241.370539011987
 31
0.0
  0
LINE
  5
4C9
330
1F
100
AcDbEntity
  8
Layer0
  6
AUSGEZOGEN
 62
     9
370
    18
100
AcDbLine
 10
252.505772224397
 20
241.370539011987
 30
0.0
 11
252.505772224397
 21
238.170539011987
 31
0.0
  0
LINE
  5
4CA
330
1F
100
AcDbEntity
  8
Layer0
  6
AUSGEZOGEN
 62
     9
370
    18
100
AcDbLine
 10
243.862915687147
 20
237.170539011987
 30
0.0
 11
243.768629609497
 21
239.870539011987
 31
0.0
  0
LINE
  5
4CB
330
1F
100
AcDbEntity
  8
Layer0
  6
AUSGEZOGEN
 62
     9
370
    18
100
AcDbLine
 10
253.742914839347
 20
239.870539011987
 30
0.0
 11
253.648628761697
 21
237.170539011987
 31
0.0
  0
LINE
  5
4CC
330
1F
100
AcDbEntity
  8
Layer0
  6
AUSGEZOGEN
 62
     9
370
    18
100
AcDbLine
 10
239.26624526333
 20
238.970539011987
 30
0.0
 11
237.596538562038
 21
238.970539011987
 31
0.0
  0
LINE
  5
4CD
330
1F
100
AcDbEntity
  8
Layer0
  6
AUSGEZOGEN
 62
     9
370
    18
100
AcDbLine
 10
237.679424919008
 20
238.970539011987
 30
0.0
 11
237.679424919008
 21
241.570539011987
 31
0.0
  0
LINE
  5
4CE
330
1F
100
AcDbEntity
  8
Layer0
  6
AUSGEZOGEN
 62
     9
370
    18
100
AcDbLine
 10
239.305772224397
 20
237.170539011987
 30
0.0
 11
239.305772224397
 21
240.271185272341
 31
0.0
  0
LINE
  5
4CF
330
1F
100
AcDbEntity
  8
Layer0
  6
AUSGEZOGEN
 62
     9
370
    18
100
AcDbLine
 10
245.005772224397
 20
241.370539011987
 30
0.0
 11
252.505772224397
 21
241.370539011987
 31
0.0
  0
LINE
  5
4D0
330
1F
100
AcDbEntity
  8
Layer0
  6
AUSGEZOGEN
 62
     9
370
    18
100
AcDbLine
 10
244.633868148837
 20
237.170539011987
 30
0.0
 11
243.862915687147
 21
237.170539011987
 31
0.0
  0
LINE
  5
4D1
330
1F
100
AcDbEntity
  8
Layer0
  6
AUSGEZOGEN
 62
     9
370
    18
100
AcDbLine
 10
241.425008688445
 20
239.870539011987
 30
0.0
 11
243.768629609497
 21
239.870539011987
 31
0.0
  0
LINE
  5
4D2
330
1F
100
AcDbEntity
  8
Layer0
  6
AUSGEZOGEN
 62
     9
370
    18
100
AcDbLine
 10
246.555772224397
 20
238.170539011987
 30
0.0
 11
245.005772224397
 21
238.170539011987
 31
0.0
  0
LINE
  5
4D3
330
1F
100
AcDbEntity
  8
Layer0
  6
AUSGEZOGEN
 62
     9
370
    18
100
AcDbLine
 10
253.742914839347
 20
239.870539011987
 30
0.0
 11
258.29275553049
 21
239.870539011987
 31
0.0
  0
LINE
  5
4D4
330
1F
100
AcDbEntity
  8
Layer0
  6
AUSGEZOGEN
 62
     9
370
    18
100
AcDbLine
 10
253.648628761697
 20
237.170539011987
 30
0.0
 11
252.877676300007
 21
237.170539011987
 31
0.0
  0
LINE
  5
4D5
330
1F
100
AcDbEntity
  8
Layer0
  6
AUSGEZOGEN
 62
     9
370
    18
100
AcDbLine
 10
252.505772224397
 20
238.170539011987
 30
0.0
 11
250.955772224397
 21
238.170539011987
 31
0.0
  0
LINE
  5
4D6
330
1F
100
AcDbEntity
  8
Layer0
  6
AUSGEZOGEN
 62
     9
370
    18
100
AcDbLine
 10
259.578304552033
 20
241.370539011987
 30
0.0
 11
252.505772224397
 21
241.370539011987
 31
0.0
  0
LINE
  5
4D7
330
1F
100
AcDbEntity
  8
Layer0
  6
AUSGEZOGEN
 62
     9
370
    18
100
AcDbLine
 10
246.555772224397
 20
238.170539011987
 30
0.0
 11
250.955772224397
 21
238.170539011987
 31
0.0
  0
LINE
  5
4D8
330
1F
100
AcDbEntity
  8
Layer0
  6
AUSGEZOGEN
 62
     9
370
    18
100
AcDbLine
 10
253.728910367797
 20
239.169503417937
 30
0.0
 11
258.285807540333
 21
239.169503417937
 31
0.0
  0
LINE
  5
4D9
330
1F
100
AcDbEntity
  8
Layer0
  6
AUSGEZOGEN
 62
     9
370
    18
100
AcDbLine
 10
241.425008688445
 20
239.169503417937
 30
0.0
 11
243.782634081047
 21
239.169503417937
 31
0.0
  0
LINE
  5
4DA
330
1F
100
AcDbEntity
  8
Layer0
  6
AUSGEZOGEN
 62
     9
370
    18
100
AcDbLine
 10
258.34513668473
 20
237.470539011987
 30
0.0
 11
253.669581223397
 21
237.470539011987
 31
0.0
  0
LINE
  5
4DB
330
1F
100
AcDbEntity
  8
Layer0
  6
AUSGEZOGEN
 62
     9
370
    18
100
AcDbLine
 10
243.841963225447
 20
237.470539011987
 30
0.0
 11
241.425008688445
 21
237.470539011987
 31
0.0
  0
LINE
  5
4DC
330
1F
100
AcDbEntity
  8
Layer0
  6
AUSGEZOGEN
 62
     9
370
    18
100
AcDbLine
 10
259.859149679028
 20
241.570539011987
 30
0.0
 11
237.679424919008
 21
241.570539011987
 31
0.0
  0
LINE
  5
4DD
330
1F
100
AcDbEntity
  8
Layer0
  6
AUSGEZOGEN
 62
     9
370
    18
100
AcDbLine
 10
248.755772224397
 20
241.370539011987
 30
0.0
 11
239.255772224372
 21
241.370539011987
 31
0.0
  0
LINE
  5
4DE
330
1F
100
AcDbEntity
  8
Layer0
  6
AUSGEZOGEN
 62
     9
370
    18
100
AcDbLine
 10
239.255772224372
 20
241.370539011987
 30
0.0
 11
239.255772224372
 21
241.570539011987
 31
0.0
  0
LINE
  5
4DF
330
1F
100
AcDbEntity
  8
Layer0
  6
AUSGEZOGEN
 62
     9
370
    18
100
AcDbLine
 10
241.425008688445
 20
237.14575027525
 30
0.0
 11
239.305772224397
 21
240.271185272341
 31
0.0
  0
HATCH
  5
4E0
330
1F
100
AcDbEntity
  8
Layer0
  6
AUSGEZOGEN
 62
    56
370
    18
100
AcDbHatch
 10
0.0
 20
0.0
 30
0.0
210
0.0
220
0.0
230
1.0
  2
MegaCAD_TYP1
 70
     0
 71
     0
 91
        2
 92
        2
 72
     0
 73
     1
 93
        6
 10
237.5057722243968
 20
233.7705390119867
 10
241.4250086884448
 20
233.7705390119867
 10
241.4250086884448
 20
235.2705390119867
 10
239.3308290035718
 20
235.2705390119867
 10
239.2662452633299
 20
238.9705390119868
 10
237.5965385620376
 20
238.9705390119868
 97
        0
 92
        2
 72
     0
 73
     1
 93
       11
 10
244.7595829189968
 20
233.5705390119867
 10
246.3637079921969
 20
233.5705390119867
 10
246.5057722243969
 20
233.5705390119867
 10
246.5057722243969
 20
238.1705390119867
 10
245.0057722243968
 20
238.1705390119868
 10
245.0057722243968
 20
241.3705390119868
 10
241.4250086884448
 20
241.3705390119868
 10
241.4250086884448
 20
239.8705390119868
 10
243.7686296094968
 20
239.8705390119868
 10
243.8629156871469
 20
237.1705390119867
 10
244.6338681488369
 20
237.1705390119867
 97
        0
 75
     0
 76
     1
 52
90.0
 41
0.25
 77
     0
 78
     1
 53
135.0
 43
0.0
 44
0.0
 45
-0.5303300858899107
 46
-0.5303300858899106
 79
     0
 98
        0
  0
ARC
  5
4E1
330
1F
100
AcDbEntity
  8
Layer0
  6
AUSGEZOGEN
 62
     9
370
    18
100
AcDbCircle
 10
259.578304552033
 20
241.070539011987
 30
0.0
 40
0.3
100
AcDbArc
 50
0.999999999807
 51
90.0
  0
HATCH
  5
4E2
330
1F
100
AcDbEntity
  8
Layer0
  6
AUSGEZOGEN
 62
    56
370
    18
100
AcDbHatch
 10
0.0
 20
0.0
 30
0.0
210
0.0
220
0.0
230
1.0
  2
MegaCAD_TYP1
 70
     0
 71
     0
 91
        1
 92
        2
 72
     1
 73
     1
 93
       15
 10
258.5057722243968
 20
233.7705390119868
 42
0.0
 10
260.0057722243968
 20
233.7705390119867
 42
0.0
 10
259.8782588605794
 20
241.0757747339169
 42
0.4091108014287305
 10
259.5783045520325
 20
241.3705390119868
 42
0.0
 10
252.5057722243968
 20
241.3705390119868
 42
0.0
 10
252.5057722243968
 20
238.1705390119867
 42
0.0
 10
251.0057722243969
 20
238.1705390119867
 42
0.0
 10
251.0057722243969
 20
233.5705390119867
 42
0.0
 10
251.1478364565968
 20
233.5705390119867
 42
0.0
 10
251.1508362546969
 20
233.5705390119867
 42
0.0
 10
252.7519615298468
 20
233.5705390119867
 42
0.0
 10
252.8776763000069
 20
237.1705390119867
 42
0.0
 10
253.6486287616969
 20
237.1705390119867
 42
0.0
 10
253.7429148393468
 20
239.8705390119868
 42
0.0
 10
258.2927555304904
 20
239.8705390119868
 42
0.0
 97
        0
 75
     0
 76
     1
 52
90.0
 41
0.25
 77
     0
 78
     1
 53
135.0
 43
0.0
 44
0.0
 45
-0.5303300858899107
 46
-0.5303300858899106
 79
     0
 98
        0
  0
HATCH
  5
4E3
330
1F
100
AcDbEntity
  8
Layer0
  6
AUSGEZOGEN
 62
    56
370
    18
100
AcDbHatch
 10
0.0
 20
0.0
 30
0.0
210
0.0
220
0.0
230
1.0
  2
MegaCAD_TYP1
 70
     0
 71
     0
 91
        1
 92
        2
 72
     0
 73
     1
 93
        8
 10
237.6794249190076
 20
238.9705390119868
 10
239.3057722243968
 20
238.9705390119868
 10
239.3057722243969
 20
240.2711852723409
 10
241.4250086884448
 20
237.14575027525
 10
241.4250086884448
 20
241.3705390119868
 10
239.2557722243718
 20
241.3705390119868
 10
239.2557722243718
 20
241.5705390119868
 10
237.6794249190075
 20
241.5705390119868
 97
        0
 75
     0
 76
     1
 52
0.0
 41
0.25
 77
     0
 78
     1
 53
45.0
 43
0.0
 44
0.0
 45
-0.5303300858899106
 46
0.5303300858899107
 79
     0
 98
        0
  0
DIMENSION
  5
4F7
330
1F
100
AcDbEntity
  8
Layer0
  6
AUSGEZOGEN
 62
   136
370
    18
100
AcDbDimension
  2
*D15
 10
264.281627581938
 20
238.170539011987
 30
0.0
 11
262.281627581938
 21
246.71078106844
 31
0.0
 70
   160
 71
     5
 42
-1.0
 53
90.0
  3
ISO-25
100
AcDbAlignedDimension
 13
259.859149679028
 23
241.570539011987
 33
0.0
 14
252.505772224397
 24
238.170539011987
 34
0.0
 50
-90.0
100
AcDbRotatedDimension
1001
ACAD
1000
DSTYLE
1002
{
1070
     3
1000
<>
1070
    44
1040
1.428571428571
1070
   280
1070
     0
1070
    77
1070
     1
1070
    78
1070
     8
1070
   179
1070
     2
1070
   271
1070
     2
1070
   344
1005
455
1070
   343
1005
455
1070
   173
1070
     1
1070
    41
1040
2.0
1070
   147
1040
0.285714285714
1070
   140
1040
2.0
1070
   178
1070
   136
1070
   177
1070
   136
1070
   176
1070
   136
1002
}
  0
DIMENSION
  5
507
330
1F
100
AcDbEntity
  8
Layer0
  6
AUSGEZOGEN
 62
   136
370
    18
100
AcDbDimension
  2
*D16
 10
270.293087214139
 20
233.570539011987
 30
0.0
 11
268.293087214139
 21
237.818741650599
 31
0.0
 70
   160
 71
     5
 42
-1.0
 53
90.0
  3
ISO-25
100
AcDbAlignedDimension
 13
259.859149679028
 23
241.570539011987
 33
0.0
 14
252.751961529847
 24
233.570539011987
 34
0.0
 50
-90.0
100
AcDbRotatedDimension
1001
ACAD
1000
DSTYLE
1002
{
1070
     3
1000
<>\S%%p0.3
1070
    44
1040
1.428571428571
1070
   280
1070
     0
1070
    77
1070
     1
1070
    78
1070
     8
1070
   179
1070
     2
1070
   271
1070
     2
1070
   344
1005
455
1070
   343
1005
455
1070
   173
1070
     1
1070
    41
1040
2.0
1070
   147
1040
0.285714285714
1070
   140
1040
2.0
1070
   178
1070
   136
1070
   177
1070
   136
1070
   176
1070
   136
1002
}
  0
DIMENSION
  5
515
330
1F
100
AcDbEntity
  8
Layer0
  6
AUSGEZOGEN
 62
   136
370
    18
100
AcDbDimension
  2
*D17
 10
252.505772224397
 20
246.505781105991
 30
0.0
 11
248.452627527936
 21
248.505781105991
 31
0.0
 70
   160
 71
     5
 42
-1.0
  3
ISO-25
100
AcDbAlignedDimension
 13
245.005772224397
 23
241.370539011987
 33
0.0
 14
252.505772224397
 24
241.370539011987
 34
0.0
100
AcDbRotatedDimension
1001
ACAD
1000
DSTYLE
1002
{
1070
     3
1000
%%c<>
1070
    44
1040
1.428571428571
1070
   280
1070
     0
1070
    77
1070
     1
1070
    78
1070
     8
1070
   179
1070
     2
1070
   271
1070
     2
1070
   344
1005
455
1070
   343
1005
455
1070
   173
1070
     1
1070
    41
1040
2.0
1070
   147
1040
0.285714285714
1070
   140
1040
2.0
1070
   178
1070
   136
1070
   177
1070
   136
1070
   176
1070
   136
1002
}
  0
DIMENSION
  5
526
330
1F
100
AcDbEntity
  8
Layer0
  6
AUSGEZOGEN
 62
   136
370
    18
100
AcDbDimension
  2
*D18
 10
251.005772224397
 20
227.505781105991
 30
0.0
 11
256.452627527936
 21
229.505781105991
 31
0.0
 70
   160
 71
     5
 42
-1.0
  3
ISO-25
100
AcDbAlignedDimension
 13
246.505772224397
 23
233.570539011987
 33
0.0
 14
251.005772224397
 24
233.570539011987
 34
0.0
100
AcDbRotatedDimension
1001
ACAD
1000
DSTYLE
1002
{
1070
     3
1000
%%c<>
1070
    44
1040
1.428571428571
1070
   280
1070
     0
1070
    77
1070
     1
1070
    78
1070
     8
1070
   179
1070
     2
1070
   271
1070
     2
1070
   344
1005
455
1070
   343
1005
455
1070
   173
1070
     1
1070
    41
1040
2.0
1070
   147
1040
0.285714285714
1070
   140
1040
2.0
1070
   178
1070
   136
1070
   177
1070
   136
1070
   176
1070
   136
1002
}
  0
ARC
  5
527
330
1F
100
AcDbEntity
  8
Layer0
  6
AUSGEZOGEN
 62
     9
370
    18
100
AcDbCircle
 10
240.005772224395
 20
123.412657618595
 30
0.0
 40
2.5
100
AcDbArc
 50
179.999999999997
 51
269.999999999997
  0
ARC
  5
528
330
1F
100
AcDbEntity
  8
Layer0
  6
AUSGEZOGEN
 62
     9
370
    18
100
AcDbCircle
 10
257.505772224399
 20
123.412657618595
 30
0.0
 40
2.5
100
AcDbArc
 50
270.000000000003
 51
0.000000000003
  0
ARC
  5
529
330
1F
100
AcDbEntity
  8
Layer0
  6
AUSGEZOGEN
 62
     9
370
    18
100
AcDbCircle
 10
257.505772224397
 20
200.412657618595
 30
0.0
 40
2.5
100
AcDbArc
 50
0.0
 51
90.0
  0
ARC
  5
52A
330
1F
100
AcDbEntity
  8
Layer0
  6
AUSGEZOGEN
 62
     9
370
    18
100
AcDbCircle
 10
240.005772224397
 20
200.412657618595
 30
0.0
 40
2.5
100
AcDbArc
 50
90.0
 51
180.0
  0
INSERT
  5
52F
330
1F
100
AcDbEntity
  8
0
100
AcDbBlockReference
  2
Reflexwerte_nNn017
 10
0.0
 20
0.0
 30
0.0
  0
INSERT
  5
536
330
1F
100
AcDbEntity
  8
0
100
AcDbBlockReference
  2
QS_nNn018
 10
0.0
 20
0.0
 30
0.0
  0
ENDSEC
  0
SECTION
  2
OBJECTS
  0
DICTIONARY
  5
C
330
0
100
AcDbDictionary
281
     1
  3
ACAD_GROUP
350
D
  3
ACAD_LAYOUT
350
1A
  3
ACAD_MATERIAL
350
3B
  3
ACAD_MLEADERSTYLE
350
55E
  3
ACAD_MLINESTYLE
350
17
  3
ACAD_PLOTSETTINGS
350
19
  3
ACAD_PLOTSTYLENAME
350
E
  3
ACAD_TABLESTYLE
350
55D
  3
ACAD_VISUALSTYLE
350
2A
  3
ACAD_WIPEOUT_VARS
350
3F
  0
DICTIONARY
  5
D
102
{ACAD_REACTORS
330
C
102
}
330
C
100
AcDbDictionary
281
     1
  0
DICTIONARY
  5
1A
102
{ACAD_REACTORS
330
C
102
}
330
C
100
AcDbDictionary
281
     1
  3
Layout1
350
1E
  3
Layout2
350
26
  3
Model
350
22
  0
DICTIONARY
  5
3B
102
{ACAD_REACTORS
330
C
102
}
330
C
100
AcDbDictionary
281
     1
  3
ByBlock
350
3D
  3
ByLayer
350
3C
  3
Global
350
3E
  0
DICTIONARY
  5
55E
102
{ACAD_REACTORS
330
C
102
}
330
C
100
AcDbDictionary
281
     1
  0
DICTIONARY
  5
17
102
{ACAD_REACTORS
330
C
102
}
330
C
100
AcDbDictionary
281
     1
  3
Standard
350
18
  0
DICTIONARY
  5
19
102
{ACAD_REACTORS
330
C
102
}
330
C
100
AcDbDictionary
281
     1
  0
ACDBDICTIONARYWDFLT
  5
E
102
{ACAD_REACTORS
330
C
102
}
330
C
100
AcDbDictionary
281
     1
  3
Normal
350
F
100
AcDbDictionaryWithDefault
340
F
  0
DICTIONARY
  5
55D
102
{ACAD_REACTORS
330
C
102
}
330
C
100
AcDbDictionary
281
     1
  0
DICTIONARY
  5
2A
102
{ACAD_REACTORS
330
C
102
}
330
C
100
AcDbDictionary
281
     1
  3
2dWireframe
350
2F
  3
3D Hidden
350
31
  3
3dWireframe
350
30
  3
Basic
350
32
  3
Brighten
350
36
  3
ColorChange
350
3A
  3
Conceptual
350
34
  3
Dim
350
35
  3
Facepattern
350
39
  3
Flat
350
2B
  3
FlatWithEdges
350
2C
  3
Gouraud
350
2D
  3
GouraudWithEdges
350
2E
  3
Linepattern
350
38
  3
Realistic
350
33
  3
Thicken
350
37
  0
WIPEOUTVARIABLES
  5
3F
102
{ACAD_REACTORS
330
C
102
}
330
C
100
AcDbWipeoutVariables
 70
     0
  0
LAYOUT
  5
1E
102
{ACAD_REACTORS
330
1A
102
}
330
1A
100
AcDbPlotSettings
  1

  2
none_device
  4

  6

 40
0.0
 41
0.0
 42
0.0
 43
0.0
 44
0.0
 45
0.0
 46
0.0
 47
0.0
 48
0.0
 49
0.0
140
0.0
141
0.0
142
1.0
143
1.0
 70
   688
 72
     0
 73
     0
 74
     5
  7

 75
    16
 76
     0
 77
     2
 78
   300
147
1.0
148
0.0
149
0.0
100
AcDbLayout
  1
Layout1
 70
     1
 71
     1
 10
0.0
 20
0.0
 11
420.0
 21
297.0
 12
0.0
 22
0.0
 32
0.0
 14
1.000000000000E+20
 24
1.000000000000E+20
 34
1.000000000000E+20
 15
-1.000000000000E+20
 25
-1.000000000000E+20
 35
-1.000000000000E+20
146
0.0
 13
0.0
 23
0.0
 33
0.0
 16
1.0
 26
0.0
 36
0.0
 17
0.0
 27
1.0
 37
0.0
 76
     0
330
1B
  0
LAYOUT
  5
26
102
{ACAD_REACTORS
330
1A
102
}
330
1A
100
AcDbPlotSettings
  1

  2
none_device
  4

  6

 40
0.0
 41
0.0
 42
0.0
 43
0.0
 44
0.0
 45
0.0
 46
0.0
 47
0.0
 48
0.0
 49
0.0
140
0.0
141
0.0
142
1.0
143
1.0
 70
   688
 72
     0
 73
     0
 74
     5
  7

 75
    16
 76
     0
 77
     2
 78
   300
147
1.0
148
0.0
149
0.0
100
AcDbLayout
  1
Layout2
 70
     1
 71
     2
 10
0.0
 20
0.0
 11
0.0
 21
0.0
 12
0.0
 22
0.0
 32
0.0
 14
0.0
 24
0.0
 34
0.0
 15
0.0
 25
0.0
 35
0.0
146
0.0
 13
0.0
 23
0.0
 33
0.0
 16
1.0
 26
0.0
 36
0.0
 17
0.0
 27
1.0
 37
0.0
 76
     0
330
23
  0
LAYOUT
  5
22
102
{ACAD_REACTORS
330
1A
102
}
330
1A
100
AcDbPlotSettings
  1

  2
none_device
  4

  6

 40
0.0
 41
0.0
 42
0.0
 43
0.0
 44
0.0
 45
0.0
 46
0.0
 47
0.0
 48
0.0
 49
0.0
140
0.0
141
0.0
142
1.0
143
1.0
 70
  1712
 72
     0
 73
     0
 74
     0
  7

 75
     0
 76
     0
 77
     2
 78
   300
147
1.0
148
0.0
149
0.0
100
AcDbLayout
  1
Model
 70
     1
 71
     0
 10
0.0
 20
0.0
 11
420.0
 21
297.0
 12
0.0
 22
0.0
 32
0.0
 14
-127.626021333565
 24
-9.652408122922
 34
0.0
 15
629.794451462907
 25
297.445591877078
 35
0.0
146
0.0
 13
0.0
 23
0.0
 33
0.0
 16
1.0
 26
0.0
 36
0.0
 17
0.0
 27
1.0
 37
0.0
 76
     0
330
1F
331
29
  0
MATERIAL
  5
3D
102
{ACAD_REACTORS
330
3B
102
}
102
{ACAD_XDICTIONARY
360
559
102
}
330
3B
100
AcDbMaterial
  1
ByBlock
  0
MATERIAL
  5
3C
102
{ACAD_REACTORS
330
3B
102
}
102
{ACAD_XDICTIONARY
360
557
102
}
330
3B
100
AcDbMaterial
  1
ByLayer
  0
MATERIAL
  5
3E
102
{ACAD_REACTORS
330
3B
102
}
102
{ACAD_XDICTIONARY
360
55B
102
}
330
3B
100
AcDbMaterial
  1
Global
  0
MLINESTYLE
  5
18
102
{ACAD_REACTORS
330
17
102
}
330
17
100
AcDbMlineStyle
  2
Standard
 70
     0
  3

 62
   256
 51
90.0
 52
90.0
 71
     2
 49
0.5
 62
   256
  6
BYLAYER
 49
-0.5
 62
   256
  6
BYLAYER
  0
ACDBPLACEHOLDER
  5
F
102
{ACAD_REACTORS
330
E
102
}
330
E
  0
VISUALSTYLE
  5
2F
102
{ACAD_REACTORS
330
2A
102
}
102
{ACAD_XDICTIONARY
360
53F
102
}
330
2A
100
AcDbVisualStyle
  2
2dWireframe
 70
     4
 71
     0
 72
     2
 73
     0
 90
        0
 40
-0.6
 41
-30.0
 62
     5
 63
     7
421
 16777215
 74
     1
 91
        4
 64
     7
 65
   257
 75
     1
175
     1
 42
1.0
 92
        0
 66
   257
 43
1.0
 76
     1
 77
     6
 78
     2
 67
     7
 79
     5
170
     0
171
     0
290
     0
174
     0
 93
        1
 44
0.0
173
     0
291
     0
 45
0.0
1001
ACAD
1000
AcDbSavedByObjectVersion
1070
     0
  0
VISUALSTYLE
  5
31
102
{ACAD_REACTORS
330
2A
102
}
102
{ACAD_XDICTIONARY
360
543
102
}
330
2A
100
AcDbVisualStyle
  2
3D Hidden
 70
     6
 71
     1
 72
     2
 73
     2
 90
        0
 40
-0.6
 41
-30.0
 62
     5
 63
     7
421
 16777215
 74
     2
 91
        2
 64
     7
 65
   257
 75
     2
175
     1
 42
40.0
 92
        0
 66
   257
 43
1.0
 76
     1
 77
     6
 78
     2
 67
     7
 79
     3
170
     0
171
     0
290
     0
174
     0
 93
        1
 44
0.0
173
     0
291
     0
 45
0.0
1001
ACAD
1000
AcDbSavedByObjectVersion
1070
     0
  0
VISUALSTYLE
  5
30
102
{ACAD_REACTORS
330
2A
102
}
102
{ACAD_XDICTIONARY
360
541
102
}
330
2A
100
AcDbVisualStyle
  2
3dWireframe
 70
     5
 71
     0
 72
     2
 73
     0
 90
        0
 40
-0.6
 41
-30.0
 62
     5
 63
     7
421
 16777215
 74
     1
 91
        4
 64
     7
 65
   257
 75
     1
175
     1
 42
1.0
 92
        0
 66
   257
 43
1.0
 76
     1
 77
     6
 78
     2
 67
     7
 79
     5
170
     0
171
     0
290
     0
174
     0
 93
        1
 44
0.0
173
     0
291
     0
 45
0.0
1001
ACAD
1000
AcDbSavedByObjectVersion
1070
     0
  0
VISUALSTYLE
  5
32
102
{ACAD_REACTORS
330
2A
102
}
102
{ACAD_XDICTIONARY
360
545
102
}
330
2A
100
AcDbVisualStyle
  2
Basic
 70
     7
 71
     1
 72
     0
 73
     1
 90
        0
 40
-0.6
 41
-30.0
 62
     5
 63
     7
421
 16777215
 74
     0
 91
        4
 64
     7
 65
   257
 75
     1
175
     1
 42
1.0
 92
        8
 66
     7
 43
1.0
 76
     1
 77
     6
 78
     2
 67
     7
 79
     5
170
     0
171
     0
290
     0
174
     0
 93
        1
 44
0.0
173
     0
291
     1
 45
0.0
1001
ACAD
1000
AcDbSavedByObjectVersion
1070
     0
  0
VISUALSTYLE
  5
36
102
{ACAD_REACTORS
330
2A
102
}
102
{ACAD_XDICTIONARY
360
54D
102
}
330
2A
100
AcDbVisualStyle
  2
Brighten
 70
    12
 71
     2
 72
     2
 73
     0
 90
        0
 40
-0.6
 41
-30.0
 62
     5
 63
     7
421
 16777215
 74
     1
 91
        4
 64
     7
 65
   257
 75
     1
175
     1
 42
1.0
 92
        8
 66
     7
 43
1.0
 76
     1
 77
     6
 78
     2
 67
     7
 79
     5
170
     0
171
     0
290
     0
174
     0
 93
        1
 44
50.0
173
     0
291
     1
 45
0.0
1001
ACAD
1000
AcDbSavedByObjectVersion
1070
     0
  0
VISUALSTYLE
  5
3A
102
{ACAD_REACTORS
330
2A
102
}
102
{ACAD_XDICTIONARY
360
555
102
}
330
2A
100
AcDbVisualStyle
  2
ColorChange
 70
    16
 71
     2
 72
     2
 73
     3
 90
        0
 40
-0.6
 41
-30.0
 62
     5
 63
     8
421
  8421504
 74
     1
 91
        4
 64
     7
 65
   257
 75
     1
175
     1
 42
1.0
 92
        8
 66
     8
424
  8421504
 43
1.0
 76
     1
 77
     6
 78
     2
 67
     7
 79
     5
170
     0
171
     0
290
     0
174
     0
 93
        1
 44
0.0
173
     0
291
     1
 45
0.0
1001
ACAD
1000
AcDbSavedByObjectVersion
1070
     0
  0
VISUALSTYLE
  5
34
102
{ACAD_REACTORS
330
2A
102
}
102
{ACAD_XDICTIONARY
360
549
102
}
330
2A
100
AcDbVisualStyle
  2
Conceptual
 70
     9
 71
     3
 72
     2
 73
     0
 90
        0
 40
-0.6
 41
-30.0
 62
     5
 63
     7
421
 16777215
 74
     2
 91
        2
 64
     7
 65
   257
 75
     1
175
     1
 42
40.0
 92
        8
 66
     7
 43
1.0
 76
     1
 77
     6
 78
     2
 67
     7
 79
     3
170
     0
171
     0
290
     0
174
     0
 93
        1
 44
0.0
173
     0
291
     0
 45
0.0
1001
ACAD
1000
AcDbSavedByObjectVersion
1070
     0
  0
VISUALSTYLE
  5
35
102
{ACAD_REACTORS
330
2A
102
}
102
{ACAD_XDICTIONARY
360
54B
102
}
330
2A
100
AcDbVisualStyle
  2
Dim
 70
    11
 71
     2
 72
     2
 73
     0
 90
        0
 40
-0.6
 41
-30.0
 62
     5
 63
     7
421
 16777215
 74
     1
 91
        4
 64
     7
 65
   257
 75
     1
175
     1
 42
1.0
 92
        8
 66
     7
 43
1.0
 76
     1
 77
     6
 78
     2
 67
     7
 79
     5
170
     0
171
     0
290
     0
174
     0
 93
        1
 44
-50.0
173
     0
291
     1
 45
0.0
1001
ACAD
1000
AcDbSavedByObjectVersion
1070
     0
  0
VISUALSTYLE
  5
39
102
{ACAD_REACTORS
330
2A
102
}
102
{ACAD_XDICTIONARY
360
553
102
}
330
2A
100
AcDbVisualStyle
  2
Facepattern
 70
    15
 71
     2
 72
     2
 73
     0
 90
        0
 40
-0.6
 41
-30.0
 62
     5
 63
     7
421
 16777215
 74
     1
 91
        4
 64
     7
 65
   257
 75
     1
175
     1
 42
1.0
 92
        8
 66
     7
 43
1.0
 76
     1
 77
     6
 78
     2
 67
     7
 79
     5
170
     0
171
     0
290
     0
174
     0
 93
        1
 44
0.0
173
     0
291
     1
 45
0.0
1001
ACAD
1000
AcDbSavedByObjectVersion
1070
     0
  0
VISUALSTYLE
  5
2B
102
{ACAD_REACTORS
330
2A
102
}
102
{ACAD_XDICTIONARY
360
537
102
}
330
2A
100
AcDbVisualStyle
  2
Flat
 70
     0
 71
     2
 72
     1
 73
     1
 90
        2
 40
-0.6
 41
30.0
 62
     5
 63
     7
421
 16777215
 74
     0
 91
        4
 64
     7
 65
   257
 75
     1
175
     1
 42
1.0
 92
        8
 66
     7
 43
1.0
 76
     1
 77
     6
 78
     2
 67
     7
 79
     5
170
     0
171
     0
290
     0
174
     0
 93
       13
 44
0.0
173
     0
291
     1
 45
0.0
1001
ACAD
1000
AcDbSavedByObjectVersion
1070
     0
  0
VISUALSTYLE
  5
2C
102
{ACAD_REACTORS
330
2A
102
}
102
{ACAD_XDICTIONARY
360
539
102
}
330
2A
100
AcDbVisualStyle
  2
FlatWithEdges
 70
     1
 71
     2
 72
     1
 73
     1
 90
        2
 40
-0.6
 41
30.0
 62
     5
 63
     7
421
 16777215
 74
     1
 91
        4
 64
     7
 65
   257
 75
     1
175
     1
 42
1.0
 92
        0
 66
   257
 43
1.0
 76
     1
 77
     6
 78
     2
 67
     7
 79
     5
170
     0
171
     0
290
     0
174
     0
 93
       13
 44
0.0
173
     0
291
     1
 45
0.0
1001
ACAD
1000
AcDbSavedByObjectVersion
1070
     0
  0
VISUALSTYLE
  5
2D
102
{ACAD_REACTORS
330
2A
102
}
102
{ACAD_XDICTIONARY
360
53B
102
}
330
2A
100
AcDbVisualStyle
  2
Gouraud
 70
     2
 71
     2
 72
     2
 73
     1
 90
        2
 40
-0.6
 41
30.0
 62
     5
 63
     7
421
 16777215
 74
     0
 91
        4
 64
     7
 65
   257
 75
     1
175
     1
 42
1.0
 92
        0
 66
     7
 43
1.0
 76
     1
 77
     6
 78
     2
 67
     7
 79
     5
170
     0
171
     0
290
     0
174
     0
 93
       13
 44
0.0
173
     0
291
     1
 45
0.0
1001
ACAD
1000
AcDbSavedByObjectVersion
1070
     0
  0
VISUALSTYLE
  5
2E
102
{ACAD_REACTORS
330
2A
102
}
102
{ACAD_XDICTIONARY
360
53D
102
}
330
2A
100
AcDbVisualStyle
  2
GouraudWithEdges
 70
     3
 71
     2
 72
     2
 73
     1
 90
        2
 40
-0.6
 41
30.0
 62
     5
 63
     7
421
 16777215
 74
     1
 91
        4
 64
     7
 65
   257
 75
     1
175
     1
 42
1.0
 92
        0
 66
   257
 43
1.0
 76
     1
 77
     6
 78
     2
 67
     7
 79
     5
170
     0
171
     0
290
     0
174
     0
 93
       13
 44
0.0
173
     0
291
     1
 45
0.0
1001
ACAD
1000
AcDbSavedByObjectVersion
1070
     0
  0
VISUALSTYLE
  5
38
102
{ACAD_REACTORS
330
2A
102
}
102
{ACAD_XDICTIONARY
360
551
102
}
330
2A
100
AcDbVisualStyle
  2
Linepattern
 70
    14
 71
     2
 72
     2
 73
     0
 90
        0
 40
-0.6
 41
-30.0
 62
     5
 63
     7
421
 16777215
 74
     1
 91
        4
 64
     7
 65
   257
 75
     7
175
     7
 42
1.0
 92
        8
 66
     7
 43
1.0
 76
     1
 77
     6
 78
     2
 67
     7
 79
     5
170
     0
171
     0
290
     0
174
     0
 93
        1
 44
0.0
173
     0
291
     1
 45
0.0
1001
ACAD
1000
AcDbSavedByObjectVersion
1070
     0
  0
VISUALSTYLE
  5
33
102
{ACAD_REACTORS
330
2A
102
}
102
{ACAD_XDICTIONARY
360
547
102
}
330
2A
100
AcDbVisualStyle
  2
Realistic
 70
     8
 71
     2
 72
     2
 73
     0
 90
        0
 40
-0.6
 41
-30.0
 62
     5
 63
     7
421
 16777215
 74
     1
 91
        0
 64
     7
 65
   257
 75
     1
175
     1
 42
1.0
 92
        8
 66
     8
424
  7895160
 43
1.0
 76
     1
 77
     6
 78
     2
 67
     7
 79
     5
170
     0
171
     0
290
     0
174
     0
 93
       13
 44
0.0
173
     0
291
     0
 45
0.0
1001
ACAD
1000
AcDbSavedByObjectVersion
1070
     0
  0
VISUALSTYLE
  5
37
102
{ACAD_REACTORS
330
2A
102
}
102
{ACAD_XDICTIONARY
360
54F
102
}
330
2A
100
AcDbVisualStyle
  2
Thicken
 70
    13
 71
     2
 72
     2
 73
     0
 90
        0
 40
-0.6
 41
-30.0
 62
     5
 63
     7
421
 16777215
 74
     1
 91
        4
 64
     7
 65
   257
 75
     1
175
     1
 42
1.0
 92
       12
 66
     7
 43
1.0
 76
     1
 77
     6
 78
     2
 67
     7
 79
     5
170
     0
171
     0
290
     0
174
     0
 93
        1
 44
0.0
173
     0
291
     1
 45
0.0
1001
ACAD
1000
AcDbSavedByObjectVersion
1070
     0
  0
DICTIONARY
  5
559
330
3D
100
AcDbDictionary
280
     1
281
     1
  3
ACAD_XREC_ROUNDTRIP
360
55A
  0
DICTIONARY
  5
557
330
3C
100
AcDbDictionary
280
     1
281
     1
  3
ACAD_XREC_ROUNDTRIP
360
558
  0
DICTIONARY
  5
55B
330
3E
100
AcDbDictionary
280
     1
281
     1
  3
ACAD_XREC_ROUNDTRIP
360
55C
  0
DICTIONARY
  5
53F
330
2F
100
AcDbDictionary
280
     1
281
     1
  3
ACAD_XREC_ROUNDTRIP
360
540
  0
DICTIONARY
  5
543
330
31
100
AcDbDictionary
280
     1
281
     1
  3
ACAD_XREC_ROUNDTRIP
360
544
  0
DICTIONARY
  5
541
330
30
100
AcDbDictionary
280
     1
281
     1
  3
ACAD_XREC_ROUNDTRIP
360
542
  0
DICTIONARY
  5
545
330
32
100
AcDbDictionary
280
     1
281
     1
  3
ACAD_XREC_ROUNDTRIP
360
546
  0
DICTIONARY
  5
54D
330
36
100
AcDbDictionary
280
     1
281
     1
  3
ACAD_XREC_ROUNDTRIP
360
54E
  0
DICTIONARY
  5
555
330
3A
100
AcDbDictionary
280
     1
281
     1
  3
ACAD_XREC_ROUNDTRIP
360
556
  0
DICTIONARY
  5
549
330
34
100
AcDbDictionary
280
     1
281
     1
  3
ACAD_XREC_ROUNDTRIP
360
54A
  0
DICTIONARY
  5
54B
330
35
100
AcDbDictionary
280
     1
281
     1
  3
ACAD_XREC_ROUNDTRIP
360
54C
  0
DICTIONARY
  5
553
330
39
100
AcDbDictionary
280
     1
281
     1
  3
ACAD_XREC_ROUNDTRIP
360
554
  0
DICTIONARY
  5
537
330
2B
100
AcDbDictionary
280
     1
281
     1
  3
ACAD_XREC_ROUNDTRIP
360
538
  0
DICTIONARY
  5
539
330
2C
100
AcDbDictionary
280
     1
281
     1
  3
ACAD_XREC_ROUNDTRIP
360
53A
  0
DICTIONARY
  5
53B
330
2D
100
AcDbDictionary
280
     1
281
     1
  3
ACAD_XREC_ROUNDTRIP
360
53C
  0
DICTIONARY
  5
53D
330
2E
100
AcDbDictionary
280
     1
281
     1
  3
ACAD_XREC_ROUNDTRIP
360
53E
  0
DICTIONARY
  5
551
330
38
100
AcDbDictionary
280
     1
281
     1
  3
ACAD_XREC_ROUNDTRIP
360
552
  0
DICTIONARY
  5
547
330
33
100
AcDbDictionary
280
     1
281
     1
  3
ACAD_XREC_ROUNDTRIP
360
548
  0
DICTIONARY
  5
54F
330
37
100
AcDbDictionary
280
     1
281
     1
  3
ACAD_XREC_ROUNDTRIP
360
550
  0
XRECORD
  5
55A
102
{ACAD_REACTORS
330
559
102
}
330
559
100
AcDbXrecord
280
     1
102
MATERIAL
148
0.0
149
0.0
149
0.0
 93
        0
 94
      127
282
     0
 72
     1
 77
     1
171
     1
175
     1
179
     1
273
     0
  0
XRECORD
  5
558
102
{ACAD_REACTORS
330
557
102
}
330
557
100
AcDbXrecord
280
     1
102
MATERIAL
148
0.0
149
0.0
149
0.0
 93
        0
 94
      127
282
     0
 72
     1
 77
     1
171
     1
175
     1
179
     1
273
     0
  0
XRECORD
  5
55C
102
{ACAD_REACTORS
330
55B
102
}
330
55B
100
AcDbXrecord
280
     1
102
MATERIAL
148
0.0
149
0.0
149
0.0
 93
        0
 94
      127
282
     0
 72
     1
 77
     1
171
     1
175
     1
179
     1
273
     0
  0
XRECORD
  5
540
102
{ACAD_REACTORS
330
53F
102
}
330
53F
100
AcDbXrecord
280
     1
102
RTVSPropertyOp0
 70
     1
102
RTVSPropertyOp1
 70
     1
102
RTVSPropertyOp2
 70
     1
102
RTVSPropertyOp3
 70
     1
102
RTVSPropertyOp4
 70
     1
102
RTVSPropertyOp5
 70
     1
102
RTVSPropertyOp6
 70
     1
102
RTVSPropertyOp7
 70
     1
102
RTVSPropertyOp8
 70
     1
102
RTVSPropertyOp9
 70
     1
102
RTVSPropertyOp10
 70
     1
102
RTVSPropertyOp11
 70
     1
102
RTVSPropertyOp12
 70
     1
102
RTVSPropertyOp13
 70
     1
102
RTVSPropertyOp14
 70
     1
102
RTVSPropertyOp15
 70
     1
102
RTVSPropertyOp16
 70
     1
102
RTVSPropertyOp17
 70
     1
102
RTVSPropertyOp18
 70
     1
102
RTVSPropertyOp19
 70
     1
102
RTVSPropertyOp20
 70
     1
102
RTVSPropertyOp21
 70
     1
102
RTVSPropertyOp22
 70
     1
102
RTVSPropertyOp23
 70
     1
102
RTVSPropertyOp24
 70
     1
102
RTVSPropertyOp25
 70
     1
102
RTVSPropertyOp26
 70
     1
102
RTVSPropertyOp27
 70
     1
102
RTVSPropertyOp28
 70
     1
102
RTVSPropertyOp29
 70
     1
102
RTVSPropertyOp30
 70
     1
102
RTVSPropertyOp31
 70
     1
102
RTVSPropertyOp32
 70
     1
  0
XRECORD
  5
544
102
{ACAD_REACTORS
330
543
102
}
330
543
100
AcDbXrecord
280
     1
102
RTVSPropertyOp0
 70
     1
102
RTVSPropertyOp1
 70
     1
102
RTVSPropertyOp2
 70
     1
102
RTVSPropertyOp3
 70
     1
102
RTVSPropertyOp4
 70
     1
102
RTVSPropertyOp5
 70
     1
102
RTVSPropertyOp6
 70
     1
102
RTVSPropertyOp7
 70
     1
102
RTVSPropertyOp8
 70
     1
102
RTVSPropertyOp9
 70
     1
102
RTVSPropertyOp10
 70
     1
102
RTVSPropertyOp11
 70
     1
102
RTVSPropertyOp12
 70
     1
102
RTVSPropertyOp13
 70
     1
102
RTVSPropertyOp14
 70
     1
102
RTVSPropertyOp15
 70
     1
102
RTVSPropertyOp16
 70
     1
102
RTVSPropertyOp17
 70
     1
102
RTVSPropertyOp18
 70
     1
102
RTVSPropertyOp19
 70
     1
102
RTVSPropertyOp20
 70
     1
102
RTVSPropertyOp21
 70
     1
102
RTVSPropertyOp22
 70
     1
102
RTVSPropertyOp23
 70
     1
102
RTVSPropertyOp24
 70
     1
102
RTVSPropertyOp25
 70
     1
102
RTVSPropertyOp26
 70
     1
102
RTVSPropertyOp27
 70
     1
102
RTVSPropertyOp28
 70
     1
102
RTVSPropertyOp29
 70
     1
102
RTVSPropertyOp30
 70
     1
102
RTVSPropertyOp31
 70
     1
102
RTVSPropertyOp32
 70
     1
  0
XRECORD
  5
542
102
{ACAD_REACTORS
330
541
102
}
330
541
100
AcDbXrecord
280
     1
102
RTVSPropertyOp0
 70
     1
102
RTVSPropertyOp1
 70
     1
102
RTVSPropertyOp2
 70
     1
102
RTVSPropertyOp3
 70
     1
102
RTVSPropertyOp4
 70
     1
102
RTVSPropertyOp5
 70
     1
102
RTVSPropertyOp6
 70
     1
102
RTVSPropertyOp7
 70
     1
102
RTVSPropertyOp8
 70
     1
102
RTVSPropertyOp9
 70
     1
102
RTVSPropertyOp10
 70
     1
102
RTVSPropertyOp11
 70
     1
102
RTVSPropertyOp12
 70
     1
102
RTVSPropertyOp13
 70
     1
102
RTVSPropertyOp14
 70
     1
102
RTVSPropertyOp15
 70
     1
102
RTVSPropertyOp16
 70
     1
102
RTVSPropertyOp17
 70
     1
102
RTVSPropertyOp18
 70
     1
102
RTVSPropertyOp19
 70
     1
102
RTVSPropertyOp20
 70
     1
102
RTVSPropertyOp21
 70
     1
102
RTVSPropertyOp22
 70
     1
102
RTVSPropertyOp23
 70
     1
102
RTVSPropertyOp24
 70
     1
102
RTVSPropertyOp25
 70
     1
102
RTVSPropertyOp26
 70
     1
102
RTVSPropertyOp27
 70
     1
102
RTVSPropertyOp28
 70
     1
102
RTVSPropertyOp29
 70
     1
102
RTVSPropertyOp30
 70
     1
102
RTVSPropertyOp31
 70
     1
102
RTVSPropertyOp32
 70
     1
  0
XRECORD
  5
546
102
{ACAD_REACTORS
330
545
102
}
330
545
100
AcDbXrecord
280
     1
102
RTVSPropertyOp0
 70
     1
102
RTVSPropertyOp1
 70
     1
102
RTVSPropertyOp2
 70
     1
102
RTVSPropertyOp3
 70
     1
102
RTVSPropertyOp4
 70
     1
102
RTVSPropertyOp5
 70
     1
102
RTVSPropertyOp6
 70
     1
102
RTVSPropertyOp7
 70
     1
102
RTVSPropertyOp8
 70
     1
102
RTVSPropertyOp9
 70
     1
102
RTVSPropertyOp10
 70
     1
102
RTVSPropertyOp11
 70
     1
102
RTVSPropertyOp12
 70
     1
102
RTVSPropertyOp13
 70
     1
102
RTVSPropertyOp14
 70
     1
102
RTVSPropertyOp15
 70
     1
102
RTVSPropertyOp16
 70
     1
102
RTVSPropertyOp17
 70
     1
102
RTVSPropertyOp18
 70
     1
102
RTVSPropertyOp19
 70
     1
102
RTVSPropertyOp20
 70
     1
102
RTVSPropertyOp21
 70
     1
102
RTVSPropertyOp22
 70
     1
102
RTVSPropertyOp23
 70
     1
102
RTVSPropertyOp24
 70
     1
102
RTVSPropertyOp25
 70
     1
102
RTVSPropertyOp26
 70
     1
102
RTVSPropertyOp27
 70
     1
102
RTVSPropertyOp28
 70
     1
102
RTVSPropertyOp29
 70
     1
102
RTVSPropertyOp30
 70
     1
102
RTVSPropertyOp31
 70
     1
102
RTVSPropertyOp32
 70
     1
  0
XRECORD
  5
54E
102
{ACAD_REACTORS
330
54D
102
}
330
54D
100
AcDbXrecord
280
     1
102
RTVSPropertyOp0
 70
     1
102
RTVSPropertyOp1
 70
     1
102
RTVSPropertyOp2
 70
     1
102
RTVSPropertyOp3
 70
     1
102
RTVSPropertyOp4
 70
     1
102
RTVSPropertyOp5
 70
     1
102
RTVSPropertyOp6
 70
     1
102
RTVSPropertyOp7
 70
     1
102
RTVSPropertyOp8
 70
     1
102
RTVSPropertyOp9
 70
     1
102
RTVSPropertyOp10
 70
     1
102
RTVSPropertyOp11
 70
     1
102
RTVSPropertyOp12
 70
     1
102
RTVSPropertyOp13
 70
     1
102
RTVSPropertyOp14
 70
     1
102
RTVSPropertyOp15
 70
     1
102
RTVSPropertyOp16
 70
     1
102
RTVSPropertyOp17
 70
     1
102
RTVSPropertyOp18
 70
     1
102
RTVSPropertyOp19
 70
     1
102
RTVSPropertyOp20
 70
     1
102
RTVSPropertyOp21
 70
     1
102
RTVSPropertyOp22
 70
     1
102
RTVSPropertyOp23
 70
     1
102
RTVSPropertyOp24
 70
     1
102
RTVSPropertyOp25
 70
     1
102
RTVSPropertyOp26
 70
     1
102
RTVSPropertyOp27
 70
     1
102
RTVSPropertyOp28
 70
     1
102
RTVSPropertyOp29
 70
     1
102
RTVSPropertyOp30
 70
     1
102
RTVSPropertyOp31
 70
     1
102
RTVSPropertyOp32
 70
     1
  0
XRECORD
  5
556
102
{ACAD_REACTORS
330
555
102
}
330
555
100
AcDbXrecord
280
     1
102
RTVSPropertyOp0
 70
     1
102
RTVSPropertyOp1
 70
     1
102
RTVSPropertyOp2
 70
     1
102
RTVSPropertyOp3
 70
     1
102
RTVSPropertyOp4
 70
     1
102
RTVSPropertyOp5
 70
     1
102
RTVSPropertyOp6
 70
     1
102
RTVSPropertyOp7
 70
     1
102
RTVSPropertyOp8
 70
     1
102
RTVSPropertyOp9
 70
     1
102
RTVSPropertyOp10
 70
     1
102
RTVSPropertyOp11
 70
     1
102
RTVSPropertyOp12
 70
     1
102
RTVSPropertyOp13
 70
     1
102
RTVSPropertyOp14
 70
     1
102
RTVSPropertyOp15
 70
     1
102
RTVSPropertyOp16
 70
     1
102
RTVSPropertyOp17
 70
     1
102
RTVSPropertyOp18
 70
     1
102
RTVSPropertyOp19
 70
     1
102
RTVSPropertyOp20
 70
     1
102
RTVSPropertyOp21
 70
     1
102
RTVSPropertyOp22
 70
     1
102
RTVSPropertyOp23
 70
     1
102
RTVSPropertyOp24
 70
     1
102
RTVSPropertyOp25
 70
     1
102
RTVSPropertyOp26
 70
     1
102
RTVSPropertyOp27
 70
     1
102
RTVSPropertyOp28
 70
     1
102
RTVSPropertyOp29
 70
     1
102
RTVSPropertyOp30
 70
     1
102
RTVSPropertyOp31
 70
     1
102
RTVSPropertyOp32
 70
     1
  0
XRECORD
  5
54A
102
{ACAD_REACTORS
330
549
102
}
330
549
100
AcDbXrecord
280
     1
102
RTVSPropertyOp0
 70
     1
102
RTVSPropertyOp1
 70
     1
102
RTVSPropertyOp2
 70
     1
102
RTVSPropertyOp3
 70
     1
102
RTVSPropertyOp4
 70
     1
102
RTVSPropertyOp5
 70
     1
102
RTVSPropertyOp6
 70
     1
102
RTVSPropertyOp7
 70
     1
102
RTVSPropertyOp8
 70
     1
102
RTVSPropertyOp9
 70
     1
102
RTVSPropertyOp10
 70
     1
102
RTVSPropertyOp11
 70
     1
102
RTVSPropertyOp12
 70
     1
102
RTVSPropertyOp13
 70
     1
102
RTVSPropertyOp14
 70
     1
102
RTVSPropertyOp15
 70
     1
102
RTVSPropertyOp16
 70
     1
102
RTVSPropertyOp17
 70
     1
102
RTVSPropertyOp18
 70
     1
102
RTVSPropertyOp19
 70
     1
102
RTVSPropertyOp20
 70
     1
102
RTVSPropertyOp21
 70
     1
102
RTVSPropertyOp22
 70
     1
102
RTVSPropertyOp23
 70
     1
102
RTVSPropertyOp24
 70
     1
102
RTVSPropertyOp25
 70
     1
102
RTVSPropertyOp26
 70
     1
102
RTVSPropertyOp27
 70
     1
102
RTVSPropertyOp28
 70
     1
102
RTVSPropertyOp29
 70
     1
102
RTVSPropertyOp30
 70
     1
102
RTVSPropertyOp31
 70
     1
102
RTVSPropertyOp32
 70
     1
  0
XRECORD
  5
54C
102
{ACAD_REACTORS
330
54B
102
}
330
54B
100
AcDbXrecord
280
     1
102
RTVSPropertyOp0
 70
     1
102
RTVSPropertyOp1
 70
     1
102
RTVSPropertyOp2
 70
     1
102
RTVSPropertyOp3
 70
     1
102
RTVSPropertyOp4
 70
     1
102
RTVSPropertyOp5
 70
     1
102
RTVSPropertyOp6
 70
     1
102
RTVSPropertyOp7
 70
     1
102
RTVSPropertyOp8
 70
     1
102
RTVSPropertyOp9
 70
     1
102
RTVSPropertyOp10
 70
     1
102
RTVSPropertyOp11
 70
     1
102
RTVSPropertyOp12
 70
     1
102
RTVSPropertyOp13
 70
     1
102
RTVSPropertyOp14
 70
     1
102
RTVSPropertyOp15
 70
     1
102
RTVSPropertyOp16
 70
     1
102
RTVSPropertyOp17
 70
     1
102
RTVSPropertyOp18
 70
     1
102
RTVSPropertyOp19
 70
     1
102
RTVSPropertyOp20
 70
     1
102
RTVSPropertyOp21
 70
     1
102
RTVSPropertyOp22
 70
     1
102
RTVSPropertyOp23
 70
     1
102
RTVSPropertyOp24
 70
     1
102
RTVSPropertyOp25
 70
     1
102
RTVSPropertyOp26
 70
     1
102
RTVSPropertyOp27
 70
     1
102
RTVSPropertyOp28
 70
     1
102
RTVSPropertyOp29
 70
     1
102
RTVSPropertyOp30
 70
     1
102
RTVSPropertyOp31
 70
     1
102
RTVSPropertyOp32
 70
     1
  0
XRECORD
  5
554
102
{ACAD_REACTORS
330
553
102
}
330
553
100
AcDbXrecord
280
     1
102
RTVSPropertyOp0
 70
     1
102
RTVSPropertyOp1
 70
     1
102
RTVSPropertyOp2
 70
     1
102
RTVSPropertyOp3
 70
     1
102
RTVSPropertyOp4
 70
     1
102
RTVSPropertyOp5
 70
     1
102
RTVSPropertyOp6
 70
     1
102
RTVSPropertyOp7
 70
     1
102
RTVSPropertyOp8
 70
     1
102
RTVSPropertyOp9
 70
     1
102
RTVSPropertyOp10
 70
     1
102
RTVSPropertyOp11
 70
     1
102
RTVSPropertyOp12
 70
     1
102
RTVSPropertyOp13
 70
     1
102
RTVSPropertyOp14
 70
     1
102
RTVSPropertyOp15
 70
     1
102
RTVSPropertyOp16
 70
     1
102
RTVSPropertyOp17
 70
     1
102
RTVSPropertyOp18
 70
     1
102
RTVSPropertyOp19
 70
     1
102
RTVSPropertyOp20
 70
     1
102
RTVSPropertyOp21
 70
     1
102
RTVSPropertyOp22
 70
     1
102
RTVSPropertyOp23
 70
     1
102
RTVSPropertyOp24
 70
     1
102
RTVSPropertyOp25
 70
     1
102
RTVSPropertyOp26
 70
     1
102
RTVSPropertyOp27
 70
     1
102
RTVSPropertyOp28
 70
     1
102
RTVSPropertyOp29
 70
     1
102
RTVSPropertyOp30
 70
     1
102
RTVSPropertyOp31
 70
     1
102
RTVSPropertyOp32
 70
     1
  0
XRECORD
  5
538
102
{ACAD_REACTORS
330
537
102
}
330
537
100
AcDbXrecord
280
     1
102
RTVSPropertyOp0
 70
     1
102
RTVSPropertyOp1
 70
     1
102
RTVSPropertyOp2
 70
     1
102
RTVSPropertyOp3
 70
     1
102
RTVSPropertyOp4
 70
     1
102
RTVSPropertyOp5
 70
     1
102
RTVSPropertyOp6
 70
     1
102
RTVSPropertyOp7
 70
     1
102
RTVSPropertyOp8
 70
     1
102
RTVSPropertyOp9
 70
     1
102
RTVSPropertyOp10
 70
     1
102
RTVSPropertyOp11
 70
     1
102
RTVSPropertyOp12
 70
     1
102
RTVSPropertyOp13
 70
     1
102
RTVSPropertyOp14
 70
     1
102
RTVSPropertyOp15
 70
     1
102
RTVSPropertyOp16
 70
     1
102
RTVSPropertyOp17
 70
     1
102
RTVSPropertyOp18
 70
     1
102
RTVSPropertyOp19
 70
     1
102
RTVSPropertyOp20
 70
     1
102
RTVSPropertyOp21
 70
     1
102
RTVSPropertyOp22
 70
     1
102
RTVSPropertyOp23
 70
     1
102
RTVSPropertyOp24
 70
     1
102
RTVSPropertyOp25
 70
     1
102
RTVSPropertyOp26
 70
     1
102
RTVSPropertyOp27
 70
     1
102
RTVSPropertyOp28
 70
     1
102
RTVSPropertyOp29
 70
     1
102
RTVSPropertyOp30
 70
     1
102
RTVSPropertyOp31
 70
     1
102
RTVSPropertyOp32
 70
     1
  0
XRECORD
  5
53A
102
{ACAD_REACTORS
330
539
102
}
330
539
100
AcDbXrecord
280
     1
102
RTVSPropertyOp0
 70
     1
102
RTVSPropertyOp1
 70
     1
102
RTVSPropertyOp2
 70
     1
102
RTVSPropertyOp3
 70
     1
102
RTVSPropertyOp4
 70
     1
102
RTVSPropertyOp5
 70
     1
102
RTVSPropertyOp6
 70
     1
102
RTVSPropertyOp7
 70
     1
102
RTVSPropertyOp8
 70
     1
102
RTVSPropertyOp9
 70
     1
102
RTVSPropertyOp10
 70
     1
102
RTVSPropertyOp11
 70
     1
102
RTVSPropertyOp12
 70
     1
102
RTVSPropertyOp13
 70
     1
102
RTVSPropertyOp14
 70
     1
102
RTVSPropertyOp15
 70
     1
102
RTVSPropertyOp16
 70
     1
102
RTVSPropertyOp17
 70
     1
102
RTVSPropertyOp18
 70
     1
102
RTVSPropertyOp19
 70
     1
102
RTVSPropertyOp20
 70
     1
102
RTVSPropertyOp21
 70
     1
102
RTVSPropertyOp22
 70
     1
102
RTVSPropertyOp23
 70
     1
102
RTVSPropertyOp24
 70
     1
102
RTVSPropertyOp25
 70
     1
102
RTVSPropertyOp26
 70
     1
102
RTVSPropertyOp27
 70
     1
102
RTVSPropertyOp28
 70
     1
102
RTVSPropertyOp29
 70
     1
102
RTVSPropertyOp30
 70
     1
102
RTVSPropertyOp31
 70
     1
102
RTVSPropertyOp32
 70
     1
  0
XRECORD
  5
53C
102
{ACAD_REACTORS
330
53B
102
}
330
53B
100
AcDbXrecord
280
     1
102
RTVSPropertyOp0
 70
     1
102
RTVSPropertyOp1
 70
     1
102
RTVSPropertyOp2
 70
     1
102
RTVSPropertyOp3
 70
     1
102
RTVSPropertyOp4
 70
     1
102
RTVSPropertyOp5
 70
     1
102
RTVSPropertyOp6
 70
     1
102
RTVSPropertyOp7
 70
     1
102
RTVSPropertyOp8
 70
     1
102
RTVSPropertyOp9
 70
     1
102
RTVSPropertyOp10
 70
     1
102
RTVSPropertyOp11
 70
     1
102
RTVSPropertyOp12
 70
     1
102
RTVSPropertyOp13
 70
     1
102
RTVSPropertyOp14
 70
     1
102
RTVSPropertyOp15
 70
     1
102
RTVSPropertyOp16
 70
     1
102
RTVSPropertyOp17
 70
     1
102
RTVSPropertyOp18
 70
     1
102
RTVSPropertyOp19
 70
     1
102
RTVSPropertyOp20
 70
     1
102
RTVSPropertyOp21
 70
     1
102
RTVSPropertyOp22
 70
     1
102
RTVSPropertyOp23
 70
     1
102
RTVSPropertyOp24
 70
     1
102
RTVSPropertyOp25
 70
     1
102
RTVSPropertyOp26
 70
     1
102
RTVSPropertyOp27
 70
     1
102
RTVSPropertyOp28
 70
     1
102
RTVSPropertyOp29
 70
     1
102
RTVSPropertyOp30
 70
     1
102
RTVSPropertyOp31
 70
     1
102
RTVSPropertyOp32
 70
     1
  0
XRECORD
  5
53E
102
{ACAD_REACTORS
330
53D
102
}
330
53D
100
AcDbXrecord
280
     1
102
RTVSPropertyOp0
 70
     1
102
RTVSPropertyOp1
 70
     1
102
RTVSPropertyOp2
 70
     1
102
RTVSPropertyOp3
 70
     1
102
RTVSPropertyOp4
 70
     1
102
RTVSPropertyOp5
 70
     1
102
RTVSPropertyOp6
 70
     1
102
RTVSPropertyOp7
 70
     1
102
RTVSPropertyOp8
 70
     1
102
RTVSPropertyOp9
 70
     1
102
RTVSPropertyOp10
 70
     1
102
RTVSPropertyOp11
 70
     1
102
RTVSPropertyOp12
 70
     1
102
RTVSPropertyOp13
 70
     1
102
RTVSPropertyOp14
 70
     1
102
RTVSPropertyOp15
 70
     1
102
RTVSPropertyOp16
 70
     1
102
RTVSPropertyOp17
 70
     1
102
RTVSPropertyOp18
 70
     1
102
RTVSPropertyOp19
 70
     1
102
RTVSPropertyOp20
 70
     1
102
RTVSPropertyOp21
 70
     1
102
RTVSPropertyOp22
 70
     1
102
RTVSPropertyOp23
 70
     1
102
RTVSPropertyOp24
 70
     1
102
RTVSPropertyOp25
 70
     1
102
RTVSPropertyOp26
 70
     1
102
RTVSPropertyOp27
 70
     1
102
RTVSPropertyOp28
 70
     1
102
RTVSPropertyOp29
 70
     1
102
RTVSPropertyOp30
 70
     1
102
RTVSPropertyOp31
 70
     1
102
RTVSPropertyOp32
 70
     1
  0
XRECORD
  5
552
102
{ACAD_REACTORS
330
551
102
}
330
551
100
AcDbXrecord
280
     1
102
RTVSPropertyOp0
 70
     1
102
RTVSPropertyOp1
 70
     1
102
RTVSPropertyOp2
 70
     1
102
RTVSPropertyOp3
 70
     1
102
RTVSPropertyOp4
 70
     1
102
RTVSPropertyOp5
 70
     1
102
RTVSPropertyOp6
 70
     1
102
RTVSPropertyOp7
 70
     1
102
RTVSPropertyOp8
 70
     1
102
RTVSPropertyOp9
 70
     1
102
RTVSPropertyOp10
 70
     1
102
RTVSPropertyOp11
 70
     1
102
RTVSPropertyOp12
 70
     1
102
RTVSPropertyOp13
 70
     1
102
RTVSPropertyOp14
 70
     1
102
RTVSPropertyOp15
 70
     1
102
RTVSPropertyOp16
 70
     1
102
RTVSPropertyOp17
 70
     1
102
RTVSPropertyOp18
 70
     1
102
RTVSPropertyOp19
 70
     1
102
RTVSPropertyOp20
 70
     1
102
RTVSPropertyOp21
 70
     1
102
RTVSPropertyOp22
 70
     1
102
RTVSPropertyOp23
 70
     1
102
RTVSPropertyOp24
 70
     1
102
RTVSPropertyOp25
 70
     1
102
RTVSPropertyOp26
 70
     1
102
RTVSPropertyOp27
 70
     1
102
RTVSPropertyOp28
 70
     1
102
RTVSPropertyOp29
 70
     1
102
RTVSPropertyOp30
 70
     1
102
RTVSPropertyOp31
 70
     1
102
RTVSPropertyOp32
 70
     1
  0
XRECORD
  5
548
102
{ACAD_REACTORS
330
547
102
}
330
547
100
AcDbXrecord
280
     1
102
RTVSPropertyOp0
 70
     1
102
RTVSPropertyOp1
 70
     1
102
RTVSPropertyOp2
 70
     1
102
RTVSPropertyOp3
 70
     1
102
RTVSPropertyOp4
 70
     1
102
RTVSPropertyOp5
 70
     1
102
RTVSPropertyOp6
 70
     1
102
RTVSPropertyOp7
 70
     1
102
RTVSPropertyOp8
 70
     1
102
RTVSPropertyOp9
 70
     1
102
RTVSPropertyOp10
 70
     1
102
RTVSPropertyOp11
 70
     1
102
RTVSPropertyOp12
 70
     1
102
RTVSPropertyOp13
 70
     1
102
RTVSPropertyOp14
 70
     1
102
RTVSPropertyOp15
 70
     1
102
RTVSPropertyOp16
 70
     1
102
RTVSPropertyOp17
 70
     1
102
RTVSPropertyOp18
 70
     1
102
RTVSPropertyOp19
 70
     1
102
RTVSPropertyOp20
 70
     1
102
RTVSPropertyOp21
 70
     1
102
RTVSPropertyOp22
 70
     1
102
RTVSPropertyOp23
 70
     1
102
RTVSPropertyOp24
 70
     1
102
RTVSPropertyOp25
 70
     1
102
RTVSPropertyOp26
 70
     1
102
RTVSPropertyOp27
 70
     1
102
RTVSPropertyOp28
 70
     1
102
RTVSPropertyOp29
 70
     1
102
RTVSPropertyOp30
 70
     1
102
RTVSPropertyOp31
 70
     1
102
RTVSPropertyOp32
 70
     1
  0
XRECORD
  5
550
102
{ACAD_REACTORS
330
54F
102
}
330
54F
100
AcDbXrecord
280
     1
102
RTVSPropertyOp0
 70
     1
102
RTVSPropertyOp1
 70
     1
102
RTVSPropertyOp2
 70
     1
102
RTVSPropertyOp3
 70
     1
102
RTVSPropertyOp4
 70
     1
102
RTVSPropertyOp5
 70
     1
102
RTVSPropertyOp6
 70
     1
102
RTVSPropertyOp7
 70
     1
102
RTVSPropertyOp8
 70
     1
102
RTVSPropertyOp9
 70
     1
102
RTVSPropertyOp10
 70
     1
102
RTVSPropertyOp11
 70
     1
102
RTVSPropertyOp12
 70
     1
102
RTVSPropertyOp13
 70
     1
102
RTVSPropertyOp14
 70
     1
102
RTVSPropertyOp15
 70
     1
102
RTVSPropertyOp16
 70
     1
102
RTVSPropertyOp17
 70
     1
102
RTVSPropertyOp18
 70
     1
102
RTVSPropertyOp19
 70
     1
102
RTVSPropertyOp20
 70
     1
102
RTVSPropertyOp21
 70
     1
102
RTVSPropertyOp22
 70
     1
102
RTVSPropertyOp23
 70
     1
102
RTVSPropertyOp24
 70
     1
102
RTVSPropertyOp25
 70
     1
102
RTVSPropertyOp26
 70
     1
102
RTVSPropertyOp27
 70
     1
102
RTVSPropertyOp28
 70
     1
102
RTVSPropertyOp29
 70
     1
102
RTVSPropertyOp30
 70
     1
102
RTVSPropertyOp31
 70
     1
102
RTVSPropertyOp32
 70
     1
  0
ENDSEC
  0
EOF
