  0
SECTION
  2
HEADER
  9
$ACADVER
  1
AC1018
  9
$ACADMAINTVER
 70
     0
  9
$DWGCODEPAGE
  3
ANSI_1252
  9
$INSBASE
 10
0.0
 20
0.0
 30
0.0
  9
$EXTMIN
 10
-98.020700671994
 20
11.864697359775
 30
0.0
  9
$EXTMAX
 10
280.689535726242
 20
165.413697359775
 30
0.0
  9
$LIMMIN
 10
0.0
 20
0.0
  9
$LIMMAX
 10
420.0
 20
297.0
  9
$ORTHOMODE
 70
     0
  9
$REGENMODE
 70
     1
  9
$FILLMODE
 70
     1
  9
$QTEXTMODE
 70
     0
  9
$MIRRTEXT
 70
     1
  9
$LTSCALE
 40
5.0
  9
$ATTMODE
 70
     1
  9
$TEXTSIZE
 40
2.5
  9
$TRACEWID
 40
1.0
  9
$TEXTSTYLE
  7
Standard
  9
$CLAYER
  8
0
  9
$CELTYPE
  6
ByLayer
  9
$CECOLOR
 62
   256
  9
$CELTSCALE
 40
1.0
  9
$DISPSILH
 70
     0
  9
$DIMSCALE
 40
1.0
  9
$DIMASZ
 40
2.5
  9
$DIMEXO
 40
0.625
  9
$DIMDLI
 40
3.75
  9
$DIMRND
 40
0.0
  9
$DIMDLE
 40
0.0
  9
$DIMEXE
 40
1.25
  9
$DIMTP
 40
0.0
  9
$DIMTM
 40
0.0
  9
$DIMTXT
 40
2.5
  9
$DIMCEN
 40
2.5
  9
$DIMTSZ
 40
0.0
  9
$DIMTOL
 70
     0
  9
$DIMLIM
 70
     0
  9
$DIMTIH
 70
     0
  9
$DIMTOH
 70
     0
  9
$DIMSE1
 70
     0
  9
$DIMSE2
 70
     0
  9
$DIMTAD
 70
     1
  9
$DIMZIN
 70
     8
  9
$DIMBLK
  1

  9
$DIMASO
 70
     1
  9
$DIMSHO
 70
     1
  9
$DIMPOST
  1

  9
$DIMAPOST
  1

  9
$DIMALT
 70
     0
  9
$DIMALTD
 70
     3
  9
$DIMALTF
 40
0.03937007874
  9
$DIMLFAC
 40
1.0
  9
$DIMTOFL
 70
     1
  9
$DIMTVP
 40
0.0
  9
$DIMTIX
 70
     0
  9
$DIMSOXD
 70
     0
  9
$DIMSAH
 70
     0
  9
$DIMBLK1
  1

  9
$DIMBLK2
  1

  9
$DIMSTYLE
  2
ISO-25
  9
$DIMCLRD
 70
     0
  9
$DIMCLRE
 70
     0
  9
$DIMCLRT
 70
     0
  9
$DIMTFAC
 40
1.0
  9
$DIMGAP
 40
0.625
  9
$DIMJUST
 70
     0
  9
$DIMSD1
 70
     0
  9
$DIMSD2
 70
     0
  9
$DIMTOLJ
 70
     0
  9
$DIMTZIN
 70
     8
  9
$DIMALTZ
 70
     0
  9
$DIMALTTZ
 70
     0
  9
$DIMUPT
 70
     0
  9
$DIMDEC
 70
     2
  9
$DIMTDEC
 70
     2
  9
$DIMALTU
 70
     2
  9
$DIMALTTD
 70
     3
  9
$DIMTXSTY
  7
Standard
  9
$DIMAUNIT
 70
     0
  9
$DIMADEC
 70
     0
  9
$DIMALTRND
 40
0.0
  9
$DIMAZIN
 70
     0
  9
$DIMDSEP
 70
    44
  9
$DIMATFIT
 70
     3
  9
$DIMFRAC
 70
     0
  9
$DIMLDRBLK
  1

  9
$DIMLUNIT
 70
     2
  9
$DIMLWD
 70
    -2
  9
$DIMLWE
 70
    -2
  9
$DIMTMOVE
 70
     0
  9
$LUNITS
 70
     2
  9
$LUPREC
 70
     4
  9
$SKETCHINC
 40
1.0
  9
$FILLETRAD
 40
10.0
  9
$AUNITS
 70
     0
  9
$AUPREC
 70
     0
  9
$MENU
  1
.
  9
$ELEVATION
 40
0.0
  9
$PELEVATION
 40
0.0
  9
$THICKNESS
 40
0.0
  9
$LIMCHECK
 70
     0
  9
$CHAMFERA
 40
10.0
  9
$CHAMFERB
 40
10.0
  9
$CHAMFERC
 40
20.0
  9
$CHAMFERD
 40
0.0
  9
$SKPOLY
 70
     0
  9
$TDCREATE
 40
2459074.69127684
  9
$TDUCREATE
 40
2459074.607943507
  9
$TDUPDATE
 40
2459074.691282512
  9
$TDUUPDATE
 40
2459074.607949178
  9
$TDINDWG
 40
0.0000000116
  9
$TDUSRTIMER
 40
0.0000000116
  9
$USRTIMER
 70
     1
  9
$ANGBASE
 50
0.0
  9
$ANGDIR
 70
     0
  9
$PDMODE
 70
     2
  9
$PDSIZE
 40
1.0
  9
$PLINEWID
 40
0.0
  9
$SPLFRAME
 70
     0
  9
$SPLINETYPE
 70
     6
  9
$SPLINESEGS
 70
     8
  9
$HANDSEED
  5
3C9
  9
$SURFTAB1
 70
     6
  9
$SURFTAB2
 70
     6
  9
$SURFTYPE
 70
     6
  9
$SURFU
 70
     6
  9
$SURFV
 70
     6
  9
$UCSBASE
  2

  9
$UCSNAME
  2

  9
$UCSORG
 10
0.0
 20
0.0
 30
0.0
  9
$UCSXDIR
 10
1.0
 20
0.0
 30
0.0
  9
$UCSYDIR
 10
0.0
 20
1.0
 30
0.0
  9
$UCSORTHOREF
  2

  9
$UCSORTHOVIEW
 70
     0
  9
$UCSORGTOP
 10
0.0
 20
0.0
 30
0.0
  9
$UCSORGBOTTOM
 10
0.0
 20
0.0
 30
0.0
  9
$UCSORGLEFT
 10
0.0
 20
0.0
 30
0.0
  9
$UCSORGRIGHT
 10
0.0
 20
0.0
 30
0.0
  9
$UCSORGFRONT
 10
0.0
 20
0.0
 30
0.0
  9
$UCSORGBACK
 10
0.0
 20
0.0
 30
0.0
  9
$PUCSBASE
  2

  9
$PUCSNAME
  2

  9
$PUCSORG
 10
0.0
 20
0.0
 30
0.0
  9
$PUCSXDIR
 10
1.0
 20
0.0
 30
0.0
  9
$PUCSYDIR
 10
0.0
 20
1.0
 30
0.0
  9
$PUCSORTHOREF
  2

  9
$PUCSORTHOVIEW
 70
     0
  9
$PUCSORGTOP
 10
0.0
 20
0.0
 30
0.0
  9
$PUCSORGBOTTOM
 10
0.0
 20
0.0
 30
0.0
  9
$PUCSORGLEFT
 10
0.0
 20
0.0
 30
0.0
  9
$PUCSORGRIGHT
 10
0.0
 20
0.0
 30
0.0
  9
$PUCSORGFRONT
 10
0.0
 20
0.0
 30
0.0
  9
$PUCSORGBACK
 10
0.0
 20
0.0
 30
0.0
  9
$USERI1
 70
     0
  9
$USERI2
 70
     0
  9
$USERI3
 70
     0
  9
$USERI4
 70
     0
  9
$USERI5
 70
     0
  9
$USERR1
 40
0.0
  9
$USERR2
 40
0.0
  9
$USERR3
 40
0.0
  9
$USERR4
 40
0.0
  9
$USERR5
 40
0.0
  9
$WORLDVIEW
 70
     1
  9
$SHADEDGE
 70
     3
  9
$SHADEDIF
 70
    70
  9
$TILEMODE
 70
     1
  9
$MAXACTVP
 70
    64
  9
$PINSBASE
 10
0.0
 20
0.0
 30
0.0
  9
$PLIMCHECK
 70
     0
  9
$PEXTMIN
 10
1.000000000000E+20
 20
1.000000000000E+20
 30
1.000000000000E+20
  9
$PEXTMAX
 10
-1.000000000000E+20
 20
-1.000000000000E+20
 30
-1.000000000000E+20
  9
$PLIMMIN
 10
0.0
 20
0.0
  9
$PLIMMAX
 10
420.0
 20
297.0
  9
$UNITMODE
 70
     0
  9
$VISRETAIN
 70
     1
  9
$PLINEGEN
 70
     0
  9
$PSLTSCALE
 70
     1
  9
$TREEDEPTH
 70
  3020
  9
$CMLSTYLE
  2
Standard
  9
$CMLJUST
 70
     0
  9
$CMLSCALE
 40
20.0
  9
$PROXYGRAPHICS
 70
     1
  9
$MEASUREMENT
 70
     1
  9
$CELWEIGHT
370
    -1
  9
$ENDCAPS
280
     0
  9
$JOINSTYLE
280
     0
  9
$LWDISPLAY
290
     0
  9
$INSUNITS
 70
     4
  9
$HYPERLINKBASE
  1

  9
$STYLESHEET
  1

  9
$XEDIT
290
     1
  9
$CEPSNTYPE
380
     0
  9
$PSTYLEMODE
290
     1
  9
$FINGERPRINTGUID
  2
{33A3146A-B9AA-4E4A-AFE0-D9364DC02234}
  9
$VERSIONGUID
  2
{FAEB1C32-E019-11D5-929B-00C0DF256EC4}
  9
$EXTNAMES
290
     1
  9
$PSVPSCALE
 40
0.0
  9
$OLESTARTUP
290
     0
  9
$SORTENTS
280
   127
  9
$INDEXCTL
280
     0
  9
$HIDETEXT
280
     1
  9
$XCLIPFRAME
290
     0
  9
$HALOGAP
280
     0
  9
$OBSCOLOR
 70
   257
  9
$OBSLTYPE
280
     0
  9
$INTERSECTIONDISPLAY
280
     0
  9
$INTERSECTIONCOLOR
 70
   257
  9
$DIMASSOC
280
     2
  9
$PROJECTNAME
  1

  0
ENDSEC
  0
SECTION
  2
CLASSES
  0
CLASS
  1
ACDBDICTIONARYWDFLT
  2
AcDbDictionaryWithDefault
  3
ObjectDBX Classes
 90
        0
 91
        4
280
     0
281
     0
  0
CLASS
  1
VISUALSTYLE
  2
AcDbVisualStyle
  3
ObjectDBX Classes
 90
     4095
 91
        4
280
     0
281
     0
  0
CLASS
  1
MATERIAL
  2
AcDbMaterial
  3
ObjectDBX Classes
 90
     1153
 91
        4
280
     0
281
     0
  0
CLASS
  1
WIPEOUTVARIABLES
  2
AcDbWipeoutVariables
  3
WipeOut|AutoCAD Express Tool|expresstools@autodesk.com
 90
        0
 91
        4
280
     0
281
     0
  0
CLASS
  1
WIPEOUT
  2
AcDbWipeout
  3
WipeOut|AutoCAD Express Tool|expresstools@autodesk.com
 90
      127
 91
        4
280
     0
281
     1
  0
ENDSEC
  0
SECTION
  2
TABLES
  0
TABLE
  2
VPORT
  5
8
330
0
100
AcDbSymbolTable
 70
     1
  0
VPORT
  5
29
330
8
100
AcDbSymbolTableRecord
100
AcDbViewportTableRecord
  2
*Active
 70
     0
 10
0.0
 20
0.0
 11
1.0
 21
1.0
 12
91.334417527124
 22
88.639197359775
 13
0.0
 23
0.0
 14
10.0
 24
10.0
 15
10.0
 25
10.0
 16
0.0
 26
0.0
 36
1.0
 17
0.0
 27
0.0
 37
0.0
 40
153.549
 41
2.466380350235
 42
50.0
 43
0.0
 44
0.0
 50
0.0
 51
0.0
 71
     0
 72
   100
 73
     1
 74
     3
 75
     0
 76
     0
 77
     0
 78
     0
281
     0
 65
     1
110
0.0
120
0.0
130
0.0
111
1.0
121
0.0
131
0.0
112
0.0
122
1.0
132
0.0
 79
     0
146
0.0
  0
ENDTAB
  0
TABLE
  2
LTYPE
  5
5
330
0
100
AcDbSymbolTable
 70
     4
  0
LTYPE
  5
14
330
5
100
AcDbSymbolTableRecord
100
AcDbLinetypeTableRecord
  2
ByBlock
 70
     0
  3

 72
    65
 73
     0
 40
0.0
  0
LTYPE
  5
15
330
5
100
AcDbSymbolTableRecord
100
AcDbLinetypeTableRecord
  2
ByLayer
 70
     0
  3

 72
    65
 73
     0
 40
0.0
  0
LTYPE
  5
16
330
5
100
AcDbSymbolTableRecord
100
AcDbLinetypeTableRecord
  2
Continuous
 70
     0
  3
Solid line
 72
    65
 73
     0
 40
0.0
  0
LTYPE
  5
40
330
5
100
AcDbSymbolTableRecord
100
AcDbLinetypeTableRecord
  2
AUSGEZOGEN
 70
     0
  3

 72
    65
 73
     0
 40
0.0
  0
LTYPE
  5
41
330
5
100
AcDbSymbolTableRecord
100
AcDbLinetypeTableRecord
  2
DASHDOT
 70
     0
  3

 72
    65
 73
     4
 40
1.0
 49
0.5
 74
     0
 49
-0.25
 74
     0
 49
0.0
 74
     0
 49
-0.25
 74
     0
  0
LTYPE
  5
42
330
5
100
AcDbSymbolTableRecord
100
AcDbLinetypeTableRecord
  2
DASHED
 70
     0
  3

 72
    65
 73
     2
 40
0.75
 49
0.5
 74
     0
 49
-0.25
 74
     0
  0
ENDTAB
  0
TABLE
  2
LAYER
  5
2
330
0
100
AcDbSymbolTable
 70
   257
  0
LAYER
  5
10
330
2
100
AcDbSymbolTableRecord
100
AcDbLayerTableRecord
  2
0
 70
     0
 62
     7
  6
Continuous
370
    -3
390
F
  0
LAYER
  5
46
330
2
100
AcDbSymbolTableRecord
100
AcDbLayerTableRecord
  2
99
 70
     0
 62
     7
  6
Continuous
370
    -3
390
F
  0
LAYER
  5
47
330
2
100
AcDbSymbolTableRecord
100
AcDbLayerTableRecord
  2
70
 70
     0
 62
     7
  6
Continuous
370
    -3
390
F
  0
LAYER
  5
48
330
2
100
AcDbSymbolTableRecord
100
AcDbLayerTableRecord
  2
60
 70
     0
 62
     7
  6
Continuous
370
    -3
390
F
  0
LAYER
  5
49
330
2
100
AcDbSymbolTableRecord
100
AcDbLayerTableRecord
  2
50
 70
     0
 62
     7
  6
Continuous
370
    -3
390
F
  0
LAYER
  5
4A
330
2
100
AcDbSymbolTableRecord
100
AcDbLayerTableRecord
  2
GRUNDOBJEKTE
 70
     0
 62
     7
  6
Continuous
370
    -3
390
F
  0
LAYER
  5
4B
330
2
100
AcDbSymbolTableRecord
100
AcDbLayerTableRecord
  2
HILFSLINIEN
 70
     0
 62
     7
  6
Continuous
370
    -3
390
F
  0
LAYER
  5
4C
330
2
100
AcDbSymbolTableRecord
100
AcDbLayerTableRecord
  2
LAYER1
 70
     0
 62
     7
  6
Continuous
370
    -3
390
F
  0
LAYER
  5
4D
330
2
100
AcDbSymbolTableRecord
100
AcDbLayerTableRecord
  2
Layer7
 70
     0
 62
     7
  6
Continuous
370
    -3
390
F
  0
LAYER
  5
4E
330
2
100
AcDbSymbolTableRecord
100
AcDbLayerTableRecord
  2
Layer8
 70
     0
 62
     7
  6
Continuous
370
    -3
390
F
  0
LAYER
  5
4F
330
2
100
AcDbSymbolTableRecord
100
AcDbLayerTableRecord
  2
Layer9
 70
     0
 62
     7
  6
Continuous
370
    -3
390
F
  0
LAYER
  5
50
330
2
100
AcDbSymbolTableRecord
100
AcDbLayerTableRecord
  2
Layer10
 70
     0
 62
     7
  6
Continuous
370
    -3
390
F
  0
LAYER
  5
51
330
2
100
AcDbSymbolTableRecord
100
AcDbLayerTableRecord
  2
Layer11
 70
     0
 62
     7
  6
Continuous
370
    -3
390
F
  0
LAYER
  5
52
330
2
100
AcDbSymbolTableRecord
100
AcDbLayerTableRecord
  2
Layer12
 70
     0
 62
     7
  6
Continuous
370
    -3
390
F
  0
LAYER
  5
53
330
2
100
AcDbSymbolTableRecord
100
AcDbLayerTableRecord
  2
Layer13
 70
     0
 62
    -7
  6
Continuous
370
    -3
390
F
  0
LAYER
  5
54
330
2
100
AcDbSymbolTableRecord
100
AcDbLayerTableRecord
  2
Layer14
 70
     0
 62
     7
  6
Continuous
370
    -3
390
F
  0
LAYER
  5
55
330
2
100
AcDbSymbolTableRecord
100
AcDbLayerTableRecord
  2
Layer15
 70
     0
 62
     7
  6
Continuous
370
    -3
390
F
  0
LAYER
  5
56
330
2
100
AcDbSymbolTableRecord
100
AcDbLayerTableRecord
  2
Layer16
 70
     0
 62
     7
  6
Continuous
370
    -3
390
F
  0
LAYER
  5
57
330
2
100
AcDbSymbolTableRecord
100
AcDbLayerTableRecord
  2
Layer17
 70
     0
 62
     7
  6
Continuous
370
    -3
390
F
  0
LAYER
  5
58
330
2
100
AcDbSymbolTableRecord
100
AcDbLayerTableRecord
  2
Layer18
 70
     0
 62
     7
  6
Continuous
370
    -3
390
F
  0
LAYER
  5
59
330
2
100
AcDbSymbolTableRecord
100
AcDbLayerTableRecord
  2
Layer19
 70
     0
 62
     7
  6
Continuous
370
    -3
390
F
  0
LAYER
  5
5A
330
2
100
AcDbSymbolTableRecord
100
AcDbLayerTableRecord
  2
Layer20
 70
     0
 62
     7
  6
Continuous
370
    -3
390
F
  0
LAYER
  5
5B
330
2
100
AcDbSymbolTableRecord
100
AcDbLayerTableRecord
  2
Layer21
 70
     0
 62
     7
  6
Continuous
370
    -3
390
F
  0
LAYER
  5
5C
330
2
100
AcDbSymbolTableRecord
100
AcDbLayerTableRecord
  2
Layer22
 70
     0
 62
     7
  6
Continuous
370
    -3
390
F
  0
LAYER
  5
5D
330
2
100
AcDbSymbolTableRecord
100
AcDbLayerTableRecord
  2
Layer23
 70
     0
 62
     7
  6
Continuous
370
    -3
390
F
  0
LAYER
  5
5E
330
2
100
AcDbSymbolTableRecord
100
AcDbLayerTableRecord
  2
Layer24
 70
     0
 62
     7
  6
Continuous
370
    -3
390
F
  0
LAYER
  5
5F
330
2
100
AcDbSymbolTableRecord
100
AcDbLayerTableRecord
  2
Layer25
 70
     0
 62
     7
  6
Continuous
370
    -3
390
F
  0
LAYER
  5
60
330
2
100
AcDbSymbolTableRecord
100
AcDbLayerTableRecord
  2
Layer26
 70
     0
 62
     7
  6
Continuous
370
    -3
390
F
  0
LAYER
  5
61
330
2
100
AcDbSymbolTableRecord
100
AcDbLayerTableRecord
  2
Layer27
 70
     0
 62
     7
  6
Continuous
370
    -3
390
F
  0
LAYER
  5
62
330
2
100
AcDbSymbolTableRecord
100
AcDbLayerTableRecord
  2
Layer28
 70
     0
 62
     7
  6
Continuous
370
    -3
390
F
  0
LAYER
  5
63
330
2
100
AcDbSymbolTableRecord
100
AcDbLayerTableRecord
  2
Layer29
 70
     0
 62
     7
  6
Continuous
370
    -3
390
F
  0
LAYER
  5
64
330
2
100
AcDbSymbolTableRecord
100
AcDbLayerTableRecord
  2
Layer30
 70
     0
 62
     7
  6
Continuous
370
    -3
390
F
  0
LAYER
  5
65
330
2
100
AcDbSymbolTableRecord
100
AcDbLayerTableRecord
  2
Layer31
 70
     0
 62
     7
  6
Continuous
370
    -3
390
F
  0
LAYER
  5
66
330
2
100
AcDbSymbolTableRecord
100
AcDbLayerTableRecord
  2
Layer32
 70
     0
 62
     7
  6
Continuous
370
    -3
390
F
  0
LAYER
  5
67
330
2
100
AcDbSymbolTableRecord
100
AcDbLayerTableRecord
  2
Layer33
 70
     0
 62
     7
  6
Continuous
370
    -3
390
F
  0
LAYER
  5
68
330
2
100
AcDbSymbolTableRecord
100
AcDbLayerTableRecord
  2
Layer34
 70
     0
 62
     7
  6
Continuous
370
    -3
390
F
  0
LAYER
  5
69
330
2
100
AcDbSymbolTableRecord
100
AcDbLayerTableRecord
  2
Layer35
 70
     0
 62
     7
  6
Continuous
370
    -3
390
F
  0
LAYER
  5
6A
330
2
100
AcDbSymbolTableRecord
100
AcDbLayerTableRecord
  2
Layer36
 70
     0
 62
     7
  6
Continuous
370
    -3
390
F
  0
LAYER
  5
6B
330
2
100
AcDbSymbolTableRecord
100
AcDbLayerTableRecord
  2
Layer37
 70
     0
 62
     7
  6
Continuous
370
    -3
390
F
  0
LAYER
  5
6C
330
2
100
AcDbSymbolTableRecord
100
AcDbLayerTableRecord
  2
Layer38
 70
     0
 62
     7
  6
Continuous
370
    -3
390
F
  0
LAYER
  5
6D
330
2
100
AcDbSymbolTableRecord
100
AcDbLayerTableRecord
  2
Layer39
 70
     0
 62
     7
  6
Continuous
370
    -3
390
F
  0
LAYER
  5
6E
330
2
100
AcDbSymbolTableRecord
100
AcDbLayerTableRecord
  2
Layer40
 70
     0
 62
     7
  6
Continuous
370
    -3
390
F
  0
LAYER
  5
6F
330
2
100
AcDbSymbolTableRecord
100
AcDbLayerTableRecord
  2
Layer41
 70
     0
 62
     7
  6
Continuous
370
    -3
390
F
  0
LAYER
  5
70
330
2
100
AcDbSymbolTableRecord
100
AcDbLayerTableRecord
  2
Layer42
 70
     0
 62
     7
  6
Continuous
370
    -3
390
F
  0
LAYER
  5
71
330
2
100
AcDbSymbolTableRecord
100
AcDbLayerTableRecord
  2
Layer43
 70
     0
 62
     7
  6
Continuous
370
    -3
390
F
  0
LAYER
  5
72
330
2
100
AcDbSymbolTableRecord
100
AcDbLayerTableRecord
  2
Layer44
 70
     0
 62
     7
  6
Continuous
370
    -3
390
F
  0
LAYER
  5
73
330
2
100
AcDbSymbolTableRecord
100
AcDbLayerTableRecord
  2
Layer45
 70
     0
 62
     7
  6
Continuous
370
    -3
390
F
  0
LAYER
  5
74
330
2
100
AcDbSymbolTableRecord
100
AcDbLayerTableRecord
  2
Layer46
 70
     0
 62
     7
  6
Continuous
370
    -3
390
F
  0
LAYER
  5
75
330
2
100
AcDbSymbolTableRecord
100
AcDbLayerTableRecord
  2
Layer47
 70
     0
 62
     7
  6
Continuous
370
    -3
390
F
  0
LAYER
  5
76
330
2
100
AcDbSymbolTableRecord
100
AcDbLayerTableRecord
  2
Layer48
 70
     0
 62
     7
  6
Continuous
370
    -3
390
F
  0
LAYER
  5
77
330
2
100
AcDbSymbolTableRecord
100
AcDbLayerTableRecord
  2
Layer49
 70
     0
 62
     7
  6
Continuous
370
    -3
390
F
  0
LAYER
  5
78
330
2
100
AcDbSymbolTableRecord
100
AcDbLayerTableRecord
  2
Layer50
 70
     0
 62
     7
  6
Continuous
370
    -3
390
F
  0
LAYER
  5
79
330
2
100
AcDbSymbolTableRecord
100
AcDbLayerTableRecord
  2
Layer51
 70
     0
 62
     7
  6
Continuous
370
    -3
390
F
  0
LAYER
  5
7A
330
2
100
AcDbSymbolTableRecord
100
AcDbLayerTableRecord
  2
Layer52
 70
     0
 62
     7
  6
Continuous
370
    -3
390
F
  0
LAYER
  5
7B
330
2
100
AcDbSymbolTableRecord
100
AcDbLayerTableRecord
  2
Layer53
 70
     0
 62
     7
  6
Continuous
370
    -3
390
F
  0
LAYER
  5
7C
330
2
100
AcDbSymbolTableRecord
100
AcDbLayerTableRecord
  2
Layer54
 70
     0
 62
     7
  6
Continuous
370
    -3
390
F
  0
LAYER
  5
7D
330
2
100
AcDbSymbolTableRecord
100
AcDbLayerTableRecord
  2
Layer55
 70
     0
 62
     7
  6
Continuous
370
    -3
390
F
  0
LAYER
  5
7E
330
2
100
AcDbSymbolTableRecord
100
AcDbLayerTableRecord
  2
Layer56
 70
     0
 62
     7
  6
Continuous
370
    -3
390
F
  0
LAYER
  5
7F
330
2
100
AcDbSymbolTableRecord
100
AcDbLayerTableRecord
  2
Layer57
 70
     0
 62
     7
  6
Continuous
370
    -3
390
F
  0
LAYER
  5
80
330
2
100
AcDbSymbolTableRecord
100
AcDbLayerTableRecord
  2
Layer58
 70
     0
 62
     7
  6
Continuous
370
    -3
390
F
  0
LAYER
  5
81
330
2
100
AcDbSymbolTableRecord
100
AcDbLayerTableRecord
  2
Layer59
 70
     0
 62
     7
  6
Continuous
370
    -3
390
F
  0
LAYER
  5
82
330
2
100
AcDbSymbolTableRecord
100
AcDbLayerTableRecord
  2
Layer60
 70
     0
 62
     7
  6
Continuous
370
    -3
390
F
  0
LAYER
  5
83
330
2
100
AcDbSymbolTableRecord
100
AcDbLayerTableRecord
  2
Layer61
 70
     0
 62
     7
  6
Continuous
370
    -3
390
F
  0
LAYER
  5
84
330
2
100
AcDbSymbolTableRecord
100
AcDbLayerTableRecord
  2
Layer62
 70
     0
 62
     7
  6
Continuous
370
    -3
390
F
  0
LAYER
  5
85
330
2
100
AcDbSymbolTableRecord
100
AcDbLayerTableRecord
  2
Layer63
 70
     0
 62
     7
  6
Continuous
370
    -3
390
F
  0
LAYER
  5
86
330
2
100
AcDbSymbolTableRecord
100
AcDbLayerTableRecord
  2
Layer64
 70
     0
 62
     7
  6
Continuous
370
    -3
390
F
  0
LAYER
  5
87
330
2
100
AcDbSymbolTableRecord
100
AcDbLayerTableRecord
  2
Layer65
 70
     0
 62
     7
  6
Continuous
370
    -3
390
F
  0
LAYER
  5
88
330
2
100
AcDbSymbolTableRecord
100
AcDbLayerTableRecord
  2
Layer66
 70
     0
 62
     7
  6
Continuous
370
    -3
390
F
  0
LAYER
  5
89
330
2
100
AcDbSymbolTableRecord
100
AcDbLayerTableRecord
  2
Layer67
 70
     0
 62
     7
  6
Continuous
370
    -3
390
F
  0
LAYER
  5
8A
330
2
100
AcDbSymbolTableRecord
100
AcDbLayerTableRecord
  2
Layer68
 70
     0
 62
     7
  6
Continuous
370
    -3
390
F
  0
LAYER
  5
8B
330
2
100
AcDbSymbolTableRecord
100
AcDbLayerTableRecord
  2
Layer69
 70
     0
 62
     7
  6
Continuous
370
    -3
390
F
  0
LAYER
  5
8C
330
2
100
AcDbSymbolTableRecord
100
AcDbLayerTableRecord
  2
Layer70
 70
     0
 62
     7
  6
Continuous
370
    -3
390
F
  0
LAYER
  5
8D
330
2
100
AcDbSymbolTableRecord
100
AcDbLayerTableRecord
  2
Layer71
 70
     0
 62
     7
  6
Continuous
370
    -3
390
F
  0
LAYER
  5
8E
330
2
100
AcDbSymbolTableRecord
100
AcDbLayerTableRecord
  2
Layer72
 70
     0
 62
     7
  6
Continuous
370
    -3
390
F
  0
LAYER
  5
8F
330
2
100
AcDbSymbolTableRecord
100
AcDbLayerTableRecord
  2
Layer73
 70
     0
 62
     7
  6
Continuous
370
    -3
390
F
  0
LAYER
  5
90
330
2
100
AcDbSymbolTableRecord
100
AcDbLayerTableRecord
  2
Layer74
 70
     0
 62
     7
  6
Continuous
370
    -3
390
F
  0
LAYER
  5
91
330
2
100
AcDbSymbolTableRecord
100
AcDbLayerTableRecord
  2
Layer75
 70
     0
 62
     7
  6
Continuous
370
    -3
390
F
  0
LAYER
  5
92
330
2
100
AcDbSymbolTableRecord
100
AcDbLayerTableRecord
  2
Layer76
 70
     0
 62
     7
  6
Continuous
370
    -3
390
F
  0
LAYER
  5
93
330
2
100
AcDbSymbolTableRecord
100
AcDbLayerTableRecord
  2
Layer77
 70
     0
 62
     7
  6
Continuous
370
    -3
390
F
  0
LAYER
  5
94
330
2
100
AcDbSymbolTableRecord
100
AcDbLayerTableRecord
  2
Layer78
 70
     0
 62
     7
  6
Continuous
370
    -3
390
F
  0
LAYER
  5
95
330
2
100
AcDbSymbolTableRecord
100
AcDbLayerTableRecord
  2
Layer79
 70
     0
 62
     7
  6
Continuous
370
    -3
390
F
  0
LAYER
  5
96
330
2
100
AcDbSymbolTableRecord
100
AcDbLayerTableRecord
  2
Layer80
 70
     0
 62
     7
  6
Continuous
370
    -3
390
F
  0
LAYER
  5
97
330
2
100
AcDbSymbolTableRecord
100
AcDbLayerTableRecord
  2
Layer81
 70
     0
 62
     7
  6
Continuous
370
    -3
390
F
  0
LAYER
  5
98
330
2
100
AcDbSymbolTableRecord
100
AcDbLayerTableRecord
  2
Layer82
 70
     0
 62
     7
  6
Continuous
370
    -3
390
F
  0
LAYER
  5
99
330
2
100
AcDbSymbolTableRecord
100
AcDbLayerTableRecord
  2
Layer83
 70
     0
 62
     7
  6
Continuous
370
    -3
390
F
  0
LAYER
  5
9A
330
2
100
AcDbSymbolTableRecord
100
AcDbLayerTableRecord
  2
Layer84
 70
     0
 62
     7
  6
Continuous
370
    -3
390
F
  0
LAYER
  5
9B
330
2
100
AcDbSymbolTableRecord
100
AcDbLayerTableRecord
  2
Layer85
 70
     0
 62
     7
  6
Continuous
370
    -3
390
F
  0
LAYER
  5
9C
330
2
100
AcDbSymbolTableRecord
100
AcDbLayerTableRecord
  2
Layer86
 70
     0
 62
     7
  6
Continuous
370
    -3
390
F
  0
LAYER
  5
9D
330
2
100
AcDbSymbolTableRecord
100
AcDbLayerTableRecord
  2
Layer87
 70
     0
 62
     7
  6
Continuous
370
    -3
390
F
  0
LAYER
  5
9E
330
2
100
AcDbSymbolTableRecord
100
AcDbLayerTableRecord
  2
Layer88
 70
     0
 62
     7
  6
Continuous
370
    -3
390
F
  0
LAYER
  5
9F
330
2
100
AcDbSymbolTableRecord
100
AcDbLayerTableRecord
  2
Layer89
 70
     0
 62
     7
  6
Continuous
370
    -3
390
F
  0
LAYER
  5
A0
330
2
100
AcDbSymbolTableRecord
100
AcDbLayerTableRecord
  2
Layer90
 70
     0
 62
     7
  6
Continuous
370
    -3
390
F
  0
LAYER
  5
A1
330
2
100
AcDbSymbolTableRecord
100
AcDbLayerTableRecord
  2
Layer91
 70
     0
 62
     7
  6
Continuous
370
    -3
390
F
  0
LAYER
  5
A2
330
2
100
AcDbSymbolTableRecord
100
AcDbLayerTableRecord
  2
Layer92
 70
     0
 62
     7
  6
Continuous
370
    -3
390
F
  0
LAYER
  5
A3
330
2
100
AcDbSymbolTableRecord
100
AcDbLayerTableRecord
  2
Layer93
 70
     0
 62
     7
  6
Continuous
370
    -3
390
F
  0
LAYER
  5
A4
330
2
100
AcDbSymbolTableRecord
100
AcDbLayerTableRecord
  2
Layer94
 70
     0
 62
     7
  6
Continuous
370
    -3
390
F
  0
LAYER
  5
A5
330
2
100
AcDbSymbolTableRecord
100
AcDbLayerTableRecord
  2
Layer95
 70
     0
 62
     7
  6
Continuous
370
    -3
390
F
  0
LAYER
  5
A6
330
2
100
AcDbSymbolTableRecord
100
AcDbLayerTableRecord
  2
Layer96
 70
     0
 62
     7
  6
Continuous
370
    -3
390
F
  0
LAYER
  5
A7
330
2
100
AcDbSymbolTableRecord
100
AcDbLayerTableRecord
  2
Layer97
 70
     0
 62
     7
  6
Continuous
370
    -3
390
F
  0
LAYER
  5
A8
330
2
100
AcDbSymbolTableRecord
100
AcDbLayerTableRecord
  2
Layer98
 70
     0
 62
     7
  6
Continuous
370
    -3
390
F
  0
LAYER
  5
A9
330
2
100
AcDbSymbolTableRecord
100
AcDbLayerTableRecord
  2
Layer99
 70
     0
 62
     7
  6
Continuous
370
    -3
390
F
  0
LAYER
  5
AA
330
2
100
AcDbSymbolTableRecord
100
AcDbLayerTableRecord
  2
Layer100
 70
     0
 62
     7
  6
Continuous
370
    -3
390
F
  0
LAYER
  5
AB
330
2
100
AcDbSymbolTableRecord
100
AcDbLayerTableRecord
  2
Layer101
 70
     0
 62
     7
  6
Continuous
370
    -3
390
F
  0
LAYER
  5
AC
330
2
100
AcDbSymbolTableRecord
100
AcDbLayerTableRecord
  2
Layer102
 70
     0
 62
     7
  6
Continuous
370
    -3
390
F
  0
LAYER
  5
AD
330
2
100
AcDbSymbolTableRecord
100
AcDbLayerTableRecord
  2
Layer103
 70
     0
 62
     7
  6
Continuous
370
    -3
390
F
  0
LAYER
  5
AE
330
2
100
AcDbSymbolTableRecord
100
AcDbLayerTableRecord
  2
Layer104
 70
     0
 62
     7
  6
Continuous
370
    -3
390
F
  0
LAYER
  5
AF
330
2
100
AcDbSymbolTableRecord
100
AcDbLayerTableRecord
  2
Layer105
 70
     0
 62
     7
  6
Continuous
370
    -3
390
F
  0
LAYER
  5
B0
330
2
100
AcDbSymbolTableRecord
100
AcDbLayerTableRecord
  2
Layer106
 70
     0
 62
     7
  6
Continuous
370
    -3
390
F
  0
LAYER
  5
B1
330
2
100
AcDbSymbolTableRecord
100
AcDbLayerTableRecord
  2
Layer107
 70
     0
 62
     7
  6
Continuous
370
    -3
390
F
  0
LAYER
  5
B2
330
2
100
AcDbSymbolTableRecord
100
AcDbLayerTableRecord
  2
Layer108
 70
     0
 62
     7
  6
Continuous
370
    -3
390
F
  0
LAYER
  5
B3
330
2
100
AcDbSymbolTableRecord
100
AcDbLayerTableRecord
  2
Layer109
 70
     0
 62
     7
  6
Continuous
370
    -3
390
F
  0
LAYER
  5
B4
330
2
100
AcDbSymbolTableRecord
100
AcDbLayerTableRecord
  2
Layer110
 70
     0
 62
     7
  6
Continuous
370
    -3
390
F
  0
LAYER
  5
B5
330
2
100
AcDbSymbolTableRecord
100
AcDbLayerTableRecord
  2
Layer111
 70
     0
 62
     7
  6
Continuous
370
    -3
390
F
  0
LAYER
  5
B6
330
2
100
AcDbSymbolTableRecord
100
AcDbLayerTableRecord
  2
Layer112
 70
     0
 62
     7
  6
Continuous
370
    -3
390
F
  0
LAYER
  5
B7
330
2
100
AcDbSymbolTableRecord
100
AcDbLayerTableRecord
  2
Layer113
 70
     0
 62
     7
  6
Continuous
370
    -3
390
F
  0
LAYER
  5
B8
330
2
100
AcDbSymbolTableRecord
100
AcDbLayerTableRecord
  2
Layer114
 70
     0
 62
     7
  6
Continuous
370
    -3
390
F
  0
LAYER
  5
B9
330
2
100
AcDbSymbolTableRecord
100
AcDbLayerTableRecord
  2
Layer115
 70
     0
 62
     7
  6
Continuous
370
    -3
390
F
  0
LAYER
  5
BA
330
2
100
AcDbSymbolTableRecord
100
AcDbLayerTableRecord
  2
Layer116
 70
     0
 62
     7
  6
Continuous
370
    -3
390
F
  0
LAYER
  5
BB
330
2
100
AcDbSymbolTableRecord
100
AcDbLayerTableRecord
  2
Layer117
 70
     0
 62
     7
  6
Continuous
370
    -3
390
F
  0
LAYER
  5
BC
330
2
100
AcDbSymbolTableRecord
100
AcDbLayerTableRecord
  2
Layer118
 70
     0
 62
     7
  6
Continuous
370
    -3
390
F
  0
LAYER
  5
BD
330
2
100
AcDbSymbolTableRecord
100
AcDbLayerTableRecord
  2
Layer119
 70
     0
 62
     7
  6
Continuous
370
    -3
390
F
  0
LAYER
  5
BE
330
2
100
AcDbSymbolTableRecord
100
AcDbLayerTableRecord
  2
Layer120
 70
     0
 62
     7
  6
Continuous
370
    -3
390
F
  0
LAYER
  5
BF
330
2
100
AcDbSymbolTableRecord
100
AcDbLayerTableRecord
  2
Layer121
 70
     0
 62
     7
  6
Continuous
370
    -3
390
F
  0
LAYER
  5
C0
330
2
100
AcDbSymbolTableRecord
100
AcDbLayerTableRecord
  2
Layer122
 70
     0
 62
     7
  6
Continuous
370
    -3
390
F
  0
LAYER
  5
C1
330
2
100
AcDbSymbolTableRecord
100
AcDbLayerTableRecord
  2
Layer123
 70
     0
 62
     7
  6
Continuous
370
    -3
390
F
  0
LAYER
  5
C2
330
2
100
AcDbSymbolTableRecord
100
AcDbLayerTableRecord
  2
Layer124
 70
     0
 62
     7
  6
Continuous
370
    -3
390
F
  0
LAYER
  5
C3
330
2
100
AcDbSymbolTableRecord
100
AcDbLayerTableRecord
  2
Layer125
 70
     0
 62
     7
  6
Continuous
370
    -3
390
F
  0
LAYER
  5
C4
330
2
100
AcDbSymbolTableRecord
100
AcDbLayerTableRecord
  2
Layer126
 70
     0
 62
     7
  6
Continuous
370
    -3
390
F
  0
LAYER
  5
C5
330
2
100
AcDbSymbolTableRecord
100
AcDbLayerTableRecord
  2
Layer127
 70
     0
 62
     7
  6
Continuous
370
    -3
390
F
  0
LAYER
  5
C6
330
2
100
AcDbSymbolTableRecord
100
AcDbLayerTableRecord
  2
Layer128
 70
     0
 62
     7
  6
Continuous
370
    -3
390
F
  0
LAYER
  5
C7
330
2
100
AcDbSymbolTableRecord
100
AcDbLayerTableRecord
  2
Layer129
 70
     0
 62
     7
  6
Continuous
370
    -3
390
F
  0
LAYER
  5
C8
330
2
100
AcDbSymbolTableRecord
100
AcDbLayerTableRecord
  2
Layer130
 70
     0
 62
     7
  6
Continuous
370
    -3
390
F
  0
LAYER
  5
C9
330
2
100
AcDbSymbolTableRecord
100
AcDbLayerTableRecord
  2
Layer131
 70
     0
 62
     7
  6
Continuous
370
    -3
390
F
  0
LAYER
  5
CA
330
2
100
AcDbSymbolTableRecord
100
AcDbLayerTableRecord
  2
Layer132
 70
     0
 62
     7
  6
Continuous
370
    -3
390
F
  0
LAYER
  5
CB
330
2
100
AcDbSymbolTableRecord
100
AcDbLayerTableRecord
  2
Layer133
 70
     0
 62
     7
  6
Continuous
370
    -3
390
F
  0
LAYER
  5
CC
330
2
100
AcDbSymbolTableRecord
100
AcDbLayerTableRecord
  2
Layer134
 70
     0
 62
     7
  6
Continuous
370
    -3
390
F
  0
LAYER
  5
CD
330
2
100
AcDbSymbolTableRecord
100
AcDbLayerTableRecord
  2
Layer135
 70
     0
 62
     7
  6
Continuous
370
    -3
390
F
  0
LAYER
  5
CE
330
2
100
AcDbSymbolTableRecord
100
AcDbLayerTableRecord
  2
Layer136
 70
     0
 62
     7
  6
Continuous
370
    -3
390
F
  0
LAYER
  5
CF
330
2
100
AcDbSymbolTableRecord
100
AcDbLayerTableRecord
  2
Layer137
 70
     0
 62
     7
  6
Continuous
370
    -3
390
F
  0
LAYER
  5
D0
330
2
100
AcDbSymbolTableRecord
100
AcDbLayerTableRecord
  2
Layer138
 70
     0
 62
     7
  6
Continuous
370
    -3
390
F
  0
LAYER
  5
D1
330
2
100
AcDbSymbolTableRecord
100
AcDbLayerTableRecord
  2
Layer139
 70
     0
 62
     7
  6
Continuous
370
    -3
390
F
  0
LAYER
  5
D2
330
2
100
AcDbSymbolTableRecord
100
AcDbLayerTableRecord
  2
Layer140
 70
     0
 62
     7
  6
Continuous
370
    -3
390
F
  0
LAYER
  5
D3
330
2
100
AcDbSymbolTableRecord
100
AcDbLayerTableRecord
  2
Layer141
 70
     0
 62
     7
  6
Continuous
370
    -3
390
F
  0
LAYER
  5
D4
330
2
100
AcDbSymbolTableRecord
100
AcDbLayerTableRecord
  2
Layer142
 70
     0
 62
     7
  6
Continuous
370
    -3
390
F
  0
LAYER
  5
D5
330
2
100
AcDbSymbolTableRecord
100
AcDbLayerTableRecord
  2
Layer143
 70
     0
 62
     7
  6
Continuous
370
    -3
390
F
  0
LAYER
  5
D6
330
2
100
AcDbSymbolTableRecord
100
AcDbLayerTableRecord
  2
Layer144
 70
     0
 62
     7
  6
Continuous
370
    -3
390
F
  0
LAYER
  5
D7
330
2
100
AcDbSymbolTableRecord
100
AcDbLayerTableRecord
  2
Layer145
 70
     0
 62
     7
  6
Continuous
370
    -3
390
F
  0
LAYER
  5
D8
330
2
100
AcDbSymbolTableRecord
100
AcDbLayerTableRecord
  2
Layer146
 70
     0
 62
     7
  6
Continuous
370
    -3
390
F
  0
LAYER
  5
D9
330
2
100
AcDbSymbolTableRecord
100
AcDbLayerTableRecord
  2
Layer147
 70
     0
 62
     7
  6
Continuous
370
    -3
390
F
  0
LAYER
  5
DA
330
2
100
AcDbSymbolTableRecord
100
AcDbLayerTableRecord
  2
Layer148
 70
     0
 62
     7
  6
Continuous
370
    -3
390
F
  0
LAYER
  5
DB
330
2
100
AcDbSymbolTableRecord
100
AcDbLayerTableRecord
  2
Layer149
 70
     0
 62
     7
  6
Continuous
370
    -3
390
F
  0
LAYER
  5
DC
330
2
100
AcDbSymbolTableRecord
100
AcDbLayerTableRecord
  2
Layer150
 70
     0
 62
     7
  6
Continuous
370
    -3
390
F
  0
LAYER
  5
DD
330
2
100
AcDbSymbolTableRecord
100
AcDbLayerTableRecord
  2
Layer151
 70
     0
 62
     7
  6
Continuous
370
    -3
390
F
  0
LAYER
  5
DE
330
2
100
AcDbSymbolTableRecord
100
AcDbLayerTableRecord
  2
Layer152
 70
     0
 62
     7
  6
Continuous
370
    -3
390
F
  0
LAYER
  5
DF
330
2
100
AcDbSymbolTableRecord
100
AcDbLayerTableRecord
  2
Layer153
 70
     0
 62
     7
  6
Continuous
370
    -3
390
F
  0
LAYER
  5
E0
330
2
100
AcDbSymbolTableRecord
100
AcDbLayerTableRecord
  2
Layer154
 70
     0
 62
     7
  6
Continuous
370
    -3
390
F
  0
LAYER
  5
E1
330
2
100
AcDbSymbolTableRecord
100
AcDbLayerTableRecord
  2
Layer155
 70
     0
 62
     7
  6
Continuous
370
    -3
390
F
  0
LAYER
  5
E2
330
2
100
AcDbSymbolTableRecord
100
AcDbLayerTableRecord
  2
Layer156
 70
     0
 62
     7
  6
Continuous
370
    -3
390
F
  0
LAYER
  5
E3
330
2
100
AcDbSymbolTableRecord
100
AcDbLayerTableRecord
  2
Layer157
 70
     0
 62
     7
  6
Continuous
370
    -3
390
F
  0
LAYER
  5
E4
330
2
100
AcDbSymbolTableRecord
100
AcDbLayerTableRecord
  2
Layer158
 70
     0
 62
     7
  6
Continuous
370
    -3
390
F
  0
LAYER
  5
E5
330
2
100
AcDbSymbolTableRecord
100
AcDbLayerTableRecord
  2
Layer159
 70
     0
 62
     7
  6
Continuous
370
    -3
390
F
  0
LAYER
  5
E6
330
2
100
AcDbSymbolTableRecord
100
AcDbLayerTableRecord
  2
Layer160
 70
     0
 62
     7
  6
Continuous
370
    -3
390
F
  0
LAYER
  5
E7
330
2
100
AcDbSymbolTableRecord
100
AcDbLayerTableRecord
  2
Layer161
 70
     0
 62
     7
  6
Continuous
370
    -3
390
F
  0
LAYER
  5
E8
330
2
100
AcDbSymbolTableRecord
100
AcDbLayerTableRecord
  2
Layer162
 70
     0
 62
     7
  6
Continuous
370
    -3
390
F
  0
LAYER
  5
E9
330
2
100
AcDbSymbolTableRecord
100
AcDbLayerTableRecord
  2
Layer163
 70
     0
 62
     7
  6
Continuous
370
    -3
390
F
  0
LAYER
  5
EA
330
2
100
AcDbSymbolTableRecord
100
AcDbLayerTableRecord
  2
Layer164
 70
     0
 62
     7
  6
Continuous
370
    -3
390
F
  0
LAYER
  5
EB
330
2
100
AcDbSymbolTableRecord
100
AcDbLayerTableRecord
  2
Layer165
 70
     0
 62
     7
  6
Continuous
370
    -3
390
F
  0
LAYER
  5
EC
330
2
100
AcDbSymbolTableRecord
100
AcDbLayerTableRecord
  2
Layer166
 70
     0
 62
     7
  6
Continuous
370
    -3
390
F
  0
LAYER
  5
ED
330
2
100
AcDbSymbolTableRecord
100
AcDbLayerTableRecord
  2
Layer167
 70
     0
 62
     7
  6
Continuous
370
    -3
390
F
  0
LAYER
  5
EE
330
2
100
AcDbSymbolTableRecord
100
AcDbLayerTableRecord
  2
Layer168
 70
     0
 62
     7
  6
Continuous
370
    -3
390
F
  0
LAYER
  5
EF
330
2
100
AcDbSymbolTableRecord
100
AcDbLayerTableRecord
  2
Layer169
 70
     0
 62
     7
  6
Continuous
370
    -3
390
F
  0
LAYER
  5
F0
330
2
100
AcDbSymbolTableRecord
100
AcDbLayerTableRecord
  2
Layer170
 70
     0
 62
     7
  6
Continuous
370
    -3
390
F
  0
LAYER
  5
F1
330
2
100
AcDbSymbolTableRecord
100
AcDbLayerTableRecord
  2
Layer171
 70
     0
 62
     7
  6
Continuous
370
    -3
390
F
  0
LAYER
  5
F2
330
2
100
AcDbSymbolTableRecord
100
AcDbLayerTableRecord
  2
Layer172
 70
     0
 62
     7
  6
Continuous
370
    -3
390
F
  0
LAYER
  5
F3
330
2
100
AcDbSymbolTableRecord
100
AcDbLayerTableRecord
  2
Layer173
 70
     0
 62
     7
  6
Continuous
370
    -3
390
F
  0
LAYER
  5
F4
330
2
100
AcDbSymbolTableRecord
100
AcDbLayerTableRecord
  2
Layer174
 70
     0
 62
     7
  6
Continuous
370
    -3
390
F
  0
LAYER
  5
F5
330
2
100
AcDbSymbolTableRecord
100
AcDbLayerTableRecord
  2
Layer175
 70
     0
 62
     7
  6
Continuous
370
    -3
390
F
  0
LAYER
  5
F6
330
2
100
AcDbSymbolTableRecord
100
AcDbLayerTableRecord
  2
Layer176
 70
     0
 62
     7
  6
Continuous
370
    -3
390
F
  0
LAYER
  5
F7
330
2
100
AcDbSymbolTableRecord
100
AcDbLayerTableRecord
  2
Layer177
 70
     0
 62
     7
  6
Continuous
370
    -3
390
F
  0
LAYER
  5
F8
330
2
100
AcDbSymbolTableRecord
100
AcDbLayerTableRecord
  2
Layer178
 70
     0
 62
     7
  6
Continuous
370
    -3
390
F
  0
LAYER
  5
F9
330
2
100
AcDbSymbolTableRecord
100
AcDbLayerTableRecord
  2
Layer179
 70
     0
 62
     7
  6
Continuous
370
    -3
390
F
  0
LAYER
  5
FA
330
2
100
AcDbSymbolTableRecord
100
AcDbLayerTableRecord
  2
Layer180
 70
     0
 62
     7
  6
Continuous
370
    -3
390
F
  0
LAYER
  5
FB
330
2
100
AcDbSymbolTableRecord
100
AcDbLayerTableRecord
  2
Layer181
 70
     0
 62
     7
  6
Continuous
370
    -3
390
F
  0
LAYER
  5
FC
330
2
100
AcDbSymbolTableRecord
100
AcDbLayerTableRecord
  2
Layer182
 70
     0
 62
     7
  6
Continuous
370
    -3
390
F
  0
LAYER
  5
FD
330
2
100
AcDbSymbolTableRecord
100
AcDbLayerTableRecord
  2
Layer183
 70
     0
 62
     7
  6
Continuous
370
    -3
390
F
  0
LAYER
  5
FE
330
2
100
AcDbSymbolTableRecord
100
AcDbLayerTableRecord
  2
Layer184
 70
     0
 62
     7
  6
Continuous
370
    -3
390
F
  0
LAYER
  5
FF
330
2
100
AcDbSymbolTableRecord
100
AcDbLayerTableRecord
  2
Layer185
 70
     0
 62
     7
  6
Continuous
370
    -3
390
F
  0
LAYER
  5
100
330
2
100
AcDbSymbolTableRecord
100
AcDbLayerTableRecord
  2
Layer186
 70
     0
 62
     7
  6
Continuous
370
    -3
390
F
  0
LAYER
  5
101
330
2
100
AcDbSymbolTableRecord
100
AcDbLayerTableRecord
  2
Layer187
 70
     0
 62
     7
  6
Continuous
370
    -3
390
F
  0
LAYER
  5
102
330
2
100
AcDbSymbolTableRecord
100
AcDbLayerTableRecord
  2
Layer188
 70
     0
 62
     7
  6
Continuous
370
    -3
390
F
  0
LAYER
  5
103
330
2
100
AcDbSymbolTableRecord
100
AcDbLayerTableRecord
  2
Layer189
 70
     0
 62
     7
  6
Continuous
370
    -3
390
F
  0
LAYER
  5
104
330
2
100
AcDbSymbolTableRecord
100
AcDbLayerTableRecord
  2
Layer190
 70
     0
 62
     7
  6
Continuous
370
    -3
390
F
  0
LAYER
  5
105
330
2
100
AcDbSymbolTableRecord
100
AcDbLayerTableRecord
  2
Layer191
 70
     0
 62
     7
  6
Continuous
370
    -3
390
F
  0
LAYER
  5
106
330
2
100
AcDbSymbolTableRecord
100
AcDbLayerTableRecord
  2
Layer192
 70
     0
 62
     7
  6
Continuous
370
    -3
390
F
  0
LAYER
  5
107
330
2
100
AcDbSymbolTableRecord
100
AcDbLayerTableRecord
  2
Layer193
 70
     0
 62
     7
  6
Continuous
370
    -3
390
F
  0
LAYER
  5
108
330
2
100
AcDbSymbolTableRecord
100
AcDbLayerTableRecord
  2
Layer194
 70
     0
 62
     7
  6
Continuous
370
    -3
390
F
  0
LAYER
  5
109
330
2
100
AcDbSymbolTableRecord
100
AcDbLayerTableRecord
  2
Layer195
 70
     0
 62
     7
  6
Continuous
370
    -3
390
F
  0
LAYER
  5
10A
330
2
100
AcDbSymbolTableRecord
100
AcDbLayerTableRecord
  2
Layer196
 70
     0
 62
     7
  6
Continuous
370
    -3
390
F
  0
LAYER
  5
10B
330
2
100
AcDbSymbolTableRecord
100
AcDbLayerTableRecord
  2
Layer197
 70
     0
 62
     7
  6
Continuous
370
    -3
390
F
  0
LAYER
  5
10C
330
2
100
AcDbSymbolTableRecord
100
AcDbLayerTableRecord
  2
Layer198
 70
     0
 62
     7
  6
Continuous
370
    -3
390
F
  0
LAYER
  5
10D
330
2
100
AcDbSymbolTableRecord
100
AcDbLayerTableRecord
  2
Layer199
 70
     0
 62
     7
  6
Continuous
370
    -3
390
F
  0
LAYER
  5
10E
330
2
100
AcDbSymbolTableRecord
100
AcDbLayerTableRecord
  2
Layer200
 70
     0
 62
     7
  6
Continuous
370
    -3
390
F
  0
LAYER
  5
10F
330
2
100
AcDbSymbolTableRecord
100
AcDbLayerTableRecord
  2
Layer201
 70
     0
 62
     7
  6
Continuous
370
    -3
390
F
  0
LAYER
  5
110
330
2
100
AcDbSymbolTableRecord
100
AcDbLayerTableRecord
  2
Layer202
 70
     0
 62
     7
  6
Continuous
370
    -3
390
F
  0
LAYER
  5
111
330
2
100
AcDbSymbolTableRecord
100
AcDbLayerTableRecord
  2
Layer203
 70
     0
 62
     7
  6
Continuous
370
    -3
390
F
  0
LAYER
  5
112
330
2
100
AcDbSymbolTableRecord
100
AcDbLayerTableRecord
  2
Layer204
 70
     0
 62
     7
  6
Continuous
370
    -3
390
F
  0
LAYER
  5
113
330
2
100
AcDbSymbolTableRecord
100
AcDbLayerTableRecord
  2
Layer205
 70
     0
 62
     7
  6
Continuous
370
    -3
390
F
  0
LAYER
  5
114
330
2
100
AcDbSymbolTableRecord
100
AcDbLayerTableRecord
  2
Layer206
 70
     0
 62
     7
  6
Continuous
370
    -3
390
F
  0
LAYER
  5
115
330
2
100
AcDbSymbolTableRecord
100
AcDbLayerTableRecord
  2
Layer207
 70
     0
 62
     7
  6
Continuous
370
    -3
390
F
  0
LAYER
  5
116
330
2
100
AcDbSymbolTableRecord
100
AcDbLayerTableRecord
  2
Layer208
 70
     0
 62
     7
  6
Continuous
370
    -3
390
F
  0
LAYER
  5
117
330
2
100
AcDbSymbolTableRecord
100
AcDbLayerTableRecord
  2
Layer209
 70
     0
 62
     7
  6
Continuous
370
    -3
390
F
  0
LAYER
  5
118
330
2
100
AcDbSymbolTableRecord
100
AcDbLayerTableRecord
  2
Layer210
 70
     0
 62
     7
  6
Continuous
370
    -3
390
F
  0
LAYER
  5
119
330
2
100
AcDbSymbolTableRecord
100
AcDbLayerTableRecord
  2
Layer211
 70
     0
 62
     7
  6
Continuous
370
    -3
390
F
  0
LAYER
  5
11A
330
2
100
AcDbSymbolTableRecord
100
AcDbLayerTableRecord
  2
Layer212
 70
     0
 62
     7
  6
Continuous
370
    -3
390
F
  0
LAYER
  5
11B
330
2
100
AcDbSymbolTableRecord
100
AcDbLayerTableRecord
  2
Layer213
 70
     0
 62
     7
  6
Continuous
370
    -3
390
F
  0
LAYER
  5
11C
330
2
100
AcDbSymbolTableRecord
100
AcDbLayerTableRecord
  2
Layer214
 70
     0
 62
     7
  6
Continuous
370
    -3
390
F
  0
LAYER
  5
11D
330
2
100
AcDbSymbolTableRecord
100
AcDbLayerTableRecord
  2
Layer215
 70
     0
 62
     7
  6
Continuous
370
    -3
390
F
  0
LAYER
  5
11E
330
2
100
AcDbSymbolTableRecord
100
AcDbLayerTableRecord
  2
Layer216
 70
     0
 62
     7
  6
Continuous
370
    -3
390
F
  0
LAYER
  5
11F
330
2
100
AcDbSymbolTableRecord
100
AcDbLayerTableRecord
  2
Layer217
 70
     0
 62
     7
  6
Continuous
370
    -3
390
F
  0
LAYER
  5
120
330
2
100
AcDbSymbolTableRecord
100
AcDbLayerTableRecord
  2
Layer218
 70
     0
 62
     7
  6
Continuous
370
    -3
390
F
  0
LAYER
  5
121
330
2
100
AcDbSymbolTableRecord
100
AcDbLayerTableRecord
  2
Layer219
 70
     0
 62
     7
  6
Continuous
370
    -3
390
F
  0
LAYER
  5
122
330
2
100
AcDbSymbolTableRecord
100
AcDbLayerTableRecord
  2
Layer220
 70
     0
 62
     7
  6
Continuous
370
    -3
390
F
  0
LAYER
  5
123
330
2
100
AcDbSymbolTableRecord
100
AcDbLayerTableRecord
  2
Layer221
 70
     0
 62
     7
  6
Continuous
370
    -3
390
F
  0
LAYER
  5
124
330
2
100
AcDbSymbolTableRecord
100
AcDbLayerTableRecord
  2
Layer222
 70
     0
 62
     7
  6
Continuous
370
    -3
390
F
  0
LAYER
  5
125
330
2
100
AcDbSymbolTableRecord
100
AcDbLayerTableRecord
  2
Layer223
 70
     0
 62
     7
  6
Continuous
370
    -3
390
F
  0
LAYER
  5
126
330
2
100
AcDbSymbolTableRecord
100
AcDbLayerTableRecord
  2
Layer224
 70
     0
 62
     7
  6
Continuous
370
    -3
390
F
  0
LAYER
  5
127
330
2
100
AcDbSymbolTableRecord
100
AcDbLayerTableRecord
  2
Layer225
 70
     0
 62
     7
  6
Continuous
370
    -3
390
F
  0
LAYER
  5
128
330
2
100
AcDbSymbolTableRecord
100
AcDbLayerTableRecord
  2
Layer226
 70
     0
 62
     7
  6
Continuous
370
    -3
390
F
  0
LAYER
  5
129
330
2
100
AcDbSymbolTableRecord
100
AcDbLayerTableRecord
  2
Layer227
 70
     0
 62
     7
  6
Continuous
370
    -3
390
F
  0
LAYER
  5
12A
330
2
100
AcDbSymbolTableRecord
100
AcDbLayerTableRecord
  2
Layer228
 70
     0
 62
     7
  6
Continuous
370
    -3
390
F
  0
LAYER
  5
12B
330
2
100
AcDbSymbolTableRecord
100
AcDbLayerTableRecord
  2
Layer229
 70
     0
 62
     7
  6
Continuous
370
    -3
390
F
  0
LAYER
  5
12C
330
2
100
AcDbSymbolTableRecord
100
AcDbLayerTableRecord
  2
Layer230
 70
     0
 62
     7
  6
Continuous
370
    -3
390
F
  0
LAYER
  5
12D
330
2
100
AcDbSymbolTableRecord
100
AcDbLayerTableRecord
  2
Layer231
 70
     0
 62
     7
  6
Continuous
370
    -3
390
F
  0
LAYER
  5
12E
330
2
100
AcDbSymbolTableRecord
100
AcDbLayerTableRecord
  2
Layer232
 70
     0
 62
     7
  6
Continuous
370
    -3
390
F
  0
LAYER
  5
12F
330
2
100
AcDbSymbolTableRecord
100
AcDbLayerTableRecord
  2
Layer233
 70
     0
 62
     7
  6
Continuous
370
    -3
390
F
  0
LAYER
  5
130
330
2
100
AcDbSymbolTableRecord
100
AcDbLayerTableRecord
  2
Layer234
 70
     0
 62
     7
  6
Continuous
370
    -3
390
F
  0
LAYER
  5
131
330
2
100
AcDbSymbolTableRecord
100
AcDbLayerTableRecord
  2
Layer235
 70
     0
 62
     7
  6
Continuous
370
    -3
390
F
  0
LAYER
  5
132
330
2
100
AcDbSymbolTableRecord
100
AcDbLayerTableRecord
  2
Layer236
 70
     0
 62
     7
  6
Continuous
370
    -3
390
F
  0
LAYER
  5
133
330
2
100
AcDbSymbolTableRecord
100
AcDbLayerTableRecord
  2
Layer237
 70
     0
 62
     7
  6
Continuous
370
    -3
390
F
  0
LAYER
  5
134
330
2
100
AcDbSymbolTableRecord
100
AcDbLayerTableRecord
  2
Layer238
 70
     0
 62
     7
  6
Continuous
370
    -3
390
F
  0
LAYER
  5
135
330
2
100
AcDbSymbolTableRecord
100
AcDbLayerTableRecord
  2
Layer239
 70
     0
 62
     7
  6
Continuous
370
    -3
390
F
  0
LAYER
  5
136
330
2
100
AcDbSymbolTableRecord
100
AcDbLayerTableRecord
  2
Layer240
 70
     0
 62
     7
  6
Continuous
370
    -3
390
F
  0
LAYER
  5
137
330
2
100
AcDbSymbolTableRecord
100
AcDbLayerTableRecord
  2
Layer241
 70
     0
 62
     7
  6
Continuous
370
    -3
390
F
  0
LAYER
  5
138
330
2
100
AcDbSymbolTableRecord
100
AcDbLayerTableRecord
  2
Layer242
 70
     0
 62
     7
  6
Continuous
370
    -3
390
F
  0
LAYER
  5
139
330
2
100
AcDbSymbolTableRecord
100
AcDbLayerTableRecord
  2
Layer243
 70
     0
 62
     7
  6
Continuous
370
    -3
390
F
  0
LAYER
  5
13A
330
2
100
AcDbSymbolTableRecord
100
AcDbLayerTableRecord
  2
Layer244
 70
     0
 62
     7
  6
Continuous
370
    -3
390
F
  0
LAYER
  5
13B
330
2
100
AcDbSymbolTableRecord
100
AcDbLayerTableRecord
  2
Layer245
 70
     0
 62
     7
  6
Continuous
370
    -3
390
F
  0
LAYER
  5
13C
330
2
100
AcDbSymbolTableRecord
100
AcDbLayerTableRecord
  2
Layer246
 70
     0
 62
     7
  6
Continuous
370
    -3
390
F
  0
LAYER
  5
13D
330
2
100
AcDbSymbolTableRecord
100
AcDbLayerTableRecord
  2
Layer247
 70
     0
 62
     7
  6
Continuous
370
    -3
390
F
  0
LAYER
  5
13E
330
2
100
AcDbSymbolTableRecord
100
AcDbLayerTableRecord
  2
Layer248
 70
     0
 62
     7
  6
Continuous
370
    -3
390
F
  0
LAYER
  5
13F
330
2
100
AcDbSymbolTableRecord
100
AcDbLayerTableRecord
  2
Layer249
 70
     0
 62
     7
  6
Continuous
370
    -3
390
F
  0
LAYER
  5
140
330
2
100
AcDbSymbolTableRecord
100
AcDbLayerTableRecord
  2
Layer250
 70
     0
 62
     7
  6
Continuous
370
    -3
390
F
  0
LAYER
  5
141
330
2
100
AcDbSymbolTableRecord
100
AcDbLayerTableRecord
  2
Layer251
 70
     0
 62
     7
  6
Continuous
370
    -3
390
F
  0
LAYER
  5
142
330
2
100
AcDbSymbolTableRecord
100
AcDbLayerTableRecord
  2
Layer252
 70
     0
 62
     7
  6
Continuous
370
    -3
390
F
  0
LAYER
  5
143
330
2
100
AcDbSymbolTableRecord
100
AcDbLayerTableRecord
  2
Layer253
 70
     0
 62
     7
  6
Continuous
370
    -3
390
F
  0
LAYER
  5
144
330
2
100
AcDbSymbolTableRecord
100
AcDbLayerTableRecord
  2
Layer254
 70
     0
 62
     7
  6
Continuous
370
    -3
390
F
  0
LAYER
  5
145
330
2
100
AcDbSymbolTableRecord
100
AcDbLayerTableRecord
  2
Layer255
 70
     0
 62
     7
  6
Continuous
370
    -3
390
F
  0
ENDTAB
  0
TABLE
  2
STYLE
  5
3
330
0
100
AcDbSymbolTable
 70
     4
  0
STYLE
  5
11
330
3
100
AcDbSymbolTableRecord
100
AcDbTextStyleTableRecord
  2
Standard
 70
     0
 40
0.0
 41
1.0
 50
0.0
 71
     0
 42
2.5
  3
txt
  4

  0
STYLE
  5
43
330
3
100
AcDbSymbolTableRecord
100
AcDbTextStyleTableRecord
  2
Arial
 70
     0
 40
0.0
 41
1.0
 50
0.0
 71
     0
 42
0.2
  3
arial.ttf
  4

1001
ACAD
1000
Arial
1071
       34
  0
STYLE
  5
44
330
3
100
AcDbSymbolTableRecord
100
AcDbTextStyleTableRecord
  2
Arial Black
 70
     0
 40
0.0
 41
1.0
 50
0.0
 71
     0
 42
0.2
  3
ariblk.ttf
  4

1001
ACAD
1000
Arial Black
1071
       34
  0
STYLE
  5
45
330
3
100
AcDbSymbolTableRecord
100
AcDbTextStyleTableRecord
  2
Toleranzfont
 70
     0
 40
0.0
 41
1.0
 50
0.0
 71
     0
 42
0.2
  3
IGES1003.SHX
  4

  0
ENDTAB
  0
TABLE
  2
VIEW
  5
6
330
0
100
AcDbSymbolTable
 70
     0
  0
ENDTAB
  0
TABLE
  2
UCS
  5
7
330
0
100
AcDbSymbolTable
 70
     0
  0
ENDTAB
  0
TABLE
  2
APPID
  5
9
330
0
100
AcDbSymbolTable
 70
     1
  0
APPID
  5
12
330
9
100
AcDbSymbolTableRecord
100
AcDbRegAppTableRecord
  2
ACAD
 70
     0
  0
ENDTAB
  0
TABLE
  2
DIMSTYLE
  5
A
330
0
100
AcDbSymbolTable
 70
     1
100
AcDbDimStyleTable
  0
DIMSTYLE
105
27
102
{ACAD_REACTORS
330
29E
330
2B3
330
2C1
330
2D0
330
2E1
330
2F0
330
301
330
313
330
381
102
}
330
A
100
AcDbSymbolTableRecord
100
AcDbDimStyleTableRecord
  2
ISO-25
 70
     0
 41
2.5
 42
0.625
 43
3.75
 44
1.25
 73
     0
 74
     0
 77
     1
 78
     8
140
2.5
141
2.5
143
0.03937007874
147
0.625
171
     3
172
     1
178
     0
271
     2
272
     2
274
     3
278
    44
283
     0
284
     8
340
11
  0
ENDTAB
  0
TABLE
  2
BLOCK_RECORD
  5
1
330
0
100
AcDbSymbolTable
 70
    18
  0
BLOCK_RECORD
  5
1F
330
1
100
AcDbSymbolTableRecord
100
AcDbBlockTableRecord
  2
*Model_Space
340
22
  0
BLOCK_RECORD
  5
1B
330
1
100
AcDbSymbolTableRecord
100
AcDbBlockTableRecord
  2
*Paper_Space
340
1E
  0
BLOCK_RECORD
  5
23
330
1
100
AcDbSymbolTableRecord
100
AcDbBlockTableRecord
  2
*Paper_Space0
340
26
  0
BLOCK_RECORD
  5
146
330
1
100
AcDbSymbolTableRecord
100
AcDbBlockTableRecord
  2
SECHSK1_nNn00
340
0
102
{BLKREFS
331
251
102
}
  0
BLOCK_RECORD
  5
258
330
1
100
AcDbSymbolTableRecord
100
AcDbBlockTableRecord
  2
L1_nNn01
340
0
102
{BLKREFS
331
25D
102
}
  0
BLOCK_RECORD
  5
28F
330
1
100
AcDbSymbolTableRecord
100
AcDbBlockTableRecord
  2
*D3
340
0
  0
BLOCK_RECORD
  5
29F
330
1
100
AcDbSymbolTableRecord
100
AcDbBlockTableRecord
  2
_CLOSED
340
0
  0
BLOCK_RECORD
  5
2A6
330
1
100
AcDbSymbolTableRecord
100
AcDbBlockTableRecord
  2
*D5
340
0
  0
BLOCK_RECORD
  5
2B4
330
1
100
AcDbSymbolTableRecord
100
AcDbBlockTableRecord
  2
*D6
340
0
  0
BLOCK_RECORD
  5
2C2
330
1
100
AcDbSymbolTableRecord
100
AcDbBlockTableRecord
  2
*D7
340
0
  0
BLOCK_RECORD
  5
2D1
330
1
100
AcDbSymbolTableRecord
100
AcDbBlockTableRecord
  2
*D8
340
0
  0
BLOCK_RECORD
  5
2E2
330
1
100
AcDbSymbolTableRecord
100
AcDbBlockTableRecord
  2
*D9
340
0
  0
BLOCK_RECORD
  5
2F1
330
1
100
AcDbSymbolTableRecord
100
AcDbBlockTableRecord
  2
*D10
340
0
  0
BLOCK_RECORD
  5
302
330
1
100
AcDbSymbolTableRecord
100
AcDbBlockTableRecord
  2
*D11
340
0
  0
BLOCK_RECORD
  5
314
330
1
100
AcDbSymbolTableRecord
100
AcDbBlockTableRecord
  2
A4_nNn010
340
0
102
{BLKREFS
331
36C
102
}
  0
BLOCK_RECORD
  5
31F
330
1
100
AcDbSymbolTableRecord
100
AcDbBlockTableRecord
  2
Schriftfeld_nNn011
340
0
102
{BLKREFS
331
36B
102
}
  0
BLOCK_RECORD
  5
34C
330
1
100
AcDbSymbolTableRecord
100
AcDbBlockTableRecord
  2
ULTRAREFLEX_nNn012
340
0
102
{BLKREFS
331
364
102
}
  0
BLOCK_RECORD
  5
371
330
1
100
AcDbSymbolTableRecord
100
AcDbBlockTableRecord
  2
*D15
340
0
  0
BLOCK_RECORD
  5
383
330
1
100
AcDbSymbolTableRecord
100
AcDbBlockTableRecord
  2
Reflexwerte_nNn014
340
0
102
{BLKREFS
331
387
102
}
  0
BLOCK_RECORD
  5
388
330
1
100
AcDbSymbolTableRecord
100
AcDbBlockTableRecord
  2
QS_nNn015
340
0
102
{BLKREFS
331
38E
102
}
  0
ENDTAB
  0
ENDSEC
  0
SECTION
  2
BLOCKS
  0
BLOCK
  5
20
330
1F
100
AcDbEntity
  8
0
100
AcDbBlockBegin
  2
*Model_Space
 70
     0
 10
0.0
 20
0.0
 30
0.0
  3
*Model_Space
  1

  0
ENDBLK
  5
21
330
1F
100
AcDbEntity
  8
0
100
AcDbBlockEnd
  0
BLOCK
  5
1C
330
1B
100
AcDbEntity
 67
     1
  8
0
100
AcDbBlockBegin
  2
*Paper_Space
 70
     0
 10
0.0
 20
0.0
 30
0.0
  3
*Paper_Space
  1

  0
ENDBLK
  5
1D
330
1B
100
AcDbEntity
 67
     1
  8
0
100
AcDbBlockEnd
  0
BLOCK
  5
24
330
23
100
AcDbEntity
  8
0
100
AcDbBlockBegin
  2
*Paper_Space0
 70
     0
 10
0.0
 20
0.0
 30
0.0
  3
*Paper_Space0
  1

  0
ENDBLK
  5
25
330
23
100
AcDbEntity
  8
0
100
AcDbBlockEnd
  0
BLOCK
  5
147
330
146
100
AcDbEntity
  8
0
100
AcDbBlockBegin
  2
SECHSK1_nNn00
 70
     0
 10
0.0
 20
0.0
 30
0.0
  3
SECHSK1_nNn00
  1

  0
LINE
  5
149
330
146
100
AcDbEntity
  8
99
  6
AUSGEZOGEN
 62
     9
370
    18
100
AcDbLine
 10
78.820743939721
 20
88.587881045397
 30
0.0
 11
79.245094299316
 21
88.587881045397
 31
0.0
  0
LINE
  5
14A
330
146
100
AcDbEntity
  8
99
  6
AUSGEZOGEN
 62
     9
370
    18
100
AcDbLine
 10
79.245094299316
 20
88.587881045397
 30
0.0
 11
80.399795532227
 21
90.587881045397
 31
0.0
  0
LINE
  5
14B
330
146
100
AcDbEntity
  8
70
  6
AUSGEZOGEN
 62
    56
370
    18
100
AcDbLine
 10
79.390447000154
 20
90.587881045397
 30
0.0
 11
80.399795532227
 21
90.587881045397
 31
0.0
  0
LINE
  5
14C
330
146
100
AcDbEntity
  8
99
  6
AUSGEZOGEN
 62
     9
370
    18
100
AcDbLine
 10
80.399795532227
 20
82.587881045397
 30
0.0
 11
79.245094299316
 21
84.587881045397
 31
0.0
  0
LINE
  5
14D
330
146
100
AcDbEntity
  8
99
  6
AUSGEZOGEN
 62
     9
370
    18
100
AcDbLine
 10
79.245094299316
 20
84.587881045397
 30
0.0
 11
78.820743939721
 21
84.587881045397
 31
0.0
  0
LINE
  5
14E
330
146
100
AcDbEntity
  8
70
  6
AUSGEZOGEN
 62
    56
370
    18
100
AcDbLine
 10
79.390447000154
 20
82.587881045397
 30
0.0
 11
80.399795532227
 21
82.587881045397
 31
0.0
  0
LINE
  5
14F
330
146
100
AcDbEntity
  8
70
  6
AUSGEZOGEN
 62
    56
370
    18
100
AcDbLine
 10
78.090393066406
 20
86.587881045397
 30
0.0
 11
80.399795532227
 21
86.587881045397
 31
0.0
  0
LINE
  5
150
330
146
100
AcDbEntity
  8
99
  6
AUSGEZOGEN
 62
     9
370
    18
100
AcDbLine
 10
79.245094299316
 20
84.587881045397
 30
0.0
 11
80.399795532227
 21
86.587881045397
 31
0.0
  0
LINE
  5
151
330
146
100
AcDbEntity
  8
99
  6
AUSGEZOGEN
 62
     9
370
    18
100
AcDbLine
 10
80.399795532227
 20
86.587881045397
 30
0.0
 11
79.245094299316
 21
88.587881045397
 31
0.0
  0
LINE
  5
152
330
146
100
AcDbEntity
  8
99
  6
AUSGEZOGEN
 62
     9
370
    18
100
AcDbLine
 10
83.863891601562
 20
92.587881045397
 30
0.0
 11
82.709190368652
 21
90.587881045397
 31
0.0
  0
LINE
  5
153
330
146
100
AcDbEntity
  8
99
  6
AUSGEZOGEN
 62
     9
370
    18
100
AcDbLine
 10
82.709190368652
 20
90.587881045397
 30
0.0
 11
83.863891601562
 21
88.587881045397
 31
0.0
  0
LINE
  5
154
330
146
100
AcDbEntity
  8
99
  6
AUSGEZOGEN
 62
     9
370
    18
100
AcDbLine
 10
83.863891601562
 20
88.587881045397
 30
0.0
 11
86.173294067383
 21
88.587881045397
 31
0.0
  0
LINE
  5
155
330
146
100
AcDbEntity
  8
99
  6
AUSGEZOGEN
 62
     9
370
    18
100
AcDbLine
 10
86.173294067383
 20
88.587881045397
 30
0.0
 11
87.327995300293
 21
90.587881045397
 31
0.0
  0
LINE
  5
156
330
146
100
AcDbEntity
  8
99
  6
AUSGEZOGEN
 62
     9
370
    18
100
AcDbLine
 10
87.327995300293
 20
90.587881045397
 30
0.0
 11
86.173294067383
 21
92.587881045397
 31
0.0
  0
LINE
  5
157
330
146
100
AcDbEntity
  8
99
  6
AUSGEZOGEN
 62
     9
370
    18
100
AcDbLine
 10
86.173294067383
 20
92.587881045397
 30
0.0
 11
83.863891601562
 21
92.587881045397
 31
0.0
  0
LINE
  5
158
330
146
100
AcDbEntity
  8
70
  6
AUSGEZOGEN
 62
    56
370
    18
100
AcDbLine
 10
83.863891601562
 20
92.587881045397
 30
0.0
 11
85.018592834473
 21
90.587881045397
 31
0.0
  0
LINE
  5
159
330
146
100
AcDbEntity
  8
70
  6
AUSGEZOGEN
 62
    56
370
    18
100
AcDbLine
 10
85.018592834473
 20
90.587881045397
 30
0.0
 11
87.327995300293
 21
90.587881045397
 31
0.0
  0
LINE
  5
15A
330
146
100
AcDbEntity
  8
70
  6
AUSGEZOGEN
 62
    56
370
    18
100
AcDbLine
 10
85.018592834473
 20
90.587881045397
 30
0.0
 11
83.863891601562
 21
88.587881045397
 31
0.0
  0
LINE
  5
15B
330
146
100
AcDbEntity
  8
70
  6
AUSGEZOGEN
 62
    56
370
    18
100
AcDbLine
 10
85.018592834473
 20
94.587881045397
 30
0.0
 11
83.863891601562
 21
92.587881045397
 31
0.0
  0
LINE
  5
15C
330
146
100
AcDbEntity
  8
70
  6
AUSGEZOGEN
 62
    56
370
    18
100
AcDbLine
 10
85.018592834473
 20
94.587881045397
 30
0.0
 11
87.327995300293
 21
94.587881045397
 31
0.0
  0
LINE
  5
15D
330
146
100
AcDbEntity
  8
70
  6
AUSGEZOGEN
 62
    56
370
    18
100
AcDbLine
 10
84.137395285003
 20
96.114159054555
 30
0.0
 11
85.018592834473
 21
94.587881045397
 31
0.0
  0
LINE
  5
15E
330
146
100
AcDbEntity
  8
99
  6
AUSGEZOGEN
 62
     9
370
    18
100
AcDbLine
 10
82.709190368652
 20
94.587881045397
 30
0.0
 11
83.863891601562
 21
92.587881045397
 31
0.0
  0
LINE
  5
15F
330
146
100
AcDbEntity
  8
99
  6
AUSGEZOGEN
 62
     9
370
    18
100
AcDbLine
 10
83.863891601562
 20
92.587881045397
 30
0.0
 11
86.173294067383
 21
92.587881045397
 31
0.0
  0
LINE
  5
160
330
146
100
AcDbEntity
  8
99
  6
AUSGEZOGEN
 62
     9
370
    18
100
AcDbLine
 10
86.173294067383
 20
92.587881045397
 30
0.0
 11
87.327995300293
 21
94.587881045397
 31
0.0
  0
LINE
  5
161
330
146
100
AcDbEntity
  8
99
  6
AUSGEZOGEN
 62
     9
370
    18
100
AcDbLine
 10
87.327995300293
 20
94.587881045397
 30
0.0
 11
86.173294067383
 21
96.587881045397
 31
0.0
  0
LINE
  5
162
330
146
100
AcDbEntity
  8
99
  6
AUSGEZOGEN
 62
     9
370
    18
100
AcDbLine
 10
86.173294067383
 20
96.587881045397
 30
0.0
 11
85.054822071157
 21
96.587881045397
 31
0.0
  0
LINE
  5
163
330
146
100
AcDbEntity
  8
99
  6
AUSGEZOGEN
 62
     9
370
    18
100
AcDbLine
 10
83.863891601562
 20
84.587881045397
 30
0.0
 11
82.709190368652
 21
82.587881045397
 31
0.0
  0
LINE
  5
164
330
146
100
AcDbEntity
  8
99
  6
AUSGEZOGEN
 62
     9
370
    18
100
AcDbLine
 10
82.709190368652
 20
82.587881045397
 30
0.0
 11
83.863891601562
 21
80.587881045397
 31
0.0
  0
LINE
  5
165
330
146
100
AcDbEntity
  8
99
  6
AUSGEZOGEN
 62
     9
370
    18
100
AcDbLine
 10
83.863891601562
 20
80.587881045397
 30
0.0
 11
86.173294067383
 21
80.587881045397
 31
0.0
  0
LINE
  5
166
330
146
100
AcDbEntity
  8
99
  6
AUSGEZOGEN
 62
     9
370
    18
100
AcDbLine
 10
86.173294067383
 20
80.587881045397
 30
0.0
 11
87.327995300293
 21
82.587881045397
 31
0.0
  0
LINE
  5
167
330
146
100
AcDbEntity
  8
99
  6
AUSGEZOGEN
 62
     9
370
    18
100
AcDbLine
 10
87.327995300293
 20
82.587881045397
 30
0.0
 11
86.173294067383
 21
84.587881045397
 31
0.0
  0
LINE
  5
168
330
146
100
AcDbEntity
  8
99
  6
AUSGEZOGEN
 62
     9
370
    18
100
AcDbLine
 10
86.173294067383
 20
84.587881045397
 30
0.0
 11
83.863891601562
 21
84.587881045397
 31
0.0
  0
LINE
  5
169
330
146
100
AcDbEntity
  8
70
  6
AUSGEZOGEN
 62
    56
370
    18
100
AcDbLine
 10
83.863891601562
 20
84.587881045397
 30
0.0
 11
85.018592834473
 21
82.587881045397
 31
0.0
  0
LINE
  5
16A
330
146
100
AcDbEntity
  8
70
  6
AUSGEZOGEN
 62
    56
370
    18
100
AcDbLine
 10
85.018592834473
 20
82.587881045397
 30
0.0
 11
87.327995300293
 21
82.587881045397
 31
0.0
  0
LINE
  5
16B
330
146
100
AcDbEntity
  8
70
  6
AUSGEZOGEN
 62
    56
370
    18
100
AcDbLine
 10
85.018592834473
 20
82.587881045397
 30
0.0
 11
83.863891601562
 21
80.587881045397
 31
0.0
  0
LINE
  5
16C
330
146
100
AcDbEntity
  8
70
  6
AUSGEZOGEN
 62
    56
370
    18
100
AcDbLine
 10
85.018592834473
 20
86.587881045397
 30
0.0
 11
83.863891601562
 21
84.587881045397
 31
0.0
  0
LINE
  5
16D
330
146
100
AcDbEntity
  8
70
  6
AUSGEZOGEN
 62
    56
370
    18
100
AcDbLine
 10
85.018592834473
 20
86.587881045397
 30
0.0
 11
87.327995300293
 21
86.587881045397
 31
0.0
  0
LINE
  5
16E
330
146
100
AcDbEntity
  8
70
  6
AUSGEZOGEN
 62
    56
370
    18
100
AcDbLine
 10
83.863891601562
 20
88.587881045397
 30
0.0
 11
85.018592834473
 21
86.587881045397
 31
0.0
  0
LINE
  5
16F
330
146
100
AcDbEntity
  8
99
  6
AUSGEZOGEN
 62
     9
370
    18
100
AcDbLine
 10
83.863891601562
 20
88.587881045397
 30
0.0
 11
82.709190368652
 21
86.587881045397
 31
0.0
  0
LINE
  5
170
330
146
100
AcDbEntity
  8
99
  6
AUSGEZOGEN
 62
     9
370
    18
100
AcDbLine
 10
82.709190368652
 20
86.587881045397
 30
0.0
 11
83.863891601562
 21
84.587881045397
 31
0.0
  0
LINE
  5
171
330
146
100
AcDbEntity
  8
99
  6
AUSGEZOGEN
 62
     9
370
    18
100
AcDbLine
 10
83.863891601562
 20
84.587881045397
 30
0.0
 11
86.173294067383
 21
84.587881045397
 31
0.0
  0
LINE
  5
172
330
146
100
AcDbEntity
  8
99
  6
AUSGEZOGEN
 62
     9
370
    18
100
AcDbLine
 10
86.173294067383
 20
84.587881045397
 30
0.0
 11
87.327995300293
 21
86.587881045397
 31
0.0
  0
LINE
  5
173
330
146
100
AcDbEntity
  8
99
  6
AUSGEZOGEN
 62
     9
370
    18
100
AcDbLine
 10
87.327995300293
 20
86.587881045397
 30
0.0
 11
86.173294067383
 21
88.587881045397
 31
0.0
  0
LINE
  5
174
330
146
100
AcDbEntity
  8
99
  6
AUSGEZOGEN
 62
     9
370
    18
100
AcDbLine
 10
86.173294067383
 20
88.587881045397
 30
0.0
 11
83.863891601562
 21
88.587881045397
 31
0.0
  0
LINE
  5
175
330
146
100
AcDbEntity
  8
99
  6
AUSGEZOGEN
 62
     9
370
    18
100
AcDbLine
 10
86.484109460751
 20
76.049533316115
 30
0.0
 11
86.173294067383
 21
76.587881045397
 31
0.0
  0
LINE
  5
176
330
146
100
AcDbEntity
  8
99
  6
AUSGEZOGEN
 62
     9
370
    18
100
AcDbLine
 10
86.173294067383
 20
76.587881045397
 30
0.0
 11
85.054822071157
 21
76.587881045397
 31
0.0
  0
LINE
  5
177
330
146
100
AcDbEntity
  8
70
  6
AUSGEZOGEN
 62
    56
370
    18
100
AcDbLine
 10
85.018592834473
 20
78.587881045397
 30
0.0
 11
84.137395285003
 21
77.061603036238
 31
0.0
  0
LINE
  5
178
330
146
100
AcDbEntity
  8
70
  6
AUSGEZOGEN
 62
    56
370
    18
100
AcDbLine
 10
85.018592834473
 20
78.587881045397
 30
0.0
 11
87.327995300293
 21
78.587881045397
 31
0.0
  0
LINE
  5
179
330
146
100
AcDbEntity
  8
70
  6
AUSGEZOGEN
 62
    56
370
    18
100
AcDbLine
 10
83.863891601562
 20
80.587881045397
 30
0.0
 11
85.018592834473
 21
78.587881045397
 31
0.0
  0
LINE
  5
17A
330
146
100
AcDbEntity
  8
99
  6
AUSGEZOGEN
 62
     9
370
    18
100
AcDbLine
 10
83.863891601562
 20
80.587881045397
 30
0.0
 11
82.709190368652
 21
78.587881045397
 31
0.0
  0
LINE
  5
17B
330
146
100
AcDbEntity
  8
99
  6
AUSGEZOGEN
 62
     9
370
    18
100
AcDbLine
 10
82.709190368652
 20
78.587881045397
 30
0.0
 11
83.26842508285
 21
77.619258689659
 31
0.0
  0
LINE
  5
17C
330
146
100
AcDbEntity
  8
99
  6
AUSGEZOGEN
 62
     9
370
    18
100
AcDbLine
 10
86.173294067383
 20
76.587881045397
 30
0.0
 11
87.327995300293
 21
78.587881045397
 31
0.0
  0
LINE
  5
17D
330
146
100
AcDbEntity
  8
99
  6
AUSGEZOGEN
 62
     9
370
    18
100
AcDbLine
 10
87.327995300293
 20
78.587881045397
 30
0.0
 11
86.173294067383
 21
80.587881045397
 31
0.0
  0
LINE
  5
17E
330
146
100
AcDbEntity
  8
99
  6
AUSGEZOGEN
 62
     9
370
    18
100
AcDbLine
 10
86.173294067383
 20
80.587881045397
 30
0.0
 11
83.863891601562
 21
80.587881045397
 31
0.0
  0
LINE
  5
17F
330
146
100
AcDbEntity
  8
99
  6
AUSGEZOGEN
 62
     9
370
    18
100
AcDbLine
 10
82.709190368652
 20
78.587881045397
 30
0.0
 11
82.087563330843
 21
78.587881045397
 31
0.0
  0
LINE
  5
180
330
146
100
AcDbEntity
  8
99
  6
AUSGEZOGEN
 62
     9
370
    18
100
AcDbLine
 10
80.399795532227
 20
86.587881045397
 30
0.0
 11
79.245094299316
 21
84.587881045397
 31
0.0
  0
LINE
  5
181
330
146
100
AcDbEntity
  8
99
  6
AUSGEZOGEN
 62
     9
370
    18
100
AcDbLine
 10
79.245094299316
 20
84.587881045397
 30
0.0
 11
80.399795532227
 21
82.587881045397
 31
0.0
  0
LINE
  5
182
330
146
100
AcDbEntity
  8
99
  6
AUSGEZOGEN
 62
     9
370
    18
100
AcDbLine
 10
80.399795532227
 20
82.587881045397
 30
0.0
 11
82.709190368652
 21
82.587881045397
 31
0.0
  0
LINE
  5
183
330
146
100
AcDbEntity
  8
99
  6
AUSGEZOGEN
 62
     9
370
    18
100
AcDbLine
 10
82.709190368652
 20
82.587881045397
 30
0.0
 11
83.863891601562
 21
84.587881045397
 31
0.0
  0
LINE
  5
184
330
146
100
AcDbEntity
  8
99
  6
AUSGEZOGEN
 62
     9
370
    18
100
AcDbLine
 10
83.863891601562
 20
84.587881045397
 30
0.0
 11
82.709190368652
 21
86.587881045397
 31
0.0
  0
LINE
  5
185
330
146
100
AcDbEntity
  8
99
  6
AUSGEZOGEN
 62
     9
370
    18
100
AcDbLine
 10
82.709190368652
 20
86.587881045397
 30
0.0
 11
80.399795532227
 21
86.587881045397
 31
0.0
  0
LINE
  5
186
330
146
100
AcDbEntity
  8
70
  6
AUSGEZOGEN
 62
    56
370
    18
100
AcDbLine
 10
80.399795532227
 20
86.587881045397
 30
0.0
 11
81.554489135742
 21
84.587881045397
 31
0.0
  0
LINE
  5
187
330
146
100
AcDbEntity
  8
70
  6
AUSGEZOGEN
 62
    56
370
    18
100
AcDbLine
 10
81.554489135742
 20
84.587881045397
 30
0.0
 11
83.863891601562
 21
84.587881045397
 31
0.0
  0
LINE
  5
188
330
146
100
AcDbEntity
  8
70
  6
AUSGEZOGEN
 62
    56
370
    18
100
AcDbLine
 10
81.554489135742
 20
84.587881045397
 30
0.0
 11
80.399795532227
 21
82.587881045397
 31
0.0
  0
LINE
  5
189
330
146
100
AcDbEntity
  8
70
  6
AUSGEZOGEN
 62
    56
370
    18
100
AcDbLine
 10
81.554489135742
 20
80.587881045397
 30
0.0
 11
81.049819704375
 21
79.713762699489
 31
0.0
  0
LINE
  5
18A
330
146
100
AcDbEntity
  8
70
  6
AUSGEZOGEN
 62
    56
370
    18
100
AcDbLine
 10
81.554489135742
 20
80.587881045397
 30
0.0
 11
83.863891601562
 21
80.587881045397
 31
0.0
  0
LINE
  5
18B
330
146
100
AcDbEntity
  8
70
  6
AUSGEZOGEN
 62
    56
370
    18
100
AcDbLine
 10
80.399795532227
 20
82.587881045397
 30
0.0
 11
81.554489135742
 21
80.587881045397
 31
0.0
  0
LINE
  5
18C
330
146
100
AcDbEntity
  8
99
  6
AUSGEZOGEN
 62
     9
370
    18
100
AcDbLine
 10
80.399795532227
 20
82.587881045397
 30
0.0
 11
79.831473925359
 21
81.603519739338
 31
0.0
  0
LINE
  5
18D
330
146
100
AcDbEntity
  8
99
  6
AUSGEZOGEN
 62
     9
370
    18
100
AcDbLine
 10
82.709190368652
 20
78.587881045397
 30
0.0
 11
83.863891601562
 21
80.587881045397
 31
0.0
  0
LINE
  5
18E
330
146
100
AcDbEntity
  8
99
  6
AUSGEZOGEN
 62
     9
370
    18
100
AcDbLine
 10
83.863891601562
 20
80.587881045397
 30
0.0
 11
82.709190368652
 21
82.587881045397
 31
0.0
  0
LINE
  5
18F
330
146
100
AcDbEntity
  8
99
  6
AUSGEZOGEN
 62
     9
370
    18
100
AcDbLine
 10
82.709190368652
 20
82.587881045397
 30
0.0
 11
80.399795532227
 21
82.587881045397
 31
0.0
  0
LINE
  5
190
330
146
100
AcDbEntity
  8
99
  6
AUSGEZOGEN
 62
     9
370
    18
100
AcDbLine
 10
82.087563330843
 20
94.587881045397
 30
0.0
 11
82.709190368652
 21
94.587881045397
 31
0.0
  0
LINE
  5
191
330
146
100
AcDbEntity
  8
99
  6
AUSGEZOGEN
 62
     9
370
    18
100
AcDbLine
 10
82.709190368652
 20
94.587881045397
 30
0.0
 11
83.26842508285
 21
95.556503401135
 31
0.0
  0
LINE
  5
192
330
146
100
AcDbEntity
  8
99
  6
AUSGEZOGEN
 62
     9
370
    18
100
AcDbLine
 10
79.831473925359
 20
91.572242351455
 30
0.0
 11
80.399795532227
 21
90.587881045397
 31
0.0
  0
LINE
  5
193
330
146
100
AcDbEntity
  8
99
  6
AUSGEZOGEN
 62
     9
370
    18
100
AcDbLine
 10
80.399795532227
 20
90.587881045397
 30
0.0
 11
82.709190368652
 21
90.587881045397
 31
0.0
  0
LINE
  5
194
330
146
100
AcDbEntity
  8
99
  6
AUSGEZOGEN
 62
     9
370
    18
100
AcDbLine
 10
82.709190368652
 20
90.587881045397
 30
0.0
 11
83.863891601562
 21
92.587881045397
 31
0.0
  0
LINE
  5
195
330
146
100
AcDbEntity
  8
99
  6
AUSGEZOGEN
 62
     9
370
    18
100
AcDbLine
 10
83.863891601562
 20
92.587881045397
 30
0.0
 11
82.709190368652
 21
94.587881045397
 31
0.0
  0
LINE
  5
196
330
146
100
AcDbEntity
  8
70
  6
AUSGEZOGEN
 62
    56
370
    18
100
AcDbLine
 10
81.049819704375
 20
93.461999391304
 30
0.0
 11
81.554489135742
 21
92.587881045397
 31
0.0
  0
LINE
  5
197
330
146
100
AcDbEntity
  8
70
  6
AUSGEZOGEN
 62
    56
370
    18
100
AcDbLine
 10
81.554489135742
 20
92.587881045397
 30
0.0
 11
83.863891601562
 21
92.587881045397
 31
0.0
  0
LINE
  5
198
330
146
100
AcDbEntity
  8
70
  6
AUSGEZOGEN
 62
    56
370
    18
100
AcDbLine
 10
81.554489135742
 20
92.587881045397
 30
0.0
 11
80.399795532227
 21
90.587881045397
 31
0.0
  0
LINE
  5
199
330
146
100
AcDbEntity
  8
70
  6
AUSGEZOGEN
 62
    56
370
    18
100
AcDbLine
 10
81.554489135742
 20
88.587881045397
 30
0.0
 11
80.399795532227
 21
86.587881045397
 31
0.0
  0
LINE
  5
19A
330
146
100
AcDbEntity
  8
70
  6
AUSGEZOGEN
 62
    56
370
    18
100
AcDbLine
 10
81.554489135742
 20
88.587881045397
 30
0.0
 11
83.863891601562
 21
88.587881045397
 31
0.0
  0
LINE
  5
19B
330
146
100
AcDbEntity
  8
70
  6
AUSGEZOGEN
 62
    56
370
    18
100
AcDbLine
 10
80.399795532227
 20
90.587881045397
 30
0.0
 11
81.554489135742
 21
88.587881045397
 31
0.0
  0
LINE
  5
19C
330
146
100
AcDbEntity
  8
99
  6
AUSGEZOGEN
 62
     9
370
    18
100
AcDbLine
 10
80.399795532227
 20
90.587881045397
 30
0.0
 11
79.245094299316
 21
88.587881045397
 31
0.0
  0
LINE
  5
19D
330
146
100
AcDbEntity
  8
99
  6
AUSGEZOGEN
 62
     9
370
    18
100
AcDbLine
 10
79.245094299316
 20
88.587881045397
 30
0.0
 11
80.399795532227
 21
86.587881045397
 31
0.0
  0
LINE
  5
19E
330
146
100
AcDbEntity
  8
99
  6
AUSGEZOGEN
 62
     9
370
    18
100
AcDbLine
 10
80.399795532227
 20
86.587881045397
 30
0.0
 11
82.709190368652
 21
86.587881045397
 31
0.0
  0
LINE
  5
19F
330
146
100
AcDbEntity
  8
99
  6
AUSGEZOGEN
 62
     9
370
    18
100
AcDbLine
 10
82.709190368652
 20
86.587881045397
 30
0.0
 11
83.863891601562
 21
88.587881045397
 31
0.0
  0
LINE
  5
1A0
330
146
100
AcDbEntity
  8
99
  6
AUSGEZOGEN
 62
     9
370
    18
100
AcDbLine
 10
83.863891601562
 20
88.587881045397
 30
0.0
 11
82.709190368652
 21
90.587881045397
 31
0.0
  0
LINE
  5
1A1
330
146
100
AcDbEntity
  8
99
  6
AUSGEZOGEN
 62
     9
370
    18
100
AcDbLine
 10
82.709190368652
 20
90.587881045397
 30
0.0
 11
80.399795532227
 21
90.587881045397
 31
0.0
  0
LINE
  5
1A2
330
146
100
AcDbEntity
  8
99
  6
AUSGEZOGEN
 62
     9
370
    18
100
AcDbLine
 10
90.792098999023
 20
92.587881045397
 30
0.0
 11
89.637397766113
 21
90.587881045397
 31
0.0
  0
LINE
  5
1A3
330
146
100
AcDbEntity
  8
99
  6
AUSGEZOGEN
 62
     9
370
    18
100
AcDbLine
 10
89.637397766113
 20
90.587881045397
 30
0.0
 11
90.792098999023
 21
88.587881045397
 31
0.0
  0
LINE
  5
1A4
330
146
100
AcDbEntity
  8
99
  6
AUSGEZOGEN
 62
     9
370
    18
100
AcDbLine
 10
90.792098999023
 20
88.587881045397
 30
0.0
 11
93.101501464844
 21
88.587881045397
 31
0.0
  0
LINE
  5
1A5
330
146
100
AcDbEntity
  8
99
  6
AUSGEZOGEN
 62
     9
370
    18
100
AcDbLine
 10
93.101501464844
 20
88.587881045397
 30
0.0
 11
94.256195068359
 21
90.587881045397
 31
0.0
  0
LINE
  5
1A6
330
146
100
AcDbEntity
  8
99
  6
AUSGEZOGEN
 62
     9
370
    18
100
AcDbLine
 10
94.256195068359
 20
90.587881045397
 30
0.0
 11
93.101501464844
 21
92.587881045397
 31
0.0
  0
LINE
  5
1A7
330
146
100
AcDbEntity
  8
99
  6
AUSGEZOGEN
 62
     9
370
    18
100
AcDbLine
 10
93.101501464844
 20
92.587881045397
 30
0.0
 11
90.792098999023
 21
92.587881045397
 31
0.0
  0
LINE
  5
1A8
330
146
100
AcDbEntity
  8
70
  6
AUSGEZOGEN
 62
    56
370
    18
100
AcDbLine
 10
90.792098999023
 20
92.587881045397
 30
0.0
 11
91.946800231934
 21
90.587881045397
 31
0.0
  0
LINE
  5
1A9
330
146
100
AcDbEntity
  8
70
  6
AUSGEZOGEN
 62
    56
370
    18
100
AcDbLine
 10
91.946800231934
 20
90.587881045397
 30
0.0
 11
94.256195068359
 21
90.587881045397
 31
0.0
  0
LINE
  5
1AA
330
146
100
AcDbEntity
  8
70
  6
AUSGEZOGEN
 62
    56
370
    18
100
AcDbLine
 10
91.946800231934
 20
90.587881045397
 30
0.0
 11
90.792098999023
 21
88.587881045397
 31
0.0
  0
LINE
  5
1AB
330
146
100
AcDbEntity
  8
70
  6
AUSGEZOGEN
 62
    56
370
    18
100
AcDbLine
 10
91.946800231934
 20
94.587881045397
 30
0.0
 11
90.792098999023
 21
92.587881045397
 31
0.0
  0
LINE
  5
1AC
330
146
100
AcDbEntity
  8
70
  6
AUSGEZOGEN
 62
    56
370
    18
100
AcDbLine
 10
91.946800231934
 20
94.587881045397
 30
0.0
 11
94.256195068359
 21
94.587881045397
 31
0.0
  0
LINE
  5
1AD
330
146
100
AcDbEntity
  8
70
  6
AUSGEZOGEN
 62
    56
370
    18
100
AcDbLine
 10
90.792098999023
 20
96.587881045397
 30
0.0
 11
91.946800231934
 21
94.587881045397
 31
0.0
  0
LINE
  5
1AE
330
146
100
AcDbEntity
  8
99
  6
AUSGEZOGEN
 62
     9
370
    18
100
AcDbLine
 10
90.792098999023
 20
96.587881045397
 30
0.0
 11
89.637397766113
 21
94.587881045397
 31
0.0
  0
LINE
  5
1AF
330
146
100
AcDbEntity
  8
99
  6
AUSGEZOGEN
 62
     9
370
    18
100
AcDbLine
 10
89.637397766113
 20
94.587881045397
 30
0.0
 11
90.792098999023
 21
92.587881045397
 31
0.0
  0
LINE
  5
1B0
330
146
100
AcDbEntity
  8
99
  6
AUSGEZOGEN
 62
     9
370
    18
100
AcDbLine
 10
90.792098999023
 20
92.587881045397
 30
0.0
 11
93.101501464844
 21
92.587881045397
 31
0.0
  0
LINE
  5
1B1
330
146
100
AcDbEntity
  8
99
  6
AUSGEZOGEN
 62
     9
370
    18
100
AcDbLine
 10
93.101501464844
 20
92.587881045397
 30
0.0
 11
94.256195068359
 21
94.587881045397
 31
0.0
  0
LINE
  5
1B2
330
146
100
AcDbEntity
  8
99
  6
AUSGEZOGEN
 62
     9
370
    18
100
AcDbLine
 10
94.256195068359
 20
94.587881045397
 30
0.0
 11
93.101501464844
 21
96.587881045397
 31
0.0
  0
LINE
  5
1B3
330
146
100
AcDbEntity
  8
99
  6
AUSGEZOGEN
 62
     9
370
    18
100
AcDbLine
 10
93.101501464844
 20
96.587881045397
 30
0.0
 11
90.792098999023
 21
96.587881045397
 31
0.0
  0
LINE
  5
1B4
330
146
100
AcDbEntity
  8
70
  6
AUSGEZOGEN
 62
    56
370
    18
100
AcDbLine
 10
91.296772451224
 20
97.462000580072
 30
0.0
 11
90.792098999023
 21
96.587881045397
 31
0.0
  0
LINE
  5
1B5
330
146
100
AcDbEntity
  8
99
  6
AUSGEZOGEN
 62
     9
370
    18
100
AcDbLine
 10
90.223778324086
 20
97.572240737306
 30
0.0
 11
90.792098999023
 21
96.587881045397
 31
0.0
  0
LINE
  5
1B6
330
146
100
AcDbEntity
  8
99
  6
AUSGEZOGEN
 62
     9
370
    18
100
AcDbLine
 10
90.792098999023
 20
96.587881045397
 30
0.0
 11
93.101501464844
 21
96.587881045397
 31
0.0
  0
LINE
  5
1B7
330
146
100
AcDbEntity
  8
99
  6
AUSGEZOGEN
 62
     9
370
    18
100
AcDbLine
 10
93.101501464844
 20
96.587881045397
 30
0.0
 11
93.31367454353
 21
96.95537780478
 31
0.0
  0
LINE
  5
1B8
330
146
100
AcDbEntity
  8
99
  6
AUSGEZOGEN
 62
     9
370
    18
100
AcDbLine
 10
90.792098999023
 20
84.587881045397
 30
0.0
 11
89.637397766113
 21
82.587881045397
 31
0.0
  0
LINE
  5
1B9
330
146
100
AcDbEntity
  8
99
  6
AUSGEZOGEN
 62
     9
370
    18
100
AcDbLine
 10
89.637397766113
 20
82.587881045397
 30
0.0
 11
90.792098999023
 21
80.587881045397
 31
0.0
  0
LINE
  5
1BA
330
146
100
AcDbEntity
  8
99
  6
AUSGEZOGEN
 62
     9
370
    18
100
AcDbLine
 10
90.792098999023
 20
80.587881045397
 30
0.0
 11
93.101501464844
 21
80.587881045397
 31
0.0
  0
LINE
  5
1BB
330
146
100
AcDbEntity
  8
99
  6
AUSGEZOGEN
 62
     9
370
    18
100
AcDbLine
 10
93.101501464844
 20
80.587881045397
 30
0.0
 11
94.256195068359
 21
82.587881045397
 31
0.0
  0
LINE
  5
1BC
330
146
100
AcDbEntity
  8
99
  6
AUSGEZOGEN
 62
     9
370
    18
100
AcDbLine
 10
94.256195068359
 20
82.587881045397
 30
0.0
 11
93.101501464844
 21
84.587881045397
 31
0.0
  0
LINE
  5
1BD
330
146
100
AcDbEntity
  8
99
  6
AUSGEZOGEN
 62
     9
370
    18
100
AcDbLine
 10
93.101501464844
 20
84.587881045397
 30
0.0
 11
90.792098999023
 21
84.587881045397
 31
0.0
  0
LINE
  5
1BE
330
146
100
AcDbEntity
  8
70
  6
AUSGEZOGEN
 62
    56
370
    18
100
AcDbLine
 10
90.792098999023
 20
84.587881045397
 30
0.0
 11
91.946800231934
 21
82.587881045397
 31
0.0
  0
LINE
  5
1BF
330
146
100
AcDbEntity
  8
70
  6
AUSGEZOGEN
 62
    56
370
    18
100
AcDbLine
 10
91.946800231934
 20
82.587881045397
 30
0.0
 11
94.256195068359
 21
82.587881045397
 31
0.0
  0
LINE
  5
1C0
330
146
100
AcDbEntity
  8
70
  6
AUSGEZOGEN
 62
    56
370
    18
100
AcDbLine
 10
91.946800231934
 20
82.587881045397
 30
0.0
 11
90.792098999023
 21
80.587881045397
 31
0.0
  0
LINE
  5
1C1
330
146
100
AcDbEntity
  8
70
  6
AUSGEZOGEN
 62
    56
370
    18
100
AcDbLine
 10
91.946800231934
 20
86.587881045397
 30
0.0
 11
90.792098999023
 21
84.587881045397
 31
0.0
  0
LINE
  5
1C2
330
146
100
AcDbEntity
  8
70
  6
AUSGEZOGEN
 62
    56
370
    18
100
AcDbLine
 10
91.946800231934
 20
86.587881045397
 30
0.0
 11
94.256195068359
 21
86.587881045397
 31
0.0
  0
LINE
  5
1C3
330
146
100
AcDbEntity
  8
70
  6
AUSGEZOGEN
 62
    56
370
    18
100
AcDbLine
 10
90.792098999023
 20
88.587881045397
 30
0.0
 11
91.946800231934
 21
86.587881045397
 31
0.0
  0
LINE
  5
1C4
330
146
100
AcDbEntity
  8
99
  6
AUSGEZOGEN
 62
     9
370
    18
100
AcDbLine
 10
90.792098999023
 20
88.587881045397
 30
0.0
 11
89.637397766113
 21
86.587881045397
 31
0.0
  0
LINE
  5
1C5
330
146
100
AcDbEntity
  8
99
  6
AUSGEZOGEN
 62
     9
370
    18
100
AcDbLine
 10
89.637397766113
 20
86.587881045397
 30
0.0
 11
90.792098999023
 21
84.587881045397
 31
0.0
  0
LINE
  5
1C6
330
146
100
AcDbEntity
  8
99
  6
AUSGEZOGEN
 62
     9
370
    18
100
AcDbLine
 10
90.792098999023
 20
84.587881045397
 30
0.0
 11
93.101501464844
 21
84.587881045397
 31
0.0
  0
LINE
  5
1C7
330
146
100
AcDbEntity
  8
99
  6
AUSGEZOGEN
 62
     9
370
    18
100
AcDbLine
 10
93.101501464844
 20
84.587881045397
 30
0.0
 11
94.256195068359
 21
86.587881045397
 31
0.0
  0
LINE
  5
1C8
330
146
100
AcDbEntity
  8
99
  6
AUSGEZOGEN
 62
     9
370
    18
100
AcDbLine
 10
94.256195068359
 20
86.587881045397
 30
0.0
 11
93.101501464844
 21
88.587881045397
 31
0.0
  0
LINE
  5
1C9
330
146
100
AcDbEntity
  8
99
  6
AUSGEZOGEN
 62
     9
370
    18
100
AcDbLine
 10
93.101501464844
 20
88.587881045397
 30
0.0
 11
90.792098999023
 21
88.587881045397
 31
0.0
  0
LINE
  5
1CA
330
146
100
AcDbEntity
  8
99
  6
AUSGEZOGEN
 62
     9
370
    18
100
AcDbLine
 10
93.31367454353
 20
76.220384286013
 30
0.0
 11
93.101501464844
 21
76.587881045397
 31
0.0
  0
LINE
  5
1CB
330
146
100
AcDbEntity
  8
99
  6
AUSGEZOGEN
 62
     9
370
    18
100
AcDbLine
 10
93.101501464844
 20
76.587881045397
 30
0.0
 11
90.792098999023
 21
76.587881045397
 31
0.0
  0
LINE
  5
1CC
330
146
100
AcDbEntity
  8
70
  6
AUSGEZOGEN
 62
    56
370
    18
100
AcDbLine
 10
90.792098999023
 20
76.587881045397
 30
0.0
 11
91.296772451224
 21
75.713761510721
 31
0.0
  0
LINE
  5
1CD
330
146
100
AcDbEntity
  8
70
  6
AUSGEZOGEN
 62
    56
370
    18
100
AcDbLine
 10
91.946800231934
 20
78.587881045397
 30
0.0
 11
90.792098999023
 21
76.587881045397
 31
0.0
  0
LINE
  5
1CE
330
146
100
AcDbEntity
  8
70
  6
AUSGEZOGEN
 62
    56
370
    18
100
AcDbLine
 10
91.946800231934
 20
78.587881045397
 30
0.0
 11
94.256195068359
 21
78.587881045397
 31
0.0
  0
LINE
  5
1CF
330
146
100
AcDbEntity
  8
70
  6
AUSGEZOGEN
 62
    56
370
    18
100
AcDbLine
 10
90.792098999023
 20
80.587881045397
 30
0.0
 11
91.946800231934
 21
78.587881045397
 31
0.0
  0
LINE
  5
1D0
330
146
100
AcDbEntity
  8
99
  6
AUSGEZOGEN
 62
     9
370
    18
100
AcDbLine
 10
90.792098999023
 20
80.587881045397
 30
0.0
 11
89.637397766113
 21
78.587881045397
 31
0.0
  0
LINE
  5
1D1
330
146
100
AcDbEntity
  8
99
  6
AUSGEZOGEN
 62
     9
370
    18
100
AcDbLine
 10
89.637397766113
 20
78.587881045397
 30
0.0
 11
90.792098999023
 21
76.587881045397
 31
0.0
  0
LINE
  5
1D2
330
146
100
AcDbEntity
  8
99
  6
AUSGEZOGEN
 62
     9
370
    18
100
AcDbLine
 10
90.792098999023
 20
76.587881045397
 30
0.0
 11
93.101501464844
 21
76.587881045397
 31
0.0
  0
LINE
  5
1D3
330
146
100
AcDbEntity
  8
99
  6
AUSGEZOGEN
 62
     9
370
    18
100
AcDbLine
 10
93.101501464844
 20
76.587881045397
 30
0.0
 11
94.256195068359
 21
78.587881045397
 31
0.0
  0
LINE
  5
1D4
330
146
100
AcDbEntity
  8
99
  6
AUSGEZOGEN
 62
     9
370
    18
100
AcDbLine
 10
94.256195068359
 20
78.587881045397
 30
0.0
 11
93.101501464844
 21
80.587881045397
 31
0.0
  0
LINE
  5
1D5
330
146
100
AcDbEntity
  8
99
  6
AUSGEZOGEN
 62
     9
370
    18
100
AcDbLine
 10
93.101501464844
 20
80.587881045397
 30
0.0
 11
90.792098999023
 21
80.587881045397
 31
0.0
  0
LINE
  5
1D6
330
146
100
AcDbEntity
  8
99
  6
AUSGEZOGEN
 62
     9
370
    18
100
AcDbLine
 10
87.327995300293
 20
78.587881045397
 30
0.0
 11
86.173294067383
 21
76.587881045397
 31
0.0
  0
LINE
  5
1D7
330
146
100
AcDbEntity
  8
99
  6
AUSGEZOGEN
 62
     9
370
    18
100
AcDbLine
 10
90.223778324086
 20
75.603521353488
 30
0.0
 11
90.792098999023
 21
76.587881045397
 31
0.0
  0
LINE
  5
1D8
330
146
100
AcDbEntity
  8
99
  6
AUSGEZOGEN
 62
     9
370
    18
100
AcDbLine
 10
90.792098999023
 20
76.587881045397
 30
0.0
 11
89.637397766113
 21
78.587881045397
 31
0.0
  0
LINE
  5
1D9
330
146
100
AcDbEntity
  8
99
  6
AUSGEZOGEN
 62
     9
370
    18
100
AcDbLine
 10
89.637397766113
 20
78.587881045397
 30
0.0
 11
87.327995300293
 21
78.587881045397
 31
0.0
  0
LINE
  5
1DA
330
146
100
AcDbEntity
  8
70
  6
AUSGEZOGEN
 62
    56
370
    18
100
AcDbLine
 10
87.327995300293
 20
78.587881045397
 30
0.0
 11
88.482696533203
 21
76.587881045397
 31
0.0
  0
LINE
  5
1DB
330
146
100
AcDbEntity
  8
70
  6
AUSGEZOGEN
 62
    56
370
    18
100
AcDbLine
 10
88.482696533203
 20
76.587881045397
 30
0.0
 11
90.792098999023
 21
76.587881045397
 31
0.0
  0
LINE
  5
1DC
330
146
100
AcDbEntity
  8
70
  6
AUSGEZOGEN
 62
    56
370
    18
100
AcDbLine
 10
88.482696533203
 20
76.587881045397
 30
0.0
 11
87.978023081003
 21
75.713761510721
 31
0.0
  0
LINE
  5
1DD
330
146
100
AcDbEntity
  8
99
  6
AUSGEZOGEN
 62
     9
370
    18
100
AcDbLine
 10
87.327995300293
 20
86.587881045397
 30
0.0
 11
86.173294067383
 21
84.587881045397
 31
0.0
  0
LINE
  5
1DE
330
146
100
AcDbEntity
  8
99
  6
AUSGEZOGEN
 62
     9
370
    18
100
AcDbLine
 10
86.173294067383
 20
84.587881045397
 30
0.0
 11
87.327995300293
 21
82.587881045397
 31
0.0
  0
LINE
  5
1DF
330
146
100
AcDbEntity
  8
99
  6
AUSGEZOGEN
 62
     9
370
    18
100
AcDbLine
 10
87.327995300293
 20
82.587881045397
 30
0.0
 11
89.637397766113
 21
82.587881045397
 31
0.0
  0
LINE
  5
1E0
330
146
100
AcDbEntity
  8
99
  6
AUSGEZOGEN
 62
     9
370
    18
100
AcDbLine
 10
89.637397766113
 20
82.587881045397
 30
0.0
 11
90.792098999023
 21
84.587881045397
 31
0.0
  0
LINE
  5
1E1
330
146
100
AcDbEntity
  8
99
  6
AUSGEZOGEN
 62
     9
370
    18
100
AcDbLine
 10
90.792098999023
 20
84.587881045397
 30
0.0
 11
89.637397766113
 21
86.587881045397
 31
0.0
  0
LINE
  5
1E2
330
146
100
AcDbEntity
  8
99
  6
AUSGEZOGEN
 62
     9
370
    18
100
AcDbLine
 10
89.637397766113
 20
86.587881045397
 30
0.0
 11
87.327995300293
 21
86.587881045397
 31
0.0
  0
LINE
  5
1E3
330
146
100
AcDbEntity
  8
70
  6
AUSGEZOGEN
 62
    56
370
    18
100
AcDbLine
 10
87.327995300293
 20
86.587881045397
 30
0.0
 11
88.482696533203
 21
84.587881045397
 31
0.0
  0
LINE
  5
1E4
330
146
100
AcDbEntity
  8
70
  6
AUSGEZOGEN
 62
    56
370
    18
100
AcDbLine
 10
88.482696533203
 20
84.587881045397
 30
0.0
 11
90.792098999023
 21
84.587881045397
 31
0.0
  0
LINE
  5
1E5
330
146
100
AcDbEntity
  8
70
  6
AUSGEZOGEN
 62
    56
370
    18
100
AcDbLine
 10
88.482696533203
 20
84.587881045397
 30
0.0
 11
87.327995300293
 21
82.587881045397
 31
0.0
  0
LINE
  5
1E6
330
146
100
AcDbEntity
  8
70
  6
AUSGEZOGEN
 62
    56
370
    18
100
AcDbLine
 10
88.482696533203
 20
80.587881045397
 30
0.0
 11
87.327995300293
 21
78.587881045397
 31
0.0
  0
LINE
  5
1E7
330
146
100
AcDbEntity
  8
70
  6
AUSGEZOGEN
 62
    56
370
    18
100
AcDbLine
 10
88.482696533203
 20
80.587881045397
 30
0.0
 11
90.792098999023
 21
80.587881045397
 31
0.0
  0
LINE
  5
1E8
330
146
100
AcDbEntity
  8
70
  6
AUSGEZOGEN
 62
    56
370
    18
100
AcDbLine
 10
87.327995300293
 20
82.587881045397
 30
0.0
 11
88.482696533203
 21
80.587881045397
 31
0.0
  0
LINE
  5
1E9
330
146
100
AcDbEntity
  8
99
  6
AUSGEZOGEN
 62
     9
370
    18
100
AcDbLine
 10
87.327995300293
 20
82.587881045397
 30
0.0
 11
86.173294067383
 21
80.587881045397
 31
0.0
  0
LINE
  5
1EA
330
146
100
AcDbEntity
  8
99
  6
AUSGEZOGEN
 62
     9
370
    18
100
AcDbLine
 10
86.173294067383
 20
80.587881045397
 30
0.0
 11
87.327995300293
 21
78.587881045397
 31
0.0
  0
LINE
  5
1EB
330
146
100
AcDbEntity
  8
99
  6
AUSGEZOGEN
 62
     9
370
    18
100
AcDbLine
 10
87.327995300293
 20
78.587881045397
 30
0.0
 11
89.637397766113
 21
78.587881045397
 31
0.0
  0
LINE
  5
1EC
330
146
100
AcDbEntity
  8
99
  6
AUSGEZOGEN
 62
     9
370
    18
100
AcDbLine
 10
89.637397766113
 20
78.587881045397
 30
0.0
 11
90.792098999023
 21
80.587881045397
 31
0.0
  0
LINE
  5
1ED
330
146
100
AcDbEntity
  8
99
  6
AUSGEZOGEN
 62
     9
370
    18
100
AcDbLine
 10
90.792098999023
 20
80.587881045397
 30
0.0
 11
89.637397766113
 21
82.587881045397
 31
0.0
  0
LINE
  5
1EE
330
146
100
AcDbEntity
  8
99
  6
AUSGEZOGEN
 62
     9
370
    18
100
AcDbLine
 10
89.637397766113
 20
82.587881045397
 30
0.0
 11
87.327995300293
 21
82.587881045397
 31
0.0
  0
LINE
  5
1EF
330
146
100
AcDbEntity
  8
99
  6
AUSGEZOGEN
 62
     9
370
    18
100
AcDbLine
 10
86.484109460751
 20
97.126228774679
 30
0.0
 11
86.173294067383
 21
96.587881045397
 31
0.0
  0
LINE
  5
1F0
330
146
100
AcDbEntity
  8
99
  6
AUSGEZOGEN
 62
     9
370
    18
100
AcDbLine
 10
86.173294067383
 20
96.587881045397
 30
0.0
 11
87.327995300293
 21
94.587881045397
 31
0.0
  0
LINE
  5
1F1
330
146
100
AcDbEntity
  8
99
  6
AUSGEZOGEN
 62
     9
370
    18
100
AcDbLine
 10
87.327995300293
 20
94.587881045397
 30
0.0
 11
89.637397766113
 21
94.587881045397
 31
0.0
  0
LINE
  5
1F2
330
146
100
AcDbEntity
  8
99
  6
AUSGEZOGEN
 62
     9
370
    18
100
AcDbLine
 10
89.637397766113
 20
94.587881045397
 30
0.0
 11
90.792098999023
 21
96.587881045397
 31
0.0
  0
LINE
  5
1F3
330
146
100
AcDbEntity
  8
70
  6
AUSGEZOGEN
 62
    56
370
    18
100
AcDbLine
 10
87.978023081003
 20
97.462000580072
 30
0.0
 11
88.482696533203
 21
96.587881045397
 31
0.0
  0
LINE
  5
1F4
330
146
100
AcDbEntity
  8
70
  6
AUSGEZOGEN
 62
    56
370
    18
100
AcDbLine
 10
88.482696533203
 20
96.587881045397
 30
0.0
 11
90.792098999023
 21
96.587881045397
 31
0.0
  0
LINE
  5
1F5
330
146
100
AcDbEntity
  8
70
  6
AUSGEZOGEN
 62
    56
370
    18
100
AcDbLine
 10
88.482696533203
 20
96.587881045397
 30
0.0
 11
87.327995300293
 21
94.587881045397
 31
0.0
  0
LINE
  5
1F6
330
146
100
AcDbEntity
  8
99
  6
AUSGEZOGEN
 62
     9
370
    18
100
AcDbLine
 10
87.327995300293
 20
94.587881045397
 30
0.0
 11
86.173294067383
 21
92.587881045397
 31
0.0
  0
LINE
  5
1F7
330
146
100
AcDbEntity
  8
99
  6
AUSGEZOGEN
 62
     9
370
    18
100
AcDbLine
 10
86.173294067383
 20
92.587881045397
 30
0.0
 11
87.327995300293
 21
90.587881045397
 31
0.0
  0
LINE
  5
1F8
330
146
100
AcDbEntity
  8
99
  6
AUSGEZOGEN
 62
     9
370
    18
100
AcDbLine
 10
87.327995300293
 20
90.587881045397
 30
0.0
 11
89.637397766113
 21
90.587881045397
 31
0.0
  0
LINE
  5
1F9
330
146
100
AcDbEntity
  8
99
  6
AUSGEZOGEN
 62
     9
370
    18
100
AcDbLine
 10
89.637397766113
 20
90.587881045397
 30
0.0
 11
90.792098999023
 21
92.587881045397
 31
0.0
  0
LINE
  5
1FA
330
146
100
AcDbEntity
  8
99
  6
AUSGEZOGEN
 62
     9
370
    18
100
AcDbLine
 10
90.792098999023
 20
92.587881045397
 30
0.0
 11
89.637397766113
 21
94.587881045397
 31
0.0
  0
LINE
  5
1FB
330
146
100
AcDbEntity
  8
99
  6
AUSGEZOGEN
 62
     9
370
    18
100
AcDbLine
 10
89.637397766113
 20
94.587881045397
 30
0.0
 11
87.327995300293
 21
94.587881045397
 31
0.0
  0
LINE
  5
1FC
330
146
100
AcDbEntity
  8
70
  6
AUSGEZOGEN
 62
    56
370
    18
100
AcDbLine
 10
87.327995300293
 20
94.587881045397
 30
0.0
 11
88.482696533203
 21
92.587881045397
 31
0.0
  0
LINE
  5
1FD
330
146
100
AcDbEntity
  8
70
  6
AUSGEZOGEN
 62
    56
370
    18
100
AcDbLine
 10
88.482696533203
 20
92.587881045397
 30
0.0
 11
90.792098999023
 21
92.587881045397
 31
0.0
  0
LINE
  5
1FE
330
146
100
AcDbEntity
  8
70
  6
AUSGEZOGEN
 62
    56
370
    18
100
AcDbLine
 10
88.482696533203
 20
92.587881045397
 30
0.0
 11
87.327995300293
 21
90.587881045397
 31
0.0
  0
LINE
  5
1FF
330
146
100
AcDbEntity
  8
70
  6
AUSGEZOGEN
 62
    56
370
    18
100
AcDbLine
 10
88.482696533203
 20
88.587881045397
 30
0.0
 11
87.327995300293
 21
86.587881045397
 31
0.0
  0
LINE
  5
200
330
146
100
AcDbEntity
  8
70
  6
AUSGEZOGEN
 62
    56
370
    18
100
AcDbLine
 10
88.482696533203
 20
88.587881045397
 30
0.0
 11
90.792098999023
 21
88.587881045397
 31
0.0
  0
LINE
  5
201
330
146
100
AcDbEntity
  8
70
  6
AUSGEZOGEN
 62
    56
370
    18
100
AcDbLine
 10
87.327995300293
 20
90.587881045397
 30
0.0
 11
88.482696533203
 21
88.587881045397
 31
0.0
  0
LINE
  5
202
330
146
100
AcDbEntity
  8
99
  6
AUSGEZOGEN
 62
     9
370
    18
100
AcDbLine
 10
87.327995300293
 20
90.587881045397
 30
0.0
 11
86.173294067383
 21
88.587881045397
 31
0.0
  0
LINE
  5
203
330
146
100
AcDbEntity
  8
99
  6
AUSGEZOGEN
 62
     9
370
    18
100
AcDbLine
 10
86.173294067383
 20
88.587881045397
 30
0.0
 11
87.327995300293
 21
86.587881045397
 31
0.0
  0
LINE
  5
204
330
146
100
AcDbEntity
  8
99
  6
AUSGEZOGEN
 62
     9
370
    18
100
AcDbLine
 10
87.327995300293
 20
86.587881045397
 30
0.0
 11
89.637397766113
 21
86.587881045397
 31
0.0
  0
LINE
  5
205
330
146
100
AcDbEntity
  8
99
  6
AUSGEZOGEN
 62
     9
370
    18
100
AcDbLine
 10
89.637397766113
 20
86.587881045397
 30
0.0
 11
90.792098999023
 21
88.587881045397
 31
0.0
  0
LINE
  5
206
330
146
100
AcDbEntity
  8
99
  6
AUSGEZOGEN
 62
     9
370
    18
100
AcDbLine
 10
90.792098999023
 20
88.587881045397
 30
0.0
 11
89.637397766113
 21
90.587881045397
 31
0.0
  0
LINE
  5
207
330
146
100
AcDbEntity
  8
99
  6
AUSGEZOGEN
 62
     9
370
    18
100
AcDbLine
 10
89.637397766113
 20
90.587881045397
 30
0.0
 11
87.327995300293
 21
90.587881045397
 31
0.0
  0
LINE
  5
208
330
146
100
AcDbEntity
  8
99
  6
AUSGEZOGEN
 62
     9
370
    18
100
AcDbLine
 10
97.72029876709
 20
92.587881045397
 30
0.0
 11
96.56559753418
 21
90.587881045397
 31
0.0
  0
LINE
  5
209
330
146
100
AcDbEntity
  8
99
  6
AUSGEZOGEN
 62
     9
370
    18
100
AcDbLine
 10
96.56559753418
 20
90.587881045397
 30
0.0
 11
97.72029876709
 21
88.587881045397
 31
0.0
  0
LINE
  5
20A
330
146
100
AcDbEntity
  8
99
  6
AUSGEZOGEN
 62
     9
370
    18
100
AcDbLine
 10
97.72029876709
 20
88.587881045397
 30
0.0
 11
100.02970123291
 21
88.587881045397
 31
0.0
  0
LINE
  5
20B
330
146
100
AcDbEntity
  8
99
  6
AUSGEZOGEN
 62
     9
370
    18
100
AcDbLine
 10
98.856942223406
 20
92.587881045397
 30
0.0
 11
97.72029876709
 21
92.587881045397
 31
0.0
  0
LINE
  5
20C
330
146
100
AcDbEntity
  8
70
  6
AUSGEZOGEN
 62
    56
370
    18
100
AcDbLine
 10
97.72029876709
 20
92.587881045397
 30
0.0
 11
98.875
 21
90.587881045397
 31
0.0
  0
LINE
  5
20D
330
146
100
AcDbEntity
  8
70
  6
AUSGEZOGEN
 62
    56
370
    18
100
AcDbLine
 10
98.875
 20
90.587881045397
 30
0.0
 11
99.884348532073
 21
90.587881045397
 31
0.0
  0
LINE
  5
20E
330
146
100
AcDbEntity
  8
70
  6
AUSGEZOGEN
 62
    56
370
    18
100
AcDbLine
 10
98.875
 20
90.587881045397
 30
0.0
 11
97.72029876709
 21
88.587881045397
 31
0.0
  0
LINE
  5
20F
330
146
100
AcDbEntity
  8
70
  6
AUSGEZOGEN
 62
    56
370
    18
100
AcDbLine
 10
98.22497333265
 20
93.462002508466
 30
0.0
 11
97.72029876709
 21
92.587881045397
 31
0.0
  0
LINE
  5
210
330
146
100
AcDbEntity
  8
99
  6
AUSGEZOGEN
 62
     9
370
    18
100
AcDbLine
 10
96.56559753418
 20
94.587881045397
 30
0.0
 11
97.72029876709
 21
92.587881045397
 31
0.0
  0
LINE
  5
211
330
146
100
AcDbEntity
  8
99
  6
AUSGEZOGEN
 62
     9
370
    18
100
AcDbLine
 10
97.72029876709
 20
84.587881045397
 30
0.0
 11
96.56559753418
 21
82.587881045397
 31
0.0
  0
LINE
  5
212
330
146
100
AcDbEntity
  8
99
  6
AUSGEZOGEN
 62
     9
370
    18
100
AcDbLine
 10
96.56559753418
 20
82.587881045397
 30
0.0
 11
97.72029876709
 21
80.587881045397
 31
0.0
  0
LINE
  5
213
330
146
100
AcDbEntity
  8
99
  6
AUSGEZOGEN
 62
     9
370
    18
100
AcDbLine
 10
97.72029876709
 20
80.587881045397
 30
0.0
 11
98.856942223406
 21
80.587881045397
 31
0.0
  0
LINE
  5
214
330
146
100
AcDbEntity
  8
99
  6
AUSGEZOGEN
 62
     9
370
    18
100
AcDbLine
 10
100.340517867048
 20
84.049531167039
 30
0.0
 11
100.02970123291
 21
84.587881045397
 31
0.0
  0
LINE
  5
215
330
146
100
AcDbEntity
  8
99
  6
AUSGEZOGEN
 62
     9
370
    18
100
AcDbLine
 10
100.02970123291
 20
84.587881045397
 30
0.0
 11
97.72029876709
 21
84.587881045397
 31
0.0
  0
LINE
  5
216
330
146
100
AcDbEntity
  8
70
  6
AUSGEZOGEN
 62
    56
370
    18
100
AcDbLine
 10
97.72029876709
 20
84.587881045397
 30
0.0
 11
98.875
 21
82.587881045397
 31
0.0
  0
LINE
  5
217
330
146
100
AcDbEntity
  8
70
  6
AUSGEZOGEN
 62
    56
370
    18
100
AcDbLine
 10
98.875
 20
82.587881045397
 30
0.0
 11
99.884348532073
 21
82.587881045397
 31
0.0
  0
LINE
  5
218
330
146
100
AcDbEntity
  8
70
  6
AUSGEZOGEN
 62
    56
370
    18
100
AcDbLine
 10
98.875
 20
82.587881045397
 30
0.0
 11
97.72029876709
 21
80.587881045397
 31
0.0
  0
LINE
  5
219
330
146
100
AcDbEntity
  8
70
  6
AUSGEZOGEN
 62
    56
370
    18
100
AcDbLine
 10
98.875
 20
86.587881045397
 30
0.0
 11
97.72029876709
 21
84.587881045397
 31
0.0
  0
LINE
  5
21A
330
146
100
AcDbEntity
  8
70
  6
AUSGEZOGEN
 62
    56
370
    18
100
AcDbLine
 10
98.875
 20
86.587881045397
 30
0.0
 11
101.18440246582
 21
86.587881045397
 31
0.0
  0
LINE
  5
21B
330
146
100
AcDbEntity
  8
70
  6
AUSGEZOGEN
 62
    56
370
    18
100
AcDbLine
 10
97.72029876709
 20
88.587881045397
 30
0.0
 11
98.875
 21
86.587881045397
 31
0.0
  0
LINE
  5
21C
330
146
100
AcDbEntity
  8
99
  6
AUSGEZOGEN
 62
     9
370
    18
100
AcDbLine
 10
97.72029876709
 20
88.587881045397
 30
0.0
 11
96.56559753418
 21
86.587881045397
 31
0.0
  0
LINE
  5
21D
330
146
100
AcDbEntity
  8
99
  6
AUSGEZOGEN
 62
     9
370
    18
100
AcDbLine
 10
96.56559753418
 20
86.587881045397
 30
0.0
 11
97.72029876709
 21
84.587881045397
 31
0.0
  0
LINE
  5
21E
330
146
100
AcDbEntity
  8
99
  6
AUSGEZOGEN
 62
     9
370
    18
100
AcDbLine
 10
97.72029876709
 20
84.587881045397
 30
0.0
 11
100.02970123291
 21
84.587881045397
 31
0.0
  0
LINE
  5
21F
330
146
100
AcDbEntity
  8
99
  6
AUSGEZOGEN
 62
     9
370
    18
100
AcDbLine
 10
100.02970123291
 20
88.587881045397
 30
0.0
 11
97.72029876709
 21
88.587881045397
 31
0.0
  0
LINE
  5
220
330
146
100
AcDbEntity
  8
70
  6
AUSGEZOGEN
 62
    56
370
    18
100
AcDbLine
 10
97.72029876709
 20
80.587881045397
 30
0.0
 11
98.22497333265
 21
79.713759582327
 31
0.0
  0
LINE
  5
221
330
146
100
AcDbEntity
  8
99
  6
AUSGEZOGEN
 62
     9
370
    18
100
AcDbLine
 10
97.72029876709
 20
80.587881045397
 30
0.0
 11
96.56559753418
 21
78.587881045397
 31
0.0
  0
LINE
  5
222
330
146
100
AcDbEntity
  8
99
  6
AUSGEZOGEN
 62
     9
370
    18
100
AcDbLine
 10
96.56559753418
 20
78.587881045397
 30
0.0
 11
96.777773252917
 21
78.220382141456
 31
0.0
  0
LINE
  5
223
330
146
100
AcDbEntity
  8
99
  6
AUSGEZOGEN
 62
     9
370
    18
100
AcDbLine
 10
94.256195068359
 20
78.587881045397
 30
0.0
 11
93.101501464844
 21
76.587881045397
 31
0.0
  0
LINE
  5
224
330
146
100
AcDbEntity
  8
99
  6
AUSGEZOGEN
 62
     9
370
    18
100
AcDbLine
 10
96.56559753418
 20
78.587881045397
 30
0.0
 11
94.256195068359
 21
78.587881045397
 31
0.0
  0
LINE
  5
225
330
146
100
AcDbEntity
  8
70
  6
AUSGEZOGEN
 62
    56
370
    18
100
AcDbLine
 10
94.256195068359
 20
78.587881045397
 30
0.0
 11
95.137394525178
 21
77.061599732614
 31
0.0
  0
LINE
  5
226
330
146
100
AcDbEntity
  8
99
  6
AUSGEZOGEN
 62
     9
370
    18
100
AcDbLine
 10
94.256195068359
 20
86.587881045397
 30
0.0
 11
93.101501464844
 21
84.587881045397
 31
0.0
  0
LINE
  5
227
330
146
100
AcDbEntity
  8
99
  6
AUSGEZOGEN
 62
     9
370
    18
100
AcDbLine
 10
93.101501464844
 20
84.587881045397
 30
0.0
 11
94.256195068359
 21
82.587881045397
 31
0.0
  0
LINE
  5
228
330
146
100
AcDbEntity
  8
99
  6
AUSGEZOGEN
 62
     9
370
    18
100
AcDbLine
 10
94.256195068359
 20
82.587881045397
 30
0.0
 11
96.56559753418
 21
82.587881045397
 31
0.0
  0
LINE
  5
229
330
146
100
AcDbEntity
  8
99
  6
AUSGEZOGEN
 62
     9
370
    18
100
AcDbLine
 10
96.56559753418
 20
82.587881045397
 30
0.0
 11
97.72029876709
 21
84.587881045397
 31
0.0
  0
LINE
  5
22A
330
146
100
AcDbEntity
  8
99
  6
AUSGEZOGEN
 62
     9
370
    18
100
AcDbLine
 10
97.72029876709
 20
84.587881045397
 30
0.0
 11
96.56559753418
 21
86.587881045397
 31
0.0
  0
LINE
  5
22B
330
146
100
AcDbEntity
  8
99
  6
AUSGEZOGEN
 62
     9
370
    18
100
AcDbLine
 10
96.56559753418
 20
86.587881045397
 30
0.0
 11
94.256195068359
 21
86.587881045397
 31
0.0
  0
LINE
  5
22C
330
146
100
AcDbEntity
  8
70
  6
AUSGEZOGEN
 62
    56
370
    18
100
AcDbLine
 10
94.256195068359
 20
86.587881045397
 30
0.0
 11
95.41089630127
 21
84.587881045397
 31
0.0
  0
LINE
  5
22D
330
146
100
AcDbEntity
  8
70
  6
AUSGEZOGEN
 62
    56
370
    18
100
AcDbLine
 10
95.41089630127
 20
84.587881045397
 30
0.0
 11
97.72029876709
 21
84.587881045397
 31
0.0
  0
LINE
  5
22E
330
146
100
AcDbEntity
  8
70
  6
AUSGEZOGEN
 62
    56
370
    18
100
AcDbLine
 10
95.41089630127
 20
84.587881045397
 30
0.0
 11
94.256195068359
 21
82.587881045397
 31
0.0
  0
LINE
  5
22F
330
146
100
AcDbEntity
  8
70
  6
AUSGEZOGEN
 62
    56
370
    18
100
AcDbLine
 10
95.41089630127
 20
80.587881045397
 30
0.0
 11
94.256195068359
 21
78.587881045397
 31
0.0
  0
LINE
  5
230
330
146
100
AcDbEntity
  8
70
  6
AUSGEZOGEN
 62
    56
370
    18
100
AcDbLine
 10
95.41089630127
 20
80.587881045397
 30
0.0
 11
97.72029876709
 21
80.587881045397
 31
0.0
  0
LINE
  5
231
330
146
100
AcDbEntity
  8
70
  6
AUSGEZOGEN
 62
    56
370
    18
100
AcDbLine
 10
94.256195068359
 20
82.587881045397
 30
0.0
 11
95.41089630127
 21
80.587881045397
 31
0.0
  0
LINE
  5
232
330
146
100
AcDbEntity
  8
99
  6
AUSGEZOGEN
 62
     9
370
    18
100
AcDbLine
 10
94.256195068359
 20
82.587881045397
 30
0.0
 11
93.101501464844
 21
80.587881045397
 31
0.0
  0
LINE
  5
233
330
146
100
AcDbEntity
  8
99
  6
AUSGEZOGEN
 62
     9
370
    18
100
AcDbLine
 10
93.101501464844
 20
80.587881045397
 30
0.0
 11
94.256195068359
 21
78.587881045397
 31
0.0
  0
LINE
  5
234
330
146
100
AcDbEntity
  8
99
  6
AUSGEZOGEN
 62
     9
370
    18
100
AcDbLine
 10
94.256195068359
 20
78.587881045397
 30
0.0
 11
96.56559753418
 21
78.587881045397
 31
0.0
  0
LINE
  5
235
330
146
100
AcDbEntity
  8
99
  6
AUSGEZOGEN
 62
     9
370
    18
100
AcDbLine
 10
96.56559753418
 20
78.587881045397
 30
0.0
 11
97.72029876709
 21
80.587881045397
 31
0.0
  0
LINE
  5
236
330
146
100
AcDbEntity
  8
99
  6
AUSGEZOGEN
 62
     9
370
    18
100
AcDbLine
 10
97.72029876709
 20
80.587881045397
 30
0.0
 11
96.56559753418
 21
82.587881045397
 31
0.0
  0
LINE
  5
237
330
146
100
AcDbEntity
  8
99
  6
AUSGEZOGEN
 62
     9
370
    18
100
AcDbLine
 10
96.56559753418
 20
82.587881045397
 30
0.0
 11
94.256195068359
 21
82.587881045397
 31
0.0
  0
LINE
  5
238
330
146
100
AcDbEntity
  8
99
  6
AUSGEZOGEN
 62
     9
370
    18
100
AcDbLine
 10
93.101501464844
 20
96.587881045397
 30
0.0
 11
94.256195068359
 21
94.587881045397
 31
0.0
  0
LINE
  5
239
330
146
100
AcDbEntity
  8
99
  6
AUSGEZOGEN
 62
     9
370
    18
100
AcDbLine
 10
94.256195068359
 20
94.587881045397
 30
0.0
 11
96.56559753418
 21
94.587881045397
 31
0.0
  0
LINE
  5
23A
330
146
100
AcDbEntity
  8
99
  6
AUSGEZOGEN
 62
     9
370
    18
100
AcDbLine
 10
96.56559753418
 20
94.587881045397
 30
0.0
 11
96.777773252917
 21
94.955379949338
 31
0.0
  0
LINE
  5
23B
330
146
100
AcDbEntity
  8
70
  6
AUSGEZOGEN
 62
    56
370
    18
100
AcDbLine
 10
95.137394525178
 20
96.114162358179
 30
0.0
 11
94.256195068359
 21
94.587881045397
 31
0.0
  0
LINE
  5
23C
330
146
100
AcDbEntity
  8
99
  6
AUSGEZOGEN
 62
     9
370
    18
100
AcDbLine
 10
94.256195068359
 20
94.587881045397
 30
0.0
 11
93.101501464844
 21
92.587881045397
 31
0.0
  0
LINE
  5
23D
330
146
100
AcDbEntity
  8
99
  6
AUSGEZOGEN
 62
     9
370
    18
100
AcDbLine
 10
93.101501464844
 20
92.587881045397
 30
0.0
 11
94.256195068359
 21
90.587881045397
 31
0.0
  0
LINE
  5
23E
330
146
100
AcDbEntity
  8
99
  6
AUSGEZOGEN
 62
     9
370
    18
100
AcDbLine
 10
94.256195068359
 20
90.587881045397
 30
0.0
 11
96.56559753418
 21
90.587881045397
 31
0.0
  0
LINE
  5
23F
330
146
100
AcDbEntity
  8
99
  6
AUSGEZOGEN
 62
     9
370
    18
100
AcDbLine
 10
96.56559753418
 20
90.587881045397
 30
0.0
 11
97.72029876709
 21
92.587881045397
 31
0.0
  0
LINE
  5
240
330
146
100
AcDbEntity
  8
99
  6
AUSGEZOGEN
 62
     9
370
    18
100
AcDbLine
 10
97.72029876709
 20
92.587881045397
 30
0.0
 11
96.56559753418
 21
94.587881045397
 31
0.0
  0
LINE
  5
241
330
146
100
AcDbEntity
  8
99
  6
AUSGEZOGEN
 62
     9
370
    18
100
AcDbLine
 10
96.56559753418
 20
94.587881045397
 30
0.0
 11
94.256195068359
 21
94.587881045397
 31
0.0
  0
LINE
  5
242
330
146
100
AcDbEntity
  8
70
  6
AUSGEZOGEN
 62
    56
370
    18
100
AcDbLine
 10
94.256195068359
 20
94.587881045397
 30
0.0
 11
95.41089630127
 21
92.587881045397
 31
0.0
  0
LINE
  5
243
330
146
100
AcDbEntity
  8
70
  6
AUSGEZOGEN
 62
    56
370
    18
100
AcDbLine
 10
95.41089630127
 20
92.587881045397
 30
0.0
 11
97.72029876709
 21
92.587881045397
 31
0.0
  0
LINE
  5
244
330
146
100
AcDbEntity
  8
70
  6
AUSGEZOGEN
 62
    56
370
    18
100
AcDbLine
 10
95.41089630127
 20
92.587881045397
 30
0.0
 11
94.256195068359
 21
90.587881045397
 31
0.0
  0
LINE
  5
245
330
146
100
AcDbEntity
  8
70
  6
AUSGEZOGEN
 62
    56
370
    18
100
AcDbLine
 10
95.41089630127
 20
88.587881045397
 30
0.0
 11
94.256195068359
 21
86.587881045397
 31
0.0
  0
LINE
  5
246
330
146
100
AcDbEntity
  8
70
  6
AUSGEZOGEN
 62
    56
370
    18
100
AcDbLine
 10
95.41089630127
 20
88.587881045397
 30
0.0
 11
97.72029876709
 21
88.587881045397
 31
0.0
  0
LINE
  5
247
330
146
100
AcDbEntity
  8
70
  6
AUSGEZOGEN
 62
    56
370
    18
100
AcDbLine
 10
94.256195068359
 20
90.587881045397
 30
0.0
 11
95.41089630127
 21
88.587881045397
 31
0.0
  0
LINE
  5
248
330
146
100
AcDbEntity
  8
99
  6
AUSGEZOGEN
 62
     9
370
    18
100
AcDbLine
 10
94.256195068359
 20
90.587881045397
 30
0.0
 11
93.101501464844
 21
88.587881045397
 31
0.0
  0
LINE
  5
249
330
146
100
AcDbEntity
  8
99
  6
AUSGEZOGEN
 62
     9
370
    18
100
AcDbLine
 10
93.101501464844
 20
88.587881045397
 30
0.0
 11
94.256195068359
 21
86.587881045397
 31
0.0
  0
LINE
  5
24A
330
146
100
AcDbEntity
  8
99
  6
AUSGEZOGEN
 62
     9
370
    18
100
AcDbLine
 10
94.256195068359
 20
86.587881045397
 30
0.0
 11
96.56559753418
 21
86.587881045397
 31
0.0
  0
LINE
  5
24B
330
146
100
AcDbEntity
  8
99
  6
AUSGEZOGEN
 62
     9
370
    18
100
AcDbLine
 10
96.56559753418
 20
86.587881045397
 30
0.0
 11
97.72029876709
 21
88.587881045397
 31
0.0
  0
LINE
  5
24C
330
146
100
AcDbEntity
  8
99
  6
AUSGEZOGEN
 62
     9
370
    18
100
AcDbLine
 10
97.72029876709
 20
88.587881045397
 30
0.0
 11
96.56559753418
 21
90.587881045397
 31
0.0
  0
LINE
  5
24D
330
146
100
AcDbEntity
  8
99
  6
AUSGEZOGEN
 62
     9
370
    18
100
AcDbLine
 10
96.56559753418
 20
90.587881045397
 30
0.0
 11
94.256195068359
 21
90.587881045397
 31
0.0
  0
LINE
  5
24E
330
146
100
AcDbEntity
  8
99
  6
AUSGEZOGEN
 62
     9
370
    18
100
AcDbLine
 10
100.588939854581
 20
85.556510169072
 30
0.0
 11
100.02970123291
 21
84.587881045397
 31
0.0
  0
LINE
  5
24F
330
146
100
AcDbEntity
  8
99
  6
AUSGEZOGEN
 62
     9
370
    18
100
AcDbLine
 10
100.340517867048
 20
89.126230923754
 30
0.0
 11
100.02970123291
 21
88.587881045397
 31
0.0
  0
LINE
  5
250
330
146
100
AcDbEntity
  8
99
  6
AUSGEZOGEN
 62
     9
370
    18
100
AcDbLine
 10
100.02970123291
 20
88.587881045397
 30
0.0
 11
100.588939854581
 21
87.619251921721
 31
0.0
  0
ENDBLK
  5
148
330
146
100
AcDbEntity
  8
0
100
AcDbBlockEnd
  0
BLOCK
  5
259
330
258
100
AcDbEntity
  8
0
100
AcDbBlockBegin
  2
L1_nNn01
 70
     0
 10
0.0
 20
0.0
 30
0.0
  3
L1_nNn01
  1

  0
LINE
  5
25B
330
258
100
AcDbEntity
  8
99
  6
AUSGEZOGEN
 62
     9
370
    18
100
AcDbLine
 10
100.637397766113
 20
124.215566265346
 30
0.0
 11
89.637397766113
 21
124.215566265346
 31
0.0
  0
LINE
  5
25C
330
258
100
AcDbEntity
  8
99
  6
DASHDOT
 62
    56
370
    18
100
AcDbLine
 10
89.637397766113
 20
125.765815578515
 30
0.0
 11
89.637397766113
 21
114.899126018219
 31
0.0
  0
ENDBLK
  5
25A
330
258
100
AcDbEntity
  8
0
100
AcDbBlockEnd
  0
BLOCK
  5
290
330
28F
100
AcDbEntity
  8
0
100
AcDbBlockBegin
  2
*D3
 70
     1
 10
0.0
 20
0.0
 30
0.0
  3
*D3
  1

  0
LINE
  5
292
330
28F
100
AcDbEntity
  8
99
  6
AUSGEZOGEN
 62
   136
370
    18
100
AcDbLine
 10
99.537397766113
 20
113.25
 30
0.0
 11
99.537397766113
 21
112.75
 31
0.0
  0
LINE
  5
293
330
28F
100
AcDbEntity
  8
99
  6
AUSGEZOGEN
 62
   136
370
    18
100
AcDbLine
 10
99.537397766113
 20
113.25
 30
0.0
 11
100.787397766113
 21
113.0
 31
0.0
  0
LINE
  5
294
330
28F
100
AcDbEntity
  8
99
  6
AUSGEZOGEN
 62
   136
370
    18
100
AcDbLine
 10
100.787397766113
 20
113.0
 30
0.0
 11
99.537397766113
 21
112.75
 31
0.0
  0
LINE
  5
295
330
28F
100
AcDbEntity
  8
99
  6
AUSGEZOGEN
 62
   136
370
    18
100
AcDbLine
 10
79.737397766113
 20
112.75
 30
0.0
 11
79.737397766113
 21
113.25
 31
0.0
  0
LINE
  5
296
330
28F
100
AcDbEntity
  8
99
  6
AUSGEZOGEN
 62
   136
370
    18
100
AcDbLine
 10
79.737397766113
 20
112.75
 30
0.0
 11
78.487397766113
 21
113.0
 31
0.0
  0
LINE
  5
297
330
28F
100
AcDbEntity
  8
99
  6
AUSGEZOGEN
 62
   136
370
    18
100
AcDbLine
 10
78.487397766113
 20
113.0
 30
0.0
 11
79.737397766113
 21
113.25
 31
0.0
  0
LINE
  5
298
330
28F
100
AcDbEntity
  8
99
  6
AUSGEZOGEN
 62
   136
370
    18
100
AcDbLine
 10
78.487397766113
 20
113.0
 30
0.0
 11
100.787397766113
 21
113.0
 31
0.0
  0
LINE
  5
299
330
28F
100
AcDbEntity
  8
99
  6
AUSGEZOGEN
 62
   136
370
    18
100
AcDbLine
 10
78.487397766113
 20
118.615566265347
 30
0.0
 11
78.487397766113
 21
117.915566265346
 31
0.0
  0
LINE
  5
29A
330
28F
100
AcDbEntity
  8
99
  6
AUSGEZOGEN
 62
   136
370
    18
100
AcDbLine
 10
78.487397766113
 20
116.915566265346
 30
0.0
 11
78.487397766113
 21
112.285714285714
 31
0.0
  0
LINE
  5
29B
330
28F
100
AcDbEntity
  8
99
  6
AUSGEZOGEN
 62
   136
370
    18
100
AcDbLine
 10
100.787397766113
 20
118.615566265346
 30
0.0
 11
100.787397766113
 21
117.915566265346
 31
0.0
  0
LINE
  5
29C
330
28F
100
AcDbEntity
  8
99
  6
AUSGEZOGEN
 62
   136
370
    18
100
AcDbLine
 10
100.787397766113
 20
116.915566265346
 30
0.0
 11
100.787397766113
 21
112.285714285714
 31
0.0
  0
TEXT
  5
29D
330
28F
100
AcDbEntity
  8
99
  6
AUSGEZOGEN
 62
   136
370
    18
100
AcDbText
 10
87.0
 20
113.5
 30
0.0
 40
1.25
  1
%%c22.3
 41
1.066017885324
  7
Arial
 72
     5
 11
92.06625
 21
113.5
 31
0.0
100
AcDbText
  0
ENDBLK
  5
291
330
28F
100
AcDbEntity
  8
0
100
AcDbBlockEnd
  0
BLOCK
  5
2A0
330
29F
100
AcDbEntity
  8
0
100
AcDbBlockBegin
  2
_CLOSED
 70
     0
 10
0.0
 20
0.0
 30
0.0
  3
_CLOSED
  1

  0
LINE
  5
2A2
330
29F
100
AcDbEntity
  8
0
  6
ByBlock
 62
     0
370
    -2
100
AcDbLine
 10
-1.0
 20
0.166667
 30
0.0
 11
0.0
 21
0.0
 31
0.0
  0
LINE
  5
2A3
330
29F
100
AcDbEntity
  8
0
  6
ByBlock
 62
     0
370
    -2
100
AcDbLine
 10
0.0
 20
0.0
 30
0.0
 11
-1.0
 21
-0.166667
 31
0.0
  0
LINE
  5
2A4
330
29F
100
AcDbEntity
  8
0
  6
ByBlock
 62
     0
370
    -2
100
AcDbLine
 10
-1.0
 20
0.166667
 30
0.0
 11
-1.0
 21
-0.166667
 31
0.0
  0
LINE
  5
2A5
330
29F
100
AcDbEntity
  8
0
  6
ByBlock
 62
     0
370
    -2
100
AcDbLine
 10
0.0
 20
0.0
 30
0.0
 11
-1.0
 21
0.0
 31
0.0
  0
ENDBLK
  5
2A1
330
29F
100
AcDbEntity
  8
0
100
AcDbBlockEnd
  0
BLOCK
  5
2A7
330
2A6
100
AcDbEntity
  8
0
100
AcDbBlockBegin
  2
*D5
 70
     1
 10
0.0
 20
0.0
 30
0.0
  3
*D5
  1

  0
LINE
  5
2A9
330
2A6
100
AcDbEntity
  8
99
  6
AUSGEZOGEN
 62
   136
370
    18
100
AcDbLine
 10
101.037397766113
 20
110.25
 30
0.0
 11
101.037397766113
 21
109.75
 31
0.0
  0
LINE
  5
2AA
330
2A6
100
AcDbEntity
  8
99
  6
AUSGEZOGEN
 62
   136
370
    18
100
AcDbLine
 10
101.037397766113
 20
110.25
 30
0.0
 11
102.287397766113
 21
110.0
 31
0.0
  0
LINE
  5
2AB
330
2A6
100
AcDbEntity
  8
99
  6
AUSGEZOGEN
 62
   136
370
    18
100
AcDbLine
 10
102.287397766113
 20
110.0
 30
0.0
 11
101.037397766113
 21
109.75
 31
0.0
  0
LINE
  5
2AC
330
2A6
100
AcDbEntity
  8
99
  6
AUSGEZOGEN
 62
   136
370
    18
100
AcDbLine
 10
78.237397766113
 20
109.75
 30
0.0
 11
78.237397766113
 21
110.25
 31
0.0
  0
LINE
  5
2AD
330
2A6
100
AcDbEntity
  8
99
  6
AUSGEZOGEN
 62
   136
370
    18
100
AcDbLine
 10
78.237397766113
 20
109.75
 30
0.0
 11
76.987397766113
 21
110.0
 31
0.0
  0
LINE
  5
2AE
330
2A6
100
AcDbEntity
  8
99
  6
AUSGEZOGEN
 62
   136
370
    18
100
AcDbLine
 10
76.987397766113
 20
110.0
 30
0.0
 11
78.237397766113
 21
110.25
 31
0.0
  0
LINE
  5
2AF
330
2A6
100
AcDbEntity
  8
99
  6
AUSGEZOGEN
 62
   136
370
    18
100
AcDbLine
 10
76.987397766113
 20
110.0
 30
0.0
 11
102.287397766113
 21
110.0
 31
0.0
  0
LINE
  5
2B0
330
2A6
100
AcDbEntity
  8
99
  6
AUSGEZOGEN
 62
   136
370
    18
100
AcDbLine
 10
76.987397766113
 20
117.415566265346
 30
0.0
 11
76.987397766113
 21
109.285714285714
 31
0.0
  0
LINE
  5
2B1
330
2A6
100
AcDbEntity
  8
99
  6
AUSGEZOGEN
 62
   136
370
    18
100
AcDbLine
 10
102.287397766113
 20
117.415566265346
 30
0.0
 11
102.287397766113
 21
109.285714285714
 31
0.0
  0
TEXT
  5
2B2
330
2A6
100
AcDbEntity
  8
99
  6
AUSGEZOGEN
 62
   136
370
    18
100
AcDbText
 10
87.0
 20
110.5
 30
0.0
 40
1.25
  1
%%c25.3
 41
1.066017885324
  7
Arial
 72
     5
 11
92.06625
 21
110.5
 31
0.0
100
AcDbText
  0
ENDBLK
  5
2A8
330
2A6
100
AcDbEntity
  8
0
100
AcDbBlockEnd
  0
BLOCK
  5
2B5
330
2B4
100
AcDbEntity
  8
0
100
AcDbBlockBegin
  2
*D6
 70
     1
 10
0.0
 20
0.0
 30
0.0
  3
*D6
  1

  0
LINE
  5
2B7
330
2B4
100
AcDbEntity
  8
99
  6
AUSGEZOGEN
 62
   136
370
    18
100
AcDbLine
 10
104.387397766113
 20
107.25
 30
0.0
 11
104.387397766113
 21
106.75
 31
0.0
  0
LINE
  5
2B8
330
2B4
100
AcDbEntity
  8
99
  6
AUSGEZOGEN
 62
   136
370
    18
100
AcDbLine
 10
104.387397766113
 20
107.25
 30
0.0
 11
105.637397766113
 21
107.0
 31
0.0
  0
LINE
  5
2B9
330
2B4
100
AcDbEntity
  8
99
  6
AUSGEZOGEN
 62
   136
370
    18
100
AcDbLine
 10
105.637397766113
 20
107.0
 30
0.0
 11
104.387397766113
 21
106.75
 31
0.0
  0
LINE
  5
2BA
330
2B4
100
AcDbEntity
  8
99
  6
AUSGEZOGEN
 62
   136
370
    18
100
AcDbLine
 10
74.887397766113
 20
106.75
 30
0.0
 11
74.887397766113
 21
107.25
 31
0.0
  0
LINE
  5
2BB
330
2B4
100
AcDbEntity
  8
99
  6
AUSGEZOGEN
 62
   136
370
    18
100
AcDbLine
 10
74.887397766113
 20
106.75
 30
0.0
 11
73.637397766113
 21
107.0
 31
0.0
  0
LINE
  5
2BC
330
2B4
100
AcDbEntity
  8
99
  6
AUSGEZOGEN
 62
   136
370
    18
100
AcDbLine
 10
73.637397766113
 20
107.0
 30
0.0
 11
74.887397766113
 21
107.25
 31
0.0
  0
LINE
  5
2BD
330
2B4
100
AcDbEntity
  8
99
  6
AUSGEZOGEN
 62
   136
370
    18
100
AcDbLine
 10
73.637397766113
 20
107.0
 30
0.0
 11
105.637397766113
 21
107.0
 31
0.0
  0
LINE
  5
2BE
330
2B4
100
AcDbEntity
  8
99
  6
AUSGEZOGEN
 62
   136
370
    18
100
AcDbLine
 10
73.637397766113
 20
120.315566265346
 30
0.0
 11
73.637397766113
 21
106.285714285714
 31
0.0
  0
LINE
  5
2BF
330
2B4
100
AcDbEntity
  8
99
  6
AUSGEZOGEN
 62
   136
370
    18
100
AcDbLine
 10
105.637397766113
 20
120.315566265346
 30
0.0
 11
105.637397766113
 21
106.285714285714
 31
0.0
  0
TEXT
  5
2C0
330
2B4
100
AcDbEntity
  8
99
  6
AUSGEZOGEN
 62
   136
370
    18
100
AcDbText
 10
88.0
 20
107.5
 30
0.0
 40
1.25
  1
%%c32
 41
1.034874905231
  7
Arial
 72
     5
 11
91.4125
 21
107.5
 31
0.0
100
AcDbText
  0
ENDBLK
  5
2B6
330
2B4
100
AcDbEntity
  8
0
100
AcDbBlockEnd
  0
BLOCK
  5
2C3
330
2C2
100
AcDbEntity
  8
0
100
AcDbBlockBegin
  2
*D7
 70
     1
 10
0.0
 20
0.0
 30
0.0
  3
*D7
  1

  0
LINE
  5
2C5
330
2C2
100
AcDbEntity
  8
99
  6
AUSGEZOGEN
 62
   136
370
    18
100
AcDbLine
 10
100.787397766113
 20
127.25
 30
0.0
 11
100.787397766113
 21
126.75
 31
0.0
  0
LINE
  5
2C6
330
2C2
100
AcDbEntity
  8
99
  6
AUSGEZOGEN
 62
   136
370
    18
100
AcDbLine
 10
100.787397766113
 20
127.25
 30
0.0
 11
102.037397766113
 21
127.0
 31
0.0
  0
LINE
  5
2C7
330
2C2
100
AcDbEntity
  8
99
  6
AUSGEZOGEN
 62
   136
370
    18
100
AcDbLine
 10
102.037397766113
 20
127.0
 30
0.0
 11
100.787397766113
 21
126.75
 31
0.0
  0
LINE
  5
2C8
330
2C2
100
AcDbEntity
  8
99
  6
AUSGEZOGEN
 62
   136
370
    18
100
AcDbLine
 10
78.487397766113
 20
126.75
 30
0.0
 11
78.487397766113
 21
127.25
 31
0.0
  0
LINE
  5
2C9
330
2C2
100
AcDbEntity
  8
99
  6
AUSGEZOGEN
 62
   136
370
    18
100
AcDbLine
 10
78.487397766113
 20
126.75
 30
0.0
 11
77.237397766113
 21
127.0
 31
0.0
  0
LINE
  5
2CA
330
2C2
100
AcDbEntity
  8
99
  6
AUSGEZOGEN
 62
   136
370
    18
100
AcDbLine
 10
77.237397766113
 20
127.0
 30
0.0
 11
78.487397766113
 21
127.25
 31
0.0
  0
LINE
  5
2CB
330
2C2
100
AcDbEntity
  8
99
  6
AUSGEZOGEN
 62
   136
370
    18
100
AcDbLine
 10
77.237397766113
 20
127.0
 30
0.0
 11
102.037397766113
 21
127.0
 31
0.0
  0
LINE
  5
2CC
330
2C2
100
AcDbEntity
  8
99
  6
AUSGEZOGEN
 62
   136
370
    18
100
AcDbLine
 10
77.237397766113
 20
124.415566265346
 30
0.0
 11
77.237397766113
 21
127.714285714286
 31
0.0
  0
LINE
  5
2CD
330
2C2
100
AcDbEntity
  8
99
  6
AUSGEZOGEN
 62
   136
370
    18
100
AcDbLine
 10
102.037397766113
 20
124.415566265346
 30
0.0
 11
102.037397766113
 21
127.714285714286
 31
0.0
  0
TEXT
  5
2CE
330
2C2
100
AcDbEntity
  8
99
  6
AUSGEZOGEN
 62
   136
370
    18
100
AcDbText
 10
87.0
 20
127.825
 30
0.0
 40
1.25
  1
%%c24.8
 41
1.066017885324
  7
Arial
 72
     5
 11
92.06625
 21
127.825
 31
0.0
100
AcDbText
  0
TEXT
  5
2CF
330
2C2
100
AcDbEntity
  8
99
  6
AUSGEZOGEN
 62
   136
370
    18
100
AcDbText
 10
92.06625
 20
127.3125
 30
0.0
 40
0.875
  1
-0.2
 41
1.135135135135
  7
Arial
 72
     5
 11
94.455
 21
127.3125
 31
0.0
100
AcDbText
  0
ENDBLK
  5
2C4
330
2C2
100
AcDbEntity
  8
0
100
AcDbBlockEnd
  0
BLOCK
  5
2D2
330
2D1
100
AcDbEntity
  8
0
100
AcDbBlockBegin
  2
*D8
 70
     1
 10
0.0
 20
0.0
 30
0.0
  3
*D8
  1

  0
LINE
  5
2D4
330
2D1
100
AcDbEntity
  8
99
  6
AUSGEZOGEN
 62
   136
370
    18
100
AcDbLine
 10
111.75
 20
120.565566265346
 30
0.0
 11
112.25
 21
120.565566265346
 31
0.0
  0
LINE
  5
2D5
330
2D1
100
AcDbEntity
  8
99
  6
AUSGEZOGEN
 62
   136
370
    18
100
AcDbLine
 10
111.75
 20
120.565566265346
 30
0.0
 11
112.0
 21
121.815566265346
 31
0.0
  0
LINE
  5
2D6
330
2D1
100
AcDbEntity
  8
99
  6
AUSGEZOGEN
 62
   136
370
    18
100
AcDbLine
 10
112.0
 20
121.815566265346
 30
0.0
 11
112.25
 21
120.565566265346
 31
0.0
  0
LINE
  5
2D7
330
2D1
100
AcDbEntity
  8
99
  6
AUSGEZOGEN
 62
   136
370
    18
100
AcDbLine
 10
112.25
 20
125.665566265346
 30
0.0
 11
111.75
 21
125.665566265346
 31
0.0
  0
LINE
  5
2D8
330
2D1
100
AcDbEntity
  8
99
  6
AUSGEZOGEN
 62
   136
370
    18
100
AcDbLine
 10
112.25
 20
125.665566265346
 30
0.0
 11
112.0
 21
124.415566265346
 31
0.0
  0
LINE
  5
2D9
330
2D1
100
AcDbEntity
  8
99
  6
AUSGEZOGEN
 62
   136
370
    18
100
AcDbLine
 10
112.0
 20
124.415566265346
 30
0.0
 11
111.75
 21
125.665566265346
 31
0.0
  0
LINE
  5
2DA
330
2D1
100
AcDbEntity
  8
99
  6
AUSGEZOGEN
 62
   136
370
    18
100
AcDbLine
 10
112.0
 20
124.415566265346
 30
0.0
 11
112.0
 21
121.815566265346
 31
0.0
  0
LINE
  5
2DB
330
2D1
100
AcDbEntity
  8
99
  6
AUSGEZOGEN
 62
   136
370
    18
100
AcDbLine
 10
112.0
 20
121.815566265346
 30
0.0
 11
112.0
 21
119.315566265346
 31
0.0
  0
LINE
  5
2DC
330
2D1
100
AcDbEntity
  8
99
  6
AUSGEZOGEN
 62
   136
370
    18
100
AcDbLine
 10
112.0
 20
124.415566265346
 30
0.0
 11
112.0
 21
126.915566265346
 31
0.0
  0
LINE
  5
2DD
330
2D1
100
AcDbEntity
  8
99
  6
AUSGEZOGEN
 62
   136
370
    18
100
AcDbLine
 10
112.0
 20
124.415566265346
 30
0.0
 11
112.0
 21
128.75625
 31
0.0
  0
LINE
  5
2DE
330
2D1
100
AcDbEntity
  8
99
  6
AUSGEZOGEN
 62
   136
370
    18
100
AcDbLine
 10
102.037397766113
 20
124.415566265346
 30
0.0
 11
112.714285714286
 21
124.415566265346
 31
0.0
  0
LINE
  5
2DF
330
2D1
100
AcDbEntity
  8
99
  6
AUSGEZOGEN
 62
   136
370
    18
100
AcDbLine
 10
105.637397766113
 20
121.815566265346
 30
0.0
 11
112.714285714286
 21
121.815566265346
 31
0.0
  0
TEXT
  5
2E0
330
2D1
100
AcDbEntity
  8
99
  6
AUSGEZOGEN
 62
   136
370
    18
100
AcDbText
 10
111.5
 20
126.0
 30
0.0
 40
1.25
  1
2.6
 50
90.0
 41
1.136597938144
  7
Arial
 72
     5
 11
111.5
 21
128.75625
 31
0.0
100
AcDbText
  0
ENDBLK
  5
2D3
330
2D1
100
AcDbEntity
  8
0
100
AcDbBlockEnd
  0
BLOCK
  5
2E3
330
2E2
100
AcDbEntity
  8
0
100
AcDbBlockBegin
  2
*D9
 70
     1
 10
0.0
 20
0.0
 30
0.0
  3
*D9
  1

  0
LINE
  5
2E5
330
2E2
100
AcDbEntity
  8
99
  6
AUSGEZOGEN
 62
   136
370
    18
100
AcDbLine
 10
115.25
 20
121.565566265346
 30
0.0
 11
114.75
 21
121.565566265346
 31
0.0
  0
LINE
  5
2E6
330
2E2
100
AcDbEntity
  8
99
  6
AUSGEZOGEN
 62
   136
370
    18
100
AcDbLine
 10
115.25
 20
121.565566265346
 30
0.0
 11
115.0
 21
120.315566265346
 31
0.0
  0
LINE
  5
2E7
330
2E2
100
AcDbEntity
  8
99
  6
AUSGEZOGEN
 62
   136
370
    18
100
AcDbLine
 10
115.0
 20
120.315566265346
 30
0.0
 11
114.75
 21
121.565566265346
 31
0.0
  0
LINE
  5
2E8
330
2E2
100
AcDbEntity
  8
99
  6
AUSGEZOGEN
 62
   136
370
    18
100
AcDbLine
 10
114.75
 20
123.165566265346
 30
0.0
 11
115.25
 21
123.165566265346
 31
0.0
  0
LINE
  5
2E9
330
2E2
100
AcDbEntity
  8
99
  6
AUSGEZOGEN
 62
   136
370
    18
100
AcDbLine
 10
114.75
 20
123.165566265346
 30
0.0
 11
115.0
 21
124.415566265346
 31
0.0
  0
LINE
  5
2EA
330
2E2
100
AcDbEntity
  8
99
  6
AUSGEZOGEN
 62
   136
370
    18
100
AcDbLine
 10
115.0
 20
124.415566265346
 30
0.0
 11
115.25
 21
123.165566265346
 31
0.0
  0
LINE
  5
2EB
330
2E2
100
AcDbEntity
  8
99
  6
AUSGEZOGEN
 62
   136
370
    18
100
AcDbLine
 10
115.0
 20
124.415566265346
 30
0.0
 11
115.0
 21
120.315566265346
 31
0.0
  0
LINE
  5
2EC
330
2E2
100
AcDbEntity
  8
99
  6
AUSGEZOGEN
 62
   136
370
    18
100
AcDbLine
 10
102.037397766113
 20
124.415566265346
 30
0.0
 11
109.5
 21
124.415566265346
 31
0.0
  0
LINE
  5
2ED
330
2E2
100
AcDbEntity
  8
99
  6
AUSGEZOGEN
 62
   136
370
    18
100
AcDbLine
 10
110.5
 20
124.415566265346
 30
0.0
 11
115.714285714286
 21
124.415566265346
 31
0.0
  0
LINE
  5
2EE
330
2E2
100
AcDbEntity
  8
99
  6
AUSGEZOGEN
 62
   136
370
    18
100
AcDbLine
 10
105.637397766113
 20
120.315566265346
 30
0.0
 11
115.714285714286
 21
120.315566265346
 31
0.0
  0
TEXT
  5
2EF
330
2E2
100
AcDbEntity
  8
99
  6
AUSGEZOGEN
 62
   136
370
    18
100
AcDbText
 10
114.5
 20
121.0
 30
0.0
 40
1.25
  1
4.1
 50
90.0
 41
1.136597938144
  7
Arial
 72
     5
 11
114.5
 21
123.75625
 31
0.0
100
AcDbText
  0
ENDBLK
  5
2E4
330
2E2
100
AcDbEntity
  8
0
100
AcDbBlockEnd
  0
BLOCK
  5
2F2
330
2F1
100
AcDbEntity
  8
0
100
AcDbBlockBegin
  2
*D10
 70
     1
 10
0.0
 20
0.0
 30
0.0
  3
*D10
  1

  0
LINE
  5
2F4
330
2F1
100
AcDbEntity
  8
99
  6
AUSGEZOGEN
 62
   136
370
    18
100
AcDbLine
 10
118.25
 20
118.665566265346
 30
0.0
 11
117.75
 21
118.665566265346
 31
0.0
  0
LINE
  5
2F5
330
2F1
100
AcDbEntity
  8
99
  6
AUSGEZOGEN
 62
   136
370
    18
100
AcDbLine
 10
118.25
 20
118.665566265346
 30
0.0
 11
118.0
 21
117.415566265346
 31
0.0
  0
LINE
  5
2F6
330
2F1
100
AcDbEntity
  8
99
  6
AUSGEZOGEN
 62
   136
370
    18
100
AcDbLine
 10
118.0
 20
117.415566265346
 30
0.0
 11
117.75
 21
118.665566265346
 31
0.0
  0
LINE
  5
2F7
330
2F1
100
AcDbEntity
  8
99
  6
AUSGEZOGEN
 62
   136
370
    18
100
AcDbLine
 10
117.75
 20
123.165566265346
 30
0.0
 11
118.25
 21
123.165566265346
 31
0.0
  0
LINE
  5
2F8
330
2F1
100
AcDbEntity
  8
99
  6
AUSGEZOGEN
 62
   136
370
    18
100
AcDbLine
 10
117.75
 20
123.165566265346
 30
0.0
 11
118.0
 21
124.415566265346
 31
0.0
  0
LINE
  5
2F9
330
2F1
100
AcDbEntity
  8
99
  6
AUSGEZOGEN
 62
   136
370
    18
100
AcDbLine
 10
118.0
 20
124.415566265346
 30
0.0
 11
118.25
 21
123.165566265346
 31
0.0
  0
LINE
  5
2FA
330
2F1
100
AcDbEntity
  8
99
  6
AUSGEZOGEN
 62
   136
370
    18
100
AcDbLine
 10
118.0
 20
124.415566265346
 30
0.0
 11
118.0
 21
117.415566265346
 31
0.0
  0
LINE
  5
2FB
330
2F1
100
AcDbEntity
  8
99
  6
AUSGEZOGEN
 62
   136
370
    18
100
AcDbLine
 10
102.037397766113
 20
124.415566265346
 30
0.0
 11
109.5
 21
124.415566265346
 31
0.0
  0
LINE
  5
2FC
330
2F1
100
AcDbEntity
  8
99
  6
AUSGEZOGEN
 62
   136
370
    18
100
AcDbLine
 10
110.5
 20
124.415566265346
 30
0.0
 11
112.5
 21
124.415566265346
 31
0.0
  0
LINE
  5
2FD
330
2F1
100
AcDbEntity
  8
99
  6
AUSGEZOGEN
 62
   136
370
    18
100
AcDbLine
 10
113.5
 20
124.415566265346
 30
0.0
 11
118.714285714286
 21
124.415566265346
 31
0.0
  0
LINE
  5
2FE
330
2F1
100
AcDbEntity
  8
99
  6
AUSGEZOGEN
 62
   136
370
    18
100
AcDbLine
 10
102.287397766113
 20
117.415566265346
 30
0.0
 11
118.714285714286
 21
117.415566265346
 31
0.0
  0
TEXT
  5
2FF
330
2F1
100
AcDbEntity
  8
99
  6
AUSGEZOGEN
 62
   136
370
    18
100
AcDbText
 10
117.5
 20
120.0
 30
0.0
 40
1.25
  1
7
 50
90.0
 41
1.136597938144
  7
Arial
 72
     5
 11
117.5
 21
121.1025
 31
0.0
100
AcDbText
  0
TEXT
  5
300
330
2F1
100
AcDbEntity
  8
99
  6
AUSGEZOGEN
 62
   136
370
    18
100
AcDbText
 10
117.3125
 20
121.1025
 30
0.0
 40
0.875
  1
%%p0.3
 50
90.0
 41
1.135624538064
  7
Arial
 72
     5
 11
117.3125
 21
123.791375
 31
0.0
100
AcDbText
  0
ENDBLK
  5
2F3
330
2F1
100
AcDbEntity
  8
0
100
AcDbBlockEnd
  0
BLOCK
  5
303
330
302
100
AcDbEntity
  8
0
100
AcDbBlockBegin
  2
*D11
 70
     1
 10
0.0
 20
0.0
 30
0.0
  3
*D11
  1

  0
LINE
  5
305
330
302
100
AcDbEntity
  8
99
  6
AUSGEZOGEN
 62
   136
370
    18
100
AcDbLine
 10
71.25
 20
119.865566265346
 30
0.0
 11
70.75
 21
119.865566265346
 31
0.0
  0
LINE
  5
306
330
302
100
AcDbEntity
  8
99
  6
AUSGEZOGEN
 62
   136
370
    18
100
AcDbLine
 10
71.25
 20
119.865566265346
 30
0.0
 11
71.0
 21
118.615566265346
 31
0.0
  0
LINE
  5
307
330
302
100
AcDbEntity
  8
99
  6
AUSGEZOGEN
 62
   136
370
    18
100
AcDbLine
 10
71.0
 20
118.615566265346
 30
0.0
 11
70.75
 21
119.865566265346
 31
0.0
  0
LINE
  5
308
330
302
100
AcDbEntity
  8
99
  6
AUSGEZOGEN
 62
   136
370
    18
100
AcDbLine
 10
70.75
 20
116.165566265346
 30
0.0
 11
71.25
 21
116.165566265346
 31
0.0
  0
LINE
  5
309
330
302
100
AcDbEntity
  8
99
  6
AUSGEZOGEN
 62
   136
370
    18
100
AcDbLine
 10
70.75
 20
116.165566265346
 30
0.0
 11
71.0
 21
117.415566265346
 31
0.0
  0
LINE
  5
30A
330
302
100
AcDbEntity
  8
99
  6
AUSGEZOGEN
 62
   136
370
    18
100
AcDbLine
 10
71.0
 20
117.415566265346
 30
0.0
 11
71.25
 21
116.165566265346
 31
0.0
  0
LINE
  5
30B
330
302
100
AcDbEntity
  8
99
  6
AUSGEZOGEN
 62
   136
370
    18
100
AcDbLine
 10
71.0
 20
117.415566265346
 30
0.0
 11
71.0
 21
118.615566265346
 31
0.0
  0
LINE
  5
30C
330
302
100
AcDbEntity
  8
99
  6
AUSGEZOGEN
 62
   136
370
    18
100
AcDbLine
 10
71.0
 20
118.615566265346
 30
0.0
 11
71.0
 21
121.115566265346
 31
0.0
  0
LINE
  5
30D
330
302
100
AcDbEntity
  8
99
  6
AUSGEZOGEN
 62
   136
370
    18
100
AcDbLine
 10
71.0
 20
117.415566265346
 30
0.0
 11
71.0
 21
114.915566265346
 31
0.0
  0
LINE
  5
30E
330
302
100
AcDbEntity
  8
99
  6
AUSGEZOGEN
 62
   136
370
    18
100
AcDbLine
 10
71.0
 20
118.615566265346
 30
0.0
 11
71.0
 21
122.75625
 31
0.0
  0
LINE
  5
30F
330
302
100
AcDbEntity
  8
99
  6
AUSGEZOGEN
 62
   136
370
    18
100
AcDbLine
 10
76.987397766113
 20
117.415566265346
 30
0.0
 11
70.285714285714
 21
117.415566265346
 31
0.0
  0
LINE
  5
310
330
302
100
AcDbEntity
  8
99
  6
AUSGEZOGEN
 62
   136
370
    18
100
AcDbLine
 10
78.487397766113
 20
118.615566265346
 30
0.0
 11
77.487397766113
 21
118.615566265346
 31
0.0
  0
LINE
  5
311
330
302
100
AcDbEntity
  8
99
  6
AUSGEZOGEN
 62
   136
370
    18
100
AcDbLine
 10
76.487397766113
 20
118.615566265346
 30
0.0
 11
70.285714285714
 21
118.615566265346
 31
0.0
  0
TEXT
  5
312
330
302
100
AcDbEntity
  8
99
  6
AUSGEZOGEN
 62
   136
370
    18
100
AcDbText
 10
70.5
 20
120.0
 30
0.0
 40
1.25
  1
1.2
 50
90.0
 41
1.136597938144
  7
Arial
 72
     5
 11
70.5
 21
122.75625
 31
0.0
100
AcDbText
  0
ENDBLK
  5
304
330
302
100
AcDbEntity
  8
0
100
AcDbBlockEnd
  0
BLOCK
  5
315
330
314
100
AcDbEntity
  8
0
100
AcDbBlockBegin
  2
A4_nNn010
 70
     0
 10
0.0
 20
0.0
 30
0.0
  3
A4_nNn010
  1

  0
LINE
  5
317
330
314
100
AcDbEntity
  8
Layer99
  6
AUSGEZOGEN
 62
     9
370
    18
100
AcDbLine
 10
44.334417527124
 20
21.194197359775
 30
0.0
 11
138.334417527124
 21
21.194197359775
 31
0.0
  0
LINE
  5
318
330
314
100
AcDbEntity
  8
Layer99
  6
AUSGEZOGEN
 62
     9
370
    18
100
AcDbLine
 10
138.334417527124
 20
21.194197359775
 30
0.0
 11
138.334417527124
 21
156.084197359774
 31
0.0
  0
LINE
  5
319
330
314
100
AcDbEntity
  8
99
  6
AUSGEZOGEN
 62
     9
370
    18
100
AcDbLine
 10
44.334417527124
 20
21.194197359775
 30
0.0
 11
44.334417527124
 21
156.084197359774
 31
0.0
  0
LINE
  5
31A
330
314
100
AcDbEntity
  8
99
  6
AUSGEZOGEN
 62
     9
370
    18
100
AcDbLine
 10
44.334417527124
 20
156.084197359774
 30
0.0
 11
138.334417527124
 21
156.084197359774
 31
0.0
  0
LINE
  5
31B
330
314
100
AcDbEntity
  8
99
  6
AUSGEZOGEN
 62
    56
370
    18
100
AcDbLine
 10
41.984417527124
 20
158.434197359775
 30
0.0
 11
140.684417527124
 21
158.434197359775
 31
0.0
  0
LINE
  5
31C
330
314
100
AcDbEntity
  8
99
  6
AUSGEZOGEN
 62
    56
370
    18
100
AcDbLine
 10
41.984417527124
 20
18.844197359775
 30
0.0
 11
41.984417527124
 21
158.434197359775
 31
0.0
  0
LINE
  5
31D
330
314
100
AcDbEntity
  8
99
  6
AUSGEZOGEN
 62
    56
370
    18
100
AcDbLine
 10
41.984417527124
 20
18.844197359775
 30
0.0
 11
140.684417527124
 21
18.844197359775
 31
0.0
  0
LINE
  5
31E
330
314
100
AcDbEntity
  8
99
  6
AUSGEZOGEN
 62
    56
370
    18
100
AcDbLine
 10
140.684417527124
 20
18.844197359775
 30
0.0
 11
140.684417527124
 21
158.434197359775
 31
0.0
  0
INSERT
  5
36B
330
314
100
AcDbEntity
  8
0
100
AcDbBlockReference
  2
Schriftfeld_nNn011
 10
0.0
 20
0.0
 30
0.0
  0
ENDBLK
  5
316
330
314
100
AcDbEntity
  8
0
100
AcDbBlockEnd
  0
BLOCK
  5
320
330
31F
100
AcDbEntity
  8
0
100
AcDbBlockBegin
  2
Schriftfeld_nNn011
 70
     0
 10
0.0
 20
0.0
 30
0.0
  3
Schriftfeld_nNn011
  1

  0
LINE
  5
322
330
31F
100
AcDbEntity
  8
Layer99
  6
AUSGEZOGEN
 62
    56
370
    18
100
AcDbLine
 10
81.934417527124
 20
39.171697359775
 30
0.0
 11
81.934417527124
 21
31.181697359775
 31
0.0
  0
LINE
  5
323
330
31F
100
AcDbEntity
  8
Layer99
  6
AUSGEZOGEN
 62
    56
370
    18
100
AcDbLine
 10
55.050440476343
 20
39.171697359775
 30
0.0
 11
55.050440476343
 21
21.194197359775
 31
0.0
  0
LINE
  5
324
330
31F
100
AcDbEntity
  8
Layer99
  6
AUSGEZOGEN
 62
     9
370
    18
100
AcDbLine
 10
132.224417527124
 20
29.184197359775
 30
0.0
 11
132.224417527124
 21
23.473698435519
 31
0.0
  0
LINE
  5
325
330
31F
100
AcDbEntity
  8
Layer99
  6
AUSGEZOGEN
 62
    56
370
    18
100
AcDbLine
 10
77.046406052515
 20
23.191697359775
 30
0.0
 11
51.384417527124
 21
23.191697359775
 31
0.0
  0
LINE
  5
326
330
31F
100
AcDbEntity
  8
Layer99
  6
AUSGEZOGEN
 62
    56
370
    18
100
AcDbLine
 10
77.046406052515
 20
25.189197359775
 30
0.0
 11
51.384417527124
 21
25.189197359775
 31
0.0
  0
LINE
  5
327
330
31F
100
AcDbEntity
  8
Layer99
  6
AUSGEZOGEN
 62
    56
370
    18
100
AcDbLine
 10
77.046406052515
 20
27.186697359775
 30
0.0
 11
51.384417527124
 21
27.186697359775
 31
0.0
  0
LINE
  5
328
330
31F
100
AcDbEntity
  8
Layer99
  6
AUSGEZOGEN
 62
    56
370
    18
100
AcDbLine
 10
77.046406052515
 20
29.184197359775
 30
0.0
 11
51.384417527124
 21
29.184197359775
 31
0.0
  0
LINE
  5
329
330
31F
100
AcDbEntity
  8
Layer99
  6
AUSGEZOGEN
 62
     9
370
    18
100
AcDbLine
 10
138.334417527124
 20
29.184197359775
 30
0.0
 11
77.046406052515
 21
29.184197359775
 31
0.0
  0
LINE
  5
32A
330
31F
100
AcDbEntity
  8
Layer99
  6
AUSGEZOGEN
 62
    56
370
    18
100
AcDbLine
 10
97.820440476343
 20
31.181697359775
 30
0.0
 11
51.384417527124
 21
31.181697359775
 31
0.0
  0
LINE
  5
32B
330
31F
100
AcDbEntity
  8
Layer99
  6
AUSGEZOGEN
 62
    56
370
    18
100
AcDbLine
 10
97.820440476343
 20
33.179197359775
 30
0.0
 11
51.384417527124
 21
33.179197359775
 31
0.0
  0
LINE
  5
32C
330
31F
100
AcDbEntity
  8
Layer99
  6
AUSGEZOGEN
 62
    56
370
    18
100
AcDbLine
 10
97.820440476343
 20
35.176697359775
 30
0.0
 11
51.384417527124
 21
35.176697359775
 31
0.0
  0
LINE
  5
32D
330
31F
100
AcDbEntity
  8
Layer99
  6
AUSGEZOGEN
 62
    56
370
    18
100
AcDbLine
 10
97.820440476343
 20
37.174197359775
 30
0.0
 11
51.384417527124
 21
37.174197359775
 31
0.0
  0
LINE
  5
32E
330
31F
100
AcDbEntity
  8
Layer99
  6
AUSGEZOGEN
 62
     9
370
    18
100
AcDbLine
 10
138.334417527124
 20
39.171697359775
 30
0.0
 11
51.384417527124
 21
39.171697359775
 31
0.0
  0
LINE
  5
32F
330
31F
100
AcDbEntity
  8
Layer99
  6
AUSGEZOGEN
 62
    56
370
    18
100
AcDbLine
 10
77.046406052515
 20
44.165447359775
 30
0.0
 11
51.384417527124
 21
44.165447359775
 31
0.0
  0
LINE
  5
330
330
31F
100
AcDbEntity
  8
Layer99
  6
AUSGEZOGEN
 62
    56
370
    18
100
AcDbLine
 10
138.334417527124
 20
44.165447359775
 30
0.0
 11
97.820440476343
 21
44.165447359775
 31
0.0
  0
LINE
  5
331
330
31F
100
AcDbEntity
  8
Layer99
  6
AUSGEZOGEN
 62
    56
370
    18
100
AcDbLine
 10
121.226406052515
 20
47.161697359775
 30
0.0
 11
121.226406052515
 21
44.165447359775
 31
0.0
  0
LINE
  5
332
330
31F
100
AcDbEntity
  8
Layer99
  6
AUSGEZOGEN
 62
     9
370
    18
100
AcDbLine
 10
97.820440476343
 20
47.161697359775
 30
0.0
 11
97.820440476343
 21
23.473698435519
 31
0.0
  0
LINE
  5
333
330
31F
100
AcDbEntity
  8
Layer99
  6
AUSGEZOGEN
 62
    56
370
    18
100
AcDbLine
 10
89.266406052515
 20
39.171697359775
 30
0.0
 11
89.266406052515
 21
29.184197359775
 31
0.0
  0
LINE
  5
334
330
31F
100
AcDbEntity
  8
Layer99
  6
AUSGEZOGEN
 62
     9
370
    18
100
AcDbLine
 10
77.046406052515
 20
47.161697359775
 30
0.0
 11
77.046406052515
 21
21.194197359775
 31
0.0
  0
LINE
  5
335
330
31F
100
AcDbEntity
  8
Layer99
  6
AUSGEZOGEN
 62
     9
370
    18
100
AcDbLine
 10
51.384417527124
 20
47.161697359775
 30
0.0
 11
51.384417527124
 21
21.194197359775
 31
0.0
  0
LINE
  5
336
330
31F
100
AcDbEntity
  8
Layer99
  6
AUSGEZOGEN
 62
     9
370
    18
100
AcDbLine
 10
138.334417527124
 20
47.161697359775
 30
0.0
 11
51.384417527124
 21
47.161697359775
 31
0.0
  0
TEXT
  5
337
330
31F
100
AcDbEntity
  8
Layer99
  6
AUSGEZOGEN
 62
    56
370
    18
100
AcDbText
 10
77.374120896265
 20
35.623352625583
 30
0.0
 40
0.94
  1
Bearb. 27.10.03   Ms
 41
1.271590688783
  7
Arial
 72
     5
 11
92.861561417553
 21
35.623352625583
 31
0.0
100
AcDbText
  0
TEXT
  5
338
330
31F
100
AcDbEntity
  8
Layer99
  6
AUSGEZOGEN
 62
    56
370
    18
100
AcDbText
 10
77.482842820093
 20
33.665210535739
 30
0.0
 40
0.94
  1
Gepr.
 41
1.215533862924
  7
Arial
 72
     5
 11
81.471665812632
 21
33.665210535739
 31
0.0
100
AcDbText
  0
TEXT
  5
339
330
31F
100
AcDbEntity
  8
Layer99
  6
AUSGEZOGEN
 62
    56
370
    18
100
AcDbText
 10
77.482842820093
 20
31.59828914902
 30
0.0
 40
0.94
  1
Norm
 41
1.171328125812
  7
Arial
 72
     5
 11
81.239620091447
 21
31.59828914902
 31
0.0
100
AcDbText
  0
TEXT
  5
33A
330
31F
100
AcDbEntity
  8
Layer99
  6
AUSGEZOGEN
 62
    56
370
    18
100
AcDbText
 10
133.136189988062
 20
27.656987810824
 30
0.0
 40
1.175
  1
Blatt
 41
1.26499927539
  7
Arial
 72
     5
 11
137.287632985055
 21
27.656987810824
 31
0.0
100
AcDbText
  0
TEXT
  5
33B
330
31F
100
AcDbEntity
  8
99
  6
AUSGEZOGEN
 62
   136
370
    18
100
AcDbText
 10
78.474937546655
 20
45.045141115878
 30
0.0
 40
1.175
  1
Allgemeintoleranzen
 41
1.263559891189
  7
Arial
 72
     5
 11
97.24875246495
 21
45.045141115878
 31
0.0
100
AcDbText
  0
TEXT
  5
33C
330
31F
100
AcDbEntity
  8
99
  6
AUSGEZOGEN
 62
   136
370
    18
100
AcDbText
 10
78.148198044702
 20
42.866270571444
 30
0.0
 40
1.175
  1
Nach:TG5
 41
1.208435372443
  7
Arial
 72
     5
 11
87.180255494535
 21
42.866270571444
 31
0.0
100
AcDbText
  0
TEXT
  5
33D
330
31F
100
AcDbEntity
  8
99
  6
AUSGEZOGEN
 62
   136
370
    18
100
AcDbText
 10
78.227258103296
 20
40.68739285538
 30
0.0
 40
1.175
  1
DIN:16742
 41
1.226790038159
  7
Arial
 72
     5
 11
87.844801286444
 21
40.68739285538
 31
0.0
100
AcDbText
  0
TEXT
  5
33E
330
31F
100
AcDbEntity
  8
99
  6
AUSGEZOGEN
 62
    56
370
    18
100
AcDbText
 10
121.984304001733
 20
45.154085360263
 30
0.0
 40
1.175
  1
Gewicht:
 41
1.240831402125
  7
Arial
 72
     5
 11
129.901118555143
 21
45.154085360263
 31
0.0
100
AcDbText
  0
TEXT
  5
33F
330
31F
100
AcDbEntity
  8
99
  6
AUSGEZOGEN
 62
    56
370
    18
100
AcDbText
 10
98.437717087671
 20
41.895948916171
 30
0.0
 40
1.175
  1
Werkstoff/Farbe: siehe Zeichnung
 41
1.273124130626
  7
Arial
 72
     5
 11
129.771275284782
 21
41.895948916171
 31
0.0
100
AcDbText
  0
TEXT
  5
340
330
31F
100
AcDbEntity
  8
99
  6
AUSGEZOGEN
 62
    56
370
    18
100
AcDbText
 10
98.437717087671
 20
45.164046755526
 30
0.0
 40
1.175
  1
Maßstab:2:1
 41
1.241041547507
  7
Arial
 72
     5
 11
109.750617470205
 21
45.164046755526
 31
0.0
100
AcDbText
  0
TEXT
  5
341
330
31F
100
AcDbEntity
  8
99
  6
AUSGEZOGEN
 62
    56
370
    18
100
AcDbText
 10
51.948451950952
 20
45.164197359775
 30
0.0
 40
1.175
  1
Schwindung:
 41
1.234746274162
  7
Arial
 72
     5
 11
63.542009486228
 21
45.164197359775
 31
0.0
100
AcDbText
  0
TEXT
  5
342
330
31F
100
AcDbEntity
  8
99
  6
AUSGEZOGEN
 62
    56
370
    18
100
AcDbText
 10
52.005136521265
 20
42.223886080478
 30
0.0
 40
1.175
  1
Diese Zeichnung darf nur
 41
1.271210741346
  7
Arial
 72
     5
 11
75.412480166226
 21
42.223886080478
 31
0.0
100
AcDbText
  0
TEXT
  5
343
330
31F
100
AcDbEntity
  8
99
  6
AUSGEZOGEN
 62
    56
370
    18
100
AcDbText
 10
52.005136521265
 20
40.343886052463
 30
0.0
 40
1.175
  1
mit CAD geändert werden
 41
1.255342283876
  7
Arial
 72
     5
 11
75.691123034775
 21
40.343886052463
 31
0.0
100
AcDbText
  0
LINE
  5
344
330
31F
100
AcDbEntity
  8
Layer99
  6
AUSGEZOGEN
 62
    56
370
    18
100
AcDbLine
 10
138.334417527124
 20
23.473698435519
 30
0.0
 11
97.820440476343
 21
23.473698435519
 31
0.0
  0
LINE
  5
345
330
31F
100
AcDbEntity
  8
Layer99
  6
AUSGEZOGEN
 62
    56
370
    18
100
AcDbLine
 10
138.334417527124
 20
25.471198435519
 30
0.0
 11
132.224417527124
 21
25.471198435519
 31
0.0
  0
TEXT
  5
346
330
31F
100
AcDbEntity
  8
Layer99
  6
AUSGEZOGEN
 62
    56
370
    18
100
AcDbText
 10
135.692446091577
 20
23.920720530246
 30
0.0
 40
1.175
  1
Bl.
 41
1.229150265254
  7
Arial
 72
     5
 11
138.045131885543
 21
23.920720530246
 31
0.0
100
AcDbText
  0
LINE
  5
347
330
31F
100
AcDbEntity
  8
Layer99
  6
AUSGEZOGEN
 62
    56
370
    18
100
AcDbLine
 10
97.820440476343
 20
23.473698435519
 30
0.0
 11
77.046406052515
 21
23.473698435519
 31
0.0
  0
LINE
  5
348
330
31F
100
AcDbEntity
  8
Layer99
  6
AUSGEZOGEN
 62
    56
370
    18
100
AcDbLine
 10
69.19731425564
 20
39.171697359775
 30
0.0
 11
69.19731425564
 21
21.194197359775
 31
0.0
  0
TEXT
  5
349
330
31F
100
AcDbEntity
  8
Layer50
  6
AUSGEZOGEN
 62
   136
370
    18
100
AcDbText
 10
53.421705735132
 20
23.623013403628
 30
0.0
 40
0.94
  1
-  ---
 41
1.340992890965
  7
Arial
 72
     5
 11
56.744471560082
 21
23.623013403628
 31
0.0
100
AcDbText
  0
TEXT
  5
34A
330
31F
100
AcDbEntity
  8
Layer50
  6
AUSGEZOGEN
 62
   136
370
    18
100
AcDbText
 10
69.307527878687
 20
23.738165590976
 30
0.0
 40
0.94
  1
--.--.--/--
 41
1.366444411798
  7
Arial
 72
     5
 11
75.580819515475
 21
23.738165590976
 31
0.0
100
AcDbText
  0
TEXT
  5
34B
330
31F
100
AcDbEntity
  8
99
  6
AUSGEZOGEN
 62
    56
370
    18
100
AcDbText
 10
77.631439011499
 20
21.708904634211
 30
0.0
 40
1.175
  1
Schutzvermerk nach DIN 34 beachten .        Copyright reserved
 41
1.286227457357
  7
Arial
 72
     5
 11
136.958198146805
 21
21.708904634211
 31
0.0
100
AcDbText
  0
INSERT
  5
364
330
31F
100
AcDbEntity
  8
0
100
AcDbBlockReference
  2
ULTRAREFLEX_nNn012
 10
0.0
 20
0.0
 30
0.0
  0
TEXT
  5
365
330
31F
100
AcDbEntity
  8
Layer50
  6
AUSGEZOGEN
 62
   136
370
    18
100
AcDbText
 10
98.832131675679
 20
29.792490802075
 30
0.0
 40
0.94
  1
---
 41
1.259600656861
  7
Arial
 72
     5
 11
100.483846017022
 21
29.792490802075
 31
0.0
100
AcDbText
  0
TEXT
  5
366
330
31F
100
AcDbEntity
  8
Layer99
  6
AUSGEZOGEN
 62
    56
370
    18
100
AcDbText
 10
69.449355297869
 20
21.661047928207
 30
0.0
 40
0.94
  1
Dat./Nam.
 41
1.239717192527
  7
Arial
 72
     5
 11
76.771149831276
 21
21.661047928207
 31
0.0
100
AcDbText
  0
TEXT
  5
367
330
31F
100
AcDbEntity
  8
Layer99
  6
AUSGEZOGEN
 62
    56
370
    18
100
AcDbText
 10
51.476935307131
 20
21.658916830806
 30
0.0
 40
0.94
  1
Zust.
 41
1.239906123597
  7
Arial
 72
     5
 11
55.09351828656
 21
21.658916830806
 31
0.0
100
AcDbText
  0
TEXT
  5
368
330
31F
100
AcDbEntity
  8
99
  6
AUSGEZOGEN
 62
    56
370
    18
100
AcDbText
 10
82.710722266764
 20
37.577393618319
 30
0.0
 40
1.175
  1
Datum
 41
1.188171149402
  7
Arial
 72
     5
 11
88.450093891114
 21
37.577393618319
 31
0.0
100
AcDbText
  0
TEXT
  5
369
330
31F
100
AcDbEntity
  8
99
  6
AUSGEZOGEN
 62
    56
370
    18
100
AcDbText
 10
91.01336146532
 20
37.581321274339
 30
0.0
 40
1.175
  1
Name
 41
1.15958716227
  7
Arial
 72
     5
 11
96.086004496351
 21
37.581321274339
 31
0.0
100
AcDbText
  0
TEXT
  5
36A
330
31F
100
AcDbEntity
  8
Layer99
  6
AUSGEZOGEN
 62
    56
370
    18
100
AcDbText
 10
55.72069741536
 20
21.659028661683
 30
0.0
 40
0.94
  1
Änderung
 41
1.218204176926
  7
Arial
 72
     5
 11
62.650914793392
 21
21.659028661683
 31
0.0
100
AcDbText
  0
ENDBLK
  5
321
330
31F
100
AcDbEntity
  8
0
100
AcDbBlockEnd
  0
BLOCK
  5
34D
330
34C
100
AcDbEntity
  8
0
100
AcDbBlockBegin
  2
ULTRAREFLEX_nNn012
 70
     0
 10
0.0
 20
0.0
 30
0.0
  3
ULTRAREFLEX_nNn012
  1

  0
LINE
  5
34F
330
34C
100
AcDbEntity
  8
99
  6
AUSGEZOGEN
 62
    30
370
    18
100
AcDbLine
 10
96.321408910214
 20
27.700653404483
 30
0.0
 11
94.891370028458
 21
27.700653404483
 31
0.0
  0
LINE
  5
350
330
34C
100
AcDbEntity
  8
99
  6
AUSGEZOGEN
 62
    30
370
    18
100
AcDbLine
 10
94.752979168933
 20
27.620753404483
 30
0.0
 11
94.037959728055
 21
26.382303404483
 31
0.0
  0
LINE
  5
351
330
34C
100
AcDbEntity
  8
99
  6
AUSGEZOGEN
 62
    30
370
    18
100
AcDbLine
 10
94.037959728055
 20
26.222503404483
 30
0.0
 11
94.752979168933
 21
24.984053404483
 31
0.0
  0
LINE
  5
352
330
34C
100
AcDbEntity
  8
99
  6
AUSGEZOGEN
 62
    30
370
    18
100
AcDbLine
 10
94.891370028458
 20
24.904153404483
 30
0.0
 11
96.321408910214
 21
24.904153404483
 31
0.0
  0
LINE
  5
353
330
34C
100
AcDbEntity
  8
99
  6
AUSGEZOGEN
 62
    30
370
    18
100
AcDbLine
 10
96.459799769739
 20
24.984053404483
 30
0.0
 11
97.174819210616
 21
26.222503404483
 31
0.0
  0
LINE
  5
354
330
34C
100
AcDbEntity
  8
99
  6
AUSGEZOGEN
 62
    30
370
    18
100
AcDbLine
 10
97.174819210616
 20
26.382303404483
 30
0.0
 11
96.459799769739
 21
27.620753404483
 31
0.0
  0
LINE
  5
355
330
34C
100
AcDbEntity
  8
99
  6
AUSGEZOGEN
 62
    30
370
    18
100
AcDbLine
 10
95.744780328861
 20
26.382303404483
 30
0.0
 11
97.174819210616
 21
26.382303404483
 31
0.0
  0
LINE
  5
356
330
34C
100
AcDbEntity
  8
99
  6
AUSGEZOGEN
 62
    30
370
    18
100
AcDbLine
 10
94.037959728055
 20
26.382303404483
 30
0.0
 11
95.467998609811
 21
26.382303404483
 31
0.0
  0
LINE
  5
357
330
34C
100
AcDbEntity
  8
99
  6
AUSGEZOGEN
 62
    30
370
    18
100
AcDbLine
 10
95.744780328861
 20
26.222503404483
 30
0.0
 11
97.174819210616
 21
26.222503404483
 31
0.0
  0
LINE
  5
358
330
34C
100
AcDbEntity
  8
99
  6
AUSGEZOGEN
 62
    30
370
    18
100
AcDbLine
 10
94.037959728055
 20
26.222503404483
 30
0.0
 11
95.467998609811
 21
26.222503404483
 31
0.0
  0
LINE
  5
359
330
34C
100
AcDbEntity
  8
99
  6
AUSGEZOGEN
 62
    30
370
    18
100
AcDbLine
 10
95.744780328861
 20
26.222503404483
 30
0.0
 11
96.459799769739
 21
24.984053404483
 31
0.0
  0
LINE
  5
35A
330
34C
100
AcDbEntity
  8
99
  6
AUSGEZOGEN
 62
    30
370
    18
100
AcDbLine
 10
94.891370028458
 20
27.700653404483
 30
0.0
 11
95.606389469336
 21
26.462203404483
 31
0.0
  0
LINE
  5
35B
330
34C
100
AcDbEntity
  8
99
  6
AUSGEZOGEN
 62
    30
370
    18
100
AcDbLine
 10
95.606389469336
 20
26.142603404483
 30
0.0
 11
96.321408910214
 21
24.904153404483
 31
0.0
  0
LINE
  5
35C
330
34C
100
AcDbEntity
  8
99
  6
AUSGEZOGEN
 62
    30
370
    18
100
AcDbLine
 10
94.752979168933
 20
27.620753404483
 30
0.0
 11
95.467998609811
 21
26.382303404483
 31
0.0
  0
LINE
  5
35D
330
34C
100
AcDbEntity
  8
99
  6
AUSGEZOGEN
 62
    30
370
    18
100
AcDbLine
 10
95.606389469336
 20
26.142603404483
 30
0.0
 11
94.891370028458
 21
24.904153404483
 31
0.0
  0
LINE
  5
35E
330
34C
100
AcDbEntity
  8
99
  6
AUSGEZOGEN
 62
    30
370
    18
100
AcDbLine
 10
96.459799769739
 20
27.620753404483
 30
0.0
 11
95.744780328861
 21
26.382303404483
 31
0.0
  0
LINE
  5
35F
330
34C
100
AcDbEntity
  8
99
  6
AUSGEZOGEN
 62
    30
370
    18
100
AcDbLine
 10
95.467998609811
 20
26.222503404483
 30
0.0
 11
94.752979168933
 21
24.984053404483
 31
0.0
  0
LINE
  5
360
330
34C
100
AcDbEntity
  8
99
  6
AUSGEZOGEN
 62
    30
370
    18
100
AcDbLine
 10
96.321408910214
 20
27.700653404483
 30
0.0
 11
95.606389469336
 21
26.462203404483
 31
0.0
  0
HATCH
  5
361
330
34C
100
AcDbEntity
  8
99
  6
AUSGEZOGEN
 62
    30
370
    18
100
AcDbHatch
 10
0.0
 20
0.0
 30
0.0
210
0.0
220
0.0
230
1.0
  2
SOLID
 70
     1
 71
     0
 91
        6
 92
        2
 72
     0
 73
     1
 93
        3
 10
95.46799860981116
 20
26.22250340448305
 10
94.03795972805531
 20
26.22250340448305
 10
94.75297916893325
 20
24.98405340448306
 97
        0
 92
        2
 72
     0
 73
     1
 93
        3
 10
95.46799860981116
 20
26.38230340448305
 10
94.75297916893325
 20
27.62075340448305
 10
94.03795972805531
 20
26.38230340448305
 97
        0
 92
        2
 72
     0
 73
     1
 93
        3
 10
95.60638946933591
 20
26.46220340448305
 10
96.32140891021373
 20
27.70065340448305
 10
94.891370028458
 20
27.70065340448305
 97
        0
 92
        2
 72
     0
 73
     1
 93
        3
 10
95.74478032886066
 20
26.38230340448305
 10
97.17481921061639
 20
26.38230340448305
 10
96.45979976973857
 20
27.62075340448303
 97
        0
 92
        2
 72
     0
 73
     1
 93
        3
 10
96.45979976973857
 20
24.98405340448305
 10
97.17481921061639
 20
26.22250340448305
 10
95.74478032886066
 20
26.22250340448305
 97
        0
 92
        2
 72
     0
 73
     1
 93
        3
 10
95.60638946933591
 20
26.14260340448305
 10
94.891370028458
 20
24.90415340448305
 10
96.32140891021373
 20
24.90415340448305
 97
        0
 75
     0
 76
     1
 98
        0
  0
TEXT
  5
362
330
34C
100
AcDbEntity
  8
99
  6
AUSGEZOGEN
 62
     7
370
    70
100
AcDbText
 10
85.497544829866
 20
25.402286289226
 30
0.0
 40
1.8377
  1
REFLEX
 41
0.705366510959
  7
Arial Black
 72
     5
 11
93.347719829866
 21
25.402286289226
 31
0.0
100
AcDbText
  0
TEXT
  5
363
330
34C
100
AcDbEntity
  8
99
  6
AUSGEZOGEN
 62
     7
370
    18
100
AcDbText
 10
77.748038810815
 20
25.488978907655
 30
0.0
 40
1.39825
  1
ULTRA
 41
1.159777722278
  7
Arial
 72
     5
 11
85.168751310815
 21
25.488978907655
 31
0.0
100
AcDbText
  0
ENDBLK
  5
34E
330
34C
100
AcDbEntity
  8
0
100
AcDbBlockEnd
  0
BLOCK
  5
372
330
371
100
AcDbEntity
  8
0
100
AcDbBlockBegin
  2
*D15
 70
     1
 10
0.0
 20
0.0
 30
0.0
  3
*D15
  1

  0
LINE
  5
374
330
371
100
AcDbEntity
  8
99
  6
AUSGEZOGEN
 62
   136
370
    18
100
AcDbLine
 10
107.75
 20
121.365566265346
 30
0.0
 11
108.25
 21
121.365566265346
 31
0.0
  0
LINE
  5
375
330
371
100
AcDbEntity
  8
99
  6
AUSGEZOGEN
 62
   136
370
    18
100
AcDbLine
 10
107.75
 20
121.365566265346
 30
0.0
 11
108.0
 21
122.615566265346
 31
0.0
  0
LINE
  5
376
330
371
100
AcDbEntity
  8
99
  6
AUSGEZOGEN
 62
   136
370
    18
100
AcDbLine
 10
108.0
 20
122.615566265346
 30
0.0
 11
108.25
 21
121.365566265346
 31
0.0
  0
LINE
  5
377
330
371
100
AcDbEntity
  8
99
  6
AUSGEZOGEN
 62
   136
370
    18
100
AcDbLine
 10
108.25
 20
125.665566265346
 30
0.0
 11
107.75
 21
125.665566265346
 31
0.0
  0
LINE
  5
378
330
371
100
AcDbEntity
  8
99
  6
AUSGEZOGEN
 62
   136
370
    18
100
AcDbLine
 10
108.25
 20
125.665566265346
 30
0.0
 11
108.0
 21
124.415566265346
 31
0.0
  0
LINE
  5
379
330
371
100
AcDbEntity
  8
99
  6
AUSGEZOGEN
 62
   136
370
    18
100
AcDbLine
 10
108.0
 20
124.415566265346
 30
0.0
 11
107.75
 21
125.665566265346
 31
0.0
  0
LINE
  5
37A
330
371
100
AcDbEntity
  8
99
  6
AUSGEZOGEN
 62
   136
370
    18
100
AcDbLine
 10
108.0
 20
124.415566265346
 30
0.0
 11
108.0
 21
122.615566265346
 31
0.0
  0
LINE
  5
37B
330
371
100
AcDbEntity
  8
99
  6
AUSGEZOGEN
 62
   136
370
    18
100
AcDbLine
 10
108.0
 20
122.615566265346
 30
0.0
 11
108.0
 21
120.115566265346
 31
0.0
  0
LINE
  5
37C
330
371
100
AcDbEntity
  8
99
  6
AUSGEZOGEN
 62
   136
370
    18
100
AcDbLine
 10
108.0
 20
124.415566265346
 30
0.0
 11
108.0
 21
126.915566265346
 31
0.0
  0
LINE
  5
37D
330
371
100
AcDbEntity
  8
99
  6
AUSGEZOGEN
 62
   136
370
    18
100
AcDbLine
 10
108.0
 20
124.415566265346
 30
0.0
 11
108.0
 21
128.75625
 31
0.0
  0
LINE
  5
37E
330
371
100
AcDbEntity
  8
99
  6
AUSGEZOGEN
 62
   136
370
    18
100
AcDbLine
 10
102.037397766113
 20
124.415566265346
 30
0.0
 11
108.714285714286
 21
124.415566265346
 31
0.0
  0
LINE
  5
37F
330
371
100
AcDbEntity
  8
99
  6
AUSGEZOGEN
 62
   136
370
    18
100
AcDbLine
 10
105.637397766113
 20
122.615566265346
 30
0.0
 11
108.714285714286
 21
122.615566265346
 31
0.0
  0
TEXT
  5
380
330
371
100
AcDbEntity
  8
99
  6
AUSGEZOGEN
 62
   136
370
    18
100
AcDbText
 10
107.5
 20
126.0
 30
0.0
 40
1.25
  1
1.8
 50
90.0
 41
1.136597938144
  7
Arial
 72
     5
 11
107.5
 21
128.75625
 31
0.0
100
AcDbText
  0
ENDBLK
  5
373
330
371
100
AcDbEntity
  8
0
100
AcDbBlockEnd
  0
BLOCK
  5
384
330
383
100
AcDbEntity
  8
0
100
AcDbBlockBegin
  2
Reflexwerte_nNn014
 70
     0
 10
0.0
 20
0.0
 30
0.0
  3
Reflexwerte_nNn014
  1

  0
TEXT
  5
386
330
383
100
AcDbEntity
  8
99
  6
AUSGEZOGEN
 62
   136
370
    18
100
AcDbText
 10
51.156028081487
 20
49.46113780544
 30
0.0
 40
1.25
  1
Reflexionswerte werden gesondert vereinbart
 41
1.135633679475
  7
Arial
 72
     5
 11
91.021028857369
 21
49.46113780544
 31
0.0
100
AcDbText
  0
ENDBLK
  5
385
330
383
100
AcDbEntity
  8
0
100
AcDbBlockEnd
  0
BLOCK
  5
389
330
388
100
AcDbEntity
  8
0
100
AcDbBlockBegin
  2
QS_nNn015
 70
     0
 10
0.0
 20
0.0
 30
0.0
  3
QS_nNn015
  1

  0
TEXT
  5
38B
330
388
100
AcDbEntity
  8
99
  6
AUSGEZOGEN
 62
   136
370
    18
100
AcDbText
 10
50.962709689233
 20
56.833283236615
 30
0.0
 40
1.25
  1
Teil frei von Rissen, Grat, Blasen, Einfallstellen,
 41
1.13496141796
  7
Arial
 72
     5
 11
92.673960501048
 21
56.833283236615
 31
0.0
100
AcDbText
  0
TEXT
  5
38C
330
388
100
AcDbEntity
  8
99
  6
AUSGEZOGEN
 62
   136
370
    18
100
AcDbText
 10
50.962709689233
 20
54.833283206813
 30
0.0
 40
1.25
  1
Fliesslinien, Einschlüssen, Formbelag, Kratzer, Schlieren
 41
1.134732261281
  7
Arial
 72
     5
 11
100.91646066147
 21
54.833283206813
 31
0.0
100
AcDbText
  0
TEXT
  5
38D
330
388
100
AcDbEntity
  8
99
  6
AUSGEZOGEN
 62
   136
370
    18
100
AcDbText
 10
50.962709689233
 20
52.83328317701
 30
0.0
 40
1.25
  1
Grenzwertmuster werden gesondert vereinbart
 41
1.135456394682
  7
Arial
 72
     5
 11
91.921460486402
 21
52.83328317701
 31
0.0
100
AcDbText
  0
ENDBLK
  5
38A
330
388
100
AcDbEntity
  8
0
100
AcDbBlockEnd
  0
ENDSEC
  0
SECTION
  2
ENTITIES
  0
INSERT
  5
251
330
1F
100
AcDbEntity
  8
0
100
AcDbBlockReference
  2
SECHSK1_nNn00
 10
0.0
 20
0.0
 30
0.0
  0
CIRCLE
  5
252
330
1F
100
AcDbEntity
  8
99
  6
AUSGEZOGEN
 62
     9
370
    18
100
AcDbCircle
 10
89.637397766113
 20
86.587881045397
 30
0.0
 40
12.4
  0
LINE
  5
253
330
1F
100
AcDbEntity
  8
99
  6
DASHDOT
 62
    56
370
    18
100
AcDbLine
 10
72.441180736732
 20
86.587881045397
 30
0.0
 11
106.936981087557
 21
86.587881045397
 31
0.0
  0
LINE
  5
254
330
1F
100
AcDbEntity
  8
99
  6
DASHDOT
 62
    56
370
    18
100
AcDbLine
 10
89.637397766113
 20
69.003720220679
 30
0.0
 11
89.637397766113
 21
103.622309678903
 31
0.0
  0
CIRCLE
  5
255
330
1F
100
AcDbEntity
  8
99
  6
AUSGEZOGEN
 62
     9
370
    18
100
AcDbCircle
 10
89.637397766113
 20
86.587881045397
 30
0.0
 40
11.0
  0
CIRCLE
  5
256
330
1F
100
AcDbEntity
  8
99
  6
AUSGEZOGEN
 62
     9
370
    18
100
AcDbCircle
 10
89.637397766113
 20
86.587881045397
 30
0.0
 40
15.99999999999999
  0
CIRCLE
  5
257
330
1F
100
AcDbEntity
  8
99
  6
DASHED
 62
   136
370
    18
100
AcDbCircle
 10
89.637397766113
 20
86.587881045397
 30
0.0
 40
12.65000000000001
  0
INSERT
  5
25D
330
1F
100
AcDbEntity
  8
0
100
AcDbBlockReference
  2
L1_nNn01
 10
0.0
 20
0.0
 30
0.0
  0
LINE
  5
25E
330
1F
100
AcDbEntity
  8
99
  6
AUSGEZOGEN
 62
     9
370
    18
100
AcDbLine
 10
102.037397766113
 20
124.415566265346
 30
0.0
 11
100.637397766113
 21
124.415566265346
 31
0.0
  0
LINE
  5
25F
330
1F
100
AcDbEntity
  8
99
  6
AUSGEZOGEN
 62
     9
370
    18
100
AcDbLine
 10
102.037397766113
 20
121.815566265346
 30
0.0
 11
102.037397766113
 21
124.415566265346
 31
0.0
  0
LINE
  5
260
330
1F
100
AcDbEntity
  8
99
  6
AUSGEZOGEN
 62
     9
370
    18
100
AcDbLine
 10
105.637397766113
 20
121.815566265346
 30
0.0
 11
100.637397766113
 21
121.815566265346
 31
0.0
  0
LINE
  5
261
330
1F
100
AcDbEntity
  8
99
  6
AUSGEZOGEN
 62
     9
370
    18
100
AcDbLine
 10
100.637397766113
 20
124.215566265346
 30
0.0
 11
100.637397766113
 21
124.415566265346
 31
0.0
  0
LINE
  5
262
330
1F
100
AcDbEntity
  8
99
  6
AUSGEZOGEN
 62
     9
370
    18
100
AcDbLine
 10
100.637397766113
 20
121.265566265346
 30
0.0
 11
100.637397766113
 21
121.815566265346
 31
0.0
  0
LINE
  5
263
330
1F
100
AcDbEntity
  8
99
  6
AUSGEZOGEN
 62
     9
370
    18
100
AcDbLine
 10
91.637397766113
 20
122.915566265346
 30
0.0
 11
93.637397766113
 21
119.615566265346
 31
0.0
  0
LINE
  5
264
330
1F
100
AcDbEntity
  8
99
  6
AUSGEZOGEN
 62
     9
370
    18
100
AcDbLine
 10
93.637397766113
 20
119.615566265346
 30
0.0
 11
95.637397766113
 21
122.915566265346
 31
0.0
  0
LINE
  5
265
330
1F
100
AcDbEntity
  8
99
  6
AUSGEZOGEN
 62
     9
370
    18
100
AcDbLine
 10
95.637397766113
 20
122.915566265346
 30
0.0
 11
97.637397766113
 21
119.615566265346
 31
0.0
  0
LINE
  5
266
330
1F
100
AcDbEntity
  8
99
  6
AUSGEZOGEN
 62
     9
370
    18
100
AcDbLine
 10
91.637397766113
 20
122.915566265346
 30
0.0
 11
89.637397766113
 21
119.615566265346
 31
0.0
  0
LINE
  5
267
330
1F
100
AcDbEntity
  8
99
  6
AUSGEZOGEN
 62
     9
370
    18
100
AcDbLine
 10
100.637397766113
 20
121.265566265346
 30
0.0
 11
99.637397766113
 21
122.915566265346
 31
0.0
  0
LINE
  5
268
330
1F
100
AcDbEntity
  8
99
  6
AUSGEZOGEN
 62
     9
370
    18
100
AcDbLine
 10
99.637397766113
 20
122.915566265346
 30
0.0
 11
97.637397766113
 21
119.615566265346
 31
0.0
  0
LINE
  5
269
330
1F
100
AcDbEntity
  8
99
  6
AUSGEZOGEN
 62
     9
370
    18
100
AcDbLine
 10
78.637397766113
 20
124.215566265346
 30
0.0
 11
89.637397766113
 21
124.215566265346
 31
0.0
  0
LINE
  5
26A
330
1F
100
AcDbEntity
  8
99
  6
AUSGEZOGEN
 62
     9
370
    18
100
AcDbLine
 10
77.237397766113
 20
124.415566265346
 30
0.0
 11
78.637397766113
 21
124.415566265346
 31
0.0
  0
LINE
  5
26B
330
1F
100
AcDbEntity
  8
99
  6
AUSGEZOGEN
 62
     9
370
    18
100
AcDbLine
 10
77.237397766113
 20
121.815566265346
 30
0.0
 11
77.237397766113
 21
124.415566265346
 31
0.0
  0
LINE
  5
26C
330
1F
100
AcDbEntity
  8
99
  6
AUSGEZOGEN
 62
     9
370
    18
100
AcDbLine
 10
77.237397766113
 20
121.815566265346
 30
0.0
 11
78.637397766113
 21
121.815566265346
 31
0.0
  0
LINE
  5
26D
330
1F
100
AcDbEntity
  8
99
  6
AUSGEZOGEN
 62
     9
370
    18
100
AcDbLine
 10
78.637397766113
 20
124.215566265346
 30
0.0
 11
78.637397766113
 21
124.415566265346
 31
0.0
  0
LINE
  5
26E
330
1F
100
AcDbEntity
  8
99
  6
AUSGEZOGEN
 62
     9
370
    18
100
AcDbLine
 10
78.637397766113
 20
121.265566265346
 30
0.0
 11
78.637397766113
 21
121.815566265346
 31
0.0
  0
LINE
  5
26F
330
1F
100
AcDbEntity
  8
99
  6
AUSGEZOGEN
 62
     9
370
    18
100
AcDbLine
 10
87.637397766113
 20
122.915566265346
 30
0.0
 11
85.637397766113
 21
119.615566265346
 31
0.0
  0
LINE
  5
270
330
1F
100
AcDbEntity
  8
99
  6
AUSGEZOGEN
 62
     9
370
    18
100
AcDbLine
 10
85.637397766113
 20
119.615566265346
 30
0.0
 11
83.637397766113
 21
122.915566265346
 31
0.0
  0
LINE
  5
271
330
1F
100
AcDbEntity
  8
99
  6
AUSGEZOGEN
 62
     9
370
    18
100
AcDbLine
 10
83.637397766113
 20
122.915566265346
 30
0.0
 11
81.637397766113
 21
119.615566265346
 31
0.0
  0
LINE
  5
272
330
1F
100
AcDbEntity
  8
99
  6
AUSGEZOGEN
 62
     9
370
    18
100
AcDbLine
 10
87.637397766113
 20
122.915566265346
 30
0.0
 11
89.637397766113
 21
119.615566265346
 31
0.0
  0
LINE
  5
273
330
1F
100
AcDbEntity
  8
99
  6
AUSGEZOGEN
 62
     9
370
    18
100
AcDbLine
 10
78.637397766113
 20
121.265566265346
 30
0.0
 11
79.637397766113
 21
122.915566265346
 31
0.0
  0
LINE
  5
274
330
1F
100
AcDbEntity
  8
99
  6
AUSGEZOGEN
 62
     9
370
    18
100
AcDbLine
 10
79.637397766113
 20
122.915566265346
 30
0.0
 11
81.637397766113
 21
119.615566265346
 31
0.0
  0
LINE
  5
275
330
1F
100
AcDbEntity
  8
99
  6
AUSGEZOGEN
 62
     9
370
    18
100
AcDbLine
 10
78.487397766113
 20
118.615566265346
 30
0.0
 11
100.787397766113
 21
118.615566265346
 31
0.0
  0
LINE
  5
276
330
1F
100
AcDbEntity
  8
99
  6
AUSGEZOGEN
 62
     9
370
    18
100
AcDbLine
 10
89.637397766113
 20
117.415566265346
 30
0.0
 11
102.287397766113
 21
117.415566265346
 31
0.0
  0
LINE
  5
277
330
1F
100
AcDbEntity
  8
99
  6
AUSGEZOGEN
 62
     9
370
    18
100
AcDbLine
 10
100.787397766113
 20
118.615566265346
 30
0.0
 11
100.787397766113
 21
121.815566265346
 31
0.0
  0
LINE
  5
278
330
1F
100
AcDbEntity
  8
99
  6
AUSGEZOGEN
 62
     9
370
    18
100
AcDbLine
 10
78.487397766113
 20
118.615566265347
 30
0.0
 11
78.487397766113
 21
121.815566265347
 31
0.0
  0
LINE
  5
279
330
1F
100
AcDbEntity
  8
Layer13
  6
DASHDOT
 62
    56
370
    18
100
AcDbLine
 10
74.637397766113
 20
124.415566265346
 30
0.0
 11
104.637397766113
 21
124.415566265346
 31
0.0
  0
LINE
  5
27A
330
1F
100
AcDbEntity
  8
Layer13
  6
DASHDOT
 62
    56
370
    18
100
AcDbLine
 10
74.637397766113
 20
122.915566265346
 30
0.0
 11
104.637397766113
 21
122.915566265346
 31
0.0
  0
LINE
  5
27B
330
1F
100
AcDbEntity
  8
Layer13
  6
DASHDOT
 62
    56
370
    18
100
AcDbLine
 10
107.637397766113
 20
119.915566265346
 30
0.0
 11
107.637397766113
 21
107.574240215679
 31
0.0
  0
LINE
  5
27C
330
1F
100
AcDbEntity
  8
Layer13
  6
DASHDOT
 62
    56
370
    18
100
AcDbLine
 10
71.637397766113
 20
119.915566265346
 30
0.0
 11
71.637397766113
 21
107.574240215679
 31
0.0
  0
LINE
  5
27D
330
1F
100
AcDbEntity
  8
Layer13
  6
DASHDOT
 62
    56
370
    18
100
AcDbLine
 10
70.137397766113
 20
119.915566265346
 30
0.0
 11
70.137397766113
 21
107.574240215679
 31
0.0
  0
LINE
  5
27E
330
1F
100
AcDbEntity
  8
Layer13
  6
DASHDOT
 62
    56
370
    18
100
AcDbLine
 10
109.137397766113
 20
119.915566265346
 30
0.0
 11
109.137397766113
 21
107.574240215679
 31
0.0
  0
LINE
  5
27F
330
1F
100
AcDbEntity
  8
Layer13
  6
DASHDOT
 62
    56
370
    18
100
AcDbLine
 10
102.137397766113
 20
124.415566265346
 30
0.0
 11
102.137397766113
 21
122.915566265346
 31
0.0
  0
LINE
  5
280
330
1F
100
AcDbEntity
  8
Layer13
  6
DASHDOT
 62
    56
370
    18
100
AcDbLine
 10
77.137397766113
 20
124.415566265346
 30
0.0
 11
77.137397766113
 21
122.915566265346
 31
0.0
  0
ARC
  5
281
330
1F
100
AcDbEntity
  8
Layer13
  6
DASHDOT
 62
    56
370
    18
100
AcDbCircle
 10
104.637397766113
 20
119.915566265346
 30
0.0
 40
3.0
100
AcDbArc
 50
0.0
 51
90.0
  0
ARC
  5
282
330
1F
100
AcDbEntity
  8
Layer13
  6
DASHDOT
 62
    56
370
    18
100
AcDbCircle
 10
74.637397766113
 20
119.915566265346
 30
0.0
 40
3.0
100
AcDbArc
 50
90.0
 51
180.0
  0
ARC
  5
283
330
1F
100
AcDbEntity
  8
Layer13
  6
DASHDOT
 62
    56
370
    18
100
AcDbCircle
 10
104.637397766113
 20
119.915566265346
 30
0.0
 40
4.5
100
AcDbArc
 50
0.0
 51
90.0
  0
ARC
  5
284
330
1F
100
AcDbEntity
  8
Layer13
  6
DASHDOT
 62
    56
370
    18
100
AcDbCircle
 10
74.637397766113
 20
119.915566265346
 30
0.0
 40
4.5
100
AcDbArc
 50
90.0
 51
180.0
  0
LINE
  5
285
330
1F
100
AcDbEntity
  8
99
  6
AUSGEZOGEN
 62
     9
370
    18
100
AcDbLine
 10
105.637397766113
 20
122.615566265346
 30
0.0
 11
105.637397766113
 21
120.315566265346
 31
0.0
  0
LINE
  5
286
330
1F
100
AcDbEntity
  8
99
  6
AUSGEZOGEN
 62
     9
370
    18
100
AcDbLine
 10
105.637397766113
 20
120.315566265346
 30
0.0
 11
102.287397766113
 21
120.315566265346
 31
0.0
  0
LINE
  5
287
330
1F
100
AcDbEntity
  8
99
  6
AUSGEZOGEN
 62
     9
370
    18
100
AcDbLine
 10
102.287397766113
 20
117.415566265346
 30
0.0
 11
102.287397766113
 21
120.315566265346
 31
0.0
  0
LINE
  5
288
330
1F
100
AcDbEntity
  8
99
  6
AUSGEZOGEN
 62
     9
370
    18
100
AcDbLine
 10
73.637397766113
 20
121.815566265346
 30
0.0
 11
78.637397766113
 21
121.815566265346
 31
0.0
  0
LINE
  5
289
330
1F
100
AcDbEntity
  8
99
  6
AUSGEZOGEN
 62
     9
370
    18
100
AcDbLine
 10
89.637397766113
 20
117.415566265346
 30
0.0
 11
76.987397766113
 21
117.415566265346
 31
0.0
  0
LINE
  5
28A
330
1F
100
AcDbEntity
  8
99
  6
AUSGEZOGEN
 62
     9
370
    18
100
AcDbLine
 10
73.637397766113
 20
122.615566265346
 30
0.0
 11
73.637397766113
 21
120.315566265346
 31
0.0
  0
LINE
  5
28B
330
1F
100
AcDbEntity
  8
99
  6
AUSGEZOGEN
 62
     9
370
    18
100
AcDbLine
 10
73.637397766113
 20
120.315566265346
 30
0.0
 11
76.987397766113
 21
120.315566265346
 31
0.0
  0
LINE
  5
28C
330
1F
100
AcDbEntity
  8
99
  6
AUSGEZOGEN
 62
     9
370
    18
100
AcDbLine
 10
76.987397766113
 20
117.415566265346
 30
0.0
 11
76.987397766113
 21
120.315566265346
 31
0.0
  0
HATCH
  5
28D
330
1F
100
AcDbEntity
  8
99
  6
AUSGEZOGEN
 62
    56
370
    18
100
AcDbHatch
 10
0.0
 20
0.0
 30
0.0
210
0.0
220
0.0
230
1.0
  2
MegaCAD_TYP1
 70
     0
 71
     0
 91
        2
 92
        2
 72
     0
 73
     1
 93
       13
 10
78.63739776611324
 20
124.2155662653463
 10
78.63739776611324
 20
124.4155662653463
 10
77.23739776611323
 20
124.4155662653463
 10
77.23739776611325
 20
121.8155662653463
 10
78.63739776611322
 20
121.8155662653463
 10
78.63739776611324
 20
121.2655662653463
 10
79.63739776611322
 20
122.9155662653463
 10
81.63739776611325
 20
119.6155662653463
 10
83.63739776611322
 20
122.9155662653463
 10
85.63739776611325
 20
119.6155662653463
 10
87.63739776611325
 20
122.9155662653463
 10
89.63739776611328
 20
119.6155662653463
 10
89.6373977661133
 20
124.2155662653463
 97
        0
 92
        2
 72
     0
 73
     1
 93
       13
 10
89.6373977661133
 20
124.2155662653463
 10
89.63739776611327
 20
119.6155662653463
 10
91.63739776611328
 20
122.9155662653463
 10
93.63739776611327
 20
119.6155662653463
 10
95.6373977661133
 20
122.9155662653463
 10
97.63739776611327
 20
119.6155662653463
 10
99.63739776611328
 20
122.9155662653463
 10
100.6373977661133
 20
121.2655662653463
 10
100.6373977661133
 20
121.8155662653463
 10
102.0373977661133
 20
121.8155662653463
 10
102.0373977661133
 20
124.4155662653463
 10
100.6373977661133
 20
124.4155662653463
 10
100.6373977661133
 20
124.2155662653463
 97
        0
 75
     0
 76
     1
 52
0.0
 41
0.25
 77
     0
 78
     1
 53
45.0
 43
0.0
 44
0.0
 45
-0.5303300858899106
 46
0.5303300858899107
 79
     0
 98
        0
  0
HATCH
  5
28E
330
1F
100
AcDbEntity
  8
99
  6
AUSGEZOGEN
 62
    56
370
    18
100
AcDbHatch
 10
0.0
 20
0.0
 30
0.0
210
0.0
220
0.0
230
1.0
  2
MegaCAD_TYP1
 70
     0
 71
     0
 91
        2
 92
        2
 72
     0
 73
     1
 93
        8
 10
78.48739776611325
 20
121.8155662653463
 10
73.63739776611325
 20
121.8155662653463
 10
73.63739776611325
 20
120.3155662653463
 10
76.98739776611322
 20
120.3155662653463
 10
76.98739776611325
 20
117.4155662653463
 10
89.63739776611328
 20
117.4155662653463
 10
89.63739776611328
 20
118.6155662653463
 10
78.48739776611315
 20
118.6155662653463
 97
        0
 92
        2
 72
     0
 73
     1
 93
        8
 10
102.2873977661133
 20
120.3155662653463
 10
105.6373977661133
 20
120.3155662653463
 10
105.6373977661133
 20
121.8155662653463
 10
100.7873977661133
 20
121.8155662653463
 10
100.7873977661133
 20
118.6155662653463
 10
89.63739776611328
 20
118.6155662653463
 10
89.63739776611328
 20
117.4155662653463
 10
102.2873977661133
 20
117.4155662653463
 97
        0
 75
     0
 76
     1
 52
90.0
 41
0.25
 77
     0
 78
     1
 53
135.0
 43
0.0
 44
0.0
 45
-0.5303300858899107
 46
-0.5303300858899106
 79
     0
 98
        0
  0
DIMENSION
  5
29E
330
1F
100
AcDbEntity
  8
99
  6
AUSGEZOGEN
 62
   136
370
    18
100
AcDbDimension
  2
*D3
 10
100.787397766113
 20
113.0
 30
0.0
 11
89.533125
 21
114.125
 31
0.0
 70
   160
 71
     5
 42
-1.0
  3
ISO-25
100
AcDbAlignedDimension
 13
78.487397766113
 23
118.615566265347
 33
0.0
 14
100.787397766113
 24
118.615566265346
 34
0.0
100
AcDbRotatedDimension
1001
ACAD
1000
DSTYLE
1002
{
1070
     3
1000
%%c<>
1070
    44
1040
0.892857142857
1070
   280
1070
     0
1070
    77
1070
     1
1070
    78
1070
     8
1070
   179
1070
     2
1070
   271
1070
     2
1070
   344
1005
29F
1070
   343
1005
29F
1070
   173
1070
     1
1070
    41
1040
1.25
1070
   147
1040
0.178571428571
1070
   140
1040
1.25
1070
   178
1070
   136
1070
   177
1070
   136
1070
   176
1070
   136
1002
}
  0
DIMENSION
  5
2B3
330
1F
100
AcDbEntity
  8
99
  6
AUSGEZOGEN
 62
   136
370
    18
100
AcDbDimension
  2
*D5
 10
102.287397766113
 20
110.0
 30
0.0
 11
89.533125
 21
111.125
 31
0.0
 70
   160
 71
     5
 42
-1.0
  3
ISO-25
100
AcDbAlignedDimension
 13
76.987397766113
 23
117.415566265346
 33
0.0
 14
102.287397766113
 24
117.415566265346
 34
0.0
100
AcDbRotatedDimension
1001
ACAD
1000
DSTYLE
1002
{
1070
     3
1000
%%c<>
1070
    44
1040
0.892857142857
1070
   280
1070
     0
1070
    77
1070
     1
1070
    78
1070
     8
1070
   179
1070
     2
1070
   271
1070
     2
1070
   344
1005
29F
1070
   343
1005
29F
1070
   173
1070
     1
1070
    41
1040
1.25
1070
   147
1040
0.178571428571
1070
   140
1040
1.25
1070
   178
1070
   136
1070
   177
1070
   136
1070
   176
1070
   136
1002
}
  0
DIMENSION
  5
2C1
330
1F
100
AcDbEntity
  8
99
  6
AUSGEZOGEN
 62
   136
370
    18
100
AcDbDimension
  2
*D6
 10
105.637397766113
 20
107.0
 30
0.0
 11
89.70625
 21
108.125
 31
0.0
 70
   160
 71
     5
 42
-1.0
  3
ISO-25
100
AcDbAlignedDimension
 13
73.637397766113
 23
120.315566265346
 33
0.0
 14
105.637397766113
 24
120.315566265346
 34
0.0
100
AcDbRotatedDimension
1001
ACAD
1000
DSTYLE
1002
{
1070
     3
1000
%%c<>
1070
    44
1040
0.892857142857
1070
   280
1070
     0
1070
    77
1070
     1
1070
    78
1070
     8
1070
   179
1070
     2
1070
   271
1070
     2
1070
   344
1005
29F
1070
   343
1005
29F
1070
   173
1070
     1
1070
    41
1040
1.25
1070
   147
1040
0.178571428571
1070
   140
1040
1.25
1070
   178
1070
   136
1070
   177
1070
   136
1070
   176
1070
   136
1002
}
  0
DIMENSION
  5
2D0
330
1F
100
AcDbEntity
  8
99
  6
AUSGEZOGEN
 62
   136
370
    18
100
AcDbDimension
  2
*D7
 10
102.037397766113
 20
127.0
 30
0.0
 11
90.7275
 21
128.25
 31
0.0
 70
   160
 71
     5
 42
-1.0
  3
ISO-25
100
AcDbAlignedDimension
 13
77.237397766113
 23
124.415566265346
 33
0.0
 14
102.037397766113
 24
124.415566265346
 34
0.0
100
AcDbRotatedDimension
1001
ACAD
1000
DSTYLE
1002
{
1070
     3
1000
%%c<>
1070
    44
1040
0.892857142857
1070
   280
1070
     0
1070
    77
1070
     1
1070
    78
1070
     8
1070
   179
1070
     2
1070
   271
1070
     2
1070
   344
1005
29F
1070
   343
1005
29F
1070
   173
1070
     1
1070
    41
1040
1.25
1070
   147
1040
0.178571428571
1070
   140
1040
1.25
1070
   178
1070
   136
1070
   177
1070
   136
1070
   176
1070
   136
1002
}
  0
DIMENSION
  5
2E1
330
1F
100
AcDbEntity
  8
99
  6
AUSGEZOGEN
 62
   136
370
    18
100
AcDbDimension
  2
*D8
 10
112.0
 20
121.815566265346
 30
0.0
 11
110.875
 21
127.378125
 31
0.0
 70
   160
 71
     5
 42
-1.0
 53
90.0
  3
ISO-25
100
AcDbAlignedDimension
 13
102.037397766113
 23
124.415566265346
 33
0.0
 14
105.637397766113
 24
121.815566265346
 34
0.0
 50
-90.0
100
AcDbRotatedDimension
1001
ACAD
1000
DSTYLE
1002
{
1070
     3
1000
<>
1070
    44
1040
0.892857142857
1070
   280
1070
     0
1070
    77
1070
     1
1070
    78
1070
     8
1070
   179
1070
     2
1070
   271
1070
     2
1070
   344
1005
29F
1070
   343
1005
29F
1070
   173
1070
     1
1070
    41
1040
1.25
1070
   147
1040
0.178571428571
1070
   140
1040
1.25
1070
   178
1070
   136
1070
   177
1070
   136
1070
   176
1070
   136
1002
}
  0
DIMENSION
  5
2F0
330
1F
100
AcDbEntity
  8
99
  6
AUSGEZOGEN
 62
   136
370
    18
100
AcDbDimension
  2
*D9
 10
115.0
 20
120.315566265346
 30
0.0
 11
113.875
 21
122.378125
 31
0.0
 70
   160
 71
     5
 42
-1.0
 53
90.0
  3
ISO-25
100
AcDbAlignedDimension
 13
102.037397766113
 23
124.415566265346
 33
0.0
 14
105.637397766113
 24
120.315566265346
 34
0.0
 50
-90.0
100
AcDbRotatedDimension
1001
ACAD
1000
DSTYLE
1002
{
1070
     3
1000
<>
1070
    44
1040
0.892857142857
1070
   280
1070
     0
1070
    77
1070
     1
1070
    78
1070
     8
1070
   179
1070
     2
1070
   271
1070
     2
1070
   344
1005
29F
1070
   343
1005
29F
1070
   173
1070
     1
1070
    41
1040
1.25
1070
   147
1040
0.178571428571
1070
   140
1040
1.25
1070
   178
1070
   136
1070
   177
1070
   136
1070
   176
1070
   136
1002
}
  0
DIMENSION
  5
301
330
1F
100
AcDbEntity
  8
99
  6
AUSGEZOGEN
 62
   136
370
    18
100
AcDbDimension
  2
*D10
 10
118.0
 20
117.415566265346
 30
0.0
 11
116.875
 21
121.8956875
 31
0.0
 70
   160
 71
     5
 42
-1.0
 53
90.0
  3
ISO-25
100
AcDbAlignedDimension
 13
102.037397766113
 23
124.415566265346
 33
0.0
 14
102.287397766113
 24
117.415566265346
 34
0.0
 50
-90.0
100
AcDbRotatedDimension
1001
ACAD
1000
DSTYLE
1002
{
1070
     3
1000
<>\S%%p0.3
1070
    44
1040
0.892857142857
1070
   280
1070
     0
1070
    77
1070
     1
1070
    78
1070
     8
1070
   179
1070
     2
1070
   271
1070
     2
1070
   344
1005
29F
1070
   343
1005
29F
1070
   173
1070
     1
1070
    41
1040
1.25
1070
   147
1040
0.178571428571
1070
   140
1040
1.25
1070
   178
1070
   136
1070
   177
1070
   136
1070
   176
1070
   136
1002
}
  0
DIMENSION
  5
313
330
1F
100
AcDbEntity
  8
99
  6
AUSGEZOGEN
 62
   136
370
    18
100
AcDbDimension
  2
*D11
 10
71.0
 20
118.615566265346
 30
0.0
 11
69.875
 21
121.378125
 31
0.0
 70
   160
 71
     5
 42
-1.0
 53
90.0
  3
ISO-25
100
AcDbAlignedDimension
 13
76.987397766113
 23
117.415566265346
 33
0.0
 14
78.487397766113
 24
118.615566265346
 34
0.0
 50
90.0
100
AcDbRotatedDimension
1001
ACAD
1000
DSTYLE
1002
{
1070
     3
1000
<>
1070
    44
1040
0.892857142857
1070
   280
1070
     0
1070
    77
1070
     1
1070
    78
1070
     8
1070
   179
1070
     2
1070
   271
1070
     2
1070
   344
1005
29F
1070
   343
1005
29F
1070
   173
1070
     1
1070
    41
1040
1.25
1070
   147
1040
0.178571428571
1070
   140
1040
1.25
1070
   178
1070
   136
1070
   177
1070
   136
1070
   176
1070
   136
1002
}
  0
INSERT
  5
36C
330
1F
100
AcDbEntity
  8
0
100
AcDbBlockReference
  2
A4_nNn010
 10
0.0
 20
0.0
 30
0.0
  0
TEXT
  5
36D
330
1F
100
AcDbEntity
  8
Layer50
  6
AUSGEZOGEN
 62
     9
370
    18
100
AcDbText
 10
100.289284579312
 20
33.703562097679
 30
0.0
 40
2.35
  1
Reflektor 25D SW4
 41
1.249862518589
  7
Arial
 72
     5
 11
135.376800049906
 21
33.703562097679
 31
0.0
100
AcDbText
  0
LINE
  5
36E
330
1F
100
AcDbEntity
  8
99
  6
AUSGEZOGEN
 62
     9
370
    18
100
AcDbLine
 10
73.637397766113
 20
122.615566265346
 30
0.0
 11
77.237397766113
 21
122.615566265346
 31
0.0
  0
LINE
  5
36F
330
1F
100
AcDbEntity
  8
99
  6
AUSGEZOGEN
 62
     9
370
    18
100
AcDbLine
 10
105.637397766113
 20
122.615566265346
 30
0.0
 11
102.037397766113
 21
122.615566265346
 31
0.0
  0
HATCH
  5
370
330
1F
100
AcDbEntity
  8
99
  6
AUSGEZOGEN
 62
    56
370
    18
100
AcDbHatch
 10
0.0
 20
0.0
 30
0.0
210
0.0
220
0.0
230
1.0
  2
MegaCAD_TYP12
 70
     0
 71
     0
 91
        2
 92
        2
 72
     0
 73
     1
 93
        4
 10
77.23739776611325
 20
121.8155662653463
 10
77.23739776611325
 20
122.6155662653463
 10
73.63739776611328
 20
122.6155662653463
 10
73.63739776611325
 20
121.8155662653463
 97
        0
 92
        2
 72
     0
 73
     1
 93
        4
 10
105.6373977661133
 20
121.8155662653463
 10
105.6373977661133
 20
122.6155662653463
 10
102.0373977661133
 20
122.6155662653463
 10
102.0373977661133
 20
121.8155662653463
 97
        0
 75
     0
 76
     1
 52
0.0
 41
0.25
 77
     0
 78
     2
 53
45.0
 43
0.0
 44
0.0
 45
-0.5303300858899106
 46
0.5303300858899107
 79
     0
 53
135.0
 43
0.0
 44
0.0
 45
-0.5303300858899107
 46
-0.5303300858899106
 79
     0
 98
        0
  0
DIMENSION
  5
381
330
1F
100
AcDbEntity
  8
99
  6
AUSGEZOGEN
 62
   136
370
    18
100
AcDbDimension
  2
*D15
 10
108.0
 20
122.615566265346
 30
0.0
 11
106.875
 21
127.378125
 31
0.0
 70
   160
 71
     5
 42
-1.0
 53
90.0
  3
ISO-25
100
AcDbAlignedDimension
 13
102.037397766113
 23
124.415566265346
 33
0.0
 14
105.637397766113
 24
122.615566265346
 34
0.0
 50
-90.0
100
AcDbRotatedDimension
1001
ACAD
1000
DSTYLE
1002
{
1070
     3
1000
<>
1070
    44
1040
0.892857142857
1070
   280
1070
     0
1070
    77
1070
     1
1070
    78
1070
     8
1070
   179
1070
     2
1070
   271
1070
     2
1070
   344
1005
29F
1070
   343
1005
29F
1070
   173
1070
     1
1070
    41
1040
1.25
1070
   147
1040
0.178571428571
1070
   140
1040
1.25
1070
   178
1070
   136
1070
   177
1070
   136
1070
   176
1070
   136
1002
}
  0
TEXT
  5
382
330
1F
100
AcDbEntity
  8
Layer50
  6
AUSGEZOGEN
 62
     9
370
    18
100
AcDbText
 10
106.245258557565
 20
25.196213929061
 30
0.0
 40
2.35
  1
04104500k
 41
1.218898721598
  7
Arial
 72
     5
 11
126.026887800253
 21
25.196213929061
 31
0.0
100
AcDbText
  0
INSERT
  5
387
330
1F
100
AcDbEntity
  8
0
100
AcDbBlockReference
  2
Reflexwerte_nNn014
 10
0.0
 20
0.0
 30
0.0
  0
INSERT
  5
38E
330
1F
100
AcDbEntity
  8
0
100
AcDbBlockReference
  2
QS_nNn015
 10
0.0
 20
0.0
 30
0.0
  0
HATCH
  5
38F
330
1F
100
AcDbEntity
  8
Layer8
  6
AUSGEZOGEN
 62
   136
370
    18
100
AcDbHatch
 10
0.0
 20
0.0
 30
0.0
210
0.0
220
0.0
230
1.0
  2
SOLID
 70
     1
 71
     0
 91
        1
 92
        2
 72
     1
 73
     1
 93
        2
 10
80.4398820246782
 20
123.687996952917
 42
1.000000000000002
 10
80.95039544238826
 20
123.1385644726812
 42
1.000000000000002
 97
        0
 75
     0
 76
     1
 98
        0
  0
LWPOLYLINE
  5
390
330
1F
100
AcDbEntity
  8
Layer8
  6
AUSGEZOGEN
 62
   136
370
    18
100
AcDbPolyline
 90
        3
 70
     0
 43
0.0
 10
80.695138733533
 20
123.413280712799
 10
69.0
 20
136.0
 10
68.0
 20
136.0
  0
WIPEOUT
  5
391
330
1F
100
AcDbEntity
  8
99
  6
AUSGEZOGEN
 62
   136
370
    18
 92
      152
310
98000000040000000C0000000E000000120000000C00000016000000000000C20C00000014000000010000006C00000007000000040000002CC90215A71C4B4029364E6E35F5604000000000000000004E830676A5E2504029364E6E35F5604000000000000000004E830676A5E2504029364E6E3535614000000000000000
310
002CC90215A71C4B4029364E6E353561400000000000000000
100
AcDbWipeout
 90
        0
 10
54.223848940239
 20
135.66277232433
 30
0.0
 11
13.3175
 21
0.0
 31
0.0
 12
0.0
 22
13.3175
 32
0.0
 13
1.0
 23
1.0
340
0
 70
     7
280
     1
281
    50
282
    50
283
     0
360
0
 71
     2
 91
        5
 14
-0.5
 24
0.5
 14
0.5
 24
0.5
 14
0.5
 24
0.349821663225
 14
-0.5
 24
0.349821663225
 14
-0.5
 24
0.5
  0
TEXT
  5
392
330
1F
100
AcDbEntity
  8
99
  6
AUSGEZOGEN
 62
   136
370
    18
100
AcDbText
 10
54.223848940239
 20
136.03777232433
 30
0.0
 40
1.25
  1
PMMA glasklar
 41
1.135215769845
  7
Arial
 72
     5
 11
67.541348940239
 21
136.03777232433
 31
0.0
100
AcDbText
  0
HATCH
  5
393
330
1F
100
AcDbEntity
  8
Layer8
  6
AUSGEZOGEN
 62
   136
370
    18
100
AcDbHatch
 10
0.0
 20
0.0
 30
0.0
210
0.0
220
0.0
230
1.0
  2
SOLID
 70
     1
 71
     0
 91
        1
 92
        2
 72
     1
 73
     1
 93
        2
 10
76.19389168945645
 20
122.532673564094
 42
1.000000000000013
 10
76.71639499117748
 20
121.9946305363624
 42
1.000000000000013
 97
        0
 75
     0
 76
     1
 98
        0
  0
LWPOLYLINE
  5
394
330
1F
100
AcDbEntity
  8
Layer8
  6
AUSGEZOGEN
 62
   136
370
    18
100
AcDbPolyline
 90
        3
 70
     0
 43
0.0
 10
76.455143340317
 20
122.263652050228
 10
67.0
 20
132.0
 10
66.0
 20
132.0
  0
WIPEOUT
  5
395
330
1F
100
AcDbEntity
  8
99
  6
AUSGEZOGEN
 62
   136
370
    18
 92
      152
310
98000000040000000C0000000E000000120000000C00000016000000000000C20C00000014000000010000006C00000007000000040000001EA41AD03FDC4B4060F1D0E6BD6E60400000000000000000230055C99A4C504060F1D0E6BD6E60400000000000000000230055C99A4C504060F1D0E6BDAE604000000000000000
310
001EA41AD03FDC4B4060F1D0E6BDAE60400000000000000000
100
AcDbWipeout
 90
        0
 10
55.72069741536
 20
131.460681350795
 30
0.0
 11
9.47625
 21
0.0
 31
0.0
 12
0.0
 22
9.47625
 32
0.0
 13
1.0
 23
1.0
340
0
 70
     7
280
     1
281
    50
282
    50
283
     0
360
0
 71
     2
 91
        5
 14
-0.5
 24
0.5
 14
0.5
 24
0.5
 14
0.5
 24
0.288946049334
 14
-0.5
 24
0.288946049334
 14
-0.5
 24
0.5
  0
TEXT
  5
396
330
1F
100
AcDbEntity
  8
99
  6
AUSGEZOGEN
 62
   136
370
    18
100
AcDbText
 10
55.72069741536
 20
131.835681350795
 30
0.0
 40
1.25
  1
Klebeband
 41
1.136070732804
  7
Arial
 72
     5
 11
65.19694741536
 21
131.835681350795
 31
0.0
100
AcDbText
  0
HATCH
  5
397
330
1F
100
AcDbEntity
  8
Layer8
  6
AUSGEZOGEN
 62
   136
370
    18
100
AcDbHatch
 10
0.0
 20
0.0
 30
0.0
210
0.0
220
0.0
230
1.0
  2
SOLID
 70
     1
 71
     0
 91
        1
 92
        2
 72
     1
 73
     1
 93
        2
 10
74.9956450301505
 20
121.2942355302833
 42
0.9999999999999982
 10
75.5370741402687
 20
120.7752417743319
 42
0.9999999999999982
 97
        0
 75
     0
 76
     1
 98
        0
  0
LWPOLYLINE
  5
398
330
1F
100
AcDbEntity
  8
Layer8
  6
AUSGEZOGEN
 62
   136
370
    18
100
AcDbPolyline
 90
        3
 70
     0
 43
0.0
 10
75.26635958521
 20
121.034738652308
 10
68.0
 20
128.0
 10
67.0
 20
128.0
  0
WIPEOUT
  5
399
330
1F
100
AcDbEntity
  8
99
  6
AUSGEZOGEN
 62
   136
370
    18
 92
      152
310
98000000040000000C0000000E000000120000000C00000016000000000000C20C00000014000000010000006C0000000700000004000000D2D2619AF06D4B405679F23DDDC35F400000000000000000408DA18A029450405679F23DDDC35F400000000000000000408DA18A02945040AB3CF99EEE21604000000000000000
310
00D2D2619AF06D4B40AB3CF99EEE2160400000000000000000
100
AcDbWipeout
 90
        0
 10
54.858905122533
 20
127.060378538886
 30
0.0
 11
11.45375
 21
0.0
 31
0.0
 12
0.0
 22
11.45375
 32
0.0
 13
1.0
 23
1.0
340
0
 70
     7
280
     1
281
    50
282
    50
283
     0
360
0
 71
     2
 91
        5
 14
-0.5
 24
0.5
 14
0.5
 24
0.5
 14
0.5
 24
0.325384699334
 14
-0.5
 24
0.325384699334
 14
-0.5
 24
0.5
  0
TEXT
  5
39A
330
1F
100
AcDbEntity
  8
99
  6
AUSGEZOGEN
 62
   136
370
    18
100
AcDbText
 10
54.858905122533
 20
127.435378538886
 30
0.0
 40
1.25
  1
PMMA weiss
 41
1.136002975453
  7
Arial
 72
     5
 11
66.312655122533
 21
127.435378538886
 31
0.0
100
AcDbText
  0
WIPEOUT
  5
39B
330
1F
100
AcDbEntity
  8
99
  6
AUSGEZOGEN
 62
   136
370
    18
 92
      152
310
98000000040000000C0000000E000000120000000C00000016000000000000C20C00000014000000010000006C00000007000000040000002CC90215A71C4B4027C51F3011C5604000000000000000009C066DAF6B6D4F4027C51F3011C5604000000000000000009C066DAF6B6D4F405AF8526344F8604000000000000000
310
002CC90215A71C4B405AF8526344F860400000000000000000
100
AcDbWipeout
 90
        0
 10
54.223848940239
 20
134.158348142673
 30
0.0
 11
8.630999853014949
 21
0.0
 31
0.0
 12
0.0
 22
8.630999853014949
 32
0.0
 13
1.0
 23
1.0
340
0
 70
     7
280
     1
281
    50
282
    50
283
     0
360
0
 71
     2
 91
        5
 14
-0.5
 24
0.5
 14
0.5
 24
0.5
 14
0.5
 24
0.314621709275
 14
-0.5
 24
0.314621709275
 14
-0.5
 24
0.5
  0
TEXT
  5
39C
330
1F
100
AcDbEntity
  8
99
  6
AUSGEZOGEN
 62
   136
370
    18
100
AcDbText
 10
54.223848940239
 20
134.458348142673
 30
0.0
 40
1.0
  1
PMMA clear
 41
1.135508466388
  7
Arial
 72
     5
 11
62.854848793254
 21
134.458348142673
 31
0.0
100
AcDbText
  0
WIPEOUT
  5
39D
330
1F
100
AcDbEntity
  8
99
  6
AUSGEZOGEN
 62
   136
370
    18
 92
      152
310
98000000040000000C0000000E000000120000000C00000016000000000000C20C00000014000000010000006C00000007000000040000001EA41AD03FDC4B40D04851BF2C466040000000000000000075B8032F01715040D04851BF2C466040000000000000000075B8032F01715040037C84F25F79604000000000000000
310
001EA41AD03FDC4B40037C84F25F7960400000000000000000
100
AcDbWipeout
 90
        0
 10
55.72069741536
 20
130.192962321051
 30
0.0
 11
10.04499982893467
 21
0.0
 31
0.0
 12
0.0
 22
10.04499982893467
 32
0.0
 13
1.0
 23
1.0
340
0
 70
     7
280
     1
281
    50
282
    50
283
     0
360
0
 71
     2
 91
        5
 14
-0.5
 24
0.5
 14
0.5
 24
0.5
 14
0.5
 24
0.340716771802
 14
-0.5
 24
0.340716771802
 14
-0.5
 24
0.5
  0
TEXT
  5
39E
330
1F
100
AcDbEntity
  8
99
  6
AUSGEZOGEN
 62
   136
370
    18
100
AcDbText
 10
55.72069741536
 20
130.492962321051
 30
0.0
 40
1.0
  1
Adhesive tape
 41
1.135669850643
  7
Arial
 72
     5
 11
65.765697244294
 21
130.492962321051
 31
0.0
100
AcDbText
  0
WIPEOUT
  5
39F
330
1F
100
AcDbEntity
  8
99
  6
AUSGEZOGEN
 62
   136
370
    18
 92
      152
310
98000000040000000C0000000E000000120000000C00000016000000000000C20C00000014000000010000006C0000000700000004000000D2D2619AF06D4B4060CA9E8AEF6F5F400000000000000000C8FBBDDEA6E14F4060CA9E8AEF6F5F400000000000000000C8FBBDDEA6E14F40C63005F155D65F4000000000000000
310
00D2D2619AF06D4B40C63005F155D65F400000000000000000
100
AcDbWipeout
 90
        0
 10
54.858905122533
 20
125.748995451993
 30
0.0
 11
8.903999848365785
 21
0.0
 31
0.0
 12
0.0
 22
8.903999848365785
 32
0.0
 13
1.0
 23
1.0
340
0
 70
     7
280
     1
281
    50
282
    50
283
     0
360
0
 71
     2
 91
        5
 14
-0.5
 24
0.5
 14
0.5
 24
0.5
 14
0.5
 24
0.320305477623
 14
-0.5
 24
0.320305477623
 14
-0.5
 24
0.5
  0
TEXT
  5
3A0
330
1F
100
AcDbEntity
  8
99
  6
AUSGEZOGEN
 62
   136
370
    18
100
AcDbText
 10
54.858905122533
 20
126.048995451993
 30
0.0
 40
1.0
  1
PMMA white
 41
1.136584101144
  7
Arial
 72
     5
 11
63.762904970899
 21
126.048995451993
 31
0.0
100
AcDbText
  0
ENDSEC
  0
SECTION
  2
OBJECTS
  0
DICTIONARY
  5
C
330
0
100
AcDbDictionary
281
     1
  3
ACAD_GROUP
350
D
  3
ACAD_LAYOUT
350
1A
  3
ACAD_MATERIAL
350
3B
  3
ACAD_MLEADERSTYLE
350
3C8
  3
ACAD_MLINESTYLE
350
17
  3
ACAD_PLOTSETTINGS
350
19
  3
ACAD_PLOTSTYLENAME
350
E
  3
ACAD_TABLESTYLE
350
3C7
  3
ACAD_VISUALSTYLE
350
2A
  3
ACAD_WIPEOUT_VARS
350
3F
  0
DICTIONARY
  5
D
102
{ACAD_REACTORS
330
C
102
}
330
C
100
AcDbDictionary
281
     1
  0
DICTIONARY
  5
1A
102
{ACAD_REACTORS
330
C
102
}
330
C
100
AcDbDictionary
281
     1
  3
Layout1
350
1E
  3
Layout2
350
26
  3
Model
350
22
  0
DICTIONARY
  5
3B
102
{ACAD_REACTORS
330
C
102
}
330
C
100
AcDbDictionary
281
     1
  3
ByBlock
350
3D
  3
ByLayer
350
3C
  3
Global
350
3E
  0
DICTIONARY
  5
3C8
102
{ACAD_REACTORS
330
C
102
}
330
C
100
AcDbDictionary
281
     1
  0
DICTIONARY
  5
17
102
{ACAD_REACTORS
330
C
102
}
330
C
100
AcDbDictionary
281
     1
  3
Standard
350
18
  0
DICTIONARY
  5
19
102
{ACAD_REACTORS
330
C
102
}
330
C
100
AcDbDictionary
281
     1
  0
ACDBDICTIONARYWDFLT
  5
E
102
{ACAD_REACTORS
330
C
102
}
330
C
100
AcDbDictionary
281
     1
  3
Normal
350
F
100
AcDbDictionaryWithDefault
340
F
  0
DICTIONARY
  5
3C7
102
{ACAD_REACTORS
330
C
102
}
330
C
100
AcDbDictionary
281
     1
  0
DICTIONARY
  5
2A
102
{ACAD_REACTORS
330
C
102
}
330
C
100
AcDbDictionary
281
     1
  3
2dWireframe
350
2F
  3
3D Hidden
350
31
  3
3dWireframe
350
30
  3
Basic
350
32
  3
Brighten
350
36
  3
ColorChange
350
3A
  3
Conceptual
350
34
  3
Dim
350
35
  3
Facepattern
350
39
  3
Flat
350
2B
  3
FlatWithEdges
350
2C
  3
Gouraud
350
2D
  3
GouraudWithEdges
350
2E
  3
Linepattern
350
38
  3
Realistic
350
33
  3
Thicken
350
37
  0
WIPEOUTVARIABLES
  5
3F
102
{ACAD_REACTORS
330
C
102
}
330
C
100
AcDbWipeoutVariables
 70
     0
  0
LAYOUT
  5
1E
102
{ACAD_REACTORS
330
1A
102
}
330
1A
100
AcDbPlotSettings
  1

  2
none_device
  4

  6

 40
0.0
 41
0.0
 42
0.0
 43
0.0
 44
0.0
 45
0.0
 46
0.0
 47
0.0
 48
0.0
 49
0.0
140
0.0
141
0.0
142
1.0
143
1.0
 70
   688
 72
     0
 73
     0
 74
     5
  7

 75
    16
 76
     0
 77
     2
 78
   300
147
1.0
148
0.0
149
0.0
100
AcDbLayout
  1
Layout1
 70
     1
 71
     1
 10
0.0
 20
0.0
 11
420.0
 21
297.0
 12
0.0
 22
0.0
 32
0.0
 14
1.000000000000E+20
 24
1.000000000000E+20
 34
1.000000000000E+20
 15
-1.000000000000E+20
 25
-1.000000000000E+20
 35
-1.000000000000E+20
146
0.0
 13
0.0
 23
0.0
 33
0.0
 16
1.0
 26
0.0
 36
0.0
 17
0.0
 27
1.0
 37
0.0
 76
     0
330
1B
  0
LAYOUT
  5
26
102
{ACAD_REACTORS
330
1A
102
}
330
1A
100
AcDbPlotSettings
  1

  2
none_device
  4

  6

 40
0.0
 41
0.0
 42
0.0
 43
0.0
 44
0.0
 45
0.0
 46
0.0
 47
0.0
 48
0.0
 49
0.0
140
0.0
141
0.0
142
1.0
143
1.0
 70
   688
 72
     0
 73
     0
 74
     5
  7

 75
    16
 76
     0
 77
     2
 78
   300
147
1.0
148
0.0
149
0.0
100
AcDbLayout
  1
Layout2
 70
     1
 71
     2
 10
0.0
 20
0.0
 11
0.0
 21
0.0
 12
0.0
 22
0.0
 32
0.0
 14
0.0
 24
0.0
 34
0.0
 15
0.0
 25
0.0
 35
0.0
146
0.0
 13
0.0
 23
0.0
 33
0.0
 16
1.0
 26
0.0
 36
0.0
 17
0.0
 27
1.0
 37
0.0
 76
     0
330
23
  0
LAYOUT
  5
22
102
{ACAD_REACTORS
330
1A
102
}
330
1A
100
AcDbPlotSettings
  1

  2
none_device
  4

  6

 40
0.0
 41
0.0
 42
0.0
 43
0.0
 44
0.0
 45
0.0
 46
0.0
 47
0.0
 48
0.0
 49
0.0
140
0.0
141
0.0
142
1.0
143
1.0
 70
  1712
 72
     0
 73
     0
 74
     0
  7

 75
     0
 76
     0
 77
     2
 78
   300
147
1.0
148
0.0
149
0.0
100
AcDbLayout
  1
Model
 70
     1
 71
     0
 10
0.0
 20
0.0
 11
420.0
 21
297.0
 12
0.0
 22
0.0
 32
0.0
 14
-98.020700671994
 24
11.864697359775
 34
0.0
 15
280.689535726242
 25
165.413697359775
 35
0.0
146
0.0
 13
0.0
 23
0.0
 33
0.0
 16
1.0
 26
0.0
 36
0.0
 17
0.0
 27
1.0
 37
0.0
 76
     0
330
1F
331
29
  0
MATERIAL
  5
3D
102
{ACAD_REACTORS
330
3B
102
}
102
{ACAD_XDICTIONARY
360
3C3
102
}
330
3B
100
AcDbMaterial
  1
ByBlock
  0
MATERIAL
  5
3C
102
{ACAD_REACTORS
330
3B
102
}
102
{ACAD_XDICTIONARY
360
3C1
102
}
330
3B
100
AcDbMaterial
  1
ByLayer
  0
MATERIAL
  5
3E
102
{ACAD_REACTORS
330
3B
102
}
102
{ACAD_XDICTIONARY
360
3C5
102
}
330
3B
100
AcDbMaterial
  1
Global
  0
MLINESTYLE
  5
18
102
{ACAD_REACTORS
330
17
102
}
330
17
100
AcDbMlineStyle
  2
Standard
 70
     0
  3

 62
   256
 51
90.0
 52
90.0
 71
     2
 49
0.5
 62
   256
  6
BYLAYER
 49
-0.5
 62
   256
  6
BYLAYER
  0
ACDBPLACEHOLDER
  5
F
102
{ACAD_REACTORS
330
E
102
}
330
E
  0
VISUALSTYLE
  5
2F
102
{ACAD_REACTORS
330
2A
102
}
102
{ACAD_XDICTIONARY
360
3A9
102
}
330
2A
100
AcDbVisualStyle
  2
2dWireframe
 70
     4
 71
     0
 72
     2
 73
     0
 90
        0
 40
-0.6
 41
-30.0
 62
     5
 63
     7
421
 16777215
 74
     1
 91
        4
 64
     7
 65
   257
 75
     1
175
     1
 42
1.0
 92
        0
 66
   257
 43
1.0
 76
     1
 77
     6
 78
     2
 67
     7
 79
     5
170
     0
171
     0
290
     0
174
     0
 93
        1
 44
0.0
173
     0
291
     0
 45
0.0
1001
ACAD
1000
AcDbSavedByObjectVersion
1070
     0
  0
VISUALSTYLE
  5
31
102
{ACAD_REACTORS
330
2A
102
}
102
{ACAD_XDICTIONARY
360
3AD
102
}
330
2A
100
AcDbVisualStyle
  2
3D Hidden
 70
     6
 71
     1
 72
     2
 73
     2
 90
        0
 40
-0.6
 41
-30.0
 62
     5
 63
     7
421
 16777215
 74
     2
 91
        2
 64
     7
 65
   257
 75
     2
175
     1
 42
40.0
 92
        0
 66
   257
 43
1.0
 76
     1
 77
     6
 78
     2
 67
     7
 79
     3
170
     0
171
     0
290
     0
174
     0
 93
        1
 44
0.0
173
     0
291
     0
 45
0.0
1001
ACAD
1000
AcDbSavedByObjectVersion
1070
     0
  0
VISUALSTYLE
  5
30
102
{ACAD_REACTORS
330
2A
102
}
102
{ACAD_XDICTIONARY
360
3AB
102
}
330
2A
100
AcDbVisualStyle
  2
3dWireframe
 70
     5
 71
     0
 72
     2
 73
     0
 90
        0
 40
-0.6
 41
-30.0
 62
     5
 63
     7
421
 16777215
 74
     1
 91
        4
 64
     7
 65
   257
 75
     1
175
     1
 42
1.0
 92
        0
 66
   257
 43
1.0
 76
     1
 77
     6
 78
     2
 67
     7
 79
     5
170
     0
171
     0
290
     0
174
     0
 93
        1
 44
0.0
173
     0
291
     0
 45
0.0
1001
ACAD
1000
AcDbSavedByObjectVersion
1070
     0
  0
VISUALSTYLE
  5
32
102
{ACAD_REACTORS
330
2A
102
}
102
{ACAD_XDICTIONARY
360
3AF
102
}
330
2A
100
AcDbVisualStyle
  2
Basic
 70
     7
 71
     1
 72
     0
 73
     1
 90
        0
 40
-0.6
 41
-30.0
 62
     5
 63
     7
421
 16777215
 74
     0
 91
        4
 64
     7
 65
   257
 75
     1
175
     1
 42
1.0
 92
        8
 66
     7
 43
1.0
 76
     1
 77
     6
 78
     2
 67
     7
 79
     5
170
     0
171
     0
290
     0
174
     0
 93
        1
 44
0.0
173
     0
291
     1
 45
0.0
1001
ACAD
1000
AcDbSavedByObjectVersion
1070
     0
  0
VISUALSTYLE
  5
36
102
{ACAD_REACTORS
330
2A
102
}
102
{ACAD_XDICTIONARY
360
3B7
102
}
330
2A
100
AcDbVisualStyle
  2
Brighten
 70
    12
 71
     2
 72
     2
 73
     0
 90
        0
 40
-0.6
 41
-30.0
 62
     5
 63
     7
421
 16777215
 74
     1
 91
        4
 64
     7
 65
   257
 75
     1
175
     1
 42
1.0
 92
        8
 66
     7
 43
1.0
 76
     1
 77
     6
 78
     2
 67
     7
 79
     5
170
     0
171
     0
290
     0
174
     0
 93
        1
 44
50.0
173
     0
291
     1
 45
0.0
1001
ACAD
1000
AcDbSavedByObjectVersion
1070
     0
  0
VISUALSTYLE
  5
3A
102
{ACAD_REACTORS
330
2A
102
}
102
{ACAD_XDICTIONARY
360
3BF
102
}
330
2A
100
AcDbVisualStyle
  2
ColorChange
 70
    16
 71
     2
 72
     2
 73
     3
 90
        0
 40
-0.6
 41
-30.0
 62
     5
 63
     8
421
  8421504
 74
     1
 91
        4
 64
     7
 65
   257
 75
     1
175
     1
 42
1.0
 92
        8
 66
     8
424
  8421504
 43
1.0
 76
     1
 77
     6
 78
     2
 67
     7
 79
     5
170
     0
171
     0
290
     0
174
     0
 93
        1
 44
0.0
173
     0
291
     1
 45
0.0
1001
ACAD
1000
AcDbSavedByObjectVersion
1070
     0
  0
VISUALSTYLE
  5
34
102
{ACAD_REACTORS
330
2A
102
}
102
{ACAD_XDICTIONARY
360
3B3
102
}
330
2A
100
AcDbVisualStyle
  2
Conceptual
 70
     9
 71
     3
 72
     2
 73
     0
 90
        0
 40
-0.6
 41
-30.0
 62
     5
 63
     7
421
 16777215
 74
     2
 91
        2
 64
     7
 65
   257
 75
     1
175
     1
 42
40.0
 92
        8
 66
     7
 43
1.0
 76
     1
 77
     6
 78
     2
 67
     7
 79
     3
170
     0
171
     0
290
     0
174
     0
 93
        1
 44
0.0
173
     0
291
     0
 45
0.0
1001
ACAD
1000
AcDbSavedByObjectVersion
1070
     0
  0
VISUALSTYLE
  5
35
102
{ACAD_REACTORS
330
2A
102
}
102
{ACAD_XDICTIONARY
360
3B5
102
}
330
2A
100
AcDbVisualStyle
  2
Dim
 70
    11
 71
     2
 72
     2
 73
     0
 90
        0
 40
-0.6
 41
-30.0
 62
     5
 63
     7
421
 16777215
 74
     1
 91
        4
 64
     7
 65
   257
 75
     1
175
     1
 42
1.0
 92
        8
 66
     7
 43
1.0
 76
     1
 77
     6
 78
     2
 67
     7
 79
     5
170
     0
171
     0
290
     0
174
     0
 93
        1
 44
-50.0
173
     0
291
     1
 45
0.0
1001
ACAD
1000
AcDbSavedByObjectVersion
1070
     0
  0
VISUALSTYLE
  5
39
102
{ACAD_REACTORS
330
2A
102
}
102
{ACAD_XDICTIONARY
360
3BD
102
}
330
2A
100
AcDbVisualStyle
  2
Facepattern
 70
    15
 71
     2
 72
     2
 73
     0
 90
        0
 40
-0.6
 41
-30.0
 62
     5
 63
     7
421
 16777215
 74
     1
 91
        4
 64
     7
 65
   257
 75
     1
175
     1
 42
1.0
 92
        8
 66
     7
 43
1.0
 76
     1
 77
     6
 78
     2
 67
     7
 79
     5
170
     0
171
     0
290
     0
174
     0
 93
        1
 44
0.0
173
     0
291
     1
 45
0.0
1001
ACAD
1000
AcDbSavedByObjectVersion
1070
     0
  0
VISUALSTYLE
  5
2B
102
{ACAD_REACTORS
330
2A
102
}
102
{ACAD_XDICTIONARY
360
3A1
102
}
330
2A
100
AcDbVisualStyle
  2
Flat
 70
     0
 71
     2
 72
     1
 73
     1
 90
        2
 40
-0.6
 41
30.0
 62
     5
 63
     7
421
 16777215
 74
     0
 91
        4
 64
     7
 65
   257
 75
     1
175
     1
 42
1.0
 92
        8
 66
     7
 43
1.0
 76
     1
 77
     6
 78
     2
 67
     7
 79
     5
170
     0
171
     0
290
     0
174
     0
 93
       13
 44
0.0
173
     0
291
     1
 45
0.0
1001
ACAD
1000
AcDbSavedByObjectVersion
1070
     0
  0
VISUALSTYLE
  5
2C
102
{ACAD_REACTORS
330
2A
102
}
102
{ACAD_XDICTIONARY
360
3A3
102
}
330
2A
100
AcDbVisualStyle
  2
FlatWithEdges
 70
     1
 71
     2
 72
     1
 73
     1
 90
        2
 40
-0.6
 41
30.0
 62
     5
 63
     7
421
 16777215
 74
     1
 91
        4
 64
     7
 65
   257
 75
     1
175
     1
 42
1.0
 92
        0
 66
   257
 43
1.0
 76
     1
 77
     6
 78
     2
 67
     7
 79
     5
170
     0
171
     0
290
     0
174
     0
 93
       13
 44
0.0
173
     0
291
     1
 45
0.0
1001
ACAD
1000
AcDbSavedByObjectVersion
1070
     0
  0
VISUALSTYLE
  5
2D
102
{ACAD_REACTORS
330
2A
102
}
102
{ACAD_XDICTIONARY
360
3A5
102
}
330
2A
100
AcDbVisualStyle
  2
Gouraud
 70
     2
 71
     2
 72
     2
 73
     1
 90
        2
 40
-0.6
 41
30.0
 62
     5
 63
     7
421
 16777215
 74
     0
 91
        4
 64
     7
 65
   257
 75
     1
175
     1
 42
1.0
 92
        0
 66
     7
 43
1.0
 76
     1
 77
     6
 78
     2
 67
     7
 79
     5
170
     0
171
     0
290
     0
174
     0
 93
       13
 44
0.0
173
     0
291
     1
 45
0.0
1001
ACAD
1000
AcDbSavedByObjectVersion
1070
     0
  0
VISUALSTYLE
  5
2E
102
{ACAD_REACTORS
330
2A
102
}
102
{ACAD_XDICTIONARY
360
3A7
102
}
330
2A
100
AcDbVisualStyle
  2
GouraudWithEdges
 70
     3
 71
     2
 72
     2
 73
     1
 90
        2
 40
-0.6
 41
30.0
 62
     5
 63
     7
421
 16777215
 74
     1
 91
        4
 64
     7
 65
   257
 75
     1
175
     1
 42
1.0
 92
        0
 66
   257
 43
1.0
 76
     1
 77
     6
 78
     2
 67
     7
 79
     5
170
     0
171
     0
290
     0
174
     0
 93
       13
 44
0.0
173
     0
291
     1
 45
0.0
1001
ACAD
1000
AcDbSavedByObjectVersion
1070
     0
  0
VISUALSTYLE
  5
38
102
{ACAD_REACTORS
330
2A
102
}
102
{ACAD_XDICTIONARY
360
3BB
102
}
330
2A
100
AcDbVisualStyle
  2
Linepattern
 70
    14
 71
     2
 72
     2
 73
     0
 90
        0
 40
-0.6
 41
-30.0
 62
     5
 63
     7
421
 16777215
 74
     1
 91
        4
 64
     7
 65
   257
 75
     7
175
     7
 42
1.0
 92
        8
 66
     7
 43
1.0
 76
     1
 77
     6
 78
     2
 67
     7
 79
     5
170
     0
171
     0
290
     0
174
     0
 93
        1
 44
0.0
173
     0
291
     1
 45
0.0
1001
ACAD
1000
AcDbSavedByObjectVersion
1070
     0
  0
VISUALSTYLE
  5
33
102
{ACAD_REACTORS
330
2A
102
}
102
{ACAD_XDICTIONARY
360
3B1
102
}
330
2A
100
AcDbVisualStyle
  2
Realistic
 70
     8
 71
     2
 72
     2
 73
     0
 90
        0
 40
-0.6
 41
-30.0
 62
     5
 63
     7
421
 16777215
 74
     1
 91
        0
 64
     7
 65
   257
 75
     1
175
     1
 42
1.0
 92
        8
 66
     8
424
  7895160
 43
1.0
 76
     1
 77
     6
 78
     2
 67
     7
 79
     5
170
     0
171
     0
290
     0
174
     0
 93
       13
 44
0.0
173
     0
291
     0
 45
0.0
1001
ACAD
1000
AcDbSavedByObjectVersion
1070
     0
  0
VISUALSTYLE
  5
37
102
{ACAD_REACTORS
330
2A
102
}
102
{ACAD_XDICTIONARY
360
3B9
102
}
330
2A
100
AcDbVisualStyle
  2
Thicken
 70
    13
 71
     2
 72
     2
 73
     0
 90
        0
 40
-0.6
 41
-30.0
 62
     5
 63
     7
421
 16777215
 74
     1
 91
        4
 64
     7
 65
   257
 75
     1
175
     1
 42
1.0
 92
       12
 66
     7
 43
1.0
 76
     1
 77
     6
 78
     2
 67
     7
 79
     5
170
     0
171
     0
290
     0
174
     0
 93
        1
 44
0.0
173
     0
291
     1
 45
0.0
1001
ACAD
1000
AcDbSavedByObjectVersion
1070
     0
  0
DICTIONARY
  5
3C3
330
3D
100
AcDbDictionary
280
     1
281
     1
  3
ACAD_XREC_ROUNDTRIP
360
3C4
  0
DICTIONARY
  5
3C1
330
3C
100
AcDbDictionary
280
     1
281
     1
  3
ACAD_XREC_ROUNDTRIP
360
3C2
  0
DICTIONARY
  5
3C5
330
3E
100
AcDbDictionary
280
     1
281
     1
  3
ACAD_XREC_ROUNDTRIP
360
3C6
  0
DICTIONARY
  5
3A9
330
2F
100
AcDbDictionary
280
     1
281
     1
  3
ACAD_XREC_ROUNDTRIP
360
3AA
  0
DICTIONARY
  5
3AD
330
31
100
AcDbDictionary
280
     1
281
     1
  3
ACAD_XREC_ROUNDTRIP
360
3AE
  0
DICTIONARY
  5
3AB
330
30
100
AcDbDictionary
280
     1
281
     1
  3
ACAD_XREC_ROUNDTRIP
360
3AC
  0
DICTIONARY
  5
3AF
330
32
100
AcDbDictionary
280
     1
281
     1
  3
ACAD_XREC_ROUNDTRIP
360
3B0
  0
DICTIONARY
  5
3B7
330
36
100
AcDbDictionary
280
     1
281
     1
  3
ACAD_XREC_ROUNDTRIP
360
3B8
  0
DICTIONARY
  5
3BF
330
3A
100
AcDbDictionary
280
     1
281
     1
  3
ACAD_XREC_ROUNDTRIP
360
3C0
  0
DICTIONARY
  5
3B3
330
34
100
AcDbDictionary
280
     1
281
     1
  3
ACAD_XREC_ROUNDTRIP
360
3B4
  0
DICTIONARY
  5
3B5
330
35
100
AcDbDictionary
280
     1
281
     1
  3
ACAD_XREC_ROUNDTRIP
360
3B6
  0
DICTIONARY
  5
3BD
330
39
100
AcDbDictionary
280
     1
281
     1
  3
ACAD_XREC_ROUNDTRIP
360
3BE
  0
DICTIONARY
  5
3A1
330
2B
100
AcDbDictionary
280
     1
281
     1
  3
ACAD_XREC_ROUNDTRIP
360
3A2
  0
DICTIONARY
  5
3A3
330
2C
100
AcDbDictionary
280
     1
281
     1
  3
ACAD_XREC_ROUNDTRIP
360
3A4
  0
DICTIONARY
  5
3A5
330
2D
100
AcDbDictionary
280
     1
281
     1
  3
ACAD_XREC_ROUNDTRIP
360
3A6
  0
DICTIONARY
  5
3A7
330
2E
100
AcDbDictionary
280
     1
281
     1
  3
ACAD_XREC_ROUNDTRIP
360
3A8
  0
DICTIONARY
  5
3BB
330
38
100
AcDbDictionary
280
     1
281
     1
  3
ACAD_XREC_ROUNDTRIP
360
3BC
  0
DICTIONARY
  5
3B1
330
33
100
AcDbDictionary
280
     1
281
     1
  3
ACAD_XREC_ROUNDTRIP
360
3B2
  0
DICTIONARY
  5
3B9
330
37
100
AcDbDictionary
280
     1
281
     1
  3
ACAD_XREC_ROUNDTRIP
360
3BA
  0
XRECORD
  5
3C4
102
{ACAD_REACTORS
330
3C3
102
}
330
3C3
100
AcDbXrecord
280
     1
102
MATERIAL
148
0.0
149
0.0
149
0.0
 93
        0
 94
      127
282
     0
 72
     1
 77
     1
171
     1
175
     1
179
     1
273
     0
  0
XRECORD
  5
3C2
102
{ACAD_REACTORS
330
3C1
102
}
330
3C1
100
AcDbXrecord
280
     1
102
MATERIAL
148
0.0
149
0.0
149
0.0
 93
        0
 94
      127
282
     0
 72
     1
 77
     1
171
     1
175
     1
179
     1
273
     0
  0
XRECORD
  5
3C6
102
{ACAD_REACTORS
330
3C5
102
}
330
3C5
100
AcDbXrecord
280
     1
102
MATERIAL
148
0.0
149
0.0
149
0.0
 93
        0
 94
      127
282
     0
 72
     1
 77
     1
171
     1
175
     1
179
     1
273
     0
  0
XRECORD
  5
3AA
102
{ACAD_REACTORS
330
3A9
102
}
330
3A9
100
AcDbXrecord
280
     1
102
RTVSPropertyOp0
 70
     1
102
RTVSPropertyOp1
 70
     1
102
RTVSPropertyOp2
 70
     1
102
RTVSPropertyOp3
 70
     1
102
RTVSPropertyOp4
 70
     1
102
RTVSPropertyOp5
 70
     1
102
RTVSPropertyOp6
 70
     1
102
RTVSPropertyOp7
 70
     1
102
RTVSPropertyOp8
 70
     1
102
RTVSPropertyOp9
 70
     1
102
RTVSPropertyOp10
 70
     1
102
RTVSPropertyOp11
 70
     1
102
RTVSPropertyOp12
 70
     1
102
RTVSPropertyOp13
 70
     1
102
RTVSPropertyOp14
 70
     1
102
RTVSPropertyOp15
 70
     1
102
RTVSPropertyOp16
 70
     1
102
RTVSPropertyOp17
 70
     1
102
RTVSPropertyOp18
 70
     1
102
RTVSPropertyOp19
 70
     1
102
RTVSPropertyOp20
 70
     1
102
RTVSPropertyOp21
 70
     1
102
RTVSPropertyOp22
 70
     1
102
RTVSPropertyOp23
 70
     1
102
RTVSPropertyOp24
 70
     1
102
RTVSPropertyOp25
 70
     1
102
RTVSPropertyOp26
 70
     1
102
RTVSPropertyOp27
 70
     1
102
RTVSPropertyOp28
 70
     1
102
RTVSPropertyOp29
 70
     1
102
RTVSPropertyOp30
 70
     1
102
RTVSPropertyOp31
 70
     1
102
RTVSPropertyOp32
 70
     1
  0
XRECORD
  5
3AE
102
{ACAD_REACTORS
330
3AD
102
}
330
3AD
100
AcDbXrecord
280
     1
102
RTVSPropertyOp0
 70
     1
102
RTVSPropertyOp1
 70
     1
102
RTVSPropertyOp2
 70
     1
102
RTVSPropertyOp3
 70
     1
102
RTVSPropertyOp4
 70
     1
102
RTVSPropertyOp5
 70
     1
102
RTVSPropertyOp6
 70
     1
102
RTVSPropertyOp7
 70
     1
102
RTVSPropertyOp8
 70
     1
102
RTVSPropertyOp9
 70
     1
102
RTVSPropertyOp10
 70
     1
102
RTVSPropertyOp11
 70
     1
102
RTVSPropertyOp12
 70
     1
102
RTVSPropertyOp13
 70
     1
102
RTVSPropertyOp14
 70
     1
102
RTVSPropertyOp15
 70
     1
102
RTVSPropertyOp16
 70
     1
102
RTVSPropertyOp17
 70
     1
102
RTVSPropertyOp18
 70
     1
102
RTVSPropertyOp19
 70
     1
102
RTVSPropertyOp20
 70
     1
102
RTVSPropertyOp21
 70
     1
102
RTVSPropertyOp22
 70
     1
102
RTVSPropertyOp23
 70
     1
102
RTVSPropertyOp24
 70
     1
102
RTVSPropertyOp25
 70
     1
102
RTVSPropertyOp26
 70
     1
102
RTVSPropertyOp27
 70
     1
102
RTVSPropertyOp28
 70
     1
102
RTVSPropertyOp29
 70
     1
102
RTVSPropertyOp30
 70
     1
102
RTVSPropertyOp31
 70
     1
102
RTVSPropertyOp32
 70
     1
  0
XRECORD
  5
3AC
102
{ACAD_REACTORS
330
3AB
102
}
330
3AB
100
AcDbXrecord
280
     1
102
RTVSPropertyOp0
 70
     1
102
RTVSPropertyOp1
 70
     1
102
RTVSPropertyOp2
 70
     1
102
RTVSPropertyOp3
 70
     1
102
RTVSPropertyOp4
 70
     1
102
RTVSPropertyOp5
 70
     1
102
RTVSPropertyOp6
 70
     1
102
RTVSPropertyOp7
 70
     1
102
RTVSPropertyOp8
 70
     1
102
RTVSPropertyOp9
 70
     1
102
RTVSPropertyOp10
 70
     1
102
RTVSPropertyOp11
 70
     1
102
RTVSPropertyOp12
 70
     1
102
RTVSPropertyOp13
 70
     1
102
RTVSPropertyOp14
 70
     1
102
RTVSPropertyOp15
 70
     1
102
RTVSPropertyOp16
 70
     1
102
RTVSPropertyOp17
 70
     1
102
RTVSPropertyOp18
 70
     1
102
RTVSPropertyOp19
 70
     1
102
RTVSPropertyOp20
 70
     1
102
RTVSPropertyOp21
 70
     1
102
RTVSPropertyOp22
 70
     1
102
RTVSPropertyOp23
 70
     1
102
RTVSPropertyOp24
 70
     1
102
RTVSPropertyOp25
 70
     1
102
RTVSPropertyOp26
 70
     1
102
RTVSPropertyOp27
 70
     1
102
RTVSPropertyOp28
 70
     1
102
RTVSPropertyOp29
 70
     1
102
RTVSPropertyOp30
 70
     1
102
RTVSPropertyOp31
 70
     1
102
RTVSPropertyOp32
 70
     1
  0
XRECORD
  5
3B0
102
{ACAD_REACTORS
330
3AF
102
}
330
3AF
100
AcDbXrecord
280
     1
102
RTVSPropertyOp0
 70
     1
102
RTVSPropertyOp1
 70
     1
102
RTVSPropertyOp2
 70
     1
102
RTVSPropertyOp3
 70
     1
102
RTVSPropertyOp4
 70
     1
102
RTVSPropertyOp5
 70
     1
102
RTVSPropertyOp6
 70
     1
102
RTVSPropertyOp7
 70
     1
102
RTVSPropertyOp8
 70
     1
102
RTVSPropertyOp9
 70
     1
102
RTVSPropertyOp10
 70
     1
102
RTVSPropertyOp11
 70
     1
102
RTVSPropertyOp12
 70
     1
102
RTVSPropertyOp13
 70
     1
102
RTVSPropertyOp14
 70
     1
102
RTVSPropertyOp15
 70
     1
102
RTVSPropertyOp16
 70
     1
102
RTVSPropertyOp17
 70
     1
102
RTVSPropertyOp18
 70
     1
102
RTVSPropertyOp19
 70
     1
102
RTVSPropertyOp20
 70
     1
102
RTVSPropertyOp21
 70
     1
102
RTVSPropertyOp22
 70
     1
102
RTVSPropertyOp23
 70
     1
102
RTVSPropertyOp24
 70
     1
102
RTVSPropertyOp25
 70
     1
102
RTVSPropertyOp26
 70
     1
102
RTVSPropertyOp27
 70
     1
102
RTVSPropertyOp28
 70
     1
102
RTVSPropertyOp29
 70
     1
102
RTVSPropertyOp30
 70
     1
102
RTVSPropertyOp31
 70
     1
102
RTVSPropertyOp32
 70
     1
  0
XRECORD
  5
3B8
102
{ACAD_REACTORS
330
3B7
102
}
330
3B7
100
AcDbXrecord
280
     1
102
RTVSPropertyOp0
 70
     1
102
RTVSPropertyOp1
 70
     1
102
RTVSPropertyOp2
 70
     1
102
RTVSPropertyOp3
 70
     1
102
RTVSPropertyOp4
 70
     1
102
RTVSPropertyOp5
 70
     1
102
RTVSPropertyOp6
 70
     1
102
RTVSPropertyOp7
 70
     1
102
RTVSPropertyOp8
 70
     1
102
RTVSPropertyOp9
 70
     1
102
RTVSPropertyOp10
 70
     1
102
RTVSPropertyOp11
 70
     1
102
RTVSPropertyOp12
 70
     1
102
RTVSPropertyOp13
 70
     1
102
RTVSPropertyOp14
 70
     1
102
RTVSPropertyOp15
 70
     1
102
RTVSPropertyOp16
 70
     1
102
RTVSPropertyOp17
 70
     1
102
RTVSPropertyOp18
 70
     1
102
RTVSPropertyOp19
 70
     1
102
RTVSPropertyOp20
 70
     1
102
RTVSPropertyOp21
 70
     1
102
RTVSPropertyOp22
 70
     1
102
RTVSPropertyOp23
 70
     1
102
RTVSPropertyOp24
 70
     1
102
RTVSPropertyOp25
 70
     1
102
RTVSPropertyOp26
 70
     1
102
RTVSPropertyOp27
 70
     1
102
RTVSPropertyOp28
 70
     1
102
RTVSPropertyOp29
 70
     1
102
RTVSPropertyOp30
 70
     1
102
RTVSPropertyOp31
 70
     1
102
RTVSPropertyOp32
 70
     1
  0
XRECORD
  5
3C0
102
{ACAD_REACTORS
330
3BF
102
}
330
3BF
100
AcDbXrecord
280
     1
102
RTVSPropertyOp0
 70
     1
102
RTVSPropertyOp1
 70
     1
102
RTVSPropertyOp2
 70
     1
102
RTVSPropertyOp3
 70
     1
102
RTVSPropertyOp4
 70
     1
102
RTVSPropertyOp5
 70
     1
102
RTVSPropertyOp6
 70
     1
102
RTVSPropertyOp7
 70
     1
102
RTVSPropertyOp8
 70
     1
102
RTVSPropertyOp9
 70
     1
102
RTVSPropertyOp10
 70
     1
102
RTVSPropertyOp11
 70
     1
102
RTVSPropertyOp12
 70
     1
102
RTVSPropertyOp13
 70
     1
102
RTVSPropertyOp14
 70
     1
102
RTVSPropertyOp15
 70
     1
102
RTVSPropertyOp16
 70
     1
102
RTVSPropertyOp17
 70
     1
102
RTVSPropertyOp18
 70
     1
102
RTVSPropertyOp19
 70
     1
102
RTVSPropertyOp20
 70
     1
102
RTVSPropertyOp21
 70
     1
102
RTVSPropertyOp22
 70
     1
102
RTVSPropertyOp23
 70
     1
102
RTVSPropertyOp24
 70
     1
102
RTVSPropertyOp25
 70
     1
102
RTVSPropertyOp26
 70
     1
102
RTVSPropertyOp27
 70
     1
102
RTVSPropertyOp28
 70
     1
102
RTVSPropertyOp29
 70
     1
102
RTVSPropertyOp30
 70
     1
102
RTVSPropertyOp31
 70
     1
102
RTVSPropertyOp32
 70
     1
  0
XRECORD
  5
3B4
102
{ACAD_REACTORS
330
3B3
102
}
330
3B3
100
AcDbXrecord
280
     1
102
RTVSPropertyOp0
 70
     1
102
RTVSPropertyOp1
 70
     1
102
RTVSPropertyOp2
 70
     1
102
RTVSPropertyOp3
 70
     1
102
RTVSPropertyOp4
 70
     1
102
RTVSPropertyOp5
 70
     1
102
RTVSPropertyOp6
 70
     1
102
RTVSPropertyOp7
 70
     1
102
RTVSPropertyOp8
 70
     1
102
RTVSPropertyOp9
 70
     1
102
RTVSPropertyOp10
 70
     1
102
RTVSPropertyOp11
 70
     1
102
RTVSPropertyOp12
 70
     1
102
RTVSPropertyOp13
 70
     1
102
RTVSPropertyOp14
 70
     1
102
RTVSPropertyOp15
 70
     1
102
RTVSPropertyOp16
 70
     1
102
RTVSPropertyOp17
 70
     1
102
RTVSPropertyOp18
 70
     1
102
RTVSPropertyOp19
 70
     1
102
RTVSPropertyOp20
 70
     1
102
RTVSPropertyOp21
 70
     1
102
RTVSPropertyOp22
 70
     1
102
RTVSPropertyOp23
 70
     1
102
RTVSPropertyOp24
 70
     1
102
RTVSPropertyOp25
 70
     1
102
RTVSPropertyOp26
 70
     1
102
RTVSPropertyOp27
 70
     1
102
RTVSPropertyOp28
 70
     1
102
RTVSPropertyOp29
 70
     1
102
RTVSPropertyOp30
 70
     1
102
RTVSPropertyOp31
 70
     1
102
RTVSPropertyOp32
 70
     1
  0
XRECORD
  5
3B6
102
{ACAD_REACTORS
330
3B5
102
}
330
3B5
100
AcDbXrecord
280
     1
102
RTVSPropertyOp0
 70
     1
102
RTVSPropertyOp1
 70
     1
102
RTVSPropertyOp2
 70
     1
102
RTVSPropertyOp3
 70
     1
102
RTVSPropertyOp4
 70
     1
102
RTVSPropertyOp5
 70
     1
102
RTVSPropertyOp6
 70
     1
102
RTVSPropertyOp7
 70
     1
102
RTVSPropertyOp8
 70
     1
102
RTVSPropertyOp9
 70
     1
102
RTVSPropertyOp10
 70
     1
102
RTVSPropertyOp11
 70
     1
102
RTVSPropertyOp12
 70
     1
102
RTVSPropertyOp13
 70
     1
102
RTVSPropertyOp14
 70
     1
102
RTVSPropertyOp15
 70
     1
102
RTVSPropertyOp16
 70
     1
102
RTVSPropertyOp17
 70
     1
102
RTVSPropertyOp18
 70
     1
102
RTVSPropertyOp19
 70
     1
102
RTVSPropertyOp20
 70
     1
102
RTVSPropertyOp21
 70
     1
102
RTVSPropertyOp22
 70
     1
102
RTVSPropertyOp23
 70
     1
102
RTVSPropertyOp24
 70
     1
102
RTVSPropertyOp25
 70
     1
102
RTVSPropertyOp26
 70
     1
102
RTVSPropertyOp27
 70
     1
102
RTVSPropertyOp28
 70
     1
102
RTVSPropertyOp29
 70
     1
102
RTVSPropertyOp30
 70
     1
102
RTVSPropertyOp31
 70
     1
102
RTVSPropertyOp32
 70
     1
  0
XRECORD
  5
3BE
102
{ACAD_REACTORS
330
3BD
102
}
330
3BD
100
AcDbXrecord
280
     1
102
RTVSPropertyOp0
 70
     1
102
RTVSPropertyOp1
 70
     1
102
RTVSPropertyOp2
 70
     1
102
RTVSPropertyOp3
 70
     1
102
RTVSPropertyOp4
 70
     1
102
RTVSPropertyOp5
 70
     1
102
RTVSPropertyOp6
 70
     1
102
RTVSPropertyOp7
 70
     1
102
RTVSPropertyOp8
 70
     1
102
RTVSPropertyOp9
 70
     1
102
RTVSPropertyOp10
 70
     1
102
RTVSPropertyOp11
 70
     1
102
RTVSPropertyOp12
 70
     1
102
RTVSPropertyOp13
 70
     1
102
RTVSPropertyOp14
 70
     1
102
RTVSPropertyOp15
 70
     1
102
RTVSPropertyOp16
 70
     1
102
RTVSPropertyOp17
 70
     1
102
RTVSPropertyOp18
 70
     1
102
RTVSPropertyOp19
 70
     1
102
RTVSPropertyOp20
 70
     1
102
RTVSPropertyOp21
 70
     1
102
RTVSPropertyOp22
 70
     1
102
RTVSPropertyOp23
 70
     1
102
RTVSPropertyOp24
 70
     1
102
RTVSPropertyOp25
 70
     1
102
RTVSPropertyOp26
 70
     1
102
RTVSPropertyOp27
 70
     1
102
RTVSPropertyOp28
 70
     1
102
RTVSPropertyOp29
 70
     1
102
RTVSPropertyOp30
 70
     1
102
RTVSPropertyOp31
 70
     1
102
RTVSPropertyOp32
 70
     1
  0
XRECORD
  5
3A2
102
{ACAD_REACTORS
330
3A1
102
}
330
3A1
100
AcDbXrecord
280
     1
102
RTVSPropertyOp0
 70
     1
102
RTVSPropertyOp1
 70
     1
102
RTVSPropertyOp2
 70
     1
102
RTVSPropertyOp3
 70
     1
102
RTVSPropertyOp4
 70
     1
102
RTVSPropertyOp5
 70
     1
102
RTVSPropertyOp6
 70
     1
102
RTVSPropertyOp7
 70
     1
102
RTVSPropertyOp8
 70
     1
102
RTVSPropertyOp9
 70
     1
102
RTVSPropertyOp10
 70
     1
102
RTVSPropertyOp11
 70
     1
102
RTVSPropertyOp12
 70
     1
102
RTVSPropertyOp13
 70
     1
102
RTVSPropertyOp14
 70
     1
102
RTVSPropertyOp15
 70
     1
102
RTVSPropertyOp16
 70
     1
102
RTVSPropertyOp17
 70
     1
102
RTVSPropertyOp18
 70
     1
102
RTVSPropertyOp19
 70
     1
102
RTVSPropertyOp20
 70
     1
102
RTVSPropertyOp21
 70
     1
102
RTVSPropertyOp22
 70
     1
102
RTVSPropertyOp23
 70
     1
102
RTVSPropertyOp24
 70
     1
102
RTVSPropertyOp25
 70
     1
102
RTVSPropertyOp26
 70
     1
102
RTVSPropertyOp27
 70
     1
102
RTVSPropertyOp28
 70
     1
102
RTVSPropertyOp29
 70
     1
102
RTVSPropertyOp30
 70
     1
102
RTVSPropertyOp31
 70
     1
102
RTVSPropertyOp32
 70
     1
  0
XRECORD
  5
3A4
102
{ACAD_REACTORS
330
3A3
102
}
330
3A3
100
AcDbXrecord
280
     1
102
RTVSPropertyOp0
 70
     1
102
RTVSPropertyOp1
 70
     1
102
RTVSPropertyOp2
 70
     1
102
RTVSPropertyOp3
 70
     1
102
RTVSPropertyOp4
 70
     1
102
RTVSPropertyOp5
 70
     1
102
RTVSPropertyOp6
 70
     1
102
RTVSPropertyOp7
 70
     1
102
RTVSPropertyOp8
 70
     1
102
RTVSPropertyOp9
 70
     1
102
RTVSPropertyOp10
 70
     1
102
RTVSPropertyOp11
 70
     1
102
RTVSPropertyOp12
 70
     1
102
RTVSPropertyOp13
 70
     1
102
RTVSPropertyOp14
 70
     1
102
RTVSPropertyOp15
 70
     1
102
RTVSPropertyOp16
 70
     1
102
RTVSPropertyOp17
 70
     1
102
RTVSPropertyOp18
 70
     1
102
RTVSPropertyOp19
 70
     1
102
RTVSPropertyOp20
 70
     1
102
RTVSPropertyOp21
 70
     1
102
RTVSPropertyOp22
 70
     1
102
RTVSPropertyOp23
 70
     1
102
RTVSPropertyOp24
 70
     1
102
RTVSPropertyOp25
 70
     1
102
RTVSPropertyOp26
 70
     1
102
RTVSPropertyOp27
 70
     1
102
RTVSPropertyOp28
 70
     1
102
RTVSPropertyOp29
 70
     1
102
RTVSPropertyOp30
 70
     1
102
RTVSPropertyOp31
 70
     1
102
RTVSPropertyOp32
 70
     1
  0
XRECORD
  5
3A6
102
{ACAD_REACTORS
330
3A5
102
}
330
3A5
100
AcDbXrecord
280
     1
102
RTVSPropertyOp0
 70
     1
102
RTVSPropertyOp1
 70
     1
102
RTVSPropertyOp2
 70
     1
102
RTVSPropertyOp3
 70
     1
102
RTVSPropertyOp4
 70
     1
102
RTVSPropertyOp5
 70
     1
102
RTVSPropertyOp6
 70
     1
102
RTVSPropertyOp7
 70
     1
102
RTVSPropertyOp8
 70
     1
102
RTVSPropertyOp9
 70
     1
102
RTVSPropertyOp10
 70
     1
102
RTVSPropertyOp11
 70
     1
102
RTVSPropertyOp12
 70
     1
102
RTVSPropertyOp13
 70
     1
102
RTVSPropertyOp14
 70
     1
102
RTVSPropertyOp15
 70
     1
102
RTVSPropertyOp16
 70
     1
102
RTVSPropertyOp17
 70
     1
102
RTVSPropertyOp18
 70
     1
102
RTVSPropertyOp19
 70
     1
102
RTVSPropertyOp20
 70
     1
102
RTVSPropertyOp21
 70
     1
102
RTVSPropertyOp22
 70
     1
102
RTVSPropertyOp23
 70
     1
102
RTVSPropertyOp24
 70
     1
102
RTVSPropertyOp25
 70
     1
102
RTVSPropertyOp26
 70
     1
102
RTVSPropertyOp27
 70
     1
102
RTVSPropertyOp28
 70
     1
102
RTVSPropertyOp29
 70
     1
102
RTVSPropertyOp30
 70
     1
102
RTVSPropertyOp31
 70
     1
102
RTVSPropertyOp32
 70
     1
  0
XRECORD
  5
3A8
102
{ACAD_REACTORS
330
3A7
102
}
330
3A7
100
AcDbXrecord
280
     1
102
RTVSPropertyOp0
 70
     1
102
RTVSPropertyOp1
 70
     1
102
RTVSPropertyOp2
 70
     1
102
RTVSPropertyOp3
 70
     1
102
RTVSPropertyOp4
 70
     1
102
RTVSPropertyOp5
 70
     1
102
RTVSPropertyOp6
 70
     1
102
RTVSPropertyOp7
 70
     1
102
RTVSPropertyOp8
 70
     1
102
RTVSPropertyOp9
 70
     1
102
RTVSPropertyOp10
 70
     1
102
RTVSPropertyOp11
 70
     1
102
RTVSPropertyOp12
 70
     1
102
RTVSPropertyOp13
 70
     1
102
RTVSPropertyOp14
 70
     1
102
RTVSPropertyOp15
 70
     1
102
RTVSPropertyOp16
 70
     1
102
RTVSPropertyOp17
 70
     1
102
RTVSPropertyOp18
 70
     1
102
RTVSPropertyOp19
 70
     1
102
RTVSPropertyOp20
 70
     1
102
RTVSPropertyOp21
 70
     1
102
RTVSPropertyOp22
 70
     1
102
RTVSPropertyOp23
 70
     1
102
RTVSPropertyOp24
 70
     1
102
RTVSPropertyOp25
 70
     1
102
RTVSPropertyOp26
 70
     1
102
RTVSPropertyOp27
 70
     1
102
RTVSPropertyOp28
 70
     1
102
RTVSPropertyOp29
 70
     1
102
RTVSPropertyOp30
 70
     1
102
RTVSPropertyOp31
 70
     1
102
RTVSPropertyOp32
 70
     1
  0
XRECORD
  5
3BC
102
{ACAD_REACTORS
330
3BB
102
}
330
3BB
100
AcDbXrecord
280
     1
102
RTVSPropertyOp0
 70
     1
102
RTVSPropertyOp1
 70
     1
102
RTVSPropertyOp2
 70
     1
102
RTVSPropertyOp3
 70
     1
102
RTVSPropertyOp4
 70
     1
102
RTVSPropertyOp5
 70
     1
102
RTVSPropertyOp6
 70
     1
102
RTVSPropertyOp7
 70
     1
102
RTVSPropertyOp8
 70
     1
102
RTVSPropertyOp9
 70
     1
102
RTVSPropertyOp10
 70
     1
102
RTVSPropertyOp11
 70
     1
102
RTVSPropertyOp12
 70
     1
102
RTVSPropertyOp13
 70
     1
102
RTVSPropertyOp14
 70
     1
102
RTVSPropertyOp15
 70
     1
102
RTVSPropertyOp16
 70
     1
102
RTVSPropertyOp17
 70
     1
102
RTVSPropertyOp18
 70
     1
102
RTVSPropertyOp19
 70
     1
102
RTVSPropertyOp20
 70
     1
102
RTVSPropertyOp21
 70
     1
102
RTVSPropertyOp22
 70
     1
102
RTVSPropertyOp23
 70
     1
102
RTVSPropertyOp24
 70
     1
102
RTVSPropertyOp25
 70
     1
102
RTVSPropertyOp26
 70
     1
102
RTVSPropertyOp27
 70
     1
102
RTVSPropertyOp28
 70
     1
102
RTVSPropertyOp29
 70
     1
102
RTVSPropertyOp30
 70
     1
102
RTVSPropertyOp31
 70
     1
102
RTVSPropertyOp32
 70
     1
  0
XRECORD
  5
3B2
102
{ACAD_REACTORS
330
3B1
102
}
330
3B1
100
AcDbXrecord
280
     1
102
RTVSPropertyOp0
 70
     1
102
RTVSPropertyOp1
 70
     1
102
RTVSPropertyOp2
 70
     1
102
RTVSPropertyOp3
 70
     1
102
RTVSPropertyOp4
 70
     1
102
RTVSPropertyOp5
 70
     1
102
RTVSPropertyOp6
 70
     1
102
RTVSPropertyOp7
 70
     1
102
RTVSPropertyOp8
 70
     1
102
RTVSPropertyOp9
 70
     1
102
RTVSPropertyOp10
 70
     1
102
RTVSPropertyOp11
 70
     1
102
RTVSPropertyOp12
 70
     1
102
RTVSPropertyOp13
 70
     1
102
RTVSPropertyOp14
 70
     1
102
RTVSPropertyOp15
 70
     1
102
RTVSPropertyOp16
 70
     1
102
RTVSPropertyOp17
 70
     1
102
RTVSPropertyOp18
 70
     1
102
RTVSPropertyOp19
 70
     1
102
RTVSPropertyOp20
 70
     1
102
RTVSPropertyOp21
 70
     1
102
RTVSPropertyOp22
 70
     1
102
RTVSPropertyOp23
 70
     1
102
RTVSPropertyOp24
 70
     1
102
RTVSPropertyOp25
 70
     1
102
RTVSPropertyOp26
 70
     1
102
RTVSPropertyOp27
 70
     1
102
RTVSPropertyOp28
 70
     1
102
RTVSPropertyOp29
 70
     1
102
RTVSPropertyOp30
 70
     1
102
RTVSPropertyOp31
 70
     1
102
RTVSPropertyOp32
 70
     1
  0
XRECORD
  5
3BA
102
{ACAD_REACTORS
330
3B9
102
}
330
3B9
100
AcDbXrecord
280
     1
102
RTVSPropertyOp0
 70
     1
102
RTVSPropertyOp1
 70
     1
102
RTVSPropertyOp2
 70
     1
102
RTVSPropertyOp3
 70
     1
102
RTVSPropertyOp4
 70
     1
102
RTVSPropertyOp5
 70
     1
102
RTVSPropertyOp6
 70
     1
102
RTVSPropertyOp7
 70
     1
102
RTVSPropertyOp8
 70
     1
102
RTVSPropertyOp9
 70
     1
102
RTVSPropertyOp10
 70
     1
102
RTVSPropertyOp11
 70
     1
102
RTVSPropertyOp12
 70
     1
102
RTVSPropertyOp13
 70
     1
102
RTVSPropertyOp14
 70
     1
102
RTVSPropertyOp15
 70
     1
102
RTVSPropertyOp16
 70
     1
102
RTVSPropertyOp17
 70
     1
102
RTVSPropertyOp18
 70
     1
102
RTVSPropertyOp19
 70
     1
102
RTVSPropertyOp20
 70
     1
102
RTVSPropertyOp21
 70
     1
102
RTVSPropertyOp22
 70
     1
102
RTVSPropertyOp23
 70
     1
102
RTVSPropertyOp24
 70
     1
102
RTVSPropertyOp25
 70
     1
102
RTVSPropertyOp26
 70
     1
102
RTVSPropertyOp27
 70
     1
102
RTVSPropertyOp28
 70
     1
102
RTVSPropertyOp29
 70
     1
102
RTVSPropertyOp30
 70
     1
102
RTVSPropertyOp31
 70
     1
102
RTVSPropertyOp32
 70
     1
  0
ENDSEC
  0
EOF
