  0
SECTION
  2
HEADER
  9
$ACADVER
  1
AC1018
  9
$ACADMAINTVER
 70
     0
  9
$DWGCODEPAGE
  3
ANSI_1252
  9
$INSBASE
 10
0.0
 20
0.0
 30
0.0
  9
$EXTMIN
 10
-58.408507904808
 20
6.782301991346
 30
0.0
  9
$EXTMAX
 10
365.311114949252
 20
160.331301991346
 30
0.0
  9
$LIMMIN
 10
0.0
 20
0.0
  9
$LIMMAX
 10
420.0
 20
297.0
  9
$ORTHOMODE
 70
     0
  9
$REGENMODE
 70
     1
  9
$FILLMODE
 70
     1
  9
$QTEXTMODE
 70
     0
  9
$MIRRTEXT
 70
     1
  9
$LTSCALE
 40
5.0
  9
$ATTMODE
 70
     1
  9
$TEXTSIZE
 40
2.5
  9
$TRACEWID
 40
1.0
  9
$TEXTSTYLE
  7
Standard
  9
$CLAYER
  8
0
  9
$CELTYPE
  6
ByLayer
  9
$CECOLOR
 62
   256
  9
$CELTSCALE
 40
1.0
  9
$DISPSILH
 70
     0
  9
$DIMSCALE
 40
1.0
  9
$DIMASZ
 40
2.5
  9
$DIMEXO
 40
0.625
  9
$DIMDLI
 40
3.75
  9
$DIMRND
 40
0.0
  9
$DIMDLE
 40
0.0
  9
$DIMEXE
 40
1.25
  9
$DIMTP
 40
0.0
  9
$DIMTM
 40
0.0
  9
$DIMTXT
 40
2.5
  9
$DIMCEN
 40
2.5
  9
$DIMTSZ
 40
0.0
  9
$DIMTOL
 70
     0
  9
$DIMLIM
 70
     0
  9
$DIMTIH
 70
     0
  9
$DIMTOH
 70
     0
  9
$DIMSE1
 70
     0
  9
$DIMSE2
 70
     0
  9
$DIMTAD
 70
     1
  9
$DIMZIN
 70
     8
  9
$DIMBLK
  1

  9
$DIMASO
 70
     1
  9
$DIMSHO
 70
     1
  9
$DIMPOST
  1

  9
$DIMAPOST
  1

  9
$DIMALT
 70
     0
  9
$DIMALTD
 70
     3
  9
$DIMALTF
 40
0.03937007874
  9
$DIMLFAC
 40
1.0
  9
$DIMTOFL
 70
     1
  9
$DIMTVP
 40
0.0
  9
$DIMTIX
 70
     0
  9
$DIMSOXD
 70
     0
  9
$DIMSAH
 70
     0
  9
$DIMBLK1
  1

  9
$DIMBLK2
  1

  9
$DIMSTYLE
  2
ISO-25
  9
$DIMCLRD
 70
     0
  9
$DIMCLRE
 70
     0
  9
$DIMCLRT
 70
     0
  9
$DIMTFAC
 40
1.0
  9
$DIMGAP
 40
0.625
  9
$DIMJUST
 70
     0
  9
$DIMSD1
 70
     0
  9
$DIMSD2
 70
     0
  9
$DIMTOLJ
 70
     0
  9
$DIMTZIN
 70
     8
  9
$DIMALTZ
 70
     0
  9
$DIMALTTZ
 70
     0
  9
$DIMUPT
 70
     0
  9
$DIMDEC
 70
     2
  9
$DIMTDEC
 70
     2
  9
$DIMALTU
 70
     2
  9
$DIMALTTD
 70
     3
  9
$DIMTXSTY
  7
Standard
  9
$DIMAUNIT
 70
     0
  9
$DIMADEC
 70
     0
  9
$DIMALTRND
 40
0.0
  9
$DIMAZIN
 70
     0
  9
$DIMDSEP
 70
    44
  9
$DIMATFIT
 70
     3
  9
$DIMFRAC
 70
     0
  9
$DIMLDRBLK
  1

  9
$DIMLUNIT
 70
     2
  9
$DIMLWD
 70
    -2
  9
$DIMLWE
 70
    -2
  9
$DIMTMOVE
 70
     0
  9
$LUNITS
 70
     2
  9
$LUPREC
 70
     4
  9
$SKETCHINC
 40
1.0
  9
$FILLETRAD
 40
10.0
  9
$AUNITS
 70
     0
  9
$AUPREC
 70
     0
  9
$MENU
  1
.
  9
$ELEVATION
 40
0.0
  9
$PELEVATION
 40
0.0
  9
$THICKNESS
 40
0.0
  9
$LIMCHECK
 70
     0
  9
$CHAMFERA
 40
10.0
  9
$CHAMFERB
 40
10.0
  9
$CHAMFERC
 40
20.0
  9
$CHAMFERD
 40
0.0
  9
$SKPOLY
 70
     0
  9
$TDCREATE
 40
2458718.388770313
  9
$TDUCREATE
 40
2458718.305436979
  9
$TDUPDATE
 40
2458718.388784039
  9
$TDUUPDATE
 40
2458718.305450706
  9
$TDINDWG
 40
0.0000000116
  9
$TDUSRTIMER
 40
0.0000000116
  9
$USRTIMER
 70
     1
  9
$ANGBASE
 50
0.0
  9
$ANGDIR
 70
     0
  9
$PDMODE
 70
     2
  9
$PDSIZE
 40
1.0
  9
$PLINEWID
 40
0.0
  9
$SPLFRAME
 70
     0
  9
$SPLINETYPE
 70
     6
  9
$SPLINESEGS
 70
     8
  9
$HANDSEED
  5
5BC
  9
$SURFTAB1
 70
     6
  9
$SURFTAB2
 70
     6
  9
$SURFTYPE
 70
     6
  9
$SURFU
 70
     6
  9
$SURFV
 70
     6
  9
$UCSBASE
  2

  9
$UCSNAME
  2

  9
$UCSORG
 10
0.0
 20
0.0
 30
0.0
  9
$UCSXDIR
 10
1.0
 20
0.0
 30
0.0
  9
$UCSYDIR
 10
0.0
 20
1.0
 30
0.0
  9
$UCSORTHOREF
  2

  9
$UCSORTHOVIEW
 70
     0
  9
$UCSORGTOP
 10
0.0
 20
0.0
 30
0.0
  9
$UCSORGBOTTOM
 10
0.0
 20
0.0
 30
0.0
  9
$UCSORGLEFT
 10
0.0
 20
0.0
 30
0.0
  9
$UCSORGRIGHT
 10
0.0
 20
0.0
 30
0.0
  9
$UCSORGFRONT
 10
0.0
 20
0.0
 30
0.0
  9
$UCSORGBACK
 10
0.0
 20
0.0
 30
0.0
  9
$PUCSBASE
  2

  9
$PUCSNAME
  2

  9
$PUCSORG
 10
0.0
 20
0.0
 30
0.0
  9
$PUCSXDIR
 10
1.0
 20
0.0
 30
0.0
  9
$PUCSYDIR
 10
0.0
 20
1.0
 30
0.0
  9
$PUCSORTHOREF
  2

  9
$PUCSORTHOVIEW
 70
     0
  9
$PUCSORGTOP
 10
0.0
 20
0.0
 30
0.0
  9
$PUCSORGBOTTOM
 10
0.0
 20
0.0
 30
0.0
  9
$PUCSORGLEFT
 10
0.0
 20
0.0
 30
0.0
  9
$PUCSORGRIGHT
 10
0.0
 20
0.0
 30
0.0
  9
$PUCSORGFRONT
 10
0.0
 20
0.0
 30
0.0
  9
$PUCSORGBACK
 10
0.0
 20
0.0
 30
0.0
  9
$USERI1
 70
     0
  9
$USERI2
 70
     0
  9
$USERI3
 70
     0
  9
$USERI4
 70
     0
  9
$USERI5
 70
     0
  9
$USERR1
 40
0.0
  9
$USERR2
 40
0.0
  9
$USERR3
 40
0.0
  9
$USERR4
 40
0.0
  9
$USERR5
 40
0.0
  9
$WORLDVIEW
 70
     1
  9
$SHADEDGE
 70
     3
  9
$SHADEDIF
 70
    70
  9
$TILEMODE
 70
     1
  9
$MAXACTVP
 70
    64
  9
$PINSBASE
 10
0.0
 20
0.0
 30
0.0
  9
$PLIMCHECK
 70
     0
  9
$PEXTMIN
 10
1.000000000000E+20
 20
1.000000000000E+20
 30
1.000000000000E+20
  9
$PEXTMAX
 10
-1.000000000000E+20
 20
-1.000000000000E+20
 30
-1.000000000000E+20
  9
$PLIMMIN
 10
0.0
 20
0.0
  9
$PLIMMAX
 10
420.0
 20
297.0
  9
$UNITMODE
 70
     0
  9
$VISRETAIN
 70
     1
  9
$PLINEGEN
 70
     0
  9
$PSLTSCALE
 70
     1
  9
$TREEDEPTH
 70
  3020
  9
$CMLSTYLE
  2
Standard
  9
$CMLJUST
 70
     0
  9
$CMLSCALE
 40
20.0
  9
$PROXYGRAPHICS
 70
     1
  9
$MEASUREMENT
 70
     1
  9
$CELWEIGHT
370
    -1
  9
$ENDCAPS
280
     0
  9
$JOINSTYLE
280
     0
  9
$LWDISPLAY
290
     0
  9
$INSUNITS
 70
     4
  9
$HYPERLINKBASE
  1

  9
$STYLESHEET
  1

  9
$XEDIT
290
     1
  9
$CEPSNTYPE
380
     0
  9
$PSTYLEMODE
290
     1
  9
$FINGERPRINTGUID
  2
{BBC08D45-C997-4128-870A-CD2A9B88AD97}
  9
$VERSIONGUID
  2
{FAEB1C32-E019-11D5-929B-00C0DF256EC4}
  9
$EXTNAMES
290
     1
  9
$PSVPSCALE
 40
0.0
  9
$OLESTARTUP
290
     0
  9
$SORTENTS
280
   127
  9
$INDEXCTL
280
     0
  9
$HIDETEXT
280
     1
  9
$XCLIPFRAME
290
     0
  9
$HALOGAP
280
     0
  9
$OBSCOLOR
 70
   257
  9
$OBSLTYPE
280
     0
  9
$INTERSECTIONDISPLAY
280
     0
  9
$INTERSECTIONCOLOR
 70
   257
  9
$DIMASSOC
280
     2
  9
$PROJECTNAME
  1

  0
ENDSEC
  0
SECTION
  2
CLASSES
  0
CLASS
  1
ACDBDICTIONARYWDFLT
  2
AcDbDictionaryWithDefault
  3
ObjectDBX Classes
 90
        0
 91
        4
280
     0
281
     0
  0
CLASS
  1
VISUALSTYLE
  2
AcDbVisualStyle
  3
ObjectDBX Classes
 90
     4095
 91
        4
280
     0
281
     0
  0
CLASS
  1
MATERIAL
  2
AcDbMaterial
  3
ObjectDBX Classes
 90
     1153
 91
        4
280
     0
281
     0
  0
CLASS
  1
WIPEOUTVARIABLES
  2
AcDbWipeoutVariables
  3
WipeOut|AutoCAD Express Tool|expresstools@autodesk.com
 90
        0
 91
        4
280
     0
281
     0
  0
ENDSEC
  0
SECTION
  2
TABLES
  0
TABLE
  2
VPORT
  5
8
330
0
100
AcDbSymbolTable
 70
     1
  0
VPORT
  5
29
330
8
100
AcDbSymbolTableRecord
100
AcDbViewportTableRecord
  2
*Active
 70
     0
 10
0.0
 20
0.0
 11
1.0
 21
1.0
 12
153.451303522222
 22
83.556801991346
 13
0.0
 23
0.0
 14
10.0
 24
10.0
 15
10.0
 25
10.0
 16
0.0
 26
0.0
 36
1.0
 17
0.0
 27
0.0
 37
0.0
 40
153.549
 41
2.75950753736
 42
50.0
 43
0.0
 44
0.0
 50
0.0
 51
0.0
 71
     0
 72
   100
 73
     1
 74
     3
 75
     0
 76
     0
 77
     0
 78
     0
281
     0
 65
     1
110
0.0
120
0.0
130
0.0
111
1.0
121
0.0
131
0.0
112
0.0
122
1.0
132
0.0
 79
     0
146
0.0
  0
ENDTAB
  0
TABLE
  2
LTYPE
  5
5
330
0
100
AcDbSymbolTable
 70
     4
  0
LTYPE
  5
14
330
5
100
AcDbSymbolTableRecord
100
AcDbLinetypeTableRecord
  2
ByBlock
 70
     0
  3

 72
    65
 73
     0
 40
0.0
  0
LTYPE
  5
15
330
5
100
AcDbSymbolTableRecord
100
AcDbLinetypeTableRecord
  2
ByLayer
 70
     0
  3

 72
    65
 73
     0
 40
0.0
  0
LTYPE
  5
16
330
5
100
AcDbSymbolTableRecord
100
AcDbLinetypeTableRecord
  2
Continuous
 70
     0
  3
Solid line
 72
    65
 73
     0
 40
0.0
  0
LTYPE
  5
40
330
5
100
AcDbSymbolTableRecord
100
AcDbLinetypeTableRecord
  2
AUSGEZOGEN
 70
     0
  3

 72
    65
 73
     0
 40
0.0
  0
LTYPE
  5
43
330
5
100
AcDbSymbolTableRecord
100
AcDbLinetypeTableRecord
  2
DASHDOT
 70
     0
  3

 72
    65
 73
     4
 40
1.0
 49
0.5
 74
     0
 49
-0.25
 74
     0
 49
0.0
 74
     0
 49
-0.25
 74
     0
  0
LTYPE
  5
44
330
5
100
AcDbSymbolTableRecord
100
AcDbLinetypeTableRecord
  2
DASHED
 70
     0
  3

 72
    65
 73
     2
 40
0.75
 49
0.5
 74
     0
 49
-0.25
 74
     0
  0
ENDTAB
  0
TABLE
  2
LAYER
  5
2
330
0
100
AcDbSymbolTable
 70
   257
  0
LAYER
  5
10
330
2
100
AcDbSymbolTableRecord
100
AcDbLayerTableRecord
  2
0
 70
     0
 62
     7
  6
Continuous
370
    -3
390
F
  0
LAYER
  5
46
330
2
100
AcDbSymbolTableRecord
100
AcDbLayerTableRecord
  2
Layer0
 70
     0
 62
     7
  6
Continuous
370
    -3
390
F
  0
LAYER
  5
47
330
2
100
AcDbSymbolTableRecord
100
AcDbLayerTableRecord
  2
Stammform
 70
     0
 62
     7
  6
Continuous
370
    -3
390
F
  0
LAYER
  5
48
330
2
100
AcDbSymbolTableRecord
100
AcDbLayerTableRecord
  2
Formteil
 70
     0
 62
     7
  6
Continuous
370
    -3
390
F
  0
LAYER
  5
49
330
2
100
AcDbSymbolTableRecord
100
AcDbLayerTableRecord
  2
Kühlsystem
 70
     0
 62
     7
  6
Continuous
370
    -3
390
F
  0
LAYER
  5
4A
330
2
100
AcDbSymbolTableRecord
100
AcDbLayerTableRecord
  2
Auswerfsystem
 70
     0
 62
     7
  6
Continuous
370
    -3
390
F
  0
LAYER
  5
4B
330
2
100
AcDbSymbolTableRecord
100
AcDbLayerTableRecord
  2
Layer5
 70
     0
 62
     7
  6
Continuous
370
    -3
390
F
  0
LAYER
  5
4C
330
2
100
AcDbSymbolTableRecord
100
AcDbLayerTableRecord
  2
Layer6
 70
     0
 62
     7
  6
Continuous
370
    -3
390
F
  0
LAYER
  5
4D
330
2
100
AcDbSymbolTableRecord
100
AcDbLayerTableRecord
  2
Layer7
 70
     0
 62
     7
  6
Continuous
370
    -3
390
F
  0
LAYER
  5
4E
330
2
100
AcDbSymbolTableRecord
100
AcDbLayerTableRecord
  2
Layer8
 70
     0
 62
     7
  6
Continuous
370
    -3
390
F
  0
LAYER
  5
4F
330
2
100
AcDbSymbolTableRecord
100
AcDbLayerTableRecord
  2
Layer9
 70
     0
 62
     7
  6
Continuous
370
    -3
390
F
  0
LAYER
  5
50
330
2
100
AcDbSymbolTableRecord
100
AcDbLayerTableRecord
  2
Hilsgeometrie
 70
     0
 62
     7
  6
Continuous
370
    -3
390
F
  0
LAYER
  5
51
330
2
100
AcDbSymbolTableRecord
100
AcDbLayerTableRecord
  2
Layer11
 70
     0
 62
     7
  6
Continuous
370
    -3
390
F
  0
LAYER
  5
52
330
2
100
AcDbSymbolTableRecord
100
AcDbLayerTableRecord
  2
Layer12
 70
     0
 62
     7
  6
Continuous
370
    -3
390
F
  0
LAYER
  5
53
330
2
100
AcDbSymbolTableRecord
100
AcDbLayerTableRecord
  2
Layer13
 70
     0
 62
     7
  6
Continuous
370
    -3
390
F
  0
LAYER
  5
54
330
2
100
AcDbSymbolTableRecord
100
AcDbLayerTableRecord
  2
Layer14
 70
     0
 62
     7
  6
Continuous
370
    -3
390
F
  0
LAYER
  5
55
330
2
100
AcDbSymbolTableRecord
100
AcDbLayerTableRecord
  2
Layer15
 70
     0
 62
     7
  6
Continuous
370
    -3
390
F
  0
LAYER
  5
56
330
2
100
AcDbSymbolTableRecord
100
AcDbLayerTableRecord
  2
Layer16
 70
     0
 62
     7
  6
Continuous
370
    -3
390
F
  0
LAYER
  5
57
330
2
100
AcDbSymbolTableRecord
100
AcDbLayerTableRecord
  2
Layer17
 70
     0
 62
     7
  6
Continuous
370
    -3
390
F
  0
LAYER
  5
58
330
2
100
AcDbSymbolTableRecord
100
AcDbLayerTableRecord
  2
Layer18
 70
     0
 62
     7
  6
Continuous
370
    -3
390
F
  0
LAYER
  5
59
330
2
100
AcDbSymbolTableRecord
100
AcDbLayerTableRecord
  2
Layer19
 70
     0
 62
     7
  6
Continuous
370
    -3
390
F
  0
LAYER
  5
5A
330
2
100
AcDbSymbolTableRecord
100
AcDbLayerTableRecord
  2
Layer20
 70
     0
 62
     7
  6
Continuous
370
    -3
390
F
  0
LAYER
  5
5B
330
2
100
AcDbSymbolTableRecord
100
AcDbLayerTableRecord
  2
Layer21
 70
     0
 62
     7
  6
Continuous
370
    -3
390
F
  0
LAYER
  5
5C
330
2
100
AcDbSymbolTableRecord
100
AcDbLayerTableRecord
  2
Layer22
 70
     0
 62
     7
  6
Continuous
370
    -3
390
F
  0
LAYER
  5
5D
330
2
100
AcDbSymbolTableRecord
100
AcDbLayerTableRecord
  2
Layer23
 70
     0
 62
     7
  6
Continuous
370
    -3
390
F
  0
LAYER
  5
5E
330
2
100
AcDbSymbolTableRecord
100
AcDbLayerTableRecord
  2
Layer24
 70
     0
 62
     7
  6
Continuous
370
    -3
390
F
  0
LAYER
  5
5F
330
2
100
AcDbSymbolTableRecord
100
AcDbLayerTableRecord
  2
Layer25
 70
     0
 62
     7
  6
Continuous
370
    -3
390
F
  0
LAYER
  5
60
330
2
100
AcDbSymbolTableRecord
100
AcDbLayerTableRecord
  2
Layer26
 70
     0
 62
     7
  6
Continuous
370
    -3
390
F
  0
LAYER
  5
61
330
2
100
AcDbSymbolTableRecord
100
AcDbLayerTableRecord
  2
Layer27
 70
     0
 62
     7
  6
Continuous
370
    -3
390
F
  0
LAYER
  5
62
330
2
100
AcDbSymbolTableRecord
100
AcDbLayerTableRecord
  2
Layer28
 70
     0
 62
     7
  6
Continuous
370
    -3
390
F
  0
LAYER
  5
63
330
2
100
AcDbSymbolTableRecord
100
AcDbLayerTableRecord
  2
Layer29
 70
     0
 62
     7
  6
Continuous
370
    -3
390
F
  0
LAYER
  5
64
330
2
100
AcDbSymbolTableRecord
100
AcDbLayerTableRecord
  2
Layer30
 70
     0
 62
     7
  6
Continuous
370
    -3
390
F
  0
LAYER
  5
65
330
2
100
AcDbSymbolTableRecord
100
AcDbLayerTableRecord
  2
Layer31
 70
     0
 62
     7
  6
Continuous
370
    -3
390
F
  0
LAYER
  5
66
330
2
100
AcDbSymbolTableRecord
100
AcDbLayerTableRecord
  2
Layer32
 70
     0
 62
     7
  6
Continuous
370
    -3
390
F
  0
LAYER
  5
67
330
2
100
AcDbSymbolTableRecord
100
AcDbLayerTableRecord
  2
Layer33
 70
     0
 62
     7
  6
Continuous
370
    -3
390
F
  0
LAYER
  5
68
330
2
100
AcDbSymbolTableRecord
100
AcDbLayerTableRecord
  2
Layer34
 70
     0
 62
     7
  6
Continuous
370
    -3
390
F
  0
LAYER
  5
69
330
2
100
AcDbSymbolTableRecord
100
AcDbLayerTableRecord
  2
Layer35
 70
     0
 62
     7
  6
Continuous
370
    -3
390
F
  0
LAYER
  5
6A
330
2
100
AcDbSymbolTableRecord
100
AcDbLayerTableRecord
  2
Layer36
 70
     0
 62
     7
  6
Continuous
370
    -3
390
F
  0
LAYER
  5
6B
330
2
100
AcDbSymbolTableRecord
100
AcDbLayerTableRecord
  2
Layer37
 70
     0
 62
     7
  6
Continuous
370
    -3
390
F
  0
LAYER
  5
6C
330
2
100
AcDbSymbolTableRecord
100
AcDbLayerTableRecord
  2
Layer38
 70
     0
 62
     7
  6
Continuous
370
    -3
390
F
  0
LAYER
  5
6D
330
2
100
AcDbSymbolTableRecord
100
AcDbLayerTableRecord
  2
Layer39
 70
     0
 62
     7
  6
Continuous
370
    -3
390
F
  0
LAYER
  5
6E
330
2
100
AcDbSymbolTableRecord
100
AcDbLayerTableRecord
  2
Layer40
 70
     0
 62
     7
  6
Continuous
370
    -3
390
F
  0
LAYER
  5
6F
330
2
100
AcDbSymbolTableRecord
100
AcDbLayerTableRecord
  2
Layer41
 70
     0
 62
     7
  6
Continuous
370
    -3
390
F
  0
LAYER
  5
70
330
2
100
AcDbSymbolTableRecord
100
AcDbLayerTableRecord
  2
Layer42
 70
     0
 62
     7
  6
Continuous
370
    -3
390
F
  0
LAYER
  5
71
330
2
100
AcDbSymbolTableRecord
100
AcDbLayerTableRecord
  2
Layer43
 70
     0
 62
     7
  6
Continuous
370
    -3
390
F
  0
LAYER
  5
72
330
2
100
AcDbSymbolTableRecord
100
AcDbLayerTableRecord
  2
Layer44
 70
     0
 62
     7
  6
Continuous
370
    -3
390
F
  0
LAYER
  5
73
330
2
100
AcDbSymbolTableRecord
100
AcDbLayerTableRecord
  2
Layer45
 70
     0
 62
     7
  6
Continuous
370
    -3
390
F
  0
LAYER
  5
74
330
2
100
AcDbSymbolTableRecord
100
AcDbLayerTableRecord
  2
Layer46
 70
     0
 62
     7
  6
Continuous
370
    -3
390
F
  0
LAYER
  5
75
330
2
100
AcDbSymbolTableRecord
100
AcDbLayerTableRecord
  2
Layer47
 70
     0
 62
     7
  6
Continuous
370
    -3
390
F
  0
LAYER
  5
76
330
2
100
AcDbSymbolTableRecord
100
AcDbLayerTableRecord
  2
Layer48
 70
     0
 62
     7
  6
Continuous
370
    -3
390
F
  0
LAYER
  5
77
330
2
100
AcDbSymbolTableRecord
100
AcDbLayerTableRecord
  2
Layer49
 70
     0
 62
     7
  6
Continuous
370
    -3
390
F
  0
LAYER
  5
78
330
2
100
AcDbSymbolTableRecord
100
AcDbLayerTableRecord
  2
Layer50
 70
     0
 62
     7
  6
Continuous
370
    -3
390
F
  0
LAYER
  5
79
330
2
100
AcDbSymbolTableRecord
100
AcDbLayerTableRecord
  2
Layer51
 70
     0
 62
     7
  6
Continuous
370
    -3
390
F
  0
LAYER
  5
7A
330
2
100
AcDbSymbolTableRecord
100
AcDbLayerTableRecord
  2
Layer52
 70
     0
 62
     7
  6
Continuous
370
    -3
390
F
  0
LAYER
  5
7B
330
2
100
AcDbSymbolTableRecord
100
AcDbLayerTableRecord
  2
Layer53
 70
     0
 62
     7
  6
Continuous
370
    -3
390
F
  0
LAYER
  5
7C
330
2
100
AcDbSymbolTableRecord
100
AcDbLayerTableRecord
  2
Layer54
 70
     0
 62
     7
  6
Continuous
370
    -3
390
F
  0
LAYER
  5
7D
330
2
100
AcDbSymbolTableRecord
100
AcDbLayerTableRecord
  2
Layer55
 70
     0
 62
     7
  6
Continuous
370
    -3
390
F
  0
LAYER
  5
7E
330
2
100
AcDbSymbolTableRecord
100
AcDbLayerTableRecord
  2
Layer56
 70
     0
 62
     7
  6
Continuous
370
    -3
390
F
  0
LAYER
  5
7F
330
2
100
AcDbSymbolTableRecord
100
AcDbLayerTableRecord
  2
Layer57
 70
     0
 62
     7
  6
Continuous
370
    -3
390
F
  0
LAYER
  5
80
330
2
100
AcDbSymbolTableRecord
100
AcDbLayerTableRecord
  2
Layer58
 70
     0
 62
     7
  6
Continuous
370
    -3
390
F
  0
LAYER
  5
81
330
2
100
AcDbSymbolTableRecord
100
AcDbLayerTableRecord
  2
Layer59
 70
     0
 62
     7
  6
Continuous
370
    -3
390
F
  0
LAYER
  5
82
330
2
100
AcDbSymbolTableRecord
100
AcDbLayerTableRecord
  2
Layer60
 70
     0
 62
     7
  6
Continuous
370
    -3
390
F
  0
LAYER
  5
83
330
2
100
AcDbSymbolTableRecord
100
AcDbLayerTableRecord
  2
Layer61
 70
     0
 62
     7
  6
Continuous
370
    -3
390
F
  0
LAYER
  5
84
330
2
100
AcDbSymbolTableRecord
100
AcDbLayerTableRecord
  2
Layer62
 70
     0
 62
     7
  6
Continuous
370
    -3
390
F
  0
LAYER
  5
85
330
2
100
AcDbSymbolTableRecord
100
AcDbLayerTableRecord
  2
Layer63
 70
     0
 62
     7
  6
Continuous
370
    -3
390
F
  0
LAYER
  5
86
330
2
100
AcDbSymbolTableRecord
100
AcDbLayerTableRecord
  2
Layer64
 70
     0
 62
     7
  6
Continuous
370
    -3
390
F
  0
LAYER
  5
87
330
2
100
AcDbSymbolTableRecord
100
AcDbLayerTableRecord
  2
Layer65
 70
     0
 62
     7
  6
Continuous
370
    -3
390
F
  0
LAYER
  5
88
330
2
100
AcDbSymbolTableRecord
100
AcDbLayerTableRecord
  2
Layer66
 70
     0
 62
     7
  6
Continuous
370
    -3
390
F
  0
LAYER
  5
89
330
2
100
AcDbSymbolTableRecord
100
AcDbLayerTableRecord
  2
Layer67
 70
     0
 62
     7
  6
Continuous
370
    -3
390
F
  0
LAYER
  5
8A
330
2
100
AcDbSymbolTableRecord
100
AcDbLayerTableRecord
  2
Layer68
 70
     0
 62
     7
  6
Continuous
370
    -3
390
F
  0
LAYER
  5
8B
330
2
100
AcDbSymbolTableRecord
100
AcDbLayerTableRecord
  2
Layer69
 70
     0
 62
     7
  6
Continuous
370
    -3
390
F
  0
LAYER
  5
8C
330
2
100
AcDbSymbolTableRecord
100
AcDbLayerTableRecord
  2
Layer70
 70
     0
 62
     7
  6
Continuous
370
    -3
390
F
  0
LAYER
  5
8D
330
2
100
AcDbSymbolTableRecord
100
AcDbLayerTableRecord
  2
Layer71
 70
     0
 62
     7
  6
Continuous
370
    -3
390
F
  0
LAYER
  5
8E
330
2
100
AcDbSymbolTableRecord
100
AcDbLayerTableRecord
  2
Layer72
 70
     0
 62
     7
  6
Continuous
370
    -3
390
F
  0
LAYER
  5
8F
330
2
100
AcDbSymbolTableRecord
100
AcDbLayerTableRecord
  2
Layer73
 70
     0
 62
     7
  6
Continuous
370
    -3
390
F
  0
LAYER
  5
90
330
2
100
AcDbSymbolTableRecord
100
AcDbLayerTableRecord
  2
Layer74
 70
     0
 62
     7
  6
Continuous
370
    -3
390
F
  0
LAYER
  5
91
330
2
100
AcDbSymbolTableRecord
100
AcDbLayerTableRecord
  2
Layer75
 70
     0
 62
     7
  6
Continuous
370
    -3
390
F
  0
LAYER
  5
92
330
2
100
AcDbSymbolTableRecord
100
AcDbLayerTableRecord
  2
Layer76
 70
     0
 62
     7
  6
Continuous
370
    -3
390
F
  0
LAYER
  5
93
330
2
100
AcDbSymbolTableRecord
100
AcDbLayerTableRecord
  2
Layer77
 70
     0
 62
     7
  6
Continuous
370
    -3
390
F
  0
LAYER
  5
94
330
2
100
AcDbSymbolTableRecord
100
AcDbLayerTableRecord
  2
Layer78
 70
     0
 62
     7
  6
Continuous
370
    -3
390
F
  0
LAYER
  5
95
330
2
100
AcDbSymbolTableRecord
100
AcDbLayerTableRecord
  2
Layer79
 70
     0
 62
     7
  6
Continuous
370
    -3
390
F
  0
LAYER
  5
96
330
2
100
AcDbSymbolTableRecord
100
AcDbLayerTableRecord
  2
Layer80
 70
     0
 62
     7
  6
Continuous
370
    -3
390
F
  0
LAYER
  5
97
330
2
100
AcDbSymbolTableRecord
100
AcDbLayerTableRecord
  2
Layer81
 70
     0
 62
     7
  6
Continuous
370
    -3
390
F
  0
LAYER
  5
98
330
2
100
AcDbSymbolTableRecord
100
AcDbLayerTableRecord
  2
Layer82
 70
     0
 62
     7
  6
Continuous
370
    -3
390
F
  0
LAYER
  5
99
330
2
100
AcDbSymbolTableRecord
100
AcDbLayerTableRecord
  2
Layer83
 70
     0
 62
     7
  6
Continuous
370
    -3
390
F
  0
LAYER
  5
9A
330
2
100
AcDbSymbolTableRecord
100
AcDbLayerTableRecord
  2
Layer84
 70
     0
 62
     7
  6
Continuous
370
    -3
390
F
  0
LAYER
  5
9B
330
2
100
AcDbSymbolTableRecord
100
AcDbLayerTableRecord
  2
Layer85
 70
     0
 62
     7
  6
Continuous
370
    -3
390
F
  0
LAYER
  5
9C
330
2
100
AcDbSymbolTableRecord
100
AcDbLayerTableRecord
  2
Layer86
 70
     0
 62
     7
  6
Continuous
370
    -3
390
F
  0
LAYER
  5
9D
330
2
100
AcDbSymbolTableRecord
100
AcDbLayerTableRecord
  2
Layer87
 70
     0
 62
     7
  6
Continuous
370
    -3
390
F
  0
LAYER
  5
9E
330
2
100
AcDbSymbolTableRecord
100
AcDbLayerTableRecord
  2
Layer88
 70
     0
 62
     7
  6
Continuous
370
    -3
390
F
  0
LAYER
  5
9F
330
2
100
AcDbSymbolTableRecord
100
AcDbLayerTableRecord
  2
Layer89
 70
     0
 62
     7
  6
Continuous
370
    -3
390
F
  0
LAYER
  5
A0
330
2
100
AcDbSymbolTableRecord
100
AcDbLayerTableRecord
  2
Layer90
 70
     0
 62
     7
  6
Continuous
370
    -3
390
F
  0
LAYER
  5
A1
330
2
100
AcDbSymbolTableRecord
100
AcDbLayerTableRecord
  2
Layer91
 70
     0
 62
     7
  6
Continuous
370
    -3
390
F
  0
LAYER
  5
A2
330
2
100
AcDbSymbolTableRecord
100
AcDbLayerTableRecord
  2
Layer92
 70
     0
 62
     7
  6
Continuous
370
    -3
390
F
  0
LAYER
  5
A3
330
2
100
AcDbSymbolTableRecord
100
AcDbLayerTableRecord
  2
Layer93
 70
     0
 62
     7
  6
Continuous
370
    -3
390
F
  0
LAYER
  5
A4
330
2
100
AcDbSymbolTableRecord
100
AcDbLayerTableRecord
  2
Layer94
 70
     0
 62
     7
  6
Continuous
370
    -3
390
F
  0
LAYER
  5
A5
330
2
100
AcDbSymbolTableRecord
100
AcDbLayerTableRecord
  2
Layer95
 70
     0
 62
     7
  6
Continuous
370
    -3
390
F
  0
LAYER
  5
A6
330
2
100
AcDbSymbolTableRecord
100
AcDbLayerTableRecord
  2
Layer96
 70
     0
 62
     7
  6
Continuous
370
    -3
390
F
  0
LAYER
  5
A7
330
2
100
AcDbSymbolTableRecord
100
AcDbLayerTableRecord
  2
Layer97
 70
     0
 62
     7
  6
Continuous
370
    -3
390
F
  0
LAYER
  5
A8
330
2
100
AcDbSymbolTableRecord
100
AcDbLayerTableRecord
  2
Layer98
 70
     0
 62
     7
  6
Continuous
370
    -3
390
F
  0
LAYER
  5
A9
330
2
100
AcDbSymbolTableRecord
100
AcDbLayerTableRecord
  2
Layer99
 70
     0
 62
     7
  6
Continuous
370
    -3
390
F
  0
LAYER
  5
AA
330
2
100
AcDbSymbolTableRecord
100
AcDbLayerTableRecord
  2
Layer100
 70
     0
 62
     7
  6
Continuous
370
    -3
390
F
  0
LAYER
  5
AB
330
2
100
AcDbSymbolTableRecord
100
AcDbLayerTableRecord
  2
Layer101
 70
     0
 62
     7
  6
Continuous
370
    -3
390
F
  0
LAYER
  5
AC
330
2
100
AcDbSymbolTableRecord
100
AcDbLayerTableRecord
  2
Layer102
 70
     0
 62
     7
  6
Continuous
370
    -3
390
F
  0
LAYER
  5
AD
330
2
100
AcDbSymbolTableRecord
100
AcDbLayerTableRecord
  2
Layer103
 70
     0
 62
     7
  6
Continuous
370
    -3
390
F
  0
LAYER
  5
AE
330
2
100
AcDbSymbolTableRecord
100
AcDbLayerTableRecord
  2
Layer104
 70
     0
 62
     7
  6
Continuous
370
    -3
390
F
  0
LAYER
  5
AF
330
2
100
AcDbSymbolTableRecord
100
AcDbLayerTableRecord
  2
Layer105
 70
     0
 62
     7
  6
Continuous
370
    -3
390
F
  0
LAYER
  5
B0
330
2
100
AcDbSymbolTableRecord
100
AcDbLayerTableRecord
  2
Layer106
 70
     0
 62
     7
  6
Continuous
370
    -3
390
F
  0
LAYER
  5
B1
330
2
100
AcDbSymbolTableRecord
100
AcDbLayerTableRecord
  2
Layer107
 70
     0
 62
     7
  6
Continuous
370
    -3
390
F
  0
LAYER
  5
B2
330
2
100
AcDbSymbolTableRecord
100
AcDbLayerTableRecord
  2
Layer108
 70
     0
 62
     7
  6
Continuous
370
    -3
390
F
  0
LAYER
  5
B3
330
2
100
AcDbSymbolTableRecord
100
AcDbLayerTableRecord
  2
Layer109
 70
     0
 62
     7
  6
Continuous
370
    -3
390
F
  0
LAYER
  5
B4
330
2
100
AcDbSymbolTableRecord
100
AcDbLayerTableRecord
  2
Layer110
 70
     0
 62
     7
  6
Continuous
370
    -3
390
F
  0
LAYER
  5
B5
330
2
100
AcDbSymbolTableRecord
100
AcDbLayerTableRecord
  2
Layer111
 70
     0
 62
     7
  6
Continuous
370
    -3
390
F
  0
LAYER
  5
B6
330
2
100
AcDbSymbolTableRecord
100
AcDbLayerTableRecord
  2
Layer112
 70
     0
 62
     7
  6
Continuous
370
    -3
390
F
  0
LAYER
  5
B7
330
2
100
AcDbSymbolTableRecord
100
AcDbLayerTableRecord
  2
Layer113
 70
     0
 62
     7
  6
Continuous
370
    -3
390
F
  0
LAYER
  5
B8
330
2
100
AcDbSymbolTableRecord
100
AcDbLayerTableRecord
  2
Layer114
 70
     0
 62
     7
  6
Continuous
370
    -3
390
F
  0
LAYER
  5
B9
330
2
100
AcDbSymbolTableRecord
100
AcDbLayerTableRecord
  2
Layer115
 70
     0
 62
     7
  6
Continuous
370
    -3
390
F
  0
LAYER
  5
BA
330
2
100
AcDbSymbolTableRecord
100
AcDbLayerTableRecord
  2
Layer116
 70
     0
 62
     7
  6
Continuous
370
    -3
390
F
  0
LAYER
  5
BB
330
2
100
AcDbSymbolTableRecord
100
AcDbLayerTableRecord
  2
Layer117
 70
     0
 62
     7
  6
Continuous
370
    -3
390
F
  0
LAYER
  5
BC
330
2
100
AcDbSymbolTableRecord
100
AcDbLayerTableRecord
  2
Layer118
 70
     0
 62
     7
  6
Continuous
370
    -3
390
F
  0
LAYER
  5
BD
330
2
100
AcDbSymbolTableRecord
100
AcDbLayerTableRecord
  2
Layer119
 70
     0
 62
     7
  6
Continuous
370
    -3
390
F
  0
LAYER
  5
BE
330
2
100
AcDbSymbolTableRecord
100
AcDbLayerTableRecord
  2
Layer120
 70
     0
 62
     7
  6
Continuous
370
    -3
390
F
  0
LAYER
  5
BF
330
2
100
AcDbSymbolTableRecord
100
AcDbLayerTableRecord
  2
Layer121
 70
     0
 62
     7
  6
Continuous
370
    -3
390
F
  0
LAYER
  5
C0
330
2
100
AcDbSymbolTableRecord
100
AcDbLayerTableRecord
  2
Layer122
 70
     0
 62
     7
  6
Continuous
370
    -3
390
F
  0
LAYER
  5
C1
330
2
100
AcDbSymbolTableRecord
100
AcDbLayerTableRecord
  2
Layer123
 70
     0
 62
     7
  6
Continuous
370
    -3
390
F
  0
LAYER
  5
C2
330
2
100
AcDbSymbolTableRecord
100
AcDbLayerTableRecord
  2
Layer124
 70
     0
 62
     7
  6
Continuous
370
    -3
390
F
  0
LAYER
  5
C3
330
2
100
AcDbSymbolTableRecord
100
AcDbLayerTableRecord
  2
Layer125
 70
     0
 62
     7
  6
Continuous
370
    -3
390
F
  0
LAYER
  5
C4
330
2
100
AcDbSymbolTableRecord
100
AcDbLayerTableRecord
  2
Layer126
 70
     0
 62
     7
  6
Continuous
370
    -3
390
F
  0
LAYER
  5
C5
330
2
100
AcDbSymbolTableRecord
100
AcDbLayerTableRecord
  2
Layer127
 70
     0
 62
     7
  6
Continuous
370
    -3
390
F
  0
LAYER
  5
C6
330
2
100
AcDbSymbolTableRecord
100
AcDbLayerTableRecord
  2
Layer128
 70
     0
 62
     7
  6
Continuous
370
    -3
390
F
  0
LAYER
  5
C7
330
2
100
AcDbSymbolTableRecord
100
AcDbLayerTableRecord
  2
Layer129
 70
     0
 62
     7
  6
Continuous
370
    -3
390
F
  0
LAYER
  5
C8
330
2
100
AcDbSymbolTableRecord
100
AcDbLayerTableRecord
  2
Layer130
 70
     0
 62
     7
  6
Continuous
370
    -3
390
F
  0
LAYER
  5
C9
330
2
100
AcDbSymbolTableRecord
100
AcDbLayerTableRecord
  2
Layer131
 70
     0
 62
     7
  6
Continuous
370
    -3
390
F
  0
LAYER
  5
CA
330
2
100
AcDbSymbolTableRecord
100
AcDbLayerTableRecord
  2
Layer132
 70
     0
 62
     7
  6
Continuous
370
    -3
390
F
  0
LAYER
  5
CB
330
2
100
AcDbSymbolTableRecord
100
AcDbLayerTableRecord
  2
Layer133
 70
     0
 62
     7
  6
Continuous
370
    -3
390
F
  0
LAYER
  5
CC
330
2
100
AcDbSymbolTableRecord
100
AcDbLayerTableRecord
  2
Layer134
 70
     0
 62
     7
  6
Continuous
370
    -3
390
F
  0
LAYER
  5
CD
330
2
100
AcDbSymbolTableRecord
100
AcDbLayerTableRecord
  2
Layer135
 70
     0
 62
     7
  6
Continuous
370
    -3
390
F
  0
LAYER
  5
CE
330
2
100
AcDbSymbolTableRecord
100
AcDbLayerTableRecord
  2
Layer136
 70
     0
 62
     7
  6
Continuous
370
    -3
390
F
  0
LAYER
  5
CF
330
2
100
AcDbSymbolTableRecord
100
AcDbLayerTableRecord
  2
Layer137
 70
     0
 62
     7
  6
Continuous
370
    -3
390
F
  0
LAYER
  5
D0
330
2
100
AcDbSymbolTableRecord
100
AcDbLayerTableRecord
  2
Layer138
 70
     0
 62
     7
  6
Continuous
370
    -3
390
F
  0
LAYER
  5
D1
330
2
100
AcDbSymbolTableRecord
100
AcDbLayerTableRecord
  2
Layer139
 70
     0
 62
     7
  6
Continuous
370
    -3
390
F
  0
LAYER
  5
D2
330
2
100
AcDbSymbolTableRecord
100
AcDbLayerTableRecord
  2
Layer140
 70
     0
 62
     7
  6
Continuous
370
    -3
390
F
  0
LAYER
  5
D3
330
2
100
AcDbSymbolTableRecord
100
AcDbLayerTableRecord
  2
Layer141
 70
     0
 62
     7
  6
Continuous
370
    -3
390
F
  0
LAYER
  5
D4
330
2
100
AcDbSymbolTableRecord
100
AcDbLayerTableRecord
  2
Layer142
 70
     0
 62
     7
  6
Continuous
370
    -3
390
F
  0
LAYER
  5
D5
330
2
100
AcDbSymbolTableRecord
100
AcDbLayerTableRecord
  2
Layer143
 70
     0
 62
     7
  6
Continuous
370
    -3
390
F
  0
LAYER
  5
D6
330
2
100
AcDbSymbolTableRecord
100
AcDbLayerTableRecord
  2
Layer144
 70
     0
 62
     7
  6
Continuous
370
    -3
390
F
  0
LAYER
  5
D7
330
2
100
AcDbSymbolTableRecord
100
AcDbLayerTableRecord
  2
Layer145
 70
     0
 62
     7
  6
Continuous
370
    -3
390
F
  0
LAYER
  5
D8
330
2
100
AcDbSymbolTableRecord
100
AcDbLayerTableRecord
  2
Layer146
 70
     0
 62
     7
  6
Continuous
370
    -3
390
F
  0
LAYER
  5
D9
330
2
100
AcDbSymbolTableRecord
100
AcDbLayerTableRecord
  2
Layer147
 70
     0
 62
     7
  6
Continuous
370
    -3
390
F
  0
LAYER
  5
DA
330
2
100
AcDbSymbolTableRecord
100
AcDbLayerTableRecord
  2
Layer148
 70
     0
 62
     7
  6
Continuous
370
    -3
390
F
  0
LAYER
  5
DB
330
2
100
AcDbSymbolTableRecord
100
AcDbLayerTableRecord
  2
Layer149
 70
     0
 62
     7
  6
Continuous
370
    -3
390
F
  0
LAYER
  5
DC
330
2
100
AcDbSymbolTableRecord
100
AcDbLayerTableRecord
  2
Layer150
 70
     0
 62
     7
  6
Continuous
370
    -3
390
F
  0
LAYER
  5
DD
330
2
100
AcDbSymbolTableRecord
100
AcDbLayerTableRecord
  2
Layer151
 70
     0
 62
     7
  6
Continuous
370
    -3
390
F
  0
LAYER
  5
DE
330
2
100
AcDbSymbolTableRecord
100
AcDbLayerTableRecord
  2
Layer152
 70
     0
 62
     7
  6
Continuous
370
    -3
390
F
  0
LAYER
  5
DF
330
2
100
AcDbSymbolTableRecord
100
AcDbLayerTableRecord
  2
Layer153
 70
     0
 62
     7
  6
Continuous
370
    -3
390
F
  0
LAYER
  5
E0
330
2
100
AcDbSymbolTableRecord
100
AcDbLayerTableRecord
  2
Layer154
 70
     0
 62
     7
  6
Continuous
370
    -3
390
F
  0
LAYER
  5
E1
330
2
100
AcDbSymbolTableRecord
100
AcDbLayerTableRecord
  2
Layer155
 70
     0
 62
     7
  6
Continuous
370
    -3
390
F
  0
LAYER
  5
E2
330
2
100
AcDbSymbolTableRecord
100
AcDbLayerTableRecord
  2
Layer156
 70
     0
 62
     7
  6
Continuous
370
    -3
390
F
  0
LAYER
  5
E3
330
2
100
AcDbSymbolTableRecord
100
AcDbLayerTableRecord
  2
Layer157
 70
     0
 62
     7
  6
Continuous
370
    -3
390
F
  0
LAYER
  5
E4
330
2
100
AcDbSymbolTableRecord
100
AcDbLayerTableRecord
  2
Layer158
 70
     0
 62
     7
  6
Continuous
370
    -3
390
F
  0
LAYER
  5
E5
330
2
100
AcDbSymbolTableRecord
100
AcDbLayerTableRecord
  2
Layer159
 70
     0
 62
     7
  6
Continuous
370
    -3
390
F
  0
LAYER
  5
E6
330
2
100
AcDbSymbolTableRecord
100
AcDbLayerTableRecord
  2
Layer160
 70
     0
 62
     7
  6
Continuous
370
    -3
390
F
  0
LAYER
  5
E7
330
2
100
AcDbSymbolTableRecord
100
AcDbLayerTableRecord
  2
Layer161
 70
     0
 62
     7
  6
Continuous
370
    -3
390
F
  0
LAYER
  5
E8
330
2
100
AcDbSymbolTableRecord
100
AcDbLayerTableRecord
  2
Layer162
 70
     0
 62
     7
  6
Continuous
370
    -3
390
F
  0
LAYER
  5
E9
330
2
100
AcDbSymbolTableRecord
100
AcDbLayerTableRecord
  2
Layer163
 70
     0
 62
     7
  6
Continuous
370
    -3
390
F
  0
LAYER
  5
EA
330
2
100
AcDbSymbolTableRecord
100
AcDbLayerTableRecord
  2
Layer164
 70
     0
 62
     7
  6
Continuous
370
    -3
390
F
  0
LAYER
  5
EB
330
2
100
AcDbSymbolTableRecord
100
AcDbLayerTableRecord
  2
Layer165
 70
     0
 62
     7
  6
Continuous
370
    -3
390
F
  0
LAYER
  5
EC
330
2
100
AcDbSymbolTableRecord
100
AcDbLayerTableRecord
  2
Layer166
 70
     0
 62
     7
  6
Continuous
370
    -3
390
F
  0
LAYER
  5
ED
330
2
100
AcDbSymbolTableRecord
100
AcDbLayerTableRecord
  2
Layer167
 70
     0
 62
     7
  6
Continuous
370
    -3
390
F
  0
LAYER
  5
EE
330
2
100
AcDbSymbolTableRecord
100
AcDbLayerTableRecord
  2
Layer168
 70
     0
 62
     7
  6
Continuous
370
    -3
390
F
  0
LAYER
  5
EF
330
2
100
AcDbSymbolTableRecord
100
AcDbLayerTableRecord
  2
Layer169
 70
     0
 62
     7
  6
Continuous
370
    -3
390
F
  0
LAYER
  5
F0
330
2
100
AcDbSymbolTableRecord
100
AcDbLayerTableRecord
  2
Layer170
 70
     0
 62
     7
  6
Continuous
370
    -3
390
F
  0
LAYER
  5
F1
330
2
100
AcDbSymbolTableRecord
100
AcDbLayerTableRecord
  2
Layer171
 70
     0
 62
     7
  6
Continuous
370
    -3
390
F
  0
LAYER
  5
F2
330
2
100
AcDbSymbolTableRecord
100
AcDbLayerTableRecord
  2
Layer172
 70
     0
 62
     7
  6
Continuous
370
    -3
390
F
  0
LAYER
  5
F3
330
2
100
AcDbSymbolTableRecord
100
AcDbLayerTableRecord
  2
Layer173
 70
     0
 62
     7
  6
Continuous
370
    -3
390
F
  0
LAYER
  5
F4
330
2
100
AcDbSymbolTableRecord
100
AcDbLayerTableRecord
  2
Layer174
 70
     0
 62
     7
  6
Continuous
370
    -3
390
F
  0
LAYER
  5
F5
330
2
100
AcDbSymbolTableRecord
100
AcDbLayerTableRecord
  2
Layer175
 70
     0
 62
     7
  6
Continuous
370
    -3
390
F
  0
LAYER
  5
F6
330
2
100
AcDbSymbolTableRecord
100
AcDbLayerTableRecord
  2
Layer176
 70
     0
 62
     7
  6
Continuous
370
    -3
390
F
  0
LAYER
  5
F7
330
2
100
AcDbSymbolTableRecord
100
AcDbLayerTableRecord
  2
Layer177
 70
     0
 62
     7
  6
Continuous
370
    -3
390
F
  0
LAYER
  5
F8
330
2
100
AcDbSymbolTableRecord
100
AcDbLayerTableRecord
  2
Layer178
 70
     0
 62
     7
  6
Continuous
370
    -3
390
F
  0
LAYER
  5
F9
330
2
100
AcDbSymbolTableRecord
100
AcDbLayerTableRecord
  2
Layer179
 70
     0
 62
     7
  6
Continuous
370
    -3
390
F
  0
LAYER
  5
FA
330
2
100
AcDbSymbolTableRecord
100
AcDbLayerTableRecord
  2
Layer180
 70
     0
 62
     7
  6
Continuous
370
    -3
390
F
  0
LAYER
  5
FB
330
2
100
AcDbSymbolTableRecord
100
AcDbLayerTableRecord
  2
Layer181
 70
     0
 62
     7
  6
Continuous
370
    -3
390
F
  0
LAYER
  5
FC
330
2
100
AcDbSymbolTableRecord
100
AcDbLayerTableRecord
  2
Layer182
 70
     0
 62
     7
  6
Continuous
370
    -3
390
F
  0
LAYER
  5
FD
330
2
100
AcDbSymbolTableRecord
100
AcDbLayerTableRecord
  2
Layer183
 70
     0
 62
     7
  6
Continuous
370
    -3
390
F
  0
LAYER
  5
FE
330
2
100
AcDbSymbolTableRecord
100
AcDbLayerTableRecord
  2
Layer184
 70
     0
 62
     7
  6
Continuous
370
    -3
390
F
  0
LAYER
  5
FF
330
2
100
AcDbSymbolTableRecord
100
AcDbLayerTableRecord
  2
Layer185
 70
     0
 62
     7
  6
Continuous
370
    -3
390
F
  0
LAYER
  5
100
330
2
100
AcDbSymbolTableRecord
100
AcDbLayerTableRecord
  2
Layer186
 70
     0
 62
     7
  6
Continuous
370
    -3
390
F
  0
LAYER
  5
101
330
2
100
AcDbSymbolTableRecord
100
AcDbLayerTableRecord
  2
Layer187
 70
     0
 62
     7
  6
Continuous
370
    -3
390
F
  0
LAYER
  5
102
330
2
100
AcDbSymbolTableRecord
100
AcDbLayerTableRecord
  2
Layer188
 70
     0
 62
     7
  6
Continuous
370
    -3
390
F
  0
LAYER
  5
103
330
2
100
AcDbSymbolTableRecord
100
AcDbLayerTableRecord
  2
Layer189
 70
     0
 62
     7
  6
Continuous
370
    -3
390
F
  0
LAYER
  5
104
330
2
100
AcDbSymbolTableRecord
100
AcDbLayerTableRecord
  2
Layer190
 70
     0
 62
     7
  6
Continuous
370
    -3
390
F
  0
LAYER
  5
105
330
2
100
AcDbSymbolTableRecord
100
AcDbLayerTableRecord
  2
Layer191
 70
     0
 62
     7
  6
Continuous
370
    -3
390
F
  0
LAYER
  5
106
330
2
100
AcDbSymbolTableRecord
100
AcDbLayerTableRecord
  2
Layer192
 70
     0
 62
     7
  6
Continuous
370
    -3
390
F
  0
LAYER
  5
107
330
2
100
AcDbSymbolTableRecord
100
AcDbLayerTableRecord
  2
Layer193
 70
     0
 62
     7
  6
Continuous
370
    -3
390
F
  0
LAYER
  5
108
330
2
100
AcDbSymbolTableRecord
100
AcDbLayerTableRecord
  2
Layer194
 70
     0
 62
     7
  6
Continuous
370
    -3
390
F
  0
LAYER
  5
109
330
2
100
AcDbSymbolTableRecord
100
AcDbLayerTableRecord
  2
Layer195
 70
     0
 62
     7
  6
Continuous
370
    -3
390
F
  0
LAYER
  5
10A
330
2
100
AcDbSymbolTableRecord
100
AcDbLayerTableRecord
  2
Layer196
 70
     0
 62
     7
  6
Continuous
370
    -3
390
F
  0
LAYER
  5
10B
330
2
100
AcDbSymbolTableRecord
100
AcDbLayerTableRecord
  2
Layer197
 70
     0
 62
     7
  6
Continuous
370
    -3
390
F
  0
LAYER
  5
10C
330
2
100
AcDbSymbolTableRecord
100
AcDbLayerTableRecord
  2
Layer198
 70
     0
 62
     7
  6
Continuous
370
    -3
390
F
  0
LAYER
  5
10D
330
2
100
AcDbSymbolTableRecord
100
AcDbLayerTableRecord
  2
Layer199
 70
     0
 62
     7
  6
Continuous
370
    -3
390
F
  0
LAYER
  5
10E
330
2
100
AcDbSymbolTableRecord
100
AcDbLayerTableRecord
  2
Layer200
 70
     0
 62
     7
  6
Continuous
370
    -3
390
F
  0
LAYER
  5
10F
330
2
100
AcDbSymbolTableRecord
100
AcDbLayerTableRecord
  2
Layer201
 70
     0
 62
     7
  6
Continuous
370
    -3
390
F
  0
LAYER
  5
110
330
2
100
AcDbSymbolTableRecord
100
AcDbLayerTableRecord
  2
Layer202
 70
     0
 62
     7
  6
Continuous
370
    -3
390
F
  0
LAYER
  5
111
330
2
100
AcDbSymbolTableRecord
100
AcDbLayerTableRecord
  2
Layer203
 70
     0
 62
     7
  6
Continuous
370
    -3
390
F
  0
LAYER
  5
112
330
2
100
AcDbSymbolTableRecord
100
AcDbLayerTableRecord
  2
Layer204
 70
     0
 62
     7
  6
Continuous
370
    -3
390
F
  0
LAYER
  5
113
330
2
100
AcDbSymbolTableRecord
100
AcDbLayerTableRecord
  2
Layer205
 70
     0
 62
     7
  6
Continuous
370
    -3
390
F
  0
LAYER
  5
114
330
2
100
AcDbSymbolTableRecord
100
AcDbLayerTableRecord
  2
Layer206
 70
     0
 62
     7
  6
Continuous
370
    -3
390
F
  0
LAYER
  5
115
330
2
100
AcDbSymbolTableRecord
100
AcDbLayerTableRecord
  2
Layer207
 70
     0
 62
     7
  6
Continuous
370
    -3
390
F
  0
LAYER
  5
116
330
2
100
AcDbSymbolTableRecord
100
AcDbLayerTableRecord
  2
Layer208
 70
     0
 62
     7
  6
Continuous
370
    -3
390
F
  0
LAYER
  5
117
330
2
100
AcDbSymbolTableRecord
100
AcDbLayerTableRecord
  2
Layer209
 70
     0
 62
     7
  6
Continuous
370
    -3
390
F
  0
LAYER
  5
118
330
2
100
AcDbSymbolTableRecord
100
AcDbLayerTableRecord
  2
Layer210
 70
     0
 62
     7
  6
Continuous
370
    -3
390
F
  0
LAYER
  5
119
330
2
100
AcDbSymbolTableRecord
100
AcDbLayerTableRecord
  2
Layer211
 70
     0
 62
     7
  6
Continuous
370
    -3
390
F
  0
LAYER
  5
11A
330
2
100
AcDbSymbolTableRecord
100
AcDbLayerTableRecord
  2
Layer212
 70
     0
 62
     7
  6
Continuous
370
    -3
390
F
  0
LAYER
  5
11B
330
2
100
AcDbSymbolTableRecord
100
AcDbLayerTableRecord
  2
Layer213
 70
     0
 62
     7
  6
Continuous
370
    -3
390
F
  0
LAYER
  5
11C
330
2
100
AcDbSymbolTableRecord
100
AcDbLayerTableRecord
  2
Layer214
 70
     0
 62
     7
  6
Continuous
370
    -3
390
F
  0
LAYER
  5
11D
330
2
100
AcDbSymbolTableRecord
100
AcDbLayerTableRecord
  2
Layer215
 70
     0
 62
     7
  6
Continuous
370
    -3
390
F
  0
LAYER
  5
11E
330
2
100
AcDbSymbolTableRecord
100
AcDbLayerTableRecord
  2
Layer216
 70
     0
 62
     7
  6
Continuous
370
    -3
390
F
  0
LAYER
  5
11F
330
2
100
AcDbSymbolTableRecord
100
AcDbLayerTableRecord
  2
Layer217
 70
     0
 62
     7
  6
Continuous
370
    -3
390
F
  0
LAYER
  5
120
330
2
100
AcDbSymbolTableRecord
100
AcDbLayerTableRecord
  2
Layer218
 70
     0
 62
     7
  6
Continuous
370
    -3
390
F
  0
LAYER
  5
121
330
2
100
AcDbSymbolTableRecord
100
AcDbLayerTableRecord
  2
Layer219
 70
     0
 62
     7
  6
Continuous
370
    -3
390
F
  0
LAYER
  5
122
330
2
100
AcDbSymbolTableRecord
100
AcDbLayerTableRecord
  2
Layer220
 70
     0
 62
     7
  6
Continuous
370
    -3
390
F
  0
LAYER
  5
123
330
2
100
AcDbSymbolTableRecord
100
AcDbLayerTableRecord
  2
Layer221
 70
     0
 62
     7
  6
Continuous
370
    -3
390
F
  0
LAYER
  5
124
330
2
100
AcDbSymbolTableRecord
100
AcDbLayerTableRecord
  2
Layer222
 70
     0
 62
     7
  6
Continuous
370
    -3
390
F
  0
LAYER
  5
125
330
2
100
AcDbSymbolTableRecord
100
AcDbLayerTableRecord
  2
Layer223
 70
     0
 62
     7
  6
Continuous
370
    -3
390
F
  0
LAYER
  5
126
330
2
100
AcDbSymbolTableRecord
100
AcDbLayerTableRecord
  2
Layer224
 70
     0
 62
     7
  6
Continuous
370
    -3
390
F
  0
LAYER
  5
127
330
2
100
AcDbSymbolTableRecord
100
AcDbLayerTableRecord
  2
Layer225
 70
     0
 62
     7
  6
Continuous
370
    -3
390
F
  0
LAYER
  5
128
330
2
100
AcDbSymbolTableRecord
100
AcDbLayerTableRecord
  2
Layer226
 70
     0
 62
     7
  6
Continuous
370
    -3
390
F
  0
LAYER
  5
129
330
2
100
AcDbSymbolTableRecord
100
AcDbLayerTableRecord
  2
Layer227
 70
     0
 62
     7
  6
Continuous
370
    -3
390
F
  0
LAYER
  5
12A
330
2
100
AcDbSymbolTableRecord
100
AcDbLayerTableRecord
  2
Layer228
 70
     0
 62
     7
  6
Continuous
370
    -3
390
F
  0
LAYER
  5
12B
330
2
100
AcDbSymbolTableRecord
100
AcDbLayerTableRecord
  2
Layer229
 70
     0
 62
     7
  6
Continuous
370
    -3
390
F
  0
LAYER
  5
12C
330
2
100
AcDbSymbolTableRecord
100
AcDbLayerTableRecord
  2
Layer230
 70
     0
 62
     7
  6
Continuous
370
    -3
390
F
  0
LAYER
  5
12D
330
2
100
AcDbSymbolTableRecord
100
AcDbLayerTableRecord
  2
Layer231
 70
     0
 62
     7
  6
Continuous
370
    -3
390
F
  0
LAYER
  5
12E
330
2
100
AcDbSymbolTableRecord
100
AcDbLayerTableRecord
  2
Layer232
 70
     0
 62
     7
  6
Continuous
370
    -3
390
F
  0
LAYER
  5
12F
330
2
100
AcDbSymbolTableRecord
100
AcDbLayerTableRecord
  2
Layer233
 70
     0
 62
     7
  6
Continuous
370
    -3
390
F
  0
LAYER
  5
130
330
2
100
AcDbSymbolTableRecord
100
AcDbLayerTableRecord
  2
Layer234
 70
     0
 62
     7
  6
Continuous
370
    -3
390
F
  0
LAYER
  5
131
330
2
100
AcDbSymbolTableRecord
100
AcDbLayerTableRecord
  2
Layer235
 70
     0
 62
     7
  6
Continuous
370
    -3
390
F
  0
LAYER
  5
132
330
2
100
AcDbSymbolTableRecord
100
AcDbLayerTableRecord
  2
Layer236
 70
     0
 62
     7
  6
Continuous
370
    -3
390
F
  0
LAYER
  5
133
330
2
100
AcDbSymbolTableRecord
100
AcDbLayerTableRecord
  2
Layer237
 70
     0
 62
     7
  6
Continuous
370
    -3
390
F
  0
LAYER
  5
134
330
2
100
AcDbSymbolTableRecord
100
AcDbLayerTableRecord
  2
Layer238
 70
     0
 62
     7
  6
Continuous
370
    -3
390
F
  0
LAYER
  5
135
330
2
100
AcDbSymbolTableRecord
100
AcDbLayerTableRecord
  2
Layer239
 70
     0
 62
     7
  6
Continuous
370
    -3
390
F
  0
LAYER
  5
136
330
2
100
AcDbSymbolTableRecord
100
AcDbLayerTableRecord
  2
Layer240
 70
     0
 62
     7
  6
Continuous
370
    -3
390
F
  0
LAYER
  5
137
330
2
100
AcDbSymbolTableRecord
100
AcDbLayerTableRecord
  2
Layer241
 70
     0
 62
     7
  6
Continuous
370
    -3
390
F
  0
LAYER
  5
138
330
2
100
AcDbSymbolTableRecord
100
AcDbLayerTableRecord
  2
Layer242
 70
     0
 62
     7
  6
Continuous
370
    -3
390
F
  0
LAYER
  5
139
330
2
100
AcDbSymbolTableRecord
100
AcDbLayerTableRecord
  2
Layer243
 70
     0
 62
     7
  6
Continuous
370
    -3
390
F
  0
LAYER
  5
13A
330
2
100
AcDbSymbolTableRecord
100
AcDbLayerTableRecord
  2
Layer244
 70
     0
 62
     7
  6
Continuous
370
    -3
390
F
  0
LAYER
  5
13B
330
2
100
AcDbSymbolTableRecord
100
AcDbLayerTableRecord
  2
Layer245
 70
     0
 62
     7
  6
Continuous
370
    -3
390
F
  0
LAYER
  5
13C
330
2
100
AcDbSymbolTableRecord
100
AcDbLayerTableRecord
  2
Layer246
 70
     0
 62
     7
  6
Continuous
370
    -3
390
F
  0
LAYER
  5
13D
330
2
100
AcDbSymbolTableRecord
100
AcDbLayerTableRecord
  2
Layer247
 70
     0
 62
     7
  6
Continuous
370
    -3
390
F
  0
LAYER
  5
13E
330
2
100
AcDbSymbolTableRecord
100
AcDbLayerTableRecord
  2
Layer248
 70
     0
 62
     7
  6
Continuous
370
    -3
390
F
  0
LAYER
  5
13F
330
2
100
AcDbSymbolTableRecord
100
AcDbLayerTableRecord
  2
Layer249
 70
     0
 62
     7
  6
Continuous
370
    -3
390
F
  0
LAYER
  5
140
330
2
100
AcDbSymbolTableRecord
100
AcDbLayerTableRecord
  2
Layer250
 70
     0
 62
     7
  6
Continuous
370
    -3
390
F
  0
LAYER
  5
141
330
2
100
AcDbSymbolTableRecord
100
AcDbLayerTableRecord
  2
Layer251
 70
     0
 62
     7
  6
Continuous
370
    -3
390
F
  0
LAYER
  5
142
330
2
100
AcDbSymbolTableRecord
100
AcDbLayerTableRecord
  2
Layer252
 70
     0
 62
     7
  6
Continuous
370
    -3
390
F
  0
LAYER
  5
143
330
2
100
AcDbSymbolTableRecord
100
AcDbLayerTableRecord
  2
Layer253
 70
     0
 62
     7
  6
Continuous
370
    -3
390
F
  0
LAYER
  5
144
330
2
100
AcDbSymbolTableRecord
100
AcDbLayerTableRecord
  2
Layer254
 70
     0
 62
     7
  6
Continuous
370
    -3
390
F
  0
LAYER
  5
145
330
2
100
AcDbSymbolTableRecord
100
AcDbLayerTableRecord
  2
Layer255
 70
     0
 62
     7
  6
Continuous
370
    -3
390
F
  0
ENDTAB
  0
TABLE
  2
STYLE
  5
3
330
0
100
AcDbSymbolTable
 70
     4
  0
STYLE
  5
11
330
3
100
AcDbSymbolTableRecord
100
AcDbTextStyleTableRecord
  2
Standard
 70
     0
 40
0.0
 41
1.0
 50
0.0
 71
     0
 42
2.5
  3
txt
  4

  0
STYLE
  5
41
330
3
100
AcDbSymbolTableRecord
100
AcDbTextStyleTableRecord
  2
Arial
 70
     0
 40
0.0
 41
1.0
 50
0.0
 71
     0
 42
0.2
  3
arial.ttf
  4

1001
ACAD
1000
Arial
1071
       34
  0
STYLE
  5
42
330
3
100
AcDbSymbolTableRecord
100
AcDbTextStyleTableRecord
  2
Arial Black
 70
     0
 40
0.0
 41
1.0
 50
0.0
 71
     0
 42
0.2
  3
ariblk.ttf
  4

1001
ACAD
1000
Arial Black
1071
       34
  0
STYLE
  5
45
330
3
100
AcDbSymbolTableRecord
100
AcDbTextStyleTableRecord
  2
Toleranzfont
 70
     0
 40
0.0
 41
1.0
 50
0.0
 71
     0
 42
0.2
  3
IGES1003.SHX
  4

  0
ENDTAB
  0
TABLE
  2
VIEW
  5
6
330
0
100
AcDbSymbolTable
 70
     0
  0
ENDTAB
  0
TABLE
  2
UCS
  5
7
330
0
100
AcDbSymbolTable
 70
     0
  0
ENDTAB
  0
TABLE
  2
APPID
  5
9
330
0
100
AcDbSymbolTable
 70
     1
  0
APPID
  5
12
330
9
100
AcDbSymbolTableRecord
100
AcDbRegAppTableRecord
  2
ACAD
 70
     0
  0
ENDTAB
  0
TABLE
  2
DIMSTYLE
  5
A
330
0
100
AcDbSymbolTable
 70
     1
100
AcDbDimStyleTable
  0
DIMSTYLE
105
27
102
{ACAD_REACTORS
330
4ED
330
502
330
512
330
520
330
531
330
540
330
550
330
560
330
570
330
583
330
593
102
}
330
A
100
AcDbSymbolTableRecord
100
AcDbDimStyleTableRecord
  2
ISO-25
 70
     0
 41
2.5
 42
0.625
 43
3.75
 44
1.25
 73
     0
 74
     0
 77
     1
 78
     8
140
2.5
141
2.5
143
0.03937007874
147
0.625
171
     3
172
     1
178
     0
271
     2
272
     2
274
     3
278
    44
283
     0
284
     8
340
11
  0
ENDTAB
  0
TABLE
  2
BLOCK_RECORD
  5
1
330
0
100
AcDbSymbolTable
 70
    19
  0
BLOCK_RECORD
  5
1F
330
1
100
AcDbSymbolTableRecord
100
AcDbBlockTableRecord
  2
*Model_Space
340
22
  0
BLOCK_RECORD
  5
1B
330
1
100
AcDbSymbolTableRecord
100
AcDbBlockTableRecord
  2
*Paper_Space
340
1E
  0
BLOCK_RECORD
  5
23
330
1
100
AcDbSymbolTableRecord
100
AcDbBlockTableRecord
  2
*Paper_Space0
340
26
  0
BLOCK_RECORD
  5
146
330
1
100
AcDbSymbolTableRecord
100
AcDbBlockTableRecord
  2
A4_nNn00
340
0
102
{BLKREFS
331
19F
102
}
  0
BLOCK_RECORD
  5
151
330
1
100
AcDbSymbolTableRecord
100
AcDbBlockTableRecord
  2
Schriftfeld_nNn01
340
0
102
{BLKREFS
331
19E
102
}
  0
BLOCK_RECORD
  5
17F
330
1
100
AcDbSymbolTableRecord
100
AcDbBlockTableRecord
  2
ULTRAREFLEX_nNn02
340
0
102
{BLKREFS
331
197
102
}
  0
BLOCK_RECORD
  5
1A9
330
1
100
AcDbSymbolTableRecord
100
AcDbBlockTableRecord
  2
SECHSK1_nNn03
340
0
102
{BLKREFS
331
305
102
}
  0
BLOCK_RECORD
  5
309
330
1
100
AcDbSymbolTableRecord
100
AcDbBlockTableRecord
  2
SECHSK1_nNn04
340
0
102
{BLKREFS
331
4B4
102
}
  0
BLOCK_RECORD
  5
4C1
330
1
100
AcDbSymbolTableRecord
100
AcDbBlockTableRecord
  2
L1_nNn05
340
0
102
{BLKREFS
331
4C7
102
}
  0
BLOCK_RECORD
  5
4DE
330
1
100
AcDbSymbolTableRecord
100
AcDbBlockTableRecord
  2
*D7
340
0
  0
BLOCK_RECORD
  5
4EE
330
1
100
AcDbSymbolTableRecord
100
AcDbBlockTableRecord
  2
_CLOSED
340
0
  0
BLOCK_RECORD
  5
4F5
330
1
100
AcDbSymbolTableRecord
100
AcDbBlockTableRecord
  2
*D9
340
0
  0
BLOCK_RECORD
  5
503
330
1
100
AcDbSymbolTableRecord
100
AcDbBlockTableRecord
  2
*D10
340
0
  0
BLOCK_RECORD
  5
513
330
1
100
AcDbSymbolTableRecord
100
AcDbBlockTableRecord
  2
*D11
340
0
  0
BLOCK_RECORD
  5
521
330
1
100
AcDbSymbolTableRecord
100
AcDbBlockTableRecord
  2
*D12
340
0
  0
BLOCK_RECORD
  5
532
330
1
100
AcDbSymbolTableRecord
100
AcDbBlockTableRecord
  2
*D13
340
0
  0
BLOCK_RECORD
  5
541
330
1
100
AcDbSymbolTableRecord
100
AcDbBlockTableRecord
  2
*D14
340
0
  0
BLOCK_RECORD
  5
551
330
1
100
AcDbSymbolTableRecord
100
AcDbBlockTableRecord
  2
*D15
340
0
  0
BLOCK_RECORD
  5
561
330
1
100
AcDbSymbolTableRecord
100
AcDbBlockTableRecord
  2
*D16
340
0
  0
BLOCK_RECORD
  5
572
330
1
100
AcDbSymbolTableRecord
100
AcDbBlockTableRecord
  2
*D17
340
0
  0
BLOCK_RECORD
  5
584
330
1
100
AcDbSymbolTableRecord
100
AcDbBlockTableRecord
  2
*D18
340
0
  0
ENDTAB
  0
ENDSEC
  0
SECTION
  2
BLOCKS
  0
BLOCK
  5
20
330
1F
100
AcDbEntity
  8
0
100
AcDbBlockBegin
  2
*Model_Space
 70
     0
 10
0.0
 20
0.0
 30
0.0
  3
*Model_Space
  1

  0
ENDBLK
  5
21
330
1F
100
AcDbEntity
  8
0
100
AcDbBlockEnd
  0
BLOCK
  5
1C
330
1B
100
AcDbEntity
 67
     1
  8
0
100
AcDbBlockBegin
  2
*Paper_Space
 70
     0
 10
0.0
 20
0.0
 30
0.0
  3
*Paper_Space
  1

  0
ENDBLK
  5
1D
330
1B
100
AcDbEntity
 67
     1
  8
0
100
AcDbBlockEnd
  0
BLOCK
  5
24
330
23
100
AcDbEntity
  8
0
100
AcDbBlockBegin
  2
*Paper_Space0
 70
     0
 10
0.0
 20
0.0
 30
0.0
  3
*Paper_Space0
  1

  0
ENDBLK
  5
25
330
23
100
AcDbEntity
  8
0
100
AcDbBlockEnd
  0
BLOCK
  5
147
330
146
100
AcDbEntity
  8
0
100
AcDbBlockBegin
  2
A4_nNn00
 70
     0
 10
0.0
 20
0.0
 30
0.0
  3
A4_nNn00
  1

  0
LINE
  5
149
330
146
100
AcDbEntity
  8
Layer99
  6
AUSGEZOGEN
 62
     9
370
    18
100
AcDbLine
 10
106.451303522222
 20
16.111801991346
 30
0.0
 11
200.451303522222
 21
16.111801991346
 31
0.0
  0
LINE
  5
14A
330
146
100
AcDbEntity
  8
Layer99
  6
AUSGEZOGEN
 62
     9
370
    18
100
AcDbLine
 10
200.451303522222
 20
16.111801991346
 30
0.0
 11
200.451303522222
 21
151.001801991346
 31
0.0
  0
LINE
  5
14B
330
146
100
AcDbEntity
  8
Layer0
  6
AUSGEZOGEN
 62
     9
370
    18
100
AcDbLine
 10
106.451303522222
 20
16.111801991346
 30
0.0
 11
106.451303522222
 21
151.001801991346
 31
0.0
  0
LINE
  5
14C
330
146
100
AcDbEntity
  8
Layer0
  6
AUSGEZOGEN
 62
     9
370
    18
100
AcDbLine
 10
106.451303522222
 20
151.001801991346
 30
0.0
 11
200.451303522222
 21
151.001801991346
 31
0.0
  0
LINE
  5
14D
330
146
100
AcDbEntity
  8
Layer0
  6
AUSGEZOGEN
 62
    56
370
    18
100
AcDbLine
 10
104.101303522222
 20
153.351801991346
 30
0.0
 11
202.801303522222
 21
153.351801991346
 31
0.0
  0
LINE
  5
14E
330
146
100
AcDbEntity
  8
Layer0
  6
AUSGEZOGEN
 62
    56
370
    18
100
AcDbLine
 10
104.101303522222
 20
13.761801991346
 30
0.0
 11
104.101303522222
 21
153.351801991346
 31
0.0
  0
LINE
  5
14F
330
146
100
AcDbEntity
  8
Layer0
  6
AUSGEZOGEN
 62
    56
370
    18
100
AcDbLine
 10
104.101303522222
 20
13.761801991346
 30
0.0
 11
202.801303522222
 21
13.761801991346
 31
0.0
  0
LINE
  5
150
330
146
100
AcDbEntity
  8
Layer0
  6
AUSGEZOGEN
 62
    56
370
    18
100
AcDbLine
 10
202.801303522222
 20
13.761801991346
 30
0.0
 11
202.801303522222
 21
153.351801991346
 31
0.0
  0
INSERT
  5
19E
330
146
100
AcDbEntity
  8
0
100
AcDbBlockReference
  2
Schriftfeld_nNn01
 10
0.0
 20
0.0
 30
0.0
  0
ENDBLK
  5
148
330
146
100
AcDbEntity
  8
0
100
AcDbBlockEnd
  0
BLOCK
  5
152
330
151
100
AcDbEntity
  8
0
100
AcDbBlockBegin
  2
Schriftfeld_nNn01
 70
     0
 10
0.0
 20
0.0
 30
0.0
  3
Schriftfeld_nNn01
  1

  0
LINE
  5
154
330
151
100
AcDbEntity
  8
Layer99
  6
AUSGEZOGEN
 62
    56
370
    18
100
AcDbLine
 10
144.051303522222
 20
34.089301991346
 30
0.0
 11
144.051303522222
 21
26.099301991346
 31
0.0
  0
LINE
  5
155
330
151
100
AcDbEntity
  8
Layer99
  6
AUSGEZOGEN
 62
    56
370
    18
100
AcDbLine
 10
117.167326471441
 20
34.089301991346
 30
0.0
 11
117.167326471441
 21
16.111801991346
 31
0.0
  0
LINE
  5
156
330
151
100
AcDbEntity
  8
Layer99
  6
AUSGEZOGEN
 62
     9
370
    18
100
AcDbLine
 10
194.341303522222
 20
24.101801991346
 30
0.0
 11
194.341303522222
 21
18.391303067091
 31
0.0
  0
LINE
  5
157
330
151
100
AcDbEntity
  8
Layer99
  6
AUSGEZOGEN
 62
    56
370
    18
100
AcDbLine
 10
139.163292047613
 20
18.109301991346
 30
0.0
 11
113.501303522222
 21
18.109301991346
 31
0.0
  0
LINE
  5
158
330
151
100
AcDbEntity
  8
Layer99
  6
AUSGEZOGEN
 62
    56
370
    18
100
AcDbLine
 10
139.163292047613
 20
20.106801991346
 30
0.0
 11
113.501303522222
 21
20.106801991346
 31
0.0
  0
LINE
  5
159
330
151
100
AcDbEntity
  8
Layer99
  6
AUSGEZOGEN
 62
    56
370
    18
100
AcDbLine
 10
139.163292047613
 20
22.104301991346
 30
0.0
 11
113.501303522222
 21
22.104301991346
 31
0.0
  0
LINE
  5
15A
330
151
100
AcDbEntity
  8
Layer99
  6
AUSGEZOGEN
 62
    56
370
    18
100
AcDbLine
 10
139.163292047613
 20
24.101801991346
 30
0.0
 11
113.501303522222
 21
24.101801991346
 31
0.0
  0
LINE
  5
15B
330
151
100
AcDbEntity
  8
Layer99
  6
AUSGEZOGEN
 62
     9
370
    18
100
AcDbLine
 10
200.451303522222
 20
24.101801991346
 30
0.0
 11
139.163292047613
 21
24.101801991346
 31
0.0
  0
LINE
  5
15C
330
151
100
AcDbEntity
  8
Layer99
  6
AUSGEZOGEN
 62
    56
370
    18
100
AcDbLine
 10
159.937326471441
 20
26.099301991346
 30
0.0
 11
113.501303522222
 21
26.099301991346
 31
0.0
  0
LINE
  5
15D
330
151
100
AcDbEntity
  8
Layer99
  6
AUSGEZOGEN
 62
    56
370
    18
100
AcDbLine
 10
159.937326471441
 20
28.096801991346
 30
0.0
 11
113.501303522222
 21
28.096801991346
 31
0.0
  0
LINE
  5
15E
330
151
100
AcDbEntity
  8
Layer99
  6
AUSGEZOGEN
 62
    56
370
    18
100
AcDbLine
 10
159.937326471441
 20
30.094301991346
 30
0.0
 11
113.501303522222
 21
30.094301991346
 31
0.0
  0
LINE
  5
15F
330
151
100
AcDbEntity
  8
Layer99
  6
AUSGEZOGEN
 62
    56
370
    18
100
AcDbLine
 10
159.937326471441
 20
32.091801991346
 30
0.0
 11
113.501303522222
 21
32.091801991346
 31
0.0
  0
LINE
  5
160
330
151
100
AcDbEntity
  8
Layer99
  6
AUSGEZOGEN
 62
     9
370
    18
100
AcDbLine
 10
200.451303522222
 20
34.089301991346
 30
0.0
 11
113.501303522222
 21
34.089301991346
 31
0.0
  0
LINE
  5
161
330
151
100
AcDbEntity
  8
Layer99
  6
AUSGEZOGEN
 62
    56
370
    18
100
AcDbLine
 10
139.163292047613
 20
39.083051991346
 30
0.0
 11
113.501303522222
 21
39.083051991346
 31
0.0
  0
LINE
  5
162
330
151
100
AcDbEntity
  8
Layer99
  6
AUSGEZOGEN
 62
    56
370
    18
100
AcDbLine
 10
200.451303522222
 20
39.083051991346
 30
0.0
 11
159.937326471441
 21
39.083051991346
 31
0.0
  0
LINE
  5
163
330
151
100
AcDbEntity
  8
Layer99
  6
AUSGEZOGEN
 62
    56
370
    18
100
AcDbLine
 10
183.343292047613
 20
42.079301991346
 30
0.0
 11
183.343292047613
 21
39.083051991346
 31
0.0
  0
LINE
  5
164
330
151
100
AcDbEntity
  8
Layer99
  6
AUSGEZOGEN
 62
     9
370
    18
100
AcDbLine
 10
159.937326471441
 20
42.079301991346
 30
0.0
 11
159.937326471441
 21
18.391303067091
 31
0.0
  0
LINE
  5
165
330
151
100
AcDbEntity
  8
Layer99
  6
AUSGEZOGEN
 62
    56
370
    18
100
AcDbLine
 10
151.383292047613
 20
34.089301991346
 30
0.0
 11
151.383292047613
 21
24.101801991346
 31
0.0
  0
LINE
  5
166
330
151
100
AcDbEntity
  8
Layer99
  6
AUSGEZOGEN
 62
     9
370
    18
100
AcDbLine
 10
139.163292047613
 20
42.079301991346
 30
0.0
 11
139.163292047613
 21
16.111801991346
 31
0.0
  0
LINE
  5
167
330
151
100
AcDbEntity
  8
Layer99
  6
AUSGEZOGEN
 62
     9
370
    18
100
AcDbLine
 10
113.501303522222
 20
42.079301991346
 30
0.0
 11
113.501303522222
 21
16.111801991346
 31
0.0
  0
LINE
  5
168
330
151
100
AcDbEntity
  8
Layer99
  6
AUSGEZOGEN
 62
     9
370
    18
100
AcDbLine
 10
200.451303522222
 20
42.079301991346
 30
0.0
 11
113.501303522222
 21
42.079301991346
 31
0.0
  0
TEXT
  5
169
330
151
100
AcDbEntity
  8
Layer99
  6
AUSGEZOGEN
 62
    56
370
    18
100
AcDbText
 10
139.491006891363
 20
30.540957257154
 30
0.0
 40
0.94
  1
Bearb. 21.10.05 Ms
 41
1.259432179168
  7
Arial
 72
     5
 11
153.911681663339
 21
30.540957257154
 31
0.0
100
AcDbText
  0
TEXT
  5
16A
330
151
100
AcDbEntity
  8
Layer99
  6
AUSGEZOGEN
 62
    56
370
    18
100
AcDbText
 10
139.599728815191
 20
28.58281516731
 30
0.0
 40
0.94
  1
Gepr.
 41
1.215533862924
  7
Arial
 72
     5
 11
143.58855180773
 21
28.58281516731
 31
0.0
100
AcDbText
  0
TEXT
  5
16B
330
151
100
AcDbEntity
  8
Layer99
  6
AUSGEZOGEN
 62
    56
370
    18
100
AcDbText
 10
139.599728815191
 20
26.515893780592
 30
0.0
 40
0.94
  1
Norm
 41
1.171328125812
  7
Arial
 72
     5
 11
143.356506086545
 21
26.515893780592
 31
0.0
100
AcDbText
  0
TEXT
  5
16C
330
151
100
AcDbEntity
  8
Layer99
  6
AUSGEZOGEN
 62
    56
370
    18
100
AcDbText
 10
195.25307598316
 20
22.574592442396
 30
0.0
 40
1.175
  1
Blatt
 41
1.26499927539
  7
Arial
 72
     5
 11
199.404518980153
 21
22.574592442396
 31
0.0
100
AcDbText
  0
TEXT
  5
16D
330
151
100
AcDbEntity
  8
Layer0
  6
AUSGEZOGEN
 62
   136
370
    18
100
AcDbText
 10
140.591823541753
 20
39.962745747449
 30
0.0
 40
1.175
  1
Allgemeintoleranzen
 41
1.263559891189
  7
Arial
 72
     5
 11
159.365638460048
 21
39.962745747449
 31
0.0
100
AcDbText
  0
TEXT
  5
16E
330
151
100
AcDbEntity
  8
Layer0
  6
AUSGEZOGEN
 62
   136
370
    18
100
AcDbText
 10
140.2650840398
 20
37.783875203016
 30
0.0
 40
1.175
  1
Nach: TG5
 41
1.223038375192
  7
Arial
 72
     5
 11
149.963870082952
 21
37.783875203016
 31
0.0
100
AcDbText
  0
TEXT
  5
16F
330
151
100
AcDbEntity
  8
Layer0
  6
AUSGEZOGEN
 62
   136
370
    18
100
AcDbText
 10
140.344144098394
 20
35.604997486951
 30
0.0
 40
1.175
  1
DIN: 16742
 41
1.239741037486
  7
Arial
 72
     5
 11
150.628415874862
 21
35.604997486951
 31
0.0
100
AcDbText
  0
TEXT
  5
170
330
151
100
AcDbEntity
  8
Layer0
  6
AUSGEZOGEN
 62
    56
370
    18
100
AcDbText
 10
184.101189996832
 20
40.071689991834
 30
0.0
 40
1.175
  1
Gewicht:
 41
1.240831402125
  7
Arial
 72
     5
 11
192.018004550241
 21
40.071689991834
 31
0.0
100
AcDbText
  0
TEXT
  5
171
330
151
100
AcDbEntity
  8
Layer0
  6
AUSGEZOGEN
 62
    56
370
    18
100
AcDbText
 10
160.554603082769
 20
36.813553547742
 30
0.0
 40
1.175
  1
Werkstoff/Farbe:siehe Zeichnung
 41
1.269550999613
  7
Arial
 72
     5
 11
191.22143268656
 21
36.813553547742
 31
0.0
100
AcDbText
  0
TEXT
  5
172
330
151
100
AcDbEntity
  8
Layer0
  6
AUSGEZOGEN
 62
    56
370
    18
100
AcDbText
 10
160.554603082769
 20
40.081651387098
 30
0.0
 40
1.175
  1
Maßstab:2:1
 41
1.241041547507
  7
Arial
 72
     5
 11
171.867503465303
 21
40.081651387098
 31
0.0
100
AcDbText
  0
TEXT
  5
173
330
151
100
AcDbEntity
  8
Layer0
  6
AUSGEZOGEN
 62
    56
370
    18
100
AcDbText
 10
114.06533794605
 20
40.081801991346
 30
0.0
 40
1.175
  1
Schwindung:
 41
1.234746274162
  7
Arial
 72
     5
 11
125.658895481326
 21
40.081801991346
 31
0.0
100
AcDbText
  0
TEXT
  5
174
330
151
100
AcDbEntity
  8
Layer0
  6
AUSGEZOGEN
 62
    56
370
    18
100
AcDbText
 10
114.122022516363
 20
37.141490712049
 30
0.0
 40
1.175
  1
Diese Zeichnung darf nur
 41
1.271210741346
  7
Arial
 72
     5
 11
137.529366161325
 21
37.141490712049
 31
0.0
100
AcDbText
  0
TEXT
  5
175
330
151
100
AcDbEntity
  8
Layer0
  6
AUSGEZOGEN
 62
    56
370
    18
100
AcDbText
 10
114.122022516363
 20
35.261490684035
 30
0.0
 40
1.175
  1
mit CAD geändert werden
 41
1.255342283876
  7
Arial
 72
     5
 11
137.808009029873
 21
35.261490684035
 31
0.0
100
AcDbText
  0
LINE
  5
176
330
151
100
AcDbEntity
  8
Layer99
  6
AUSGEZOGEN
 62
    56
370
    18
100
AcDbLine
 10
200.451303522222
 20
18.391303067091
 30
0.0
 11
159.937326471441
 21
18.391303067091
 31
0.0
  0
LINE
  5
177
330
151
100
AcDbEntity
  8
Layer99
  6
AUSGEZOGEN
 62
    56
370
    18
100
AcDbLine
 10
200.451303522222
 20
20.388803067091
 30
0.0
 11
194.341303522222
 21
20.388803067091
 31
0.0
  0
TEXT
  5
178
330
151
100
AcDbEntity
  8
Layer99
  6
AUSGEZOGEN
 62
    56
370
    18
100
AcDbText
 10
197.809332086675
 20
18.838325161817
 30
0.0
 40
1.175
  1
Bl.
 41
1.229150265254
  7
Arial
 72
     5
 11
200.162017880641
 21
18.838325161817
 31
0.0
100
AcDbText
  0
LINE
  5
179
330
151
100
AcDbEntity
  8
Layer99
  6
AUSGEZOGEN
 62
    56
370
    18
100
AcDbLine
 10
159.937326471441
 20
18.391303067091
 30
0.0
 11
139.163292047613
 21
18.391303067091
 31
0.0
  0
LINE
  5
17A
330
151
100
AcDbEntity
  8
Layer99
  6
AUSGEZOGEN
 62
    56
370
    18
100
AcDbLine
 10
131.314200250738
 20
34.089301991346
 30
0.0
 11
131.314200250738
 21
16.111801991346
 31
0.0
  0
TEXT
  5
17B
330
151
100
AcDbEntity
  8
Layer50
  6
AUSGEZOGEN
 62
   136
370
    18
100
AcDbText
 10
115.53859173023
 20
18.5406180352
 30
0.0
 40
0.94
  1
-  ---
 41
1.340992890965
  7
Arial
 72
     5
 11
118.86135755518
 21
18.5406180352
 31
0.0
100
AcDbText
  0
TEXT
  5
17C
330
151
100
AcDbEntity
  8
Layer50
  6
AUSGEZOGEN
 62
   136
370
    18
100
AcDbText
 10
131.424413873785
 20
18.655770222547
 30
0.0
 40
0.94
  1
--.--.--/--
 41
1.366444411798
  7
Arial
 72
     5
 11
137.697705510574
 21
18.655770222547
 31
0.0
100
AcDbText
  0
TEXT
  5
17D
330
151
100
AcDbEntity
  8
Layer0
  6
AUSGEZOGEN
 62
    56
370
    18
100
AcDbText
 10
139.748325006597
 20
16.626509265783
 30
0.0
 40
1.175
  1
Schutzvermerk nach DIN 34 beachten .        Copyright reserved
 41
1.286227457357
  7
Arial
 72
     5
 11
199.075084141903
 21
16.626509265783
 31
0.0
100
AcDbText
  0
TEXT
  5
17E
330
151
100
AcDbEntity
  8
Layer50
  6
AUSGEZOGEN
 62
     9
370
    18
100
AcDbText
 10
164.572965707519
 20
20.204808036054
 30
0.0
 40
2.35
  1
05094500k
 41
1.218898721598
  7
Arial
 72
     5
 11
184.354594950207
 21
20.204808036054
 31
0.0
100
AcDbText
  0
INSERT
  5
197
330
151
100
AcDbEntity
  8
0
100
AcDbBlockReference
  2
ULTRAREFLEX_nNn02
 10
0.0
 20
0.0
 30
0.0
  0
TEXT
  5
198
330
151
100
AcDbEntity
  8
Layer50
  6
AUSGEZOGEN
 62
   136
370
    18
100
AcDbText
 10
160.949017670778
 20
24.710095433646
 30
0.0
 40
0.94
  1
---
 41
1.259600656861
  7
Arial
 72
     5
 11
162.60073201212
 21
24.710095433646
 31
0.0
100
AcDbText
  0
TEXT
  5
199
330
151
100
AcDbEntity
  8
Layer99
  6
AUSGEZOGEN
 62
    56
370
    18
100
AcDbText
 10
131.566241292967
 20
16.578652559779
 30
0.0
 40
0.94
  1
Dat./Nam.
 41
1.239717192527
  7
Arial
 72
     5
 11
138.888035826374
 21
16.578652559779
 31
0.0
100
AcDbText
  0
TEXT
  5
19A
330
151
100
AcDbEntity
  8
Layer99
  6
AUSGEZOGEN
 62
    56
370
    18
100
AcDbText
 10
113.593821302229
 20
16.576521462377
 30
0.0
 40
0.94
  1
Zust.
 41
1.239906123597
  7
Arial
 72
     5
 11
117.210404281658
 21
16.576521462377
 31
0.0
100
AcDbText
  0
TEXT
  5
19B
330
151
100
AcDbEntity
  8
Layer0
  6
AUSGEZOGEN
 62
    56
370
    18
100
AcDbText
 10
144.827608261862
 20
32.494998249891
 30
0.0
 40
1.175
  1
Datum
 41
1.188171149402
  7
Arial
 72
     5
 11
150.566979886213
 21
32.494998249891
 31
0.0
100
AcDbText
  0
TEXT
  5
19C
330
151
100
AcDbEntity
  8
Layer0
  6
AUSGEZOGEN
 62
    56
370
    18
100
AcDbText
 10
153.130247460418
 20
32.49892590591
 30
0.0
 40
1.175
  1
Name
 41
1.15958716227
  7
Arial
 72
     5
 11
158.202890491449
 21
32.49892590591
 31
0.0
100
AcDbText
  0
TEXT
  5
19D
330
151
100
AcDbEntity
  8
Layer99
  6
AUSGEZOGEN
 62
    56
370
    18
100
AcDbText
 10
117.837583410458
 20
16.576633293255
 30
0.0
 40
0.94
  1
Änderung
 41
1.218204176926
  7
Arial
 72
     5
 11
124.76780078849
 21
16.576633293255
 31
0.0
100
AcDbText
  0
ENDBLK
  5
153
330
151
100
AcDbEntity
  8
0
100
AcDbBlockEnd
  0
BLOCK
  5
180
330
17F
100
AcDbEntity
  8
0
100
AcDbBlockBegin
  2
ULTRAREFLEX_nNn02
 70
     0
 10
0.0
 20
0.0
 30
0.0
  3
ULTRAREFLEX_nNn02
  1

  0
LINE
  5
182
330
17F
100
AcDbEntity
  8
Layer0
  6
AUSGEZOGEN
 62
    30
370
    18
100
AcDbLine
 10
158.438294905312
 20
22.618258036054
 30
0.0
 11
157.008256023556
 21
22.618258036054
 31
0.0
  0
LINE
  5
183
330
17F
100
AcDbEntity
  8
Layer0
  6
AUSGEZOGEN
 62
    30
370
    18
100
AcDbLine
 10
156.869865164031
 20
22.538358036054
 30
0.0
 11
156.154845723153
 21
21.299908036054
 31
0.0
  0
LINE
  5
184
330
17F
100
AcDbEntity
  8
Layer0
  6
AUSGEZOGEN
 62
    30
370
    18
100
AcDbLine
 10
156.154845723153
 20
21.140108036054
 30
0.0
 11
156.869865164031
 21
19.901658036054
 31
0.0
  0
LINE
  5
185
330
17F
100
AcDbEntity
  8
Layer0
  6
AUSGEZOGEN
 62
    30
370
    18
100
AcDbLine
 10
157.008256023556
 20
19.821758036054
 30
0.0
 11
158.438294905312
 21
19.821758036054
 31
0.0
  0
LINE
  5
186
330
17F
100
AcDbEntity
  8
Layer0
  6
AUSGEZOGEN
 62
    30
370
    18
100
AcDbLine
 10
158.576685764837
 20
19.901658036054
 30
0.0
 11
159.291705205714
 21
21.140108036054
 31
0.0
  0
LINE
  5
187
330
17F
100
AcDbEntity
  8
Layer0
  6
AUSGEZOGEN
 62
    30
370
    18
100
AcDbLine
 10
159.291705205714
 20
21.299908036054
 30
0.0
 11
158.576685764837
 21
22.538358036054
 31
0.0
  0
LINE
  5
188
330
17F
100
AcDbEntity
  8
Layer0
  6
AUSGEZOGEN
 62
    30
370
    18
100
AcDbLine
 10
157.861666323959
 20
21.299908036054
 30
0.0
 11
159.291705205714
 21
21.299908036054
 31
0.0
  0
LINE
  5
189
330
17F
100
AcDbEntity
  8
Layer0
  6
AUSGEZOGEN
 62
    30
370
    18
100
AcDbLine
 10
156.154845723153
 20
21.299908036054
 30
0.0
 11
157.584884604909
 21
21.299908036054
 31
0.0
  0
LINE
  5
18A
330
17F
100
AcDbEntity
  8
Layer0
  6
AUSGEZOGEN
 62
    30
370
    18
100
AcDbLine
 10
157.861666323959
 20
21.140108036054
 30
0.0
 11
159.291705205714
 21
21.140108036054
 31
0.0
  0
LINE
  5
18B
330
17F
100
AcDbEntity
  8
Layer0
  6
AUSGEZOGEN
 62
    30
370
    18
100
AcDbLine
 10
156.154845723153
 20
21.140108036054
 30
0.0
 11
157.584884604909
 21
21.140108036054
 31
0.0
  0
LINE
  5
18C
330
17F
100
AcDbEntity
  8
Layer0
  6
AUSGEZOGEN
 62
    30
370
    18
100
AcDbLine
 10
157.861666323959
 20
21.140108036054
 30
0.0
 11
158.576685764837
 21
19.901658036054
 31
0.0
  0
LINE
  5
18D
330
17F
100
AcDbEntity
  8
Layer0
  6
AUSGEZOGEN
 62
    30
370
    18
100
AcDbLine
 10
157.008256023556
 20
22.618258036054
 30
0.0
 11
157.723275464434
 21
21.379808036054
 31
0.0
  0
LINE
  5
18E
330
17F
100
AcDbEntity
  8
Layer0
  6
AUSGEZOGEN
 62
    30
370
    18
100
AcDbLine
 10
157.723275464434
 20
21.060208036054
 30
0.0
 11
158.438294905312
 21
19.821758036054
 31
0.0
  0
LINE
  5
18F
330
17F
100
AcDbEntity
  8
Layer0
  6
AUSGEZOGEN
 62
    30
370
    18
100
AcDbLine
 10
156.869865164031
 20
22.538358036054
 30
0.0
 11
157.584884604909
 21
21.299908036054
 31
0.0
  0
LINE
  5
190
330
17F
100
AcDbEntity
  8
Layer0
  6
AUSGEZOGEN
 62
    30
370
    18
100
AcDbLine
 10
157.723275464434
 20
21.060208036054
 30
0.0
 11
157.008256023556
 21
19.821758036054
 31
0.0
  0
LINE
  5
191
330
17F
100
AcDbEntity
  8
Layer0
  6
AUSGEZOGEN
 62
    30
370
    18
100
AcDbLine
 10
158.576685764837
 20
22.538358036054
 30
0.0
 11
157.861666323959
 21
21.299908036054
 31
0.0
  0
LINE
  5
192
330
17F
100
AcDbEntity
  8
Layer0
  6
AUSGEZOGEN
 62
    30
370
    18
100
AcDbLine
 10
157.584884604909
 20
21.140108036054
 30
0.0
 11
156.869865164031
 21
19.901658036054
 31
0.0
  0
LINE
  5
193
330
17F
100
AcDbEntity
  8
Layer0
  6
AUSGEZOGEN
 62
    30
370
    18
100
AcDbLine
 10
158.438294905312
 20
22.618258036054
 30
0.0
 11
157.723275464434
 21
21.379808036054
 31
0.0
  0
HATCH
  5
194
330
17F
100
AcDbEntity
  8
Layer0
  6
AUSGEZOGEN
 62
    30
370
    18
100
AcDbHatch
 10
0.0
 20
0.0
 30
0.0
210
0.0
220
0.0
230
1.0
  2
SOLID
 70
     1
 71
     0
 91
        6
 92
        2
 72
     0
 73
     1
 93
        3
 10
157.5848846049093
 20
21.14010803605444
 10
156.1548457231534
 20
21.14010803605444
 10
156.8698651640314
 20
19.90165803605445
 97
        0
 92
        2
 72
     0
 73
     1
 93
        3
 10
157.5848846049093
 20
21.29990803605445
 10
156.8698651640314
 20
22.53835803605445
 10
156.1548457231534
 20
21.29990803605445
 97
        0
 92
        2
 72
     0
 73
     1
 93
        3
 10
157.723275464434
 20
21.37980803605444
 10
158.4382949053118
 20
22.61825803605444
 10
157.0082560235561
 20
22.61825803605444
 97
        0
 92
        2
 72
     0
 73
     1
 93
        3
 10
157.8616663239588
 20
21.29990803605445
 10
159.2917052057145
 20
21.29990803605445
 10
158.5766857648367
 20
22.53835803605443
 97
        0
 92
        2
 72
     0
 73
     1
 93
        3
 10
158.5766857648367
 20
19.90165803605444
 10
159.2917052057145
 20
21.14010803605444
 10
157.8616663239588
 20
21.14010803605444
 97
        0
 92
        2
 72
     0
 73
     1
 93
        3
 10
157.723275464434
 20
21.06020803605444
 10
157.0082560235561
 20
19.82175803605445
 10
158.4382949053118
 20
19.82175803605445
 97
        0
 75
     0
 76
     1
 98
        0
  0
TEXT
  5
195
330
17F
100
AcDbEntity
  8
Layer0
  6
AUSGEZOGEN
 62
     7
370
    70
100
AcDbText
 10
147.614430824964
 20
20.319890920797
 30
0.0
 40
1.8377
  1
REFLEX
 41
0.705366510959
  7
Arial Black
 72
     5
 11
155.464605824964
 21
20.319890920797
 31
0.0
100
AcDbText
  0
TEXT
  5
196
330
17F
100
AcDbEntity
  8
Layer0
  6
AUSGEZOGEN
 62
     7
370
    18
100
AcDbText
 10
139.864924805913
 20
20.406583539227
 30
0.0
 40
1.39825
  1
ULTRA
 41
1.159777722278
  7
Arial
 72
     5
 11
147.285637305913
 21
20.406583539227
 31
0.0
100
AcDbText
  0
ENDBLK
  5
181
330
17F
100
AcDbEntity
  8
0
100
AcDbBlockEnd
  0
BLOCK
  5
1AA
330
1A9
100
AcDbEntity
  8
0
100
AcDbBlockBegin
  2
SECHSK1_nNn03
 70
     0
 10
0.0
 20
0.0
 30
0.0
  3
SECHSK1_nNn03
  1

  0
LINE
  5
1AC
330
1A9
100
AcDbEntity
  8
Layer0
  6
AUSGEZOGEN
 62
     9
370
    18
100
AcDbLine
 10
158.651830933283
 20
93.94922318768
 30
0.0
 11
156.651830933283
 21
95.103932049985
 31
0.0
  0
LINE
  5
1AD
330
1A9
100
AcDbEntity
  8
Layer0
  6
AUSGEZOGEN
 62
     9
370
    18
100
AcDbLine
 10
156.651830933283
 20
95.103932049985
 30
0.0
 11
154.651830933283
 21
93.94922318768
 31
0.0
  0
LINE
  5
1AE
330
1A9
100
AcDbEntity
  8
Layer0
  6
AUSGEZOGEN
 62
     9
370
    18
100
AcDbLine
 10
154.651830933283
 20
93.94922318768
 30
0.0
 11
154.651830933283
 21
91.639835980649
 31
0.0
  0
LINE
  5
1AF
330
1A9
100
AcDbEntity
  8
Layer0
  6
AUSGEZOGEN
 62
     9
370
    18
100
AcDbLine
 10
154.651830933283
 20
91.639835980649
 30
0.0
 11
156.651830933283
 21
90.485127118344
 31
0.0
  0
LINE
  5
1B0
330
1A9
100
AcDbEntity
  8
Layer0
  6
AUSGEZOGEN
 62
     9
370
    18
100
AcDbLine
 10
156.651830933283
 20
90.485127118344
 30
0.0
 11
158.651830933283
 21
91.639835980649
 31
0.0
  0
LINE
  5
1B1
330
1A9
100
AcDbEntity
  8
Layer0
  6
AUSGEZOGEN
 62
     9
370
    18
100
AcDbLine
 10
158.651830933283
 20
91.639835980649
 30
0.0
 11
158.651830933283
 21
93.94922318768
 31
0.0
  0
LINE
  5
1B2
330
1A9
100
AcDbEntity
  8
Stammform
  6
AUSGEZOGEN
 62
    56
370
    18
100
AcDbLine
 10
158.651830933283
 20
93.94922318768
 30
0.0
 11
156.651830933283
 21
92.794529584165
 31
0.0
  0
LINE
  5
1B3
330
1A9
100
AcDbEntity
  8
Stammform
  6
AUSGEZOGEN
 62
    56
370
    18
100
AcDbLine
 10
156.651830933283
 20
92.794529584165
 30
0.0
 11
156.651830933283
 21
90.485127118344
 31
0.0
  0
LINE
  5
1B4
330
1A9
100
AcDbEntity
  8
Stammform
  6
AUSGEZOGEN
 62
    56
370
    18
100
AcDbLine
 10
156.651830933283
 20
92.794529584165
 30
0.0
 11
154.651830933283
 21
93.94922318768
 31
0.0
  0
LINE
  5
1B5
330
1A9
100
AcDbEntity
  8
Stammform
  6
AUSGEZOGEN
 62
    56
370
    18
100
AcDbLine
 10
160.651830933283
 20
92.794529584165
 30
0.0
 11
158.651830933283
 21
93.94922318768
 31
0.0
  0
LINE
  5
1B6
330
1A9
100
AcDbEntity
  8
Stammform
  6
AUSGEZOGEN
 62
    56
370
    18
100
AcDbLine
 10
160.651830933283
 20
92.794529584165
 30
0.0
 11
160.651830933283
 21
90.485127118344
 31
0.0
  0
LINE
  5
1B7
330
1A9
100
AcDbEntity
  8
Stammform
  6
AUSGEZOGEN
 62
    56
370
    18
100
AcDbLine
 10
162.651830933283
 20
93.94922318768
 30
0.0
 11
160.651830933283
 21
92.794529584165
 31
0.0
  0
LINE
  5
1B8
330
1A9
100
AcDbEntity
  8
Layer0
  6
AUSGEZOGEN
 62
     9
370
    18
100
AcDbLine
 10
162.651830933283
 20
93.94922318768
 30
0.0
 11
160.651830933283
 21
95.103932049985
 31
0.0
  0
LINE
  5
1B9
330
1A9
100
AcDbEntity
  8
Layer0
  6
AUSGEZOGEN
 62
     9
370
    18
100
AcDbLine
 10
160.651830933283
 20
95.103932049985
 30
0.0
 11
158.651830933283
 21
93.94922318768
 31
0.0
  0
LINE
  5
1BA
330
1A9
100
AcDbEntity
  8
Layer0
  6
AUSGEZOGEN
 62
     9
370
    18
100
AcDbLine
 10
158.651830933283
 20
93.94922318768
 30
0.0
 11
158.651830933283
 21
91.639835980649
 31
0.0
  0
LINE
  5
1BB
330
1A9
100
AcDbEntity
  8
Layer0
  6
AUSGEZOGEN
 62
     9
370
    18
100
AcDbLine
 10
158.651830933283
 20
91.639835980649
 30
0.0
 11
160.651830933283
 21
90.485127118344
 31
0.0
  0
LINE
  5
1BC
330
1A9
100
AcDbEntity
  8
Layer0
  6
AUSGEZOGEN
 62
     9
370
    18
100
AcDbLine
 10
160.651830933283
 20
90.485127118344
 30
0.0
 11
162.651830933283
 21
91.639835980649
 31
0.0
  0
LINE
  5
1BD
330
1A9
100
AcDbEntity
  8
Layer0
  6
AUSGEZOGEN
 62
     9
370
    18
100
AcDbLine
 10
162.651830933283
 20
91.639835980649
 30
0.0
 11
162.651830933283
 21
93.94922318768
 31
0.0
  0
LINE
  5
1BE
330
1A9
100
AcDbEntity
  8
Layer0
  6
AUSGEZOGEN
 62
     9
370
    18
100
AcDbLine
 10
170.651830933283
 20
93.94922318768
 30
0.0
 11
168.651830933283
 21
95.103932049985
 31
0.0
  0
LINE
  5
1BF
330
1A9
100
AcDbEntity
  8
Layer0
  6
AUSGEZOGEN
 62
     9
370
    18
100
AcDbLine
 10
168.651830933283
 20
95.103932049985
 30
0.0
 11
166.651830933283
 21
93.94922318768
 31
0.0
  0
LINE
  5
1C0
330
1A9
100
AcDbEntity
  8
Layer0
  6
AUSGEZOGEN
 62
     9
370
    18
100
AcDbLine
 10
166.651830933283
 20
93.94922318768
 30
0.0
 11
166.651830933283
 21
91.639835980649
 31
0.0
  0
LINE
  5
1C1
330
1A9
100
AcDbEntity
  8
Layer0
  6
AUSGEZOGEN
 62
     9
370
    18
100
AcDbLine
 10
166.651830933283
 20
91.639835980649
 30
0.0
 11
168.651830933283
 21
90.485127118344
 31
0.0
  0
LINE
  5
1C2
330
1A9
100
AcDbEntity
  8
Layer0
  6
AUSGEZOGEN
 62
     9
370
    18
100
AcDbLine
 10
168.651830933283
 20
90.485127118344
 30
0.0
 11
170.651830933283
 21
91.639835980649
 31
0.0
  0
LINE
  5
1C3
330
1A9
100
AcDbEntity
  8
Stammform
  6
AUSGEZOGEN
 62
    56
370
    18
100
AcDbLine
 10
170.651830933283
 20
93.94922318768
 30
0.0
 11
168.651830933283
 21
92.794529584165
 31
0.0
  0
LINE
  5
1C4
330
1A9
100
AcDbEntity
  8
Stammform
  6
AUSGEZOGEN
 62
    56
370
    18
100
AcDbLine
 10
168.651830933283
 20
92.794529584165
 30
0.0
 11
168.651830933283
 21
90.485127118344
 31
0.0
  0
LINE
  5
1C5
330
1A9
100
AcDbEntity
  8
Stammform
  6
AUSGEZOGEN
 62
    56
370
    18
100
AcDbLine
 10
168.651830933283
 20
92.794529584165
 30
0.0
 11
166.651830933283
 21
93.94922318768
 31
0.0
  0
LINE
  5
1C6
330
1A9
100
AcDbEntity
  8
Stammform
  6
AUSGEZOGEN
 62
    56
370
    18
100
AcDbLine
 10
164.651830933283
 20
92.794529584165
 30
0.0
 11
162.651830933283
 21
93.94922318768
 31
0.0
  0
LINE
  5
1C7
330
1A9
100
AcDbEntity
  8
Stammform
  6
AUSGEZOGEN
 62
    56
370
    18
100
AcDbLine
 10
164.651830933283
 20
92.794529584165
 30
0.0
 11
164.651830933283
 21
90.485127118344
 31
0.0
  0
LINE
  5
1C8
330
1A9
100
AcDbEntity
  8
Stammform
  6
AUSGEZOGEN
 62
    56
370
    18
100
AcDbLine
 10
166.651830933283
 20
93.94922318768
 30
0.0
 11
164.651830933283
 21
92.794529584165
 31
0.0
  0
LINE
  5
1C9
330
1A9
100
AcDbEntity
  8
Layer0
  6
AUSGEZOGEN
 62
     9
370
    18
100
AcDbLine
 10
166.651830933283
 20
93.94922318768
 30
0.0
 11
164.651830933283
 21
95.103932049985
 31
0.0
  0
LINE
  5
1CA
330
1A9
100
AcDbEntity
  8
Layer0
  6
AUSGEZOGEN
 62
     9
370
    18
100
AcDbLine
 10
164.651830933283
 20
95.103932049985
 30
0.0
 11
162.651830933283
 21
93.94922318768
 31
0.0
  0
LINE
  5
1CB
330
1A9
100
AcDbEntity
  8
Layer0
  6
AUSGEZOGEN
 62
     9
370
    18
100
AcDbLine
 10
162.651830933283
 20
93.94922318768
 30
0.0
 11
162.651830933283
 21
91.639835980649
 31
0.0
  0
LINE
  5
1CC
330
1A9
100
AcDbEntity
  8
Layer0
  6
AUSGEZOGEN
 62
     9
370
    18
100
AcDbLine
 10
162.651830933283
 20
91.639835980649
 30
0.0
 11
164.651830933283
 21
90.485127118344
 31
0.0
  0
LINE
  5
1CD
330
1A9
100
AcDbEntity
  8
Layer0
  6
AUSGEZOGEN
 62
     9
370
    18
100
AcDbLine
 10
164.651830933283
 20
90.485127118344
 30
0.0
 11
166.651830933283
 21
91.639835980649
 31
0.0
  0
LINE
  5
1CE
330
1A9
100
AcDbEntity
  8
Layer0
  6
AUSGEZOGEN
 62
     9
370
    18
100
AcDbLine
 10
166.651830933283
 20
91.639835980649
 30
0.0
 11
166.651830933283
 21
93.94922318768
 31
0.0
  0
LINE
  5
1CF
330
1A9
100
AcDbEntity
  8
Layer0
  6
AUSGEZOGEN
 62
     9
370
    18
100
AcDbLine
 10
150.651830933283
 20
93.94922318768
 30
0.0
 11
148.651830933283
 21
95.103932049985
 31
0.0
  0
LINE
  5
1D0
330
1A9
100
AcDbEntity
  8
Layer0
  6
AUSGEZOGEN
 62
     9
370
    18
100
AcDbLine
 10
148.651830933283
 20
95.103932049985
 30
0.0
 11
146.651830933283
 21
93.94922318768
 31
0.0
  0
LINE
  5
1D1
330
1A9
100
AcDbEntity
  8
Layer0
  6
AUSGEZOGEN
 62
     9
370
    18
100
AcDbLine
 10
146.651830933283
 20
93.94922318768
 30
0.0
 11
146.651830933283
 21
91.639835980649
 31
0.0
  0
LINE
  5
1D2
330
1A9
100
AcDbEntity
  8
Layer0
  6
AUSGEZOGEN
 62
     9
370
    18
100
AcDbLine
 10
146.651830933283
 20
91.639835980649
 30
0.0
 11
148.651830933283
 21
90.485127118344
 31
0.0
  0
LINE
  5
1D3
330
1A9
100
AcDbEntity
  8
Layer0
  6
AUSGEZOGEN
 62
     9
370
    18
100
AcDbLine
 10
148.651830933283
 20
90.485127118344
 30
0.0
 11
150.651830933283
 21
91.639835980649
 31
0.0
  0
LINE
  5
1D4
330
1A9
100
AcDbEntity
  8
Layer0
  6
AUSGEZOGEN
 62
     9
370
    18
100
AcDbLine
 10
150.651830933283
 20
91.639835980649
 30
0.0
 11
150.651830933283
 21
93.94922318768
 31
0.0
  0
LINE
  5
1D5
330
1A9
100
AcDbEntity
  8
Stammform
  6
AUSGEZOGEN
 62
    56
370
    18
100
AcDbLine
 10
150.651830933283
 20
93.94922318768
 30
0.0
 11
148.651830933283
 21
92.794529584165
 31
0.0
  0
LINE
  5
1D6
330
1A9
100
AcDbEntity
  8
Stammform
  6
AUSGEZOGEN
 62
    56
370
    18
100
AcDbLine
 10
148.651830933283
 20
92.794529584165
 30
0.0
 11
148.651830933283
 21
90.485127118344
 31
0.0
  0
LINE
  5
1D7
330
1A9
100
AcDbEntity
  8
Stammform
  6
AUSGEZOGEN
 62
    56
370
    18
100
AcDbLine
 10
148.651830933283
 20
92.794529584165
 30
0.0
 11
146.651830933283
 21
93.94922318768
 31
0.0
  0
LINE
  5
1D8
330
1A9
100
AcDbEntity
  8
Stammform
  6
AUSGEZOGEN
 62
    56
370
    18
100
AcDbLine
 10
152.651830933283
 20
92.794529584165
 30
0.0
 11
150.651830933283
 21
93.94922318768
 31
0.0
  0
LINE
  5
1D9
330
1A9
100
AcDbEntity
  8
Stammform
  6
AUSGEZOGEN
 62
    56
370
    18
100
AcDbLine
 10
152.651830933283
 20
92.794529584165
 30
0.0
 11
152.651830933283
 21
90.485127118344
 31
0.0
  0
LINE
  5
1DA
330
1A9
100
AcDbEntity
  8
Stammform
  6
AUSGEZOGEN
 62
    56
370
    18
100
AcDbLine
 10
154.651830933283
 20
93.94922318768
 30
0.0
 11
152.651830933283
 21
92.794529584165
 31
0.0
  0
LINE
  5
1DB
330
1A9
100
AcDbEntity
  8
Layer0
  6
AUSGEZOGEN
 62
     9
370
    18
100
AcDbLine
 10
154.651830933283
 20
93.94922318768
 30
0.0
 11
152.651830933283
 21
95.103932049985
 31
0.0
  0
LINE
  5
1DC
330
1A9
100
AcDbEntity
  8
Layer0
  6
AUSGEZOGEN
 62
     9
370
    18
100
AcDbLine
 10
152.651830933283
 20
95.103932049985
 30
0.0
 11
150.651830933283
 21
93.94922318768
 31
0.0
  0
LINE
  5
1DD
330
1A9
100
AcDbEntity
  8
Layer0
  6
AUSGEZOGEN
 62
     9
370
    18
100
AcDbLine
 10
150.651830933283
 20
93.94922318768
 30
0.0
 11
150.651830933283
 21
91.639835980649
 31
0.0
  0
LINE
  5
1DE
330
1A9
100
AcDbEntity
  8
Layer0
  6
AUSGEZOGEN
 62
     9
370
    18
100
AcDbLine
 10
150.651830933283
 20
91.639835980649
 30
0.0
 11
152.651830933283
 21
90.485127118344
 31
0.0
  0
LINE
  5
1DF
330
1A9
100
AcDbEntity
  8
Layer0
  6
AUSGEZOGEN
 62
     9
370
    18
100
AcDbLine
 10
152.651830933283
 20
90.485127118344
 30
0.0
 11
154.651830933283
 21
91.639835980649
 31
0.0
  0
LINE
  5
1E0
330
1A9
100
AcDbEntity
  8
Layer0
  6
AUSGEZOGEN
 62
     9
370
    18
100
AcDbLine
 10
154.651830933283
 20
91.639835980649
 30
0.0
 11
154.651830933283
 21
93.94922318768
 31
0.0
  0
LINE
  5
1E1
330
1A9
100
AcDbEntity
  8
Layer0
  6
AUSGEZOGEN
 62
     9
370
    18
100
AcDbLine
 10
142.651830933283
 20
93.94922318768
 30
0.0
 11
140.651830933283
 21
95.103932049985
 31
0.0
  0
LINE
  5
1E2
330
1A9
100
AcDbEntity
  8
Layer0
  6
AUSGEZOGEN
 62
     9
370
    18
100
AcDbLine
 10
140.651830933283
 20
95.103932049985
 30
0.0
 11
138.651830933283
 21
93.94922318768
 31
0.0
  0
LINE
  5
1E3
330
1A9
100
AcDbEntity
  8
Layer0
  6
AUSGEZOGEN
 62
     9
370
    18
100
AcDbLine
 10
138.651830933283
 20
93.94922318768
 30
0.0
 11
138.651830933283
 21
91.639835980649
 31
0.0
  0
LINE
  5
1E4
330
1A9
100
AcDbEntity
  8
Layer0
  6
AUSGEZOGEN
 62
     9
370
    18
100
AcDbLine
 10
138.651830933283
 20
91.639835980649
 30
0.0
 11
140.651830933283
 21
90.485127118344
 31
0.0
  0
LINE
  5
1E5
330
1A9
100
AcDbEntity
  8
Layer0
  6
AUSGEZOGEN
 62
     9
370
    18
100
AcDbLine
 10
140.651830933283
 20
90.485127118344
 30
0.0
 11
142.651830933283
 21
91.639835980649
 31
0.0
  0
LINE
  5
1E6
330
1A9
100
AcDbEntity
  8
Layer0
  6
AUSGEZOGEN
 62
     9
370
    18
100
AcDbLine
 10
142.651830933283
 20
91.639835980649
 30
0.0
 11
142.651830933283
 21
93.94922318768
 31
0.0
  0
LINE
  5
1E7
330
1A9
100
AcDbEntity
  8
Stammform
  6
AUSGEZOGEN
 62
    56
370
    18
100
AcDbLine
 10
142.651830933283
 20
93.94922318768
 30
0.0
 11
140.651830933283
 21
92.794529584165
 31
0.0
  0
LINE
  5
1E8
330
1A9
100
AcDbEntity
  8
Stammform
  6
AUSGEZOGEN
 62
    56
370
    18
100
AcDbLine
 10
140.651830933283
 20
92.794529584165
 30
0.0
 11
140.651830933283
 21
90.485127118344
 31
0.0
  0
LINE
  5
1E9
330
1A9
100
AcDbEntity
  8
Stammform
  6
AUSGEZOGEN
 62
    56
370
    18
100
AcDbLine
 10
140.651830933283
 20
92.794529584165
 30
0.0
 11
138.651830933283
 21
93.94922318768
 31
0.0
  0
LINE
  5
1EA
330
1A9
100
AcDbEntity
  8
Stammform
  6
AUSGEZOGEN
 62
    56
370
    18
100
AcDbLine
 10
144.651830933283
 20
92.794529584165
 30
0.0
 11
142.651830933283
 21
93.94922318768
 31
0.0
  0
LINE
  5
1EB
330
1A9
100
AcDbEntity
  8
Stammform
  6
AUSGEZOGEN
 62
    56
370
    18
100
AcDbLine
 10
144.651830933283
 20
92.794529584165
 30
0.0
 11
144.651830933283
 21
90.485127118344
 31
0.0
  0
LINE
  5
1EC
330
1A9
100
AcDbEntity
  8
Stammform
  6
AUSGEZOGEN
 62
    56
370
    18
100
AcDbLine
 10
146.651830933283
 20
93.94922318768
 30
0.0
 11
144.651830933283
 21
92.794529584165
 31
0.0
  0
LINE
  5
1ED
330
1A9
100
AcDbEntity
  8
Layer0
  6
AUSGEZOGEN
 62
     9
370
    18
100
AcDbLine
 10
146.651830933283
 20
93.94922318768
 30
0.0
 11
144.651830933283
 21
95.103932049985
 31
0.0
  0
LINE
  5
1EE
330
1A9
100
AcDbEntity
  8
Layer0
  6
AUSGEZOGEN
 62
     9
370
    18
100
AcDbLine
 10
144.651830933283
 20
95.103932049985
 30
0.0
 11
142.651830933283
 21
93.94922318768
 31
0.0
  0
LINE
  5
1EF
330
1A9
100
AcDbEntity
  8
Layer0
  6
AUSGEZOGEN
 62
     9
370
    18
100
AcDbLine
 10
142.651830933283
 20
93.94922318768
 30
0.0
 11
142.651830933283
 21
91.639835980649
 31
0.0
  0
LINE
  5
1F0
330
1A9
100
AcDbEntity
  8
Layer0
  6
AUSGEZOGEN
 62
     9
370
    18
100
AcDbLine
 10
142.651830933283
 20
91.639835980649
 30
0.0
 11
144.651830933283
 21
90.485127118344
 31
0.0
  0
LINE
  5
1F1
330
1A9
100
AcDbEntity
  8
Layer0
  6
AUSGEZOGEN
 62
     9
370
    18
100
AcDbLine
 10
144.651830933283
 20
90.485127118344
 30
0.0
 11
146.651830933283
 21
91.639835980649
 31
0.0
  0
LINE
  5
1F2
330
1A9
100
AcDbEntity
  8
Layer0
  6
AUSGEZOGEN
 62
     9
370
    18
100
AcDbLine
 10
146.651830933283
 20
91.639835980649
 30
0.0
 11
146.651830933283
 21
93.94922318768
 31
0.0
  0
LINE
  5
1F3
330
1A9
100
AcDbEntity
  8
Stammform
  6
AUSGEZOGEN
 62
    56
370
    18
100
AcDbLine
 10
136.651830933283
 20
92.794529584165
 30
0.0
 11
134.651830933283
 21
93.94922318768
 31
0.0
  0
LINE
  5
1F4
330
1A9
100
AcDbEntity
  8
Stammform
  6
AUSGEZOGEN
 62
    56
370
    18
100
AcDbLine
 10
136.651830933283
 20
92.794529584165
 30
0.0
 11
136.651830933283
 21
90.485127118344
 31
0.0
  0
LINE
  5
1F5
330
1A9
100
AcDbEntity
  8
Stammform
  6
AUSGEZOGEN
 62
    56
370
    18
100
AcDbLine
 10
138.651830933283
 20
93.94922318768
 30
0.0
 11
136.651830933283
 21
92.794529584165
 31
0.0
  0
LINE
  5
1F6
330
1A9
100
AcDbEntity
  8
Layer0
  6
AUSGEZOGEN
 62
     9
370
    18
100
AcDbLine
 10
138.651830933283
 20
93.94922318768
 30
0.0
 11
136.651830933283
 21
95.103932049985
 31
0.0
  0
LINE
  5
1F7
330
1A9
100
AcDbEntity
  8
Layer0
  6
AUSGEZOGEN
 62
     9
370
    18
100
AcDbLine
 10
136.651830933283
 20
95.103932049985
 30
0.0
 11
134.651830933283
 21
93.94922318768
 31
0.0
  0
LINE
  5
1F8
330
1A9
100
AcDbEntity
  8
Layer0
  6
AUSGEZOGEN
 62
     9
370
    18
100
AcDbLine
 10
134.651830933283
 20
91.639835980649
 30
0.0
 11
136.651830933283
 21
90.485127118344
 31
0.0
  0
LINE
  5
1F9
330
1A9
100
AcDbEntity
  8
Layer0
  6
AUSGEZOGEN
 62
     9
370
    18
100
AcDbLine
 10
136.651830933283
 20
90.485127118344
 30
0.0
 11
138.651830933283
 21
91.639835980649
 31
0.0
  0
LINE
  5
1FA
330
1A9
100
AcDbEntity
  8
Layer0
  6
AUSGEZOGEN
 62
     9
370
    18
100
AcDbLine
 10
138.651830933283
 20
91.639835980649
 30
0.0
 11
138.651830933283
 21
93.94922318768
 31
0.0
  0
LINE
  5
1FB
330
1A9
100
AcDbEntity
  8
Layer0
  6
AUSGEZOGEN
 62
     9
370
    18
100
AcDbLine
 10
134.651830933283
 20
93.94922318768
 30
0.0
 11
136.651830933283
 21
95.103932049985
 31
0.0
  0
LINE
  5
1FC
330
1A9
100
AcDbEntity
  8
Layer0
  6
AUSGEZOGEN
 62
     9
370
    18
100
AcDbLine
 10
136.651830933283
 20
95.103932049985
 30
0.0
 11
136.651830933283
 21
97.413334515805
 31
0.0
  0
LINE
  5
1FD
330
1A9
100
AcDbEntity
  8
Stammform
  6
AUSGEZOGEN
 62
    56
370
    18
100
AcDbLine
 10
136.651830933283
 20
97.413334515805
 30
0.0
 11
134.651830933283
 21
96.258625653501
 31
0.0
  0
LINE
  5
1FE
330
1A9
100
AcDbEntity
  8
Layer0
  6
AUSGEZOGEN
 62
     9
370
    18
100
AcDbLine
 10
140.651830933283
 20
97.413334515805
 30
0.0
 11
140.651830933283
 21
95.103932049985
 31
0.0
  0
LINE
  5
1FF
330
1A9
100
AcDbEntity
  8
Layer0
  6
AUSGEZOGEN
 62
     9
370
    18
100
AcDbLine
 10
140.651830933283
 20
95.103932049985
 30
0.0
 11
142.651830933283
 21
93.94922318768
 31
0.0
  0
LINE
  5
200
330
1A9
100
AcDbEntity
  8
Layer0
  6
AUSGEZOGEN
 62
     9
370
    18
100
AcDbLine
 10
142.651830933283
 20
93.94922318768
 30
0.0
 11
144.651830933283
 21
95.103932049985
 31
0.0
  0
LINE
  5
201
330
1A9
100
AcDbEntity
  8
Layer0
  6
AUSGEZOGEN
 62
     9
370
    18
100
AcDbLine
 10
144.651830933283
 20
95.103932049985
 30
0.0
 11
144.651830933283
 21
97.413334515805
 31
0.0
  0
LINE
  5
202
330
1A9
100
AcDbEntity
  8
Stammform
  6
AUSGEZOGEN
 62
    56
370
    18
100
AcDbLine
 10
144.651830933283
 20
97.413334515805
 30
0.0
 11
142.651830933283
 21
96.258625653501
 31
0.0
  0
LINE
  5
203
330
1A9
100
AcDbEntity
  8
Stammform
  6
AUSGEZOGEN
 62
    56
370
    18
100
AcDbLine
 10
142.651830933283
 20
96.258625653501
 30
0.0
 11
142.651830933283
 21
93.94922318768
 31
0.0
  0
LINE
  5
204
330
1A9
100
AcDbEntity
  8
Stammform
  6
AUSGEZOGEN
 62
    56
370
    18
100
AcDbLine
 10
142.651830933283
 20
96.258625653501
 30
0.0
 11
140.651830933283
 21
97.413334515805
 31
0.0
  0
LINE
  5
205
330
1A9
100
AcDbEntity
  8
Stammform
  6
AUSGEZOGEN
 62
    56
370
    18
100
AcDbLine
 10
138.651830933283
 20
96.258625653501
 30
0.0
 11
136.651830933283
 21
97.413334515805
 31
0.0
  0
LINE
  5
206
330
1A9
100
AcDbEntity
  8
Stammform
  6
AUSGEZOGEN
 62
    56
370
    18
100
AcDbLine
 10
138.651830933283
 20
96.258625653501
 30
0.0
 11
138.651830933283
 21
93.94922318768
 31
0.0
  0
LINE
  5
207
330
1A9
100
AcDbEntity
  8
Stammform
  6
AUSGEZOGEN
 62
    56
370
    18
100
AcDbLine
 10
140.651830933283
 20
97.413334515805
 30
0.0
 11
138.651830933283
 21
96.258625653501
 31
0.0
  0
LINE
  5
208
330
1A9
100
AcDbEntity
  8
Layer0
  6
AUSGEZOGEN
 62
     9
370
    18
100
AcDbLine
 10
136.651830933283
 20
97.413334515805
 30
0.0
 11
136.651830933283
 21
95.103932049985
 31
0.0
  0
LINE
  5
209
330
1A9
100
AcDbEntity
  8
Layer0
  6
AUSGEZOGEN
 62
     9
370
    18
100
AcDbLine
 10
136.651830933283
 20
95.103932049985
 30
0.0
 11
138.651830933283
 21
93.94922318768
 31
0.0
  0
LINE
  5
20A
330
1A9
100
AcDbEntity
  8
Layer0
  6
AUSGEZOGEN
 62
     9
370
    18
100
AcDbLine
 10
138.651830933283
 20
93.94922318768
 30
0.0
 11
140.651830933283
 21
95.103932049985
 31
0.0
  0
LINE
  5
20B
330
1A9
100
AcDbEntity
  8
Layer0
  6
AUSGEZOGEN
 62
     9
370
    18
100
AcDbLine
 10
140.651830933283
 20
95.103932049985
 30
0.0
 11
140.651830933283
 21
97.413334515805
 31
0.0
  0
LINE
  5
20C
330
1A9
100
AcDbEntity
  8
Layer0
  6
AUSGEZOGEN
 62
     9
370
    18
100
AcDbLine
 10
148.651830933283
 20
97.413334515805
 30
0.0
 11
148.651830933283
 21
95.103932049985
 31
0.0
  0
LINE
  5
20D
330
1A9
100
AcDbEntity
  8
Layer0
  6
AUSGEZOGEN
 62
     9
370
    18
100
AcDbLine
 10
148.651830933283
 20
95.103932049985
 30
0.0
 11
150.651830933283
 21
93.94922318768
 31
0.0
  0
LINE
  5
20E
330
1A9
100
AcDbEntity
  8
Layer0
  6
AUSGEZOGEN
 62
     9
370
    18
100
AcDbLine
 10
150.651830933283
 20
93.94922318768
 30
0.0
 11
152.651830933283
 21
95.103932049985
 31
0.0
  0
LINE
  5
20F
330
1A9
100
AcDbEntity
  8
Layer0
  6
AUSGEZOGEN
 62
     9
370
    18
100
AcDbLine
 10
152.651830933283
 20
95.103932049985
 30
0.0
 11
152.651830933283
 21
97.413334515805
 31
0.0
  0
LINE
  5
210
330
1A9
100
AcDbEntity
  8
Stammform
  6
AUSGEZOGEN
 62
    56
370
    18
100
AcDbLine
 10
152.651830933283
 20
97.413334515805
 30
0.0
 11
150.651830933283
 21
96.258625653501
 31
0.0
  0
LINE
  5
211
330
1A9
100
AcDbEntity
  8
Stammform
  6
AUSGEZOGEN
 62
    56
370
    18
100
AcDbLine
 10
150.651830933283
 20
96.258625653501
 30
0.0
 11
150.651830933283
 21
93.94922318768
 31
0.0
  0
LINE
  5
212
330
1A9
100
AcDbEntity
  8
Stammform
  6
AUSGEZOGEN
 62
    56
370
    18
100
AcDbLine
 10
150.651830933283
 20
96.258625653501
 30
0.0
 11
148.651830933283
 21
97.413334515805
 31
0.0
  0
LINE
  5
213
330
1A9
100
AcDbEntity
  8
Stammform
  6
AUSGEZOGEN
 62
    56
370
    18
100
AcDbLine
 10
146.651830933283
 20
96.258625653501
 30
0.0
 11
144.651830933283
 21
97.413334515805
 31
0.0
  0
LINE
  5
214
330
1A9
100
AcDbEntity
  8
Stammform
  6
AUSGEZOGEN
 62
    56
370
    18
100
AcDbLine
 10
146.651830933283
 20
96.258625653501
 30
0.0
 11
146.651830933283
 21
93.94922318768
 31
0.0
  0
LINE
  5
215
330
1A9
100
AcDbEntity
  8
Stammform
  6
AUSGEZOGEN
 62
    56
370
    18
100
AcDbLine
 10
148.651830933283
 20
97.413334515805
 30
0.0
 11
146.651830933283
 21
96.258625653501
 31
0.0
  0
LINE
  5
216
330
1A9
100
AcDbEntity
  8
Layer0
  6
AUSGEZOGEN
 62
     9
370
    18
100
AcDbLine
 10
144.651830933283
 20
97.413334515805
 30
0.0
 11
144.651830933283
 21
95.103932049985
 31
0.0
  0
LINE
  5
217
330
1A9
100
AcDbEntity
  8
Layer0
  6
AUSGEZOGEN
 62
     9
370
    18
100
AcDbLine
 10
144.651830933283
 20
95.103932049985
 30
0.0
 11
146.651830933283
 21
93.94922318768
 31
0.0
  0
LINE
  5
218
330
1A9
100
AcDbEntity
  8
Layer0
  6
AUSGEZOGEN
 62
     9
370
    18
100
AcDbLine
 10
146.651830933283
 20
93.94922318768
 30
0.0
 11
148.651830933283
 21
95.103932049985
 31
0.0
  0
LINE
  5
219
330
1A9
100
AcDbEntity
  8
Layer0
  6
AUSGEZOGEN
 62
     9
370
    18
100
AcDbLine
 10
148.651830933283
 20
95.103932049985
 30
0.0
 11
148.651830933283
 21
97.413334515805
 31
0.0
  0
LINE
  5
21A
330
1A9
100
AcDbEntity
  8
Layer0
  6
AUSGEZOGEN
 62
     9
370
    18
100
AcDbLine
 10
168.651830933283
 20
97.413334515805
 30
0.0
 11
168.651830933283
 21
95.103932049985
 31
0.0
  0
LINE
  5
21B
330
1A9
100
AcDbEntity
  8
Layer0
  6
AUSGEZOGEN
 62
     9
370
    18
100
AcDbLine
 10
168.651830933283
 20
95.103932049985
 30
0.0
 11
170.651830933283
 21
93.94922318768
 31
0.0
  0
LINE
  5
21C
330
1A9
100
AcDbEntity
  8
Stammform
  6
AUSGEZOGEN
 62
    56
370
    18
100
AcDbLine
 10
170.651830933283
 20
96.258625653501
 30
0.0
 11
168.651830933283
 21
97.413334515805
 31
0.0
  0
LINE
  5
21D
330
1A9
100
AcDbEntity
  8
Layer0
  6
AUSGEZOGEN
 62
     9
370
    18
100
AcDbLine
 10
160.651830933283
 20
97.413334515805
 30
0.0
 11
160.651830933283
 21
95.103932049985
 31
0.0
  0
LINE
  5
21E
330
1A9
100
AcDbEntity
  8
Layer0
  6
AUSGEZOGEN
 62
     9
370
    18
100
AcDbLine
 10
160.651830933283
 20
95.103932049985
 30
0.0
 11
162.651830933283
 21
93.94922318768
 31
0.0
  0
LINE
  5
21F
330
1A9
100
AcDbEntity
  8
Layer0
  6
AUSGEZOGEN
 62
     9
370
    18
100
AcDbLine
 10
162.651830933283
 20
93.94922318768
 30
0.0
 11
164.651830933283
 21
95.103932049985
 31
0.0
  0
LINE
  5
220
330
1A9
100
AcDbEntity
  8
Layer0
  6
AUSGEZOGEN
 62
     9
370
    18
100
AcDbLine
 10
164.651830933283
 20
95.103932049985
 30
0.0
 11
164.651830933283
 21
97.413334515805
 31
0.0
  0
LINE
  5
221
330
1A9
100
AcDbEntity
  8
Stammform
  6
AUSGEZOGEN
 62
    56
370
    18
100
AcDbLine
 10
164.651830933283
 20
97.413334515805
 30
0.0
 11
162.651830933283
 21
96.258625653501
 31
0.0
  0
LINE
  5
222
330
1A9
100
AcDbEntity
  8
Stammform
  6
AUSGEZOGEN
 62
    56
370
    18
100
AcDbLine
 10
162.651830933283
 20
96.258625653501
 30
0.0
 11
162.651830933283
 21
93.94922318768
 31
0.0
  0
LINE
  5
223
330
1A9
100
AcDbEntity
  8
Stammform
  6
AUSGEZOGEN
 62
    56
370
    18
100
AcDbLine
 10
162.651830933283
 20
96.258625653501
 30
0.0
 11
160.651830933283
 21
97.413334515805
 31
0.0
  0
LINE
  5
224
330
1A9
100
AcDbEntity
  8
Stammform
  6
AUSGEZOGEN
 62
    56
370
    18
100
AcDbLine
 10
166.651830933283
 20
96.258625653501
 30
0.0
 11
164.651830933283
 21
97.413334515805
 31
0.0
  0
LINE
  5
225
330
1A9
100
AcDbEntity
  8
Stammform
  6
AUSGEZOGEN
 62
    56
370
    18
100
AcDbLine
 10
166.651830933283
 20
96.258625653501
 30
0.0
 11
166.651830933283
 21
93.94922318768
 31
0.0
  0
LINE
  5
226
330
1A9
100
AcDbEntity
  8
Stammform
  6
AUSGEZOGEN
 62
    56
370
    18
100
AcDbLine
 10
168.651830933283
 20
97.413334515805
 30
0.0
 11
166.651830933283
 21
96.258625653501
 31
0.0
  0
LINE
  5
227
330
1A9
100
AcDbEntity
  8
Layer0
  6
AUSGEZOGEN
 62
     9
370
    18
100
AcDbLine
 10
164.651830933283
 20
97.413334515805
 30
0.0
 11
164.651830933283
 21
95.103932049985
 31
0.0
  0
LINE
  5
228
330
1A9
100
AcDbEntity
  8
Layer0
  6
AUSGEZOGEN
 62
     9
370
    18
100
AcDbLine
 10
164.651830933283
 20
95.103932049985
 30
0.0
 11
166.651830933283
 21
93.94922318768
 31
0.0
  0
LINE
  5
229
330
1A9
100
AcDbEntity
  8
Layer0
  6
AUSGEZOGEN
 62
     9
370
    18
100
AcDbLine
 10
166.651830933283
 20
93.94922318768
 30
0.0
 11
168.651830933283
 21
95.103932049985
 31
0.0
  0
LINE
  5
22A
330
1A9
100
AcDbEntity
  8
Layer0
  6
AUSGEZOGEN
 62
     9
370
    18
100
AcDbLine
 10
168.651830933283
 20
95.103932049985
 30
0.0
 11
168.651830933283
 21
97.413334515805
 31
0.0
  0
LINE
  5
22B
330
1A9
100
AcDbEntity
  8
Layer0
  6
AUSGEZOGEN
 62
     9
370
    18
100
AcDbLine
 10
156.651830933283
 20
97.413334515805
 30
0.0
 11
156.651830933283
 21
95.103932049985
 31
0.0
  0
LINE
  5
22C
330
1A9
100
AcDbEntity
  8
Layer0
  6
AUSGEZOGEN
 62
     9
370
    18
100
AcDbLine
 10
156.651830933283
 20
95.103932049985
 30
0.0
 11
158.651830933283
 21
93.94922318768
 31
0.0
  0
LINE
  5
22D
330
1A9
100
AcDbEntity
  8
Layer0
  6
AUSGEZOGEN
 62
     9
370
    18
100
AcDbLine
 10
158.651830933283
 20
93.94922318768
 30
0.0
 11
160.651830933283
 21
95.103932049985
 31
0.0
  0
LINE
  5
22E
330
1A9
100
AcDbEntity
  8
Layer0
  6
AUSGEZOGEN
 62
     9
370
    18
100
AcDbLine
 10
160.651830933283
 20
95.103932049985
 30
0.0
 11
160.651830933283
 21
97.413334515805
 31
0.0
  0
LINE
  5
22F
330
1A9
100
AcDbEntity
  8
Stammform
  6
AUSGEZOGEN
 62
    56
370
    18
100
AcDbLine
 10
160.651830933283
 20
97.413334515805
 30
0.0
 11
158.651830933283
 21
96.258625653501
 31
0.0
  0
LINE
  5
230
330
1A9
100
AcDbEntity
  8
Stammform
  6
AUSGEZOGEN
 62
    56
370
    18
100
AcDbLine
 10
158.651830933283
 20
96.258625653501
 30
0.0
 11
158.651830933283
 21
93.94922318768
 31
0.0
  0
LINE
  5
231
330
1A9
100
AcDbEntity
  8
Stammform
  6
AUSGEZOGEN
 62
    56
370
    18
100
AcDbLine
 10
158.651830933283
 20
96.258625653501
 30
0.0
 11
156.651830933283
 21
97.413334515805
 31
0.0
  0
LINE
  5
232
330
1A9
100
AcDbEntity
  8
Stammform
  6
AUSGEZOGEN
 62
    56
370
    18
100
AcDbLine
 10
154.651830933283
 20
96.258625653501
 30
0.0
 11
152.651830933283
 21
97.413334515805
 31
0.0
  0
LINE
  5
233
330
1A9
100
AcDbEntity
  8
Stammform
  6
AUSGEZOGEN
 62
    56
370
    18
100
AcDbLine
 10
154.651830933283
 20
96.258625653501
 30
0.0
 11
154.651830933283
 21
93.94922318768
 31
0.0
  0
LINE
  5
234
330
1A9
100
AcDbEntity
  8
Stammform
  6
AUSGEZOGEN
 62
    56
370
    18
100
AcDbLine
 10
156.651830933283
 20
97.413334515805
 30
0.0
 11
154.651830933283
 21
96.258625653501
 31
0.0
  0
LINE
  5
235
330
1A9
100
AcDbEntity
  8
Layer0
  6
AUSGEZOGEN
 62
     9
370
    18
100
AcDbLine
 10
152.651830933283
 20
97.413334515805
 30
0.0
 11
152.651830933283
 21
95.103932049985
 31
0.0
  0
LINE
  5
236
330
1A9
100
AcDbEntity
  8
Layer0
  6
AUSGEZOGEN
 62
     9
370
    18
100
AcDbLine
 10
152.651830933283
 20
95.103932049985
 30
0.0
 11
154.651830933283
 21
93.94922318768
 31
0.0
  0
LINE
  5
237
330
1A9
100
AcDbEntity
  8
Layer0
  6
AUSGEZOGEN
 62
     9
370
    18
100
AcDbLine
 10
154.651830933283
 20
93.94922318768
 30
0.0
 11
156.651830933283
 21
95.103932049985
 31
0.0
  0
LINE
  5
238
330
1A9
100
AcDbEntity
  8
Layer0
  6
AUSGEZOGEN
 62
     9
370
    18
100
AcDbLine
 10
156.651830933283
 20
95.103932049985
 30
0.0
 11
156.651830933283
 21
97.413334515805
 31
0.0
  0
LINE
  5
239
330
1A9
100
AcDbEntity
  8
Layer0
  6
AUSGEZOGEN
 62
     9
370
    18
100
AcDbLine
 10
158.651830933283
 20
87.021031049008
 30
0.0
 11
156.651830933283
 21
88.175724652524
 31
0.0
  0
LINE
  5
23A
330
1A9
100
AcDbEntity
  8
Layer0
  6
AUSGEZOGEN
 62
     9
370
    18
100
AcDbLine
 10
156.651830933283
 20
88.175724652524
 30
0.0
 11
154.651830933283
 21
87.021031049008
 31
0.0
  0
LINE
  5
23B
330
1A9
100
AcDbEntity
  8
Layer0
  6
AUSGEZOGEN
 62
     9
370
    18
100
AcDbLine
 10
154.651830933283
 20
87.021031049008
 30
0.0
 11
154.651830933283
 21
84.711628583188
 31
0.0
  0
LINE
  5
23C
330
1A9
100
AcDbEntity
  8
Layer0
  6
AUSGEZOGEN
 62
     9
370
    18
100
AcDbLine
 10
154.651830933283
 20
84.711628583188
 30
0.0
 11
156.651830933283
 21
83.556919720883
 31
0.0
  0
LINE
  5
23D
330
1A9
100
AcDbEntity
  8
Layer0
  6
AUSGEZOGEN
 62
     9
370
    18
100
AcDbLine
 10
156.651830933283
 20
83.556919720883
 30
0.0
 11
158.651830933283
 21
84.711628583188
 31
0.0
  0
LINE
  5
23E
330
1A9
100
AcDbEntity
  8
Layer0
  6
AUSGEZOGEN
 62
     9
370
    18
100
AcDbLine
 10
158.651830933283
 20
84.711628583188
 30
0.0
 11
158.651830933283
 21
87.021031049008
 31
0.0
  0
LINE
  5
23F
330
1A9
100
AcDbEntity
  8
Stammform
  6
AUSGEZOGEN
 62
    56
370
    18
100
AcDbLine
 10
158.651830933283
 20
87.021031049008
 30
0.0
 11
156.651830933283
 21
85.866322186704
 31
0.0
  0
LINE
  5
240
330
1A9
100
AcDbEntity
  8
Stammform
  6
AUSGEZOGEN
 62
    56
370
    18
100
AcDbLine
 10
156.651830933283
 20
85.866322186704
 30
0.0
 11
156.651830933283
 21
83.556919720883
 31
0.0
  0
LINE
  5
241
330
1A9
100
AcDbEntity
  8
Stammform
  6
AUSGEZOGEN
 62
    56
370
    18
100
AcDbLine
 10
156.651830933283
 20
85.866322186704
 30
0.0
 11
154.651830933283
 21
87.021031049008
 31
0.0
  0
LINE
  5
242
330
1A9
100
AcDbEntity
  8
Stammform
  6
AUSGEZOGEN
 62
    56
370
    18
100
AcDbLine
 10
160.651830933283
 20
85.866322186704
 30
0.0
 11
158.651830933283
 21
87.021031049008
 31
0.0
  0
LINE
  5
243
330
1A9
100
AcDbEntity
  8
Stammform
  6
AUSGEZOGEN
 62
    56
370
    18
100
AcDbLine
 10
160.651830933283
 20
85.866322186704
 30
0.0
 11
160.651830933283
 21
83.556919720883
 31
0.0
  0
LINE
  5
244
330
1A9
100
AcDbEntity
  8
Stammform
  6
AUSGEZOGEN
 62
    56
370
    18
100
AcDbLine
 10
162.651830933283
 20
87.021031049008
 30
0.0
 11
160.651830933283
 21
85.866322186704
 31
0.0
  0
LINE
  5
245
330
1A9
100
AcDbEntity
  8
Layer0
  6
AUSGEZOGEN
 62
     9
370
    18
100
AcDbLine
 10
162.651830933283
 20
87.021031049008
 30
0.0
 11
160.651830933283
 21
88.175724652524
 31
0.0
  0
LINE
  5
246
330
1A9
100
AcDbEntity
  8
Layer0
  6
AUSGEZOGEN
 62
     9
370
    18
100
AcDbLine
 10
160.651830933283
 20
88.175724652524
 30
0.0
 11
158.651830933283
 21
87.021031049008
 31
0.0
  0
LINE
  5
247
330
1A9
100
AcDbEntity
  8
Layer0
  6
AUSGEZOGEN
 62
     9
370
    18
100
AcDbLine
 10
158.651830933283
 20
87.021031049008
 30
0.0
 11
158.651830933283
 21
84.711628583188
 31
0.0
  0
LINE
  5
248
330
1A9
100
AcDbEntity
  8
Layer0
  6
AUSGEZOGEN
 62
     9
370
    18
100
AcDbLine
 10
158.651830933283
 20
84.711628583188
 30
0.0
 11
160.651830933283
 21
83.556919720883
 31
0.0
  0
LINE
  5
249
330
1A9
100
AcDbEntity
  8
Layer0
  6
AUSGEZOGEN
 62
     9
370
    18
100
AcDbLine
 10
160.651830933283
 20
83.556919720883
 30
0.0
 11
162.651830933283
 21
84.711628583188
 31
0.0
  0
LINE
  5
24A
330
1A9
100
AcDbEntity
  8
Layer0
  6
AUSGEZOGEN
 62
     9
370
    18
100
AcDbLine
 10
162.651830933283
 20
84.711628583188
 30
0.0
 11
162.651830933283
 21
87.021031049008
 31
0.0
  0
LINE
  5
24B
330
1A9
100
AcDbEntity
  8
Layer0
  6
AUSGEZOGEN
 62
     9
370
    18
100
AcDbLine
 10
170.651830933283
 20
87.021031049008
 30
0.0
 11
168.651830933283
 21
88.175724652524
 31
0.0
  0
LINE
  5
24C
330
1A9
100
AcDbEntity
  8
Layer0
  6
AUSGEZOGEN
 62
     9
370
    18
100
AcDbLine
 10
168.651830933283
 20
88.175724652524
 30
0.0
 11
166.651830933283
 21
87.021031049008
 31
0.0
  0
LINE
  5
24D
330
1A9
100
AcDbEntity
  8
Layer0
  6
AUSGEZOGEN
 62
     9
370
    18
100
AcDbLine
 10
166.651830933283
 20
87.021031049008
 30
0.0
 11
166.651830933283
 21
84.711628583188
 31
0.0
  0
LINE
  5
24E
330
1A9
100
AcDbEntity
  8
Layer0
  6
AUSGEZOGEN
 62
     9
370
    18
100
AcDbLine
 10
166.651830933283
 20
84.711628583188
 30
0.0
 11
168.651830933283
 21
83.556919720883
 31
0.0
  0
LINE
  5
24F
330
1A9
100
AcDbEntity
  8
Layer0
  6
AUSGEZOGEN
 62
     9
370
    18
100
AcDbLine
 10
168.651830933283
 20
83.556919720883
 30
0.0
 11
170.651830933283
 21
84.711628583188
 31
0.0
  0
LINE
  5
250
330
1A9
100
AcDbEntity
  8
Stammform
  6
AUSGEZOGEN
 62
    56
370
    18
100
AcDbLine
 10
170.651830933283
 20
87.021031049008
 30
0.0
 11
168.651830933283
 21
85.866322186704
 31
0.0
  0
LINE
  5
251
330
1A9
100
AcDbEntity
  8
Stammform
  6
AUSGEZOGEN
 62
    56
370
    18
100
AcDbLine
 10
168.651830933283
 20
85.866322186704
 30
0.0
 11
168.651830933283
 21
83.556919720883
 31
0.0
  0
LINE
  5
252
330
1A9
100
AcDbEntity
  8
Stammform
  6
AUSGEZOGEN
 62
    56
370
    18
100
AcDbLine
 10
168.651830933283
 20
85.866322186704
 30
0.0
 11
166.651830933283
 21
87.021031049008
 31
0.0
  0
LINE
  5
253
330
1A9
100
AcDbEntity
  8
Stammform
  6
AUSGEZOGEN
 62
    56
370
    18
100
AcDbLine
 10
164.651830933283
 20
85.866322186704
 30
0.0
 11
162.651830933283
 21
87.021031049008
 31
0.0
  0
LINE
  5
254
330
1A9
100
AcDbEntity
  8
Stammform
  6
AUSGEZOGEN
 62
    56
370
    18
100
AcDbLine
 10
164.651830933283
 20
85.866322186704
 30
0.0
 11
164.651830933283
 21
83.556919720883
 31
0.0
  0
LINE
  5
255
330
1A9
100
AcDbEntity
  8
Stammform
  6
AUSGEZOGEN
 62
    56
370
    18
100
AcDbLine
 10
166.651830933283
 20
87.021031049008
 30
0.0
 11
164.651830933283
 21
85.866322186704
 31
0.0
  0
LINE
  5
256
330
1A9
100
AcDbEntity
  8
Layer0
  6
AUSGEZOGEN
 62
     9
370
    18
100
AcDbLine
 10
166.651830933283
 20
87.021031049008
 30
0.0
 11
164.651830933283
 21
88.175724652524
 31
0.0
  0
LINE
  5
257
330
1A9
100
AcDbEntity
  8
Layer0
  6
AUSGEZOGEN
 62
     9
370
    18
100
AcDbLine
 10
164.651830933283
 20
88.175724652524
 30
0.0
 11
162.651830933283
 21
87.021031049008
 31
0.0
  0
LINE
  5
258
330
1A9
100
AcDbEntity
  8
Layer0
  6
AUSGEZOGEN
 62
     9
370
    18
100
AcDbLine
 10
162.651830933283
 20
87.021031049008
 30
0.0
 11
162.651830933283
 21
84.711628583188
 31
0.0
  0
LINE
  5
259
330
1A9
100
AcDbEntity
  8
Layer0
  6
AUSGEZOGEN
 62
     9
370
    18
100
AcDbLine
 10
162.651830933283
 20
84.711628583188
 30
0.0
 11
164.651830933283
 21
83.556919720883
 31
0.0
  0
LINE
  5
25A
330
1A9
100
AcDbEntity
  8
Layer0
  6
AUSGEZOGEN
 62
     9
370
    18
100
AcDbLine
 10
164.651830933283
 20
83.556919720883
 30
0.0
 11
166.651830933283
 21
84.711628583188
 31
0.0
  0
LINE
  5
25B
330
1A9
100
AcDbEntity
  8
Layer0
  6
AUSGEZOGEN
 62
     9
370
    18
100
AcDbLine
 10
166.651830933283
 20
84.711628583188
 30
0.0
 11
166.651830933283
 21
87.021031049008
 31
0.0
  0
LINE
  5
25C
330
1A9
100
AcDbEntity
  8
Layer0
  6
AUSGEZOGEN
 62
     9
370
    18
100
AcDbLine
 10
150.651830933283
 20
87.021031049008
 30
0.0
 11
148.651830933283
 21
88.175724652524
 31
0.0
  0
LINE
  5
25D
330
1A9
100
AcDbEntity
  8
Layer0
  6
AUSGEZOGEN
 62
     9
370
    18
100
AcDbLine
 10
148.651830933283
 20
88.175724652524
 30
0.0
 11
146.651830933283
 21
87.021031049008
 31
0.0
  0
LINE
  5
25E
330
1A9
100
AcDbEntity
  8
Layer0
  6
AUSGEZOGEN
 62
     9
370
    18
100
AcDbLine
 10
146.651830933283
 20
87.021031049008
 30
0.0
 11
146.651830933283
 21
84.711628583188
 31
0.0
  0
LINE
  5
25F
330
1A9
100
AcDbEntity
  8
Layer0
  6
AUSGEZOGEN
 62
     9
370
    18
100
AcDbLine
 10
146.651830933283
 20
84.711628583188
 30
0.0
 11
148.651830933283
 21
83.556919720883
 31
0.0
  0
LINE
  5
260
330
1A9
100
AcDbEntity
  8
Layer0
  6
AUSGEZOGEN
 62
     9
370
    18
100
AcDbLine
 10
148.651830933283
 20
83.556919720883
 30
0.0
 11
150.651830933283
 21
84.711628583188
 31
0.0
  0
LINE
  5
261
330
1A9
100
AcDbEntity
  8
Layer0
  6
AUSGEZOGEN
 62
     9
370
    18
100
AcDbLine
 10
150.651830933283
 20
84.711628583188
 30
0.0
 11
150.651830933283
 21
87.021031049008
 31
0.0
  0
LINE
  5
262
330
1A9
100
AcDbEntity
  8
Stammform
  6
AUSGEZOGEN
 62
    56
370
    18
100
AcDbLine
 10
150.651830933283
 20
87.021031049008
 30
0.0
 11
148.651830933283
 21
85.866322186704
 31
0.0
  0
LINE
  5
263
330
1A9
100
AcDbEntity
  8
Stammform
  6
AUSGEZOGEN
 62
    56
370
    18
100
AcDbLine
 10
148.651830933283
 20
85.866322186704
 30
0.0
 11
148.651830933283
 21
83.556919720883
 31
0.0
  0
LINE
  5
264
330
1A9
100
AcDbEntity
  8
Stammform
  6
AUSGEZOGEN
 62
    56
370
    18
100
AcDbLine
 10
148.651830933283
 20
85.866322186704
 30
0.0
 11
146.651830933283
 21
87.021031049008
 31
0.0
  0
LINE
  5
265
330
1A9
100
AcDbEntity
  8
Stammform
  6
AUSGEZOGEN
 62
    56
370
    18
100
AcDbLine
 10
152.651830933283
 20
85.866322186704
 30
0.0
 11
150.651830933283
 21
87.021031049008
 31
0.0
  0
LINE
  5
266
330
1A9
100
AcDbEntity
  8
Stammform
  6
AUSGEZOGEN
 62
    56
370
    18
100
AcDbLine
 10
152.651830933283
 20
85.866322186704
 30
0.0
 11
152.651830933283
 21
83.556919720883
 31
0.0
  0
LINE
  5
267
330
1A9
100
AcDbEntity
  8
Stammform
  6
AUSGEZOGEN
 62
    56
370
    18
100
AcDbLine
 10
154.651830933283
 20
87.021031049008
 30
0.0
 11
152.651830933283
 21
85.866322186704
 31
0.0
  0
LINE
  5
268
330
1A9
100
AcDbEntity
  8
Layer0
  6
AUSGEZOGEN
 62
     9
370
    18
100
AcDbLine
 10
154.651830933283
 20
87.021031049008
 30
0.0
 11
152.651830933283
 21
88.175724652524
 31
0.0
  0
LINE
  5
269
330
1A9
100
AcDbEntity
  8
Layer0
  6
AUSGEZOGEN
 62
     9
370
    18
100
AcDbLine
 10
152.651830933283
 20
88.175724652524
 30
0.0
 11
150.651830933283
 21
87.021031049008
 31
0.0
  0
LINE
  5
26A
330
1A9
100
AcDbEntity
  8
Layer0
  6
AUSGEZOGEN
 62
     9
370
    18
100
AcDbLine
 10
150.651830933283
 20
87.021031049008
 30
0.0
 11
150.651830933283
 21
84.711628583188
 31
0.0
  0
LINE
  5
26B
330
1A9
100
AcDbEntity
  8
Layer0
  6
AUSGEZOGEN
 62
     9
370
    18
100
AcDbLine
 10
150.651830933283
 20
84.711628583188
 30
0.0
 11
152.651830933283
 21
83.556919720883
 31
0.0
  0
LINE
  5
26C
330
1A9
100
AcDbEntity
  8
Layer0
  6
AUSGEZOGEN
 62
     9
370
    18
100
AcDbLine
 10
152.651830933283
 20
83.556919720883
 30
0.0
 11
154.651830933283
 21
84.711628583188
 31
0.0
  0
LINE
  5
26D
330
1A9
100
AcDbEntity
  8
Layer0
  6
AUSGEZOGEN
 62
     9
370
    18
100
AcDbLine
 10
154.651830933283
 20
84.711628583188
 30
0.0
 11
154.651830933283
 21
87.021031049008
 31
0.0
  0
LINE
  5
26E
330
1A9
100
AcDbEntity
  8
Layer0
  6
AUSGEZOGEN
 62
     9
370
    18
100
AcDbLine
 10
142.651830933283
 20
87.021031049008
 30
0.0
 11
140.651830933283
 21
88.175724652524
 31
0.0
  0
LINE
  5
26F
330
1A9
100
AcDbEntity
  8
Layer0
  6
AUSGEZOGEN
 62
     9
370
    18
100
AcDbLine
 10
140.651830933283
 20
88.175724652524
 30
0.0
 11
138.651830933283
 21
87.021031049008
 31
0.0
  0
LINE
  5
270
330
1A9
100
AcDbEntity
  8
Layer0
  6
AUSGEZOGEN
 62
     9
370
    18
100
AcDbLine
 10
138.651830933283
 20
87.021031049008
 30
0.0
 11
138.651830933283
 21
84.711628583188
 31
0.0
  0
LINE
  5
271
330
1A9
100
AcDbEntity
  8
Layer0
  6
AUSGEZOGEN
 62
     9
370
    18
100
AcDbLine
 10
138.651830933283
 20
84.711628583188
 30
0.0
 11
140.651830933283
 21
83.556919720883
 31
0.0
  0
LINE
  5
272
330
1A9
100
AcDbEntity
  8
Layer0
  6
AUSGEZOGEN
 62
     9
370
    18
100
AcDbLine
 10
140.651830933283
 20
83.556919720883
 30
0.0
 11
142.651830933283
 21
84.711628583188
 31
0.0
  0
LINE
  5
273
330
1A9
100
AcDbEntity
  8
Layer0
  6
AUSGEZOGEN
 62
     9
370
    18
100
AcDbLine
 10
142.651830933283
 20
84.711628583188
 30
0.0
 11
142.651830933283
 21
87.021031049008
 31
0.0
  0
LINE
  5
274
330
1A9
100
AcDbEntity
  8
Stammform
  6
AUSGEZOGEN
 62
    56
370
    18
100
AcDbLine
 10
142.651830933283
 20
87.021031049008
 30
0.0
 11
140.651830933283
 21
85.866322186704
 31
0.0
  0
LINE
  5
275
330
1A9
100
AcDbEntity
  8
Stammform
  6
AUSGEZOGEN
 62
    56
370
    18
100
AcDbLine
 10
140.651830933283
 20
85.866322186704
 30
0.0
 11
140.651830933283
 21
83.556919720883
 31
0.0
  0
LINE
  5
276
330
1A9
100
AcDbEntity
  8
Stammform
  6
AUSGEZOGEN
 62
    56
370
    18
100
AcDbLine
 10
140.651830933283
 20
85.866322186704
 30
0.0
 11
138.651830933283
 21
87.021031049008
 31
0.0
  0
LINE
  5
277
330
1A9
100
AcDbEntity
  8
Stammform
  6
AUSGEZOGEN
 62
    56
370
    18
100
AcDbLine
 10
144.651830933283
 20
85.866322186704
 30
0.0
 11
142.651830933283
 21
87.021031049008
 31
0.0
  0
LINE
  5
278
330
1A9
100
AcDbEntity
  8
Stammform
  6
AUSGEZOGEN
 62
    56
370
    18
100
AcDbLine
 10
144.651830933283
 20
85.866322186704
 30
0.0
 11
144.651830933283
 21
83.556919720883
 31
0.0
  0
LINE
  5
279
330
1A9
100
AcDbEntity
  8
Stammform
  6
AUSGEZOGEN
 62
    56
370
    18
100
AcDbLine
 10
146.651830933283
 20
87.021031049008
 30
0.0
 11
144.651830933283
 21
85.866322186704
 31
0.0
  0
LINE
  5
27A
330
1A9
100
AcDbEntity
  8
Layer0
  6
AUSGEZOGEN
 62
     9
370
    18
100
AcDbLine
 10
146.651830933283
 20
87.021031049008
 30
0.0
 11
144.651830933283
 21
88.175724652524
 31
0.0
  0
LINE
  5
27B
330
1A9
100
AcDbEntity
  8
Layer0
  6
AUSGEZOGEN
 62
     9
370
    18
100
AcDbLine
 10
144.651830933283
 20
88.175724652524
 30
0.0
 11
142.651830933283
 21
87.021031049008
 31
0.0
  0
LINE
  5
27C
330
1A9
100
AcDbEntity
  8
Layer0
  6
AUSGEZOGEN
 62
     9
370
    18
100
AcDbLine
 10
142.651830933283
 20
87.021031049008
 30
0.0
 11
142.651830933283
 21
84.711628583188
 31
0.0
  0
LINE
  5
27D
330
1A9
100
AcDbEntity
  8
Layer0
  6
AUSGEZOGEN
 62
     9
370
    18
100
AcDbLine
 10
142.651830933283
 20
84.711628583188
 30
0.0
 11
144.651830933283
 21
83.556919720883
 31
0.0
  0
LINE
  5
27E
330
1A9
100
AcDbEntity
  8
Layer0
  6
AUSGEZOGEN
 62
     9
370
    18
100
AcDbLine
 10
144.651830933283
 20
83.556919720883
 30
0.0
 11
146.651830933283
 21
84.711628583188
 31
0.0
  0
LINE
  5
27F
330
1A9
100
AcDbEntity
  8
Layer0
  6
AUSGEZOGEN
 62
     9
370
    18
100
AcDbLine
 10
146.651830933283
 20
84.711628583188
 30
0.0
 11
146.651830933283
 21
87.021031049008
 31
0.0
  0
LINE
  5
280
330
1A9
100
AcDbEntity
  8
Stammform
  6
AUSGEZOGEN
 62
    56
370
    18
100
AcDbLine
 10
136.651830933283
 20
85.866322186704
 30
0.0
 11
134.651830933283
 21
87.021031049008
 31
0.0
  0
LINE
  5
281
330
1A9
100
AcDbEntity
  8
Stammform
  6
AUSGEZOGEN
 62
    56
370
    18
100
AcDbLine
 10
136.651830933283
 20
85.866322186704
 30
0.0
 11
136.651830933283
 21
83.556919720883
 31
0.0
  0
LINE
  5
282
330
1A9
100
AcDbEntity
  8
Stammform
  6
AUSGEZOGEN
 62
    56
370
    18
100
AcDbLine
 10
138.651830933283
 20
87.021031049008
 30
0.0
 11
136.651830933283
 21
85.866322186704
 31
0.0
  0
LINE
  5
283
330
1A9
100
AcDbEntity
  8
Layer0
  6
AUSGEZOGEN
 62
     9
370
    18
100
AcDbLine
 10
138.651830933283
 20
87.021031049008
 30
0.0
 11
136.651830933283
 21
88.175724652524
 31
0.0
  0
LINE
  5
284
330
1A9
100
AcDbEntity
  8
Layer0
  6
AUSGEZOGEN
 62
     9
370
    18
100
AcDbLine
 10
136.651830933283
 20
88.175724652524
 30
0.0
 11
134.651830933283
 21
87.021031049008
 31
0.0
  0
LINE
  5
285
330
1A9
100
AcDbEntity
  8
Layer0
  6
AUSGEZOGEN
 62
     9
370
    18
100
AcDbLine
 10
134.651830933283
 20
84.711628583188
 30
0.0
 11
136.651830933283
 21
83.556919720883
 31
0.0
  0
LINE
  5
286
330
1A9
100
AcDbEntity
  8
Layer0
  6
AUSGEZOGEN
 62
     9
370
    18
100
AcDbLine
 10
136.651830933283
 20
83.556919720883
 30
0.0
 11
138.651830933283
 21
84.711628583188
 31
0.0
  0
LINE
  5
287
330
1A9
100
AcDbEntity
  8
Layer0
  6
AUSGEZOGEN
 62
     9
370
    18
100
AcDbLine
 10
138.651830933283
 20
84.711628583188
 30
0.0
 11
138.651830933283
 21
87.021031049008
 31
0.0
  0
LINE
  5
288
330
1A9
100
AcDbEntity
  8
Layer0
  6
AUSGEZOGEN
 62
     9
370
    18
100
AcDbLine
 10
136.651830933283
 20
90.485127118344
 30
0.0
 11
134.651830933283
 21
91.639835980649
 31
0.0
  0
LINE
  5
289
330
1A9
100
AcDbEntity
  8
Layer0
  6
AUSGEZOGEN
 62
     9
370
    18
100
AcDbLine
 10
134.651830933283
 20
87.021031049008
 30
0.0
 11
136.651830933283
 21
88.175724652524
 31
0.0
  0
LINE
  5
28A
330
1A9
100
AcDbEntity
  8
Layer0
  6
AUSGEZOGEN
 62
     9
370
    18
100
AcDbLine
 10
136.651830933283
 20
88.175724652524
 30
0.0
 11
136.651830933283
 21
90.485127118344
 31
0.0
  0
LINE
  5
28B
330
1A9
100
AcDbEntity
  8
Stammform
  6
AUSGEZOGEN
 62
    56
370
    18
100
AcDbLine
 10
136.651830933283
 20
90.485127118344
 30
0.0
 11
134.651830933283
 21
89.330433514829
 31
0.0
  0
LINE
  5
28C
330
1A9
100
AcDbEntity
  8
Layer0
  6
AUSGEZOGEN
 62
     9
370
    18
100
AcDbLine
 10
144.651830933283
 20
90.485127118344
 30
0.0
 11
142.651830933283
 21
91.639835980649
 31
0.0
  0
LINE
  5
28D
330
1A9
100
AcDbEntity
  8
Layer0
  6
AUSGEZOGEN
 62
     9
370
    18
100
AcDbLine
 10
142.651830933283
 20
91.639835980649
 30
0.0
 11
140.651830933283
 21
90.485127118344
 31
0.0
  0
LINE
  5
28E
330
1A9
100
AcDbEntity
  8
Layer0
  6
AUSGEZOGEN
 62
     9
370
    18
100
AcDbLine
 10
140.651830933283
 20
90.485127118344
 30
0.0
 11
140.651830933283
 21
88.175724652524
 31
0.0
  0
LINE
  5
28F
330
1A9
100
AcDbEntity
  8
Layer0
  6
AUSGEZOGEN
 62
     9
370
    18
100
AcDbLine
 10
140.651830933283
 20
88.175724652524
 30
0.0
 11
142.651830933283
 21
87.021031049008
 31
0.0
  0
LINE
  5
290
330
1A9
100
AcDbEntity
  8
Layer0
  6
AUSGEZOGEN
 62
     9
370
    18
100
AcDbLine
 10
142.651830933283
 20
87.021031049008
 30
0.0
 11
144.651830933283
 21
88.175724652524
 31
0.0
  0
LINE
  5
291
330
1A9
100
AcDbEntity
  8
Layer0
  6
AUSGEZOGEN
 62
     9
370
    18
100
AcDbLine
 10
144.651830933283
 20
88.175724652524
 30
0.0
 11
144.651830933283
 21
90.485127118344
 31
0.0
  0
LINE
  5
292
330
1A9
100
AcDbEntity
  8
Stammform
  6
AUSGEZOGEN
 62
    56
370
    18
100
AcDbLine
 10
144.651830933283
 20
90.485127118344
 30
0.0
 11
142.651830933283
 21
89.330433514829
 31
0.0
  0
LINE
  5
293
330
1A9
100
AcDbEntity
  8
Stammform
  6
AUSGEZOGEN
 62
    56
370
    18
100
AcDbLine
 10
142.651830933283
 20
89.330433514829
 30
0.0
 11
142.651830933283
 21
87.021031049008
 31
0.0
  0
LINE
  5
294
330
1A9
100
AcDbEntity
  8
Stammform
  6
AUSGEZOGEN
 62
    56
370
    18
100
AcDbLine
 10
142.651830933283
 20
89.330433514829
 30
0.0
 11
140.651830933283
 21
90.485127118344
 31
0.0
  0
LINE
  5
295
330
1A9
100
AcDbEntity
  8
Stammform
  6
AUSGEZOGEN
 62
    56
370
    18
100
AcDbLine
 10
138.651830933283
 20
89.330433514829
 30
0.0
 11
136.651830933283
 21
90.485127118344
 31
0.0
  0
LINE
  5
296
330
1A9
100
AcDbEntity
  8
Stammform
  6
AUSGEZOGEN
 62
    56
370
    18
100
AcDbLine
 10
138.651830933283
 20
89.330433514829
 30
0.0
 11
138.651830933283
 21
87.021031049008
 31
0.0
  0
LINE
  5
297
330
1A9
100
AcDbEntity
  8
Stammform
  6
AUSGEZOGEN
 62
    56
370
    18
100
AcDbLine
 10
140.651830933283
 20
90.485127118344
 30
0.0
 11
138.651830933283
 21
89.330433514829
 31
0.0
  0
LINE
  5
298
330
1A9
100
AcDbEntity
  8
Layer0
  6
AUSGEZOGEN
 62
     9
370
    18
100
AcDbLine
 10
140.651830933283
 20
90.485127118344
 30
0.0
 11
138.651830933283
 21
91.639835980649
 31
0.0
  0
LINE
  5
299
330
1A9
100
AcDbEntity
  8
Layer0
  6
AUSGEZOGEN
 62
     9
370
    18
100
AcDbLine
 10
138.651830933283
 20
91.639835980649
 30
0.0
 11
136.651830933283
 21
90.485127118344
 31
0.0
  0
LINE
  5
29A
330
1A9
100
AcDbEntity
  8
Layer0
  6
AUSGEZOGEN
 62
     9
370
    18
100
AcDbLine
 10
136.651830933283
 20
90.485127118344
 30
0.0
 11
136.651830933283
 21
88.175724652524
 31
0.0
  0
LINE
  5
29B
330
1A9
100
AcDbEntity
  8
Layer0
  6
AUSGEZOGEN
 62
     9
370
    18
100
AcDbLine
 10
136.651830933283
 20
88.175724652524
 30
0.0
 11
138.651830933283
 21
87.021031049008
 31
0.0
  0
LINE
  5
29C
330
1A9
100
AcDbEntity
  8
Layer0
  6
AUSGEZOGEN
 62
     9
370
    18
100
AcDbLine
 10
138.651830933283
 20
87.021031049008
 30
0.0
 11
140.651830933283
 21
88.175724652524
 31
0.0
  0
LINE
  5
29D
330
1A9
100
AcDbEntity
  8
Layer0
  6
AUSGEZOGEN
 62
     9
370
    18
100
AcDbLine
 10
140.651830933283
 20
88.175724652524
 30
0.0
 11
140.651830933283
 21
90.485127118344
 31
0.0
  0
LINE
  5
29E
330
1A9
100
AcDbEntity
  8
Layer0
  6
AUSGEZOGEN
 62
     9
370
    18
100
AcDbLine
 10
152.651830933283
 20
90.485127118344
 30
0.0
 11
150.651830933283
 21
91.639835980649
 31
0.0
  0
LINE
  5
29F
330
1A9
100
AcDbEntity
  8
Layer0
  6
AUSGEZOGEN
 62
     9
370
    18
100
AcDbLine
 10
150.651830933283
 20
91.639835980649
 30
0.0
 11
148.651830933283
 21
90.485127118344
 31
0.0
  0
LINE
  5
2A0
330
1A9
100
AcDbEntity
  8
Layer0
  6
AUSGEZOGEN
 62
     9
370
    18
100
AcDbLine
 10
148.651830933283
 20
90.485127118344
 30
0.0
 11
148.651830933283
 21
88.175724652524
 31
0.0
  0
LINE
  5
2A1
330
1A9
100
AcDbEntity
  8
Layer0
  6
AUSGEZOGEN
 62
     9
370
    18
100
AcDbLine
 10
148.651830933283
 20
88.175724652524
 30
0.0
 11
150.651830933283
 21
87.021031049008
 31
0.0
  0
LINE
  5
2A2
330
1A9
100
AcDbEntity
  8
Layer0
  6
AUSGEZOGEN
 62
     9
370
    18
100
AcDbLine
 10
150.651830933283
 20
87.021031049008
 30
0.0
 11
152.651830933283
 21
88.175724652524
 31
0.0
  0
LINE
  5
2A3
330
1A9
100
AcDbEntity
  8
Layer0
  6
AUSGEZOGEN
 62
     9
370
    18
100
AcDbLine
 10
152.651830933283
 20
88.175724652524
 30
0.0
 11
152.651830933283
 21
90.485127118344
 31
0.0
  0
LINE
  5
2A4
330
1A9
100
AcDbEntity
  8
Stammform
  6
AUSGEZOGEN
 62
    56
370
    18
100
AcDbLine
 10
152.651830933283
 20
90.485127118344
 30
0.0
 11
150.651830933283
 21
89.330433514829
 31
0.0
  0
LINE
  5
2A5
330
1A9
100
AcDbEntity
  8
Stammform
  6
AUSGEZOGEN
 62
    56
370
    18
100
AcDbLine
 10
150.651830933283
 20
89.330433514829
 30
0.0
 11
150.651830933283
 21
87.021031049008
 31
0.0
  0
LINE
  5
2A6
330
1A9
100
AcDbEntity
  8
Stammform
  6
AUSGEZOGEN
 62
    56
370
    18
100
AcDbLine
 10
150.651830933283
 20
89.330433514829
 30
0.0
 11
148.651830933283
 21
90.485127118344
 31
0.0
  0
LINE
  5
2A7
330
1A9
100
AcDbEntity
  8
Stammform
  6
AUSGEZOGEN
 62
    56
370
    18
100
AcDbLine
 10
146.651830933283
 20
89.330433514829
 30
0.0
 11
144.651830933283
 21
90.485127118344
 31
0.0
  0
LINE
  5
2A8
330
1A9
100
AcDbEntity
  8
Stammform
  6
AUSGEZOGEN
 62
    56
370
    18
100
AcDbLine
 10
146.651830933283
 20
89.330433514829
 30
0.0
 11
146.651830933283
 21
87.021031049008
 31
0.0
  0
LINE
  5
2A9
330
1A9
100
AcDbEntity
  8
Stammform
  6
AUSGEZOGEN
 62
    56
370
    18
100
AcDbLine
 10
148.651830933283
 20
90.485127118344
 30
0.0
 11
146.651830933283
 21
89.330433514829
 31
0.0
  0
LINE
  5
2AA
330
1A9
100
AcDbEntity
  8
Layer0
  6
AUSGEZOGEN
 62
     9
370
    18
100
AcDbLine
 10
148.651830933283
 20
90.485127118344
 30
0.0
 11
146.651830933283
 21
91.639835980649
 31
0.0
  0
LINE
  5
2AB
330
1A9
100
AcDbEntity
  8
Layer0
  6
AUSGEZOGEN
 62
     9
370
    18
100
AcDbLine
 10
146.651830933283
 20
91.639835980649
 30
0.0
 11
144.651830933283
 21
90.485127118344
 31
0.0
  0
LINE
  5
2AC
330
1A9
100
AcDbEntity
  8
Layer0
  6
AUSGEZOGEN
 62
     9
370
    18
100
AcDbLine
 10
144.651830933283
 20
90.485127118344
 30
0.0
 11
144.651830933283
 21
88.175724652524
 31
0.0
  0
LINE
  5
2AD
330
1A9
100
AcDbEntity
  8
Layer0
  6
AUSGEZOGEN
 62
     9
370
    18
100
AcDbLine
 10
144.651830933283
 20
88.175724652524
 30
0.0
 11
146.651830933283
 21
87.021031049008
 31
0.0
  0
LINE
  5
2AE
330
1A9
100
AcDbEntity
  8
Layer0
  6
AUSGEZOGEN
 62
     9
370
    18
100
AcDbLine
 10
146.651830933283
 20
87.021031049008
 30
0.0
 11
148.651830933283
 21
88.175724652524
 31
0.0
  0
LINE
  5
2AF
330
1A9
100
AcDbEntity
  8
Layer0
  6
AUSGEZOGEN
 62
     9
370
    18
100
AcDbLine
 10
148.651830933283
 20
88.175724652524
 30
0.0
 11
148.651830933283
 21
90.485127118344
 31
0.0
  0
LINE
  5
2B0
330
1A9
100
AcDbEntity
  8
Layer0
  6
AUSGEZOGEN
 62
     9
370
    18
100
AcDbLine
 10
170.651830933283
 20
91.639835980649
 30
0.0
 11
168.651830933283
 21
90.485127118344
 31
0.0
  0
LINE
  5
2B1
330
1A9
100
AcDbEntity
  8
Layer0
  6
AUSGEZOGEN
 62
     9
370
    18
100
AcDbLine
 10
168.651830933283
 20
90.485127118344
 30
0.0
 11
168.651830933283
 21
88.175724652524
 31
0.0
  0
LINE
  5
2B2
330
1A9
100
AcDbEntity
  8
Layer0
  6
AUSGEZOGEN
 62
     9
370
    18
100
AcDbLine
 10
168.651830933283
 20
88.175724652524
 30
0.0
 11
170.651830933283
 21
87.021031049008
 31
0.0
  0
LINE
  5
2B3
330
1A9
100
AcDbEntity
  8
Stammform
  6
AUSGEZOGEN
 62
    56
370
    18
100
AcDbLine
 10
170.651830933283
 20
89.330433514829
 30
0.0
 11
168.651830933283
 21
90.485127118344
 31
0.0
  0
LINE
  5
2B4
330
1A9
100
AcDbEntity
  8
Layer0
  6
AUSGEZOGEN
 62
     9
370
    18
100
AcDbLine
 10
164.651830933283
 20
90.485127118344
 30
0.0
 11
162.651830933283
 21
91.639835980649
 31
0.0
  0
LINE
  5
2B5
330
1A9
100
AcDbEntity
  8
Layer0
  6
AUSGEZOGEN
 62
     9
370
    18
100
AcDbLine
 10
162.651830933283
 20
91.639835980649
 30
0.0
 11
160.651830933283
 21
90.485127118344
 31
0.0
  0
LINE
  5
2B6
330
1A9
100
AcDbEntity
  8
Layer0
  6
AUSGEZOGEN
 62
     9
370
    18
100
AcDbLine
 10
160.651830933283
 20
90.485127118344
 30
0.0
 11
160.651830933283
 21
88.175724652524
 31
0.0
  0
LINE
  5
2B7
330
1A9
100
AcDbEntity
  8
Layer0
  6
AUSGEZOGEN
 62
     9
370
    18
100
AcDbLine
 10
160.651830933283
 20
88.175724652524
 30
0.0
 11
162.651830933283
 21
87.021031049008
 31
0.0
  0
LINE
  5
2B8
330
1A9
100
AcDbEntity
  8
Layer0
  6
AUSGEZOGEN
 62
     9
370
    18
100
AcDbLine
 10
162.651830933283
 20
87.021031049008
 30
0.0
 11
164.651830933283
 21
88.175724652524
 31
0.0
  0
LINE
  5
2B9
330
1A9
100
AcDbEntity
  8
Layer0
  6
AUSGEZOGEN
 62
     9
370
    18
100
AcDbLine
 10
164.651830933283
 20
88.175724652524
 30
0.0
 11
164.651830933283
 21
90.485127118344
 31
0.0
  0
LINE
  5
2BA
330
1A9
100
AcDbEntity
  8
Stammform
  6
AUSGEZOGEN
 62
    56
370
    18
100
AcDbLine
 10
164.651830933283
 20
90.485127118344
 30
0.0
 11
162.651830933283
 21
89.330433514829
 31
0.0
  0
LINE
  5
2BB
330
1A9
100
AcDbEntity
  8
Stammform
  6
AUSGEZOGEN
 62
    56
370
    18
100
AcDbLine
 10
162.651830933283
 20
89.330433514829
 30
0.0
 11
162.651830933283
 21
87.021031049008
 31
0.0
  0
LINE
  5
2BC
330
1A9
100
AcDbEntity
  8
Stammform
  6
AUSGEZOGEN
 62
    56
370
    18
100
AcDbLine
 10
162.651830933283
 20
89.330433514829
 30
0.0
 11
160.651830933283
 21
90.485127118344
 31
0.0
  0
LINE
  5
2BD
330
1A9
100
AcDbEntity
  8
Stammform
  6
AUSGEZOGEN
 62
    56
370
    18
100
AcDbLine
 10
166.651830933283
 20
89.330433514829
 30
0.0
 11
164.651830933283
 21
90.485127118344
 31
0.0
  0
LINE
  5
2BE
330
1A9
100
AcDbEntity
  8
Stammform
  6
AUSGEZOGEN
 62
    56
370
    18
100
AcDbLine
 10
166.651830933283
 20
89.330433514829
 30
0.0
 11
166.651830933283
 21
87.021031049008
 31
0.0
  0
LINE
  5
2BF
330
1A9
100
AcDbEntity
  8
Stammform
  6
AUSGEZOGEN
 62
    56
370
    18
100
AcDbLine
 10
168.651830933283
 20
90.485127118344
 30
0.0
 11
166.651830933283
 21
89.330433514829
 31
0.0
  0
LINE
  5
2C0
330
1A9
100
AcDbEntity
  8
Layer0
  6
AUSGEZOGEN
 62
     9
370
    18
100
AcDbLine
 10
168.651830933283
 20
90.485127118344
 30
0.0
 11
166.651830933283
 21
91.639835980649
 31
0.0
  0
LINE
  5
2C1
330
1A9
100
AcDbEntity
  8
Layer0
  6
AUSGEZOGEN
 62
     9
370
    18
100
AcDbLine
 10
166.651830933283
 20
91.639835980649
 30
0.0
 11
164.651830933283
 21
90.485127118344
 31
0.0
  0
LINE
  5
2C2
330
1A9
100
AcDbEntity
  8
Layer0
  6
AUSGEZOGEN
 62
     9
370
    18
100
AcDbLine
 10
164.651830933283
 20
90.485127118344
 30
0.0
 11
164.651830933283
 21
88.175724652524
 31
0.0
  0
LINE
  5
2C3
330
1A9
100
AcDbEntity
  8
Layer0
  6
AUSGEZOGEN
 62
     9
370
    18
100
AcDbLine
 10
164.651830933283
 20
88.175724652524
 30
0.0
 11
166.651830933283
 21
87.021031049008
 31
0.0
  0
LINE
  5
2C4
330
1A9
100
AcDbEntity
  8
Layer0
  6
AUSGEZOGEN
 62
     9
370
    18
100
AcDbLine
 10
166.651830933283
 20
87.021031049008
 30
0.0
 11
168.651830933283
 21
88.175724652524
 31
0.0
  0
LINE
  5
2C5
330
1A9
100
AcDbEntity
  8
Layer0
  6
AUSGEZOGEN
 62
     9
370
    18
100
AcDbLine
 10
168.651830933283
 20
88.175724652524
 30
0.0
 11
168.651830933283
 21
90.485127118344
 31
0.0
  0
LINE
  5
2C6
330
1A9
100
AcDbEntity
  8
Layer0
  6
AUSGEZOGEN
 62
     9
370
    18
100
AcDbLine
 10
160.651830933283
 20
90.485127118344
 30
0.0
 11
158.651830933283
 21
91.639835980649
 31
0.0
  0
LINE
  5
2C7
330
1A9
100
AcDbEntity
  8
Layer0
  6
AUSGEZOGEN
 62
     9
370
    18
100
AcDbLine
 10
158.651830933283
 20
91.639835980649
 30
0.0
 11
156.651830933283
 21
90.485127118344
 31
0.0
  0
LINE
  5
2C8
330
1A9
100
AcDbEntity
  8
Layer0
  6
AUSGEZOGEN
 62
     9
370
    18
100
AcDbLine
 10
156.651830933283
 20
90.485127118344
 30
0.0
 11
156.651830933283
 21
88.175724652524
 31
0.0
  0
LINE
  5
2C9
330
1A9
100
AcDbEntity
  8
Layer0
  6
AUSGEZOGEN
 62
     9
370
    18
100
AcDbLine
 10
156.651830933283
 20
88.175724652524
 30
0.0
 11
158.651830933283
 21
87.021031049008
 31
0.0
  0
LINE
  5
2CA
330
1A9
100
AcDbEntity
  8
Layer0
  6
AUSGEZOGEN
 62
     9
370
    18
100
AcDbLine
 10
158.651830933283
 20
87.021031049008
 30
0.0
 11
160.651830933283
 21
88.175724652524
 31
0.0
  0
LINE
  5
2CB
330
1A9
100
AcDbEntity
  8
Layer0
  6
AUSGEZOGEN
 62
     9
370
    18
100
AcDbLine
 10
160.651830933283
 20
88.175724652524
 30
0.0
 11
160.651830933283
 21
90.485127118344
 31
0.0
  0
LINE
  5
2CC
330
1A9
100
AcDbEntity
  8
Stammform
  6
AUSGEZOGEN
 62
    56
370
    18
100
AcDbLine
 10
160.651830933283
 20
90.485127118344
 30
0.0
 11
158.651830933283
 21
89.330433514829
 31
0.0
  0
LINE
  5
2CD
330
1A9
100
AcDbEntity
  8
Stammform
  6
AUSGEZOGEN
 62
    56
370
    18
100
AcDbLine
 10
158.651830933283
 20
89.330433514829
 30
0.0
 11
158.651830933283
 21
87.021031049008
 31
0.0
  0
LINE
  5
2CE
330
1A9
100
AcDbEntity
  8
Stammform
  6
AUSGEZOGEN
 62
    56
370
    18
100
AcDbLine
 10
158.651830933283
 20
89.330433514829
 30
0.0
 11
156.651830933283
 21
90.485127118344
 31
0.0
  0
LINE
  5
2CF
330
1A9
100
AcDbEntity
  8
Stammform
  6
AUSGEZOGEN
 62
    56
370
    18
100
AcDbLine
 10
154.651830933283
 20
89.330433514829
 30
0.0
 11
152.651830933283
 21
90.485127118344
 31
0.0
  0
LINE
  5
2D0
330
1A9
100
AcDbEntity
  8
Stammform
  6
AUSGEZOGEN
 62
    56
370
    18
100
AcDbLine
 10
154.651830933283
 20
89.330433514829
 30
0.0
 11
154.651830933283
 21
87.021031049008
 31
0.0
  0
LINE
  5
2D1
330
1A9
100
AcDbEntity
  8
Stammform
  6
AUSGEZOGEN
 62
    56
370
    18
100
AcDbLine
 10
156.651830933283
 20
90.485127118344
 30
0.0
 11
154.651830933283
 21
89.330433514829
 31
0.0
  0
LINE
  5
2D2
330
1A9
100
AcDbEntity
  8
Layer0
  6
AUSGEZOGEN
 62
     9
370
    18
100
AcDbLine
 10
156.651830933283
 20
90.485127118344
 30
0.0
 11
154.651830933283
 21
91.639835980649
 31
0.0
  0
LINE
  5
2D3
330
1A9
100
AcDbEntity
  8
Layer0
  6
AUSGEZOGEN
 62
     9
370
    18
100
AcDbLine
 10
154.651830933283
 20
91.639835980649
 30
0.0
 11
152.651830933283
 21
90.485127118344
 31
0.0
  0
LINE
  5
2D4
330
1A9
100
AcDbEntity
  8
Layer0
  6
AUSGEZOGEN
 62
     9
370
    18
100
AcDbLine
 10
152.651830933283
 20
90.485127118344
 30
0.0
 11
152.651830933283
 21
88.175724652524
 31
0.0
  0
LINE
  5
2D5
330
1A9
100
AcDbEntity
  8
Layer0
  6
AUSGEZOGEN
 62
     9
370
    18
100
AcDbLine
 10
152.651830933283
 20
88.175724652524
 30
0.0
 11
154.651830933283
 21
87.021031049008
 31
0.0
  0
LINE
  5
2D6
330
1A9
100
AcDbEntity
  8
Layer0
  6
AUSGEZOGEN
 62
     9
370
    18
100
AcDbLine
 10
154.651830933283
 20
87.021031049008
 30
0.0
 11
156.651830933283
 21
88.175724652524
 31
0.0
  0
LINE
  5
2D7
330
1A9
100
AcDbEntity
  8
Layer0
  6
AUSGEZOGEN
 62
     9
370
    18
100
AcDbLine
 10
156.651830933283
 20
88.175724652524
 30
0.0
 11
156.651830933283
 21
90.485127118344
 31
0.0
  0
LINE
  5
2D8
330
1A9
100
AcDbEntity
  8
Layer0
  6
AUSGEZOGEN
 62
     9
370
    18
100
AcDbLine
 10
136.651830933283
 20
83.556919720883
 30
0.0
 11
134.651830933283
 21
84.711628583188
 31
0.0
  0
LINE
  5
2D9
330
1A9
100
AcDbEntity
  8
Layer0
  6
AUSGEZOGEN
 62
     9
370
    18
100
AcDbLine
 10
136.651830933283
 20
82.402226117368
 30
0.0
 11
136.651830933283
 21
83.556919720883
 31
0.0
  0
LINE
  5
2DA
330
1A9
100
AcDbEntity
  8
Stammform
  6
AUSGEZOGEN
 62
    56
370
    18
100
AcDbLine
 10
136.651830933283
 20
83.556919720883
 30
0.0
 11
134.651830933283
 21
82.402226117368
 31
0.0
  0
LINE
  5
2DB
330
1A9
100
AcDbEntity
  8
Layer0
  6
AUSGEZOGEN
 62
     9
370
    18
100
AcDbLine
 10
144.651830933283
 20
83.556919720883
 30
0.0
 11
142.651830933283
 21
84.711628583188
 31
0.0
  0
LINE
  5
2DC
330
1A9
100
AcDbEntity
  8
Layer0
  6
AUSGEZOGEN
 62
     9
370
    18
100
AcDbLine
 10
142.651830933283
 20
84.711628583188
 30
0.0
 11
140.651830933283
 21
83.556919720883
 31
0.0
  0
LINE
  5
2DD
330
1A9
100
AcDbEntity
  8
Layer0
  6
AUSGEZOGEN
 62
     9
370
    18
100
AcDbLine
 10
140.651830933283
 20
83.556919720883
 30
0.0
 11
140.651830933283
 21
82.402226117368
 31
0.0
  0
LINE
  5
2DE
330
1A9
100
AcDbEntity
  8
Layer0
  6
AUSGEZOGEN
 62
     9
370
    18
100
AcDbLine
 10
144.651830933283
 20
82.402226117368
 30
0.0
 11
144.651830933283
 21
83.556919720883
 31
0.0
  0
LINE
  5
2DF
330
1A9
100
AcDbEntity
  8
Stammform
  6
AUSGEZOGEN
 62
    56
370
    18
100
AcDbLine
 10
144.651830933283
 20
83.556919720883
 30
0.0
 11
142.651830933283
 21
82.402226117368
 31
0.0
  0
LINE
  5
2E0
330
1A9
100
AcDbEntity
  8
Stammform
  6
AUSGEZOGEN
 62
    56
370
    18
100
AcDbLine
 10
142.651830933283
 20
82.402226117368
 30
0.0
 11
140.651830933283
 21
83.556919720883
 31
0.0
  0
LINE
  5
2E1
330
1A9
100
AcDbEntity
  8
Stammform
  6
AUSGEZOGEN
 62
    56
370
    18
100
AcDbLine
 10
138.651830933283
 20
82.402226117368
 30
0.0
 11
136.651830933283
 21
83.556919720883
 31
0.0
  0
LINE
  5
2E2
330
1A9
100
AcDbEntity
  8
Stammform
  6
AUSGEZOGEN
 62
    56
370
    18
100
AcDbLine
 10
140.651830933283
 20
83.556919720883
 30
0.0
 11
138.651830933283
 21
82.402226117368
 31
0.0
  0
LINE
  5
2E3
330
1A9
100
AcDbEntity
  8
Layer0
  6
AUSGEZOGEN
 62
     9
370
    18
100
AcDbLine
 10
140.651830933283
 20
83.556919720883
 30
0.0
 11
138.651830933283
 21
84.711628583188
 31
0.0
  0
LINE
  5
2E4
330
1A9
100
AcDbEntity
  8
Layer0
  6
AUSGEZOGEN
 62
     9
370
    18
100
AcDbLine
 10
138.651830933283
 20
84.711628583188
 30
0.0
 11
136.651830933283
 21
83.556919720883
 31
0.0
  0
LINE
  5
2E5
330
1A9
100
AcDbEntity
  8
Layer0
  6
AUSGEZOGEN
 62
     9
370
    18
100
AcDbLine
 10
152.651830933283
 20
83.556919720883
 30
0.0
 11
150.651830933283
 21
84.711628583188
 31
0.0
  0
LINE
  5
2E6
330
1A9
100
AcDbEntity
  8
Layer0
  6
AUSGEZOGEN
 62
     9
370
    18
100
AcDbLine
 10
150.651830933283
 20
84.711628583188
 30
0.0
 11
148.651830933283
 21
83.556919720883
 31
0.0
  0
LINE
  5
2E7
330
1A9
100
AcDbEntity
  8
Layer0
  6
AUSGEZOGEN
 62
     9
370
    18
100
AcDbLine
 10
148.651830933283
 20
83.556919720883
 30
0.0
 11
148.651830933283
 21
82.402226117368
 31
0.0
  0
LINE
  5
2E8
330
1A9
100
AcDbEntity
  8
Layer0
  6
AUSGEZOGEN
 62
     9
370
    18
100
AcDbLine
 10
152.651830933283
 20
82.402226117368
 30
0.0
 11
152.651830933283
 21
83.556919720883
 31
0.0
  0
LINE
  5
2E9
330
1A9
100
AcDbEntity
  8
Stammform
  6
AUSGEZOGEN
 62
    56
370
    18
100
AcDbLine
 10
152.651830933283
 20
83.556919720883
 30
0.0
 11
150.651830933283
 21
82.402226117368
 31
0.0
  0
LINE
  5
2EA
330
1A9
100
AcDbEntity
  8
Stammform
  6
AUSGEZOGEN
 62
    56
370
    18
100
AcDbLine
 10
150.651830933283
 20
82.402226117368
 30
0.0
 11
148.651830933283
 21
83.556919720883
 31
0.0
  0
LINE
  5
2EB
330
1A9
100
AcDbEntity
  8
Stammform
  6
AUSGEZOGEN
 62
    56
370
    18
100
AcDbLine
 10
146.651830933283
 20
82.402226117368
 30
0.0
 11
144.651830933283
 21
83.556919720883
 31
0.0
  0
LINE
  5
2EC
330
1A9
100
AcDbEntity
  8
Stammform
  6
AUSGEZOGEN
 62
    56
370
    18
100
AcDbLine
 10
148.651830933283
 20
83.556919720883
 30
0.0
 11
146.651830933283
 21
82.402226117368
 31
0.0
  0
LINE
  5
2ED
330
1A9
100
AcDbEntity
  8
Layer0
  6
AUSGEZOGEN
 62
     9
370
    18
100
AcDbLine
 10
148.651830933283
 20
83.556919720883
 30
0.0
 11
146.651830933283
 21
84.711628583188
 31
0.0
  0
LINE
  5
2EE
330
1A9
100
AcDbEntity
  8
Layer0
  6
AUSGEZOGEN
 62
     9
370
    18
100
AcDbLine
 10
146.651830933283
 20
84.711628583188
 30
0.0
 11
144.651830933283
 21
83.556919720883
 31
0.0
  0
LINE
  5
2EF
330
1A9
100
AcDbEntity
  8
Layer0
  6
AUSGEZOGEN
 62
     9
370
    18
100
AcDbLine
 10
170.651830933283
 20
84.711628583188
 30
0.0
 11
168.651830933283
 21
83.556919720883
 31
0.0
  0
LINE
  5
2F0
330
1A9
100
AcDbEntity
  8
Layer0
  6
AUSGEZOGEN
 62
     9
370
    18
100
AcDbLine
 10
168.651830933283
 20
83.556919720883
 30
0.0
 11
168.651830933283
 21
82.402226117368
 31
0.0
  0
LINE
  5
2F1
330
1A9
100
AcDbEntity
  8
Stammform
  6
AUSGEZOGEN
 62
    56
370
    18
100
AcDbLine
 10
170.651830933283
 20
82.402226117368
 30
0.0
 11
168.651830933283
 21
83.556919720883
 31
0.0
  0
LINE
  5
2F2
330
1A9
100
AcDbEntity
  8
Layer0
  6
AUSGEZOGEN
 62
     9
370
    18
100
AcDbLine
 10
164.651830933283
 20
83.556919720883
 30
0.0
 11
162.651830933283
 21
84.711628583188
 31
0.0
  0
LINE
  5
2F3
330
1A9
100
AcDbEntity
  8
Layer0
  6
AUSGEZOGEN
 62
     9
370
    18
100
AcDbLine
 10
162.651830933283
 20
84.711628583188
 30
0.0
 11
160.651830933283
 21
83.556919720883
 31
0.0
  0
LINE
  5
2F4
330
1A9
100
AcDbEntity
  8
Layer0
  6
AUSGEZOGEN
 62
     9
370
    18
100
AcDbLine
 10
160.651830933283
 20
83.556919720883
 30
0.0
 11
160.651830933283
 21
82.402226117368
 31
0.0
  0
LINE
  5
2F5
330
1A9
100
AcDbEntity
  8
Layer0
  6
AUSGEZOGEN
 62
     9
370
    18
100
AcDbLine
 10
164.651830933283
 20
82.402226117368
 30
0.0
 11
164.651830933283
 21
83.556919720883
 31
0.0
  0
LINE
  5
2F6
330
1A9
100
AcDbEntity
  8
Stammform
  6
AUSGEZOGEN
 62
    56
370
    18
100
AcDbLine
 10
164.651830933283
 20
83.556919720883
 30
0.0
 11
162.651830933283
 21
82.402226117368
 31
0.0
  0
LINE
  5
2F7
330
1A9
100
AcDbEntity
  8
Stammform
  6
AUSGEZOGEN
 62
    56
370
    18
100
AcDbLine
 10
162.651830933283
 20
82.402226117368
 30
0.0
 11
160.651830933283
 21
83.556919720883
 31
0.0
  0
LINE
  5
2F8
330
1A9
100
AcDbEntity
  8
Stammform
  6
AUSGEZOGEN
 62
    56
370
    18
100
AcDbLine
 10
166.651830933283
 20
82.402226117368
 30
0.0
 11
164.651830933283
 21
83.556919720883
 31
0.0
  0
LINE
  5
2F9
330
1A9
100
AcDbEntity
  8
Stammform
  6
AUSGEZOGEN
 62
    56
370
    18
100
AcDbLine
 10
168.651830933283
 20
83.556919720883
 30
0.0
 11
166.651830933283
 21
82.402226117368
 31
0.0
  0
LINE
  5
2FA
330
1A9
100
AcDbEntity
  8
Layer0
  6
AUSGEZOGEN
 62
     9
370
    18
100
AcDbLine
 10
168.651830933283
 20
83.556919720883
 30
0.0
 11
166.651830933283
 21
84.711628583188
 31
0.0
  0
LINE
  5
2FB
330
1A9
100
AcDbEntity
  8
Layer0
  6
AUSGEZOGEN
 62
     9
370
    18
100
AcDbLine
 10
166.651830933283
 20
84.711628583188
 30
0.0
 11
164.651830933283
 21
83.556919720883
 31
0.0
  0
LINE
  5
2FC
330
1A9
100
AcDbEntity
  8
Layer0
  6
AUSGEZOGEN
 62
     9
370
    18
100
AcDbLine
 10
160.651830933283
 20
83.556919720883
 30
0.0
 11
158.651830933283
 21
84.711628583188
 31
0.0
  0
LINE
  5
2FD
330
1A9
100
AcDbEntity
  8
Layer0
  6
AUSGEZOGEN
 62
     9
370
    18
100
AcDbLine
 10
158.651830933283
 20
84.711628583188
 30
0.0
 11
156.651830933283
 21
83.556919720883
 31
0.0
  0
LINE
  5
2FE
330
1A9
100
AcDbEntity
  8
Layer0
  6
AUSGEZOGEN
 62
     9
370
    18
100
AcDbLine
 10
156.651830933283
 20
83.556919720883
 30
0.0
 11
156.651830933283
 21
82.402226117368
 31
0.0
  0
LINE
  5
2FF
330
1A9
100
AcDbEntity
  8
Stammform
  6
AUSGEZOGEN
 62
    56
370
    18
100
AcDbLine
 10
160.651830933283
 20
83.556919720883
 30
0.0
 11
158.651830933283
 21
82.402226117368
 31
0.0
  0
LINE
  5
300
330
1A9
100
AcDbEntity
  8
Stammform
  6
AUSGEZOGEN
 62
    56
370
    18
100
AcDbLine
 10
158.651830933283
 20
82.402226117368
 30
0.0
 11
156.651830933283
 21
83.556919720883
 31
0.0
  0
LINE
  5
301
330
1A9
100
AcDbEntity
  8
Stammform
  6
AUSGEZOGEN
 62
    56
370
    18
100
AcDbLine
 10
154.651830933283
 20
82.402226117368
 30
0.0
 11
152.651830933283
 21
83.556919720883
 31
0.0
  0
LINE
  5
302
330
1A9
100
AcDbEntity
  8
Stammform
  6
AUSGEZOGEN
 62
    56
370
    18
100
AcDbLine
 10
156.651830933283
 20
83.556919720883
 30
0.0
 11
154.651830933283
 21
82.402226117368
 31
0.0
  0
LINE
  5
303
330
1A9
100
AcDbEntity
  8
Layer0
  6
AUSGEZOGEN
 62
     9
370
    18
100
AcDbLine
 10
156.651830933283
 20
83.556919720883
 30
0.0
 11
154.651830933283
 21
84.711628583188
 31
0.0
  0
LINE
  5
304
330
1A9
100
AcDbEntity
  8
Layer0
  6
AUSGEZOGEN
 62
     9
370
    18
100
AcDbLine
 10
154.651830933283
 20
84.711628583188
 30
0.0
 11
152.651830933283
 21
83.556919720883
 31
0.0
  0
ENDBLK
  5
1AB
330
1A9
100
AcDbEntity
  8
0
100
AcDbBlockEnd
  0
BLOCK
  5
30A
330
309
100
AcDbEntity
  8
0
100
AcDbBlockBegin
  2
SECHSK1_nNn04
 70
     0
 10
0.0
 20
0.0
 30
0.0
  3
SECHSK1_nNn04
  1

  0
LINE
  5
30C
330
309
100
AcDbEntity
  8
Layer0
  6
AUSGEZOGEN
 62
     9
370
    18
100
AcDbLine
 10
158.651830933283
 20
93.94922318768
 30
0.0
 11
156.651830933283
 21
95.103932049985
 31
0.0
  0
LINE
  5
30D
330
309
100
AcDbEntity
  8
Layer0
  6
AUSGEZOGEN
 62
     9
370
    18
100
AcDbLine
 10
156.651830933283
 20
95.103932049985
 30
0.0
 11
154.651830933283
 21
93.94922318768
 31
0.0
  0
LINE
  5
30E
330
309
100
AcDbEntity
  8
Layer0
  6
AUSGEZOGEN
 62
     9
370
    18
100
AcDbLine
 10
154.651830933283
 20
93.94922318768
 30
0.0
 11
154.651830933283
 21
91.639835980649
 31
0.0
  0
LINE
  5
30F
330
309
100
AcDbEntity
  8
Layer0
  6
AUSGEZOGEN
 62
     9
370
    18
100
AcDbLine
 10
154.651830933283
 20
91.639835980649
 30
0.0
 11
156.651830933283
 21
90.485127118344
 31
0.0
  0
LINE
  5
310
330
309
100
AcDbEntity
  8
Layer0
  6
AUSGEZOGEN
 62
     9
370
    18
100
AcDbLine
 10
156.651830933283
 20
90.485127118344
 30
0.0
 11
158.651830933283
 21
91.639835980649
 31
0.0
  0
LINE
  5
311
330
309
100
AcDbEntity
  8
Layer0
  6
AUSGEZOGEN
 62
     9
370
    18
100
AcDbLine
 10
158.651830933283
 20
91.639835980649
 30
0.0
 11
158.651830933283
 21
93.94922318768
 31
0.0
  0
LINE
  5
312
330
309
100
AcDbEntity
  8
Stammform
  6
AUSGEZOGEN
 62
    56
370
    18
100
AcDbLine
 10
158.651830933283
 20
93.94922318768
 30
0.0
 11
156.651830933283
 21
92.794529584165
 31
0.0
  0
LINE
  5
313
330
309
100
AcDbEntity
  8
Stammform
  6
AUSGEZOGEN
 62
    56
370
    18
100
AcDbLine
 10
156.651830933283
 20
92.794529584165
 30
0.0
 11
156.651830933283
 21
90.485127118344
 31
0.0
  0
LINE
  5
314
330
309
100
AcDbEntity
  8
Stammform
  6
AUSGEZOGEN
 62
    56
370
    18
100
AcDbLine
 10
156.651830933283
 20
92.794529584165
 30
0.0
 11
154.651830933283
 21
93.94922318768
 31
0.0
  0
LINE
  5
315
330
309
100
AcDbEntity
  8
Stammform
  6
AUSGEZOGEN
 62
    56
370
    18
100
AcDbLine
 10
160.651830933283
 20
92.794529584165
 30
0.0
 11
158.651830933283
 21
93.94922318768
 31
0.0
  0
LINE
  5
316
330
309
100
AcDbEntity
  8
Stammform
  6
AUSGEZOGEN
 62
    56
370
    18
100
AcDbLine
 10
160.651830933283
 20
92.794529584165
 30
0.0
 11
160.651830933283
 21
90.485127118344
 31
0.0
  0
LINE
  5
317
330
309
100
AcDbEntity
  8
Stammform
  6
AUSGEZOGEN
 62
    56
370
    18
100
AcDbLine
 10
162.651830933283
 20
93.94922318768
 30
0.0
 11
160.651830933283
 21
92.794529584165
 31
0.0
  0
LINE
  5
318
330
309
100
AcDbEntity
  8
Layer0
  6
AUSGEZOGEN
 62
     9
370
    18
100
AcDbLine
 10
162.651830933283
 20
93.94922318768
 30
0.0
 11
160.651830933283
 21
95.103932049985
 31
0.0
  0
LINE
  5
319
330
309
100
AcDbEntity
  8
Layer0
  6
AUSGEZOGEN
 62
     9
370
    18
100
AcDbLine
 10
160.651830933283
 20
95.103932049985
 30
0.0
 11
158.651830933283
 21
93.94922318768
 31
0.0
  0
LINE
  5
31A
330
309
100
AcDbEntity
  8
Layer0
  6
AUSGEZOGEN
 62
     9
370
    18
100
AcDbLine
 10
158.651830933283
 20
93.94922318768
 30
0.0
 11
158.651830933283
 21
91.639835980649
 31
0.0
  0
LINE
  5
31B
330
309
100
AcDbEntity
  8
Layer0
  6
AUSGEZOGEN
 62
     9
370
    18
100
AcDbLine
 10
158.651830933283
 20
91.639835980649
 30
0.0
 11
160.651830933283
 21
90.485127118344
 31
0.0
  0
LINE
  5
31C
330
309
100
AcDbEntity
  8
Layer0
  6
AUSGEZOGEN
 62
     9
370
    18
100
AcDbLine
 10
160.651830933283
 20
90.485127118344
 30
0.0
 11
162.651830933283
 21
91.639835980649
 31
0.0
  0
LINE
  5
31D
330
309
100
AcDbEntity
  8
Layer0
  6
AUSGEZOGEN
 62
     9
370
    18
100
AcDbLine
 10
162.651830933283
 20
91.639835980649
 30
0.0
 11
162.651830933283
 21
93.94922318768
 31
0.0
  0
LINE
  5
31E
330
309
100
AcDbEntity
  8
Layer0
  6
AUSGEZOGEN
 62
     9
370
    18
100
AcDbLine
 10
170.651830933283
 20
93.94922318768
 30
0.0
 11
168.651830933283
 21
95.103932049985
 31
0.0
  0
LINE
  5
31F
330
309
100
AcDbEntity
  8
Layer0
  6
AUSGEZOGEN
 62
     9
370
    18
100
AcDbLine
 10
168.651830933283
 20
95.103932049985
 30
0.0
 11
166.651830933283
 21
93.94922318768
 31
0.0
  0
LINE
  5
320
330
309
100
AcDbEntity
  8
Layer0
  6
AUSGEZOGEN
 62
     9
370
    18
100
AcDbLine
 10
166.651830933283
 20
93.94922318768
 30
0.0
 11
166.651830933283
 21
91.639835980649
 31
0.0
  0
LINE
  5
321
330
309
100
AcDbEntity
  8
Layer0
  6
AUSGEZOGEN
 62
     9
370
    18
100
AcDbLine
 10
166.651830933283
 20
91.639835980649
 30
0.0
 11
168.651830933283
 21
90.485127118344
 31
0.0
  0
LINE
  5
322
330
309
100
AcDbEntity
  8
Layer0
  6
AUSGEZOGEN
 62
     9
370
    18
100
AcDbLine
 10
168.651830933283
 20
90.485127118344
 30
0.0
 11
170.651830933283
 21
91.639835980649
 31
0.0
  0
LINE
  5
323
330
309
100
AcDbEntity
  8
Stammform
  6
AUSGEZOGEN
 62
    56
370
    18
100
AcDbLine
 10
170.651830933283
 20
93.94922318768
 30
0.0
 11
168.651830933283
 21
92.794529584165
 31
0.0
  0
LINE
  5
324
330
309
100
AcDbEntity
  8
Stammform
  6
AUSGEZOGEN
 62
    56
370
    18
100
AcDbLine
 10
168.651830933283
 20
92.794529584165
 30
0.0
 11
168.651830933283
 21
90.485127118344
 31
0.0
  0
LINE
  5
325
330
309
100
AcDbEntity
  8
Stammform
  6
AUSGEZOGEN
 62
    56
370
    18
100
AcDbLine
 10
168.651830933283
 20
92.794529584165
 30
0.0
 11
166.651830933283
 21
93.94922318768
 31
0.0
  0
LINE
  5
326
330
309
100
AcDbEntity
  8
Stammform
  6
AUSGEZOGEN
 62
    56
370
    18
100
AcDbLine
 10
164.651830933283
 20
92.794529584165
 30
0.0
 11
162.651830933283
 21
93.94922318768
 31
0.0
  0
LINE
  5
327
330
309
100
AcDbEntity
  8
Stammform
  6
AUSGEZOGEN
 62
    56
370
    18
100
AcDbLine
 10
164.651830933283
 20
92.794529584165
 30
0.0
 11
164.651830933283
 21
90.485127118344
 31
0.0
  0
LINE
  5
328
330
309
100
AcDbEntity
  8
Stammform
  6
AUSGEZOGEN
 62
    56
370
    18
100
AcDbLine
 10
166.651830933283
 20
93.94922318768
 30
0.0
 11
164.651830933283
 21
92.794529584165
 31
0.0
  0
LINE
  5
329
330
309
100
AcDbEntity
  8
Layer0
  6
AUSGEZOGEN
 62
     9
370
    18
100
AcDbLine
 10
166.651830933283
 20
93.94922318768
 30
0.0
 11
164.651830933283
 21
95.103932049985
 31
0.0
  0
LINE
  5
32A
330
309
100
AcDbEntity
  8
Layer0
  6
AUSGEZOGEN
 62
     9
370
    18
100
AcDbLine
 10
164.651830933283
 20
95.103932049985
 30
0.0
 11
162.651830933283
 21
93.94922318768
 31
0.0
  0
LINE
  5
32B
330
309
100
AcDbEntity
  8
Layer0
  6
AUSGEZOGEN
 62
     9
370
    18
100
AcDbLine
 10
162.651830933283
 20
93.94922318768
 30
0.0
 11
162.651830933283
 21
91.639835980649
 31
0.0
  0
LINE
  5
32C
330
309
100
AcDbEntity
  8
Layer0
  6
AUSGEZOGEN
 62
     9
370
    18
100
AcDbLine
 10
162.651830933283
 20
91.639835980649
 30
0.0
 11
164.651830933283
 21
90.485127118344
 31
0.0
  0
LINE
  5
32D
330
309
100
AcDbEntity
  8
Layer0
  6
AUSGEZOGEN
 62
     9
370
    18
100
AcDbLine
 10
164.651830933283
 20
90.485127118344
 30
0.0
 11
166.651830933283
 21
91.639835980649
 31
0.0
  0
LINE
  5
32E
330
309
100
AcDbEntity
  8
Layer0
  6
AUSGEZOGEN
 62
     9
370
    18
100
AcDbLine
 10
166.651830933283
 20
91.639835980649
 30
0.0
 11
166.651830933283
 21
93.94922318768
 31
0.0
  0
LINE
  5
32F
330
309
100
AcDbEntity
  8
Layer0
  6
AUSGEZOGEN
 62
     9
370
    18
100
AcDbLine
 10
150.651830933283
 20
93.94922318768
 30
0.0
 11
148.651830933283
 21
95.103932049985
 31
0.0
  0
LINE
  5
330
330
309
100
AcDbEntity
  8
Layer0
  6
AUSGEZOGEN
 62
     9
370
    18
100
AcDbLine
 10
148.651830933283
 20
95.103932049985
 30
0.0
 11
146.651830933283
 21
93.94922318768
 31
0.0
  0
LINE
  5
331
330
309
100
AcDbEntity
  8
Layer0
  6
AUSGEZOGEN
 62
     9
370
    18
100
AcDbLine
 10
146.651830933283
 20
93.94922318768
 30
0.0
 11
146.651830933283
 21
91.639835980649
 31
0.0
  0
LINE
  5
332
330
309
100
AcDbEntity
  8
Layer0
  6
AUSGEZOGEN
 62
     9
370
    18
100
AcDbLine
 10
146.651830933283
 20
91.639835980649
 30
0.0
 11
148.651830933283
 21
90.485127118344
 31
0.0
  0
LINE
  5
333
330
309
100
AcDbEntity
  8
Layer0
  6
AUSGEZOGEN
 62
     9
370
    18
100
AcDbLine
 10
148.651830933283
 20
90.485127118344
 30
0.0
 11
150.651830933283
 21
91.639835980649
 31
0.0
  0
LINE
  5
334
330
309
100
AcDbEntity
  8
Layer0
  6
AUSGEZOGEN
 62
     9
370
    18
100
AcDbLine
 10
150.651830933283
 20
91.639835980649
 30
0.0
 11
150.651830933283
 21
93.94922318768
 31
0.0
  0
LINE
  5
335
330
309
100
AcDbEntity
  8
Stammform
  6
AUSGEZOGEN
 62
    56
370
    18
100
AcDbLine
 10
150.651830933283
 20
93.94922318768
 30
0.0
 11
148.651830933283
 21
92.794529584165
 31
0.0
  0
LINE
  5
336
330
309
100
AcDbEntity
  8
Stammform
  6
AUSGEZOGEN
 62
    56
370
    18
100
AcDbLine
 10
148.651830933283
 20
92.794529584165
 30
0.0
 11
148.651830933283
 21
90.485127118344
 31
0.0
  0
LINE
  5
337
330
309
100
AcDbEntity
  8
Stammform
  6
AUSGEZOGEN
 62
    56
370
    18
100
AcDbLine
 10
148.651830933283
 20
92.794529584165
 30
0.0
 11
146.651830933283
 21
93.94922318768
 31
0.0
  0
LINE
  5
338
330
309
100
AcDbEntity
  8
Stammform
  6
AUSGEZOGEN
 62
    56
370
    18
100
AcDbLine
 10
152.651830933283
 20
92.794529584165
 30
0.0
 11
150.651830933283
 21
93.94922318768
 31
0.0
  0
LINE
  5
339
330
309
100
AcDbEntity
  8
Stammform
  6
AUSGEZOGEN
 62
    56
370
    18
100
AcDbLine
 10
152.651830933283
 20
92.794529584165
 30
0.0
 11
152.651830933283
 21
90.485127118344
 31
0.0
  0
LINE
  5
33A
330
309
100
AcDbEntity
  8
Stammform
  6
AUSGEZOGEN
 62
    56
370
    18
100
AcDbLine
 10
154.651830933283
 20
93.94922318768
 30
0.0
 11
152.651830933283
 21
92.794529584165
 31
0.0
  0
LINE
  5
33B
330
309
100
AcDbEntity
  8
Layer0
  6
AUSGEZOGEN
 62
     9
370
    18
100
AcDbLine
 10
154.651830933283
 20
93.94922318768
 30
0.0
 11
152.651830933283
 21
95.103932049985
 31
0.0
  0
LINE
  5
33C
330
309
100
AcDbEntity
  8
Layer0
  6
AUSGEZOGEN
 62
     9
370
    18
100
AcDbLine
 10
152.651830933283
 20
95.103932049985
 30
0.0
 11
150.651830933283
 21
93.94922318768
 31
0.0
  0
LINE
  5
33D
330
309
100
AcDbEntity
  8
Layer0
  6
AUSGEZOGEN
 62
     9
370
    18
100
AcDbLine
 10
150.651830933283
 20
93.94922318768
 30
0.0
 11
150.651830933283
 21
91.639835980649
 31
0.0
  0
LINE
  5
33E
330
309
100
AcDbEntity
  8
Layer0
  6
AUSGEZOGEN
 62
     9
370
    18
100
AcDbLine
 10
150.651830933283
 20
91.639835980649
 30
0.0
 11
152.651830933283
 21
90.485127118344
 31
0.0
  0
LINE
  5
33F
330
309
100
AcDbEntity
  8
Layer0
  6
AUSGEZOGEN
 62
     9
370
    18
100
AcDbLine
 10
152.651830933283
 20
90.485127118344
 30
0.0
 11
154.651830933283
 21
91.639835980649
 31
0.0
  0
LINE
  5
340
330
309
100
AcDbEntity
  8
Layer0
  6
AUSGEZOGEN
 62
     9
370
    18
100
AcDbLine
 10
154.651830933283
 20
91.639835980649
 30
0.0
 11
154.651830933283
 21
93.94922318768
 31
0.0
  0
LINE
  5
341
330
309
100
AcDbEntity
  8
Layer0
  6
AUSGEZOGEN
 62
     9
370
    18
100
AcDbLine
 10
142.651830933283
 20
93.94922318768
 30
0.0
 11
140.651830933283
 21
95.103932049985
 31
0.0
  0
LINE
  5
342
330
309
100
AcDbEntity
  8
Layer0
  6
AUSGEZOGEN
 62
     9
370
    18
100
AcDbLine
 10
140.651830933283
 20
95.103932049985
 30
0.0
 11
138.651830933283
 21
93.94922318768
 31
0.0
  0
LINE
  5
343
330
309
100
AcDbEntity
  8
Layer0
  6
AUSGEZOGEN
 62
     9
370
    18
100
AcDbLine
 10
138.651830933283
 20
93.94922318768
 30
0.0
 11
138.651830933283
 21
91.639835980649
 31
0.0
  0
LINE
  5
344
330
309
100
AcDbEntity
  8
Layer0
  6
AUSGEZOGEN
 62
     9
370
    18
100
AcDbLine
 10
138.651830933283
 20
91.639835980649
 30
0.0
 11
140.651830933283
 21
90.485127118344
 31
0.0
  0
LINE
  5
345
330
309
100
AcDbEntity
  8
Layer0
  6
AUSGEZOGEN
 62
     9
370
    18
100
AcDbLine
 10
140.651830933283
 20
90.485127118344
 30
0.0
 11
142.651830933283
 21
91.639835980649
 31
0.0
  0
LINE
  5
346
330
309
100
AcDbEntity
  8
Layer0
  6
AUSGEZOGEN
 62
     9
370
    18
100
AcDbLine
 10
142.651830933283
 20
91.639835980649
 30
0.0
 11
142.651830933283
 21
93.94922318768
 31
0.0
  0
LINE
  5
347
330
309
100
AcDbEntity
  8
Stammform
  6
AUSGEZOGEN
 62
    56
370
    18
100
AcDbLine
 10
142.651830933283
 20
93.94922318768
 30
0.0
 11
140.651830933283
 21
92.794529584165
 31
0.0
  0
LINE
  5
348
330
309
100
AcDbEntity
  8
Stammform
  6
AUSGEZOGEN
 62
    56
370
    18
100
AcDbLine
 10
140.651830933283
 20
92.794529584165
 30
0.0
 11
140.651830933283
 21
90.485127118344
 31
0.0
  0
LINE
  5
349
330
309
100
AcDbEntity
  8
Stammform
  6
AUSGEZOGEN
 62
    56
370
    18
100
AcDbLine
 10
140.651830933283
 20
92.794529584165
 30
0.0
 11
138.651830933283
 21
93.94922318768
 31
0.0
  0
LINE
  5
34A
330
309
100
AcDbEntity
  8
Stammform
  6
AUSGEZOGEN
 62
    56
370
    18
100
AcDbLine
 10
144.651830933283
 20
92.794529584165
 30
0.0
 11
142.651830933283
 21
93.94922318768
 31
0.0
  0
LINE
  5
34B
330
309
100
AcDbEntity
  8
Stammform
  6
AUSGEZOGEN
 62
    56
370
    18
100
AcDbLine
 10
144.651830933283
 20
92.794529584165
 30
0.0
 11
144.651830933283
 21
90.485127118344
 31
0.0
  0
LINE
  5
34C
330
309
100
AcDbEntity
  8
Stammform
  6
AUSGEZOGEN
 62
    56
370
    18
100
AcDbLine
 10
146.651830933283
 20
93.94922318768
 30
0.0
 11
144.651830933283
 21
92.794529584165
 31
0.0
  0
LINE
  5
34D
330
309
100
AcDbEntity
  8
Layer0
  6
AUSGEZOGEN
 62
     9
370
    18
100
AcDbLine
 10
146.651830933283
 20
93.94922318768
 30
0.0
 11
144.651830933283
 21
95.103932049985
 31
0.0
  0
LINE
  5
34E
330
309
100
AcDbEntity
  8
Layer0
  6
AUSGEZOGEN
 62
     9
370
    18
100
AcDbLine
 10
144.651830933283
 20
95.103932049985
 30
0.0
 11
142.651830933283
 21
93.94922318768
 31
0.0
  0
LINE
  5
34F
330
309
100
AcDbEntity
  8
Layer0
  6
AUSGEZOGEN
 62
     9
370
    18
100
AcDbLine
 10
142.651830933283
 20
93.94922318768
 30
0.0
 11
142.651830933283
 21
91.639835980649
 31
0.0
  0
LINE
  5
350
330
309
100
AcDbEntity
  8
Layer0
  6
AUSGEZOGEN
 62
     9
370
    18
100
AcDbLine
 10
142.651830933283
 20
91.639835980649
 30
0.0
 11
144.651830933283
 21
90.485127118344
 31
0.0
  0
LINE
  5
351
330
309
100
AcDbEntity
  8
Layer0
  6
AUSGEZOGEN
 62
     9
370
    18
100
AcDbLine
 10
144.651830933283
 20
90.485127118344
 30
0.0
 11
146.651830933283
 21
91.639835980649
 31
0.0
  0
LINE
  5
352
330
309
100
AcDbEntity
  8
Layer0
  6
AUSGEZOGEN
 62
     9
370
    18
100
AcDbLine
 10
146.651830933283
 20
91.639835980649
 30
0.0
 11
146.651830933283
 21
93.94922318768
 31
0.0
  0
LINE
  5
353
330
309
100
AcDbEntity
  8
Stammform
  6
AUSGEZOGEN
 62
    56
370
    18
100
AcDbLine
 10
136.651830933283
 20
92.794529584165
 30
0.0
 11
134.651830933283
 21
93.94922318768
 31
0.0
  0
LINE
  5
354
330
309
100
AcDbEntity
  8
Stammform
  6
AUSGEZOGEN
 62
    56
370
    18
100
AcDbLine
 10
136.651830933283
 20
92.794529584165
 30
0.0
 11
136.651830933283
 21
90.485127118344
 31
0.0
  0
LINE
  5
355
330
309
100
AcDbEntity
  8
Stammform
  6
AUSGEZOGEN
 62
    56
370
    18
100
AcDbLine
 10
138.651830933283
 20
93.94922318768
 30
0.0
 11
136.651830933283
 21
92.794529584165
 31
0.0
  0
LINE
  5
356
330
309
100
AcDbEntity
  8
Layer0
  6
AUSGEZOGEN
 62
     9
370
    18
100
AcDbLine
 10
138.651830933283
 20
93.94922318768
 30
0.0
 11
136.651830933283
 21
95.103932049985
 31
0.0
  0
LINE
  5
357
330
309
100
AcDbEntity
  8
Layer0
  6
AUSGEZOGEN
 62
     9
370
    18
100
AcDbLine
 10
136.651830933283
 20
95.103932049985
 30
0.0
 11
134.651830933283
 21
93.94922318768
 31
0.0
  0
LINE
  5
358
330
309
100
AcDbEntity
  8
Layer0
  6
AUSGEZOGEN
 62
     9
370
    18
100
AcDbLine
 10
134.651830933283
 20
91.639835980649
 30
0.0
 11
136.651830933283
 21
90.485127118344
 31
0.0
  0
LINE
  5
359
330
309
100
AcDbEntity
  8
Layer0
  6
AUSGEZOGEN
 62
     9
370
    18
100
AcDbLine
 10
136.651830933283
 20
90.485127118344
 30
0.0
 11
138.651830933283
 21
91.639835980649
 31
0.0
  0
LINE
  5
35A
330
309
100
AcDbEntity
  8
Layer0
  6
AUSGEZOGEN
 62
     9
370
    18
100
AcDbLine
 10
138.651830933283
 20
91.639835980649
 30
0.0
 11
138.651830933283
 21
93.94922318768
 31
0.0
  0
LINE
  5
35B
330
309
100
AcDbEntity
  8
Layer0
  6
AUSGEZOGEN
 62
     9
370
    18
100
AcDbLine
 10
134.651830933283
 20
93.94922318768
 30
0.0
 11
136.651830933283
 21
95.103932049985
 31
0.0
  0
LINE
  5
35C
330
309
100
AcDbEntity
  8
Layer0
  6
AUSGEZOGEN
 62
     9
370
    18
100
AcDbLine
 10
136.651830933283
 20
95.103932049985
 30
0.0
 11
136.651830933283
 21
97.413334515805
 31
0.0
  0
LINE
  5
35D
330
309
100
AcDbEntity
  8
Stammform
  6
AUSGEZOGEN
 62
    56
370
    18
100
AcDbLine
 10
136.651830933283
 20
97.413334515805
 30
0.0
 11
134.651830933283
 21
96.258625653501
 31
0.0
  0
LINE
  5
35E
330
309
100
AcDbEntity
  8
Layer0
  6
AUSGEZOGEN
 62
     9
370
    18
100
AcDbLine
 10
140.651830933283
 20
97.413334515805
 30
0.0
 11
140.651830933283
 21
95.103932049985
 31
0.0
  0
LINE
  5
35F
330
309
100
AcDbEntity
  8
Layer0
  6
AUSGEZOGEN
 62
     9
370
    18
100
AcDbLine
 10
140.651830933283
 20
95.103932049985
 30
0.0
 11
142.651830933283
 21
93.94922318768
 31
0.0
  0
LINE
  5
360
330
309
100
AcDbEntity
  8
Layer0
  6
AUSGEZOGEN
 62
     9
370
    18
100
AcDbLine
 10
142.651830933283
 20
93.94922318768
 30
0.0
 11
144.651830933283
 21
95.103932049985
 31
0.0
  0
LINE
  5
361
330
309
100
AcDbEntity
  8
Layer0
  6
AUSGEZOGEN
 62
     9
370
    18
100
AcDbLine
 10
144.651830933283
 20
95.103932049985
 30
0.0
 11
144.651830933283
 21
97.413334515805
 31
0.0
  0
LINE
  5
362
330
309
100
AcDbEntity
  8
Stammform
  6
AUSGEZOGEN
 62
    56
370
    18
100
AcDbLine
 10
144.651830933283
 20
97.413334515805
 30
0.0
 11
142.651830933283
 21
96.258625653501
 31
0.0
  0
LINE
  5
363
330
309
100
AcDbEntity
  8
Stammform
  6
AUSGEZOGEN
 62
    56
370
    18
100
AcDbLine
 10
142.651830933283
 20
96.258625653501
 30
0.0
 11
142.651830933283
 21
93.94922318768
 31
0.0
  0
LINE
  5
364
330
309
100
AcDbEntity
  8
Stammform
  6
AUSGEZOGEN
 62
    56
370
    18
100
AcDbLine
 10
142.651830933283
 20
96.258625653501
 30
0.0
 11
140.651830933283
 21
97.413334515805
 31
0.0
  0
LINE
  5
365
330
309
100
AcDbEntity
  8
Stammform
  6
AUSGEZOGEN
 62
    56
370
    18
100
AcDbLine
 10
138.651830933283
 20
96.258625653501
 30
0.0
 11
136.651830933283
 21
97.413334515805
 31
0.0
  0
LINE
  5
366
330
309
100
AcDbEntity
  8
Stammform
  6
AUSGEZOGEN
 62
    56
370
    18
100
AcDbLine
 10
138.651830933283
 20
96.258625653501
 30
0.0
 11
138.651830933283
 21
93.94922318768
 31
0.0
  0
LINE
  5
367
330
309
100
AcDbEntity
  8
Stammform
  6
AUSGEZOGEN
 62
    56
370
    18
100
AcDbLine
 10
140.651830933283
 20
97.413334515805
 30
0.0
 11
138.651830933283
 21
96.258625653501
 31
0.0
  0
LINE
  5
368
330
309
100
AcDbEntity
  8
Layer0
  6
AUSGEZOGEN
 62
     9
370
    18
100
AcDbLine
 10
136.651830933283
 20
97.413334515805
 30
0.0
 11
136.651830933283
 21
95.103932049985
 31
0.0
  0
LINE
  5
369
330
309
100
AcDbEntity
  8
Layer0
  6
AUSGEZOGEN
 62
     9
370
    18
100
AcDbLine
 10
136.651830933283
 20
95.103932049985
 30
0.0
 11
138.651830933283
 21
93.94922318768
 31
0.0
  0
LINE
  5
36A
330
309
100
AcDbEntity
  8
Layer0
  6
AUSGEZOGEN
 62
     9
370
    18
100
AcDbLine
 10
138.651830933283
 20
93.94922318768
 30
0.0
 11
140.651830933283
 21
95.103932049985
 31
0.0
  0
LINE
  5
36B
330
309
100
AcDbEntity
  8
Layer0
  6
AUSGEZOGEN
 62
     9
370
    18
100
AcDbLine
 10
140.651830933283
 20
95.103932049985
 30
0.0
 11
140.651830933283
 21
97.413334515805
 31
0.0
  0
LINE
  5
36C
330
309
100
AcDbEntity
  8
Layer0
  6
AUSGEZOGEN
 62
     9
370
    18
100
AcDbLine
 10
148.651830933283
 20
97.413334515805
 30
0.0
 11
148.651830933283
 21
95.103932049985
 31
0.0
  0
LINE
  5
36D
330
309
100
AcDbEntity
  8
Layer0
  6
AUSGEZOGEN
 62
     9
370
    18
100
AcDbLine
 10
148.651830933283
 20
95.103932049985
 30
0.0
 11
150.651830933283
 21
93.94922318768
 31
0.0
  0
LINE
  5
36E
330
309
100
AcDbEntity
  8
Layer0
  6
AUSGEZOGEN
 62
     9
370
    18
100
AcDbLine
 10
150.651830933283
 20
93.94922318768
 30
0.0
 11
152.651830933283
 21
95.103932049985
 31
0.0
  0
LINE
  5
36F
330
309
100
AcDbEntity
  8
Layer0
  6
AUSGEZOGEN
 62
     9
370
    18
100
AcDbLine
 10
152.651830933283
 20
95.103932049985
 30
0.0
 11
152.651830933283
 21
97.413334515805
 31
0.0
  0
LINE
  5
370
330
309
100
AcDbEntity
  8
Stammform
  6
AUSGEZOGEN
 62
    56
370
    18
100
AcDbLine
 10
152.651830933283
 20
97.413334515805
 30
0.0
 11
150.651830933283
 21
96.258625653501
 31
0.0
  0
LINE
  5
371
330
309
100
AcDbEntity
  8
Stammform
  6
AUSGEZOGEN
 62
    56
370
    18
100
AcDbLine
 10
150.651830933283
 20
96.258625653501
 30
0.0
 11
150.651830933283
 21
93.94922318768
 31
0.0
  0
LINE
  5
372
330
309
100
AcDbEntity
  8
Stammform
  6
AUSGEZOGEN
 62
    56
370
    18
100
AcDbLine
 10
150.651830933283
 20
96.258625653501
 30
0.0
 11
148.651830933283
 21
97.413334515805
 31
0.0
  0
LINE
  5
373
330
309
100
AcDbEntity
  8
Stammform
  6
AUSGEZOGEN
 62
    56
370
    18
100
AcDbLine
 10
146.651830933283
 20
96.258625653501
 30
0.0
 11
144.651830933283
 21
97.413334515805
 31
0.0
  0
LINE
  5
374
330
309
100
AcDbEntity
  8
Stammform
  6
AUSGEZOGEN
 62
    56
370
    18
100
AcDbLine
 10
146.651830933283
 20
96.258625653501
 30
0.0
 11
146.651830933283
 21
93.94922318768
 31
0.0
  0
LINE
  5
375
330
309
100
AcDbEntity
  8
Stammform
  6
AUSGEZOGEN
 62
    56
370
    18
100
AcDbLine
 10
148.651830933283
 20
97.413334515805
 30
0.0
 11
146.651830933283
 21
96.258625653501
 31
0.0
  0
LINE
  5
376
330
309
100
AcDbEntity
  8
Layer0
  6
AUSGEZOGEN
 62
     9
370
    18
100
AcDbLine
 10
144.651830933283
 20
97.413334515805
 30
0.0
 11
144.651830933283
 21
95.103932049985
 31
0.0
  0
LINE
  5
377
330
309
100
AcDbEntity
  8
Layer0
  6
AUSGEZOGEN
 62
     9
370
    18
100
AcDbLine
 10
144.651830933283
 20
95.103932049985
 30
0.0
 11
146.651830933283
 21
93.94922318768
 31
0.0
  0
LINE
  5
378
330
309
100
AcDbEntity
  8
Layer0
  6
AUSGEZOGEN
 62
     9
370
    18
100
AcDbLine
 10
146.651830933283
 20
93.94922318768
 30
0.0
 11
148.651830933283
 21
95.103932049985
 31
0.0
  0
LINE
  5
379
330
309
100
AcDbEntity
  8
Layer0
  6
AUSGEZOGEN
 62
     9
370
    18
100
AcDbLine
 10
148.651830933283
 20
95.103932049985
 30
0.0
 11
148.651830933283
 21
97.413334515805
 31
0.0
  0
LINE
  5
37A
330
309
100
AcDbEntity
  8
Layer0
  6
AUSGEZOGEN
 62
     9
370
    18
100
AcDbLine
 10
168.651830933283
 20
97.413334515805
 30
0.0
 11
168.651830933283
 21
95.103932049985
 31
0.0
  0
LINE
  5
37B
330
309
100
AcDbEntity
  8
Layer0
  6
AUSGEZOGEN
 62
     9
370
    18
100
AcDbLine
 10
168.651830933283
 20
95.103932049985
 30
0.0
 11
170.651830933283
 21
93.94922318768
 31
0.0
  0
LINE
  5
37C
330
309
100
AcDbEntity
  8
Stammform
  6
AUSGEZOGEN
 62
    56
370
    18
100
AcDbLine
 10
170.651830933283
 20
96.258625653501
 30
0.0
 11
168.651830933283
 21
97.413334515805
 31
0.0
  0
LINE
  5
37D
330
309
100
AcDbEntity
  8
Layer0
  6
AUSGEZOGEN
 62
     9
370
    18
100
AcDbLine
 10
160.651830933283
 20
97.413334515805
 30
0.0
 11
160.651830933283
 21
95.103932049985
 31
0.0
  0
LINE
  5
37E
330
309
100
AcDbEntity
  8
Layer0
  6
AUSGEZOGEN
 62
     9
370
    18
100
AcDbLine
 10
160.651830933283
 20
95.103932049985
 30
0.0
 11
162.651830933283
 21
93.94922318768
 31
0.0
  0
LINE
  5
37F
330
309
100
AcDbEntity
  8
Layer0
  6
AUSGEZOGEN
 62
     9
370
    18
100
AcDbLine
 10
162.651830933283
 20
93.94922318768
 30
0.0
 11
164.651830933283
 21
95.103932049985
 31
0.0
  0
LINE
  5
380
330
309
100
AcDbEntity
  8
Layer0
  6
AUSGEZOGEN
 62
     9
370
    18
100
AcDbLine
 10
164.651830933283
 20
95.103932049985
 30
0.0
 11
164.651830933283
 21
97.413334515805
 31
0.0
  0
LINE
  5
381
330
309
100
AcDbEntity
  8
Stammform
  6
AUSGEZOGEN
 62
    56
370
    18
100
AcDbLine
 10
164.651830933283
 20
97.413334515805
 30
0.0
 11
162.651830933283
 21
96.258625653501
 31
0.0
  0
LINE
  5
382
330
309
100
AcDbEntity
  8
Stammform
  6
AUSGEZOGEN
 62
    56
370
    18
100
AcDbLine
 10
162.651830933283
 20
96.258625653501
 30
0.0
 11
162.651830933283
 21
93.94922318768
 31
0.0
  0
LINE
  5
383
330
309
100
AcDbEntity
  8
Stammform
  6
AUSGEZOGEN
 62
    56
370
    18
100
AcDbLine
 10
162.651830933283
 20
96.258625653501
 30
0.0
 11
160.651830933283
 21
97.413334515805
 31
0.0
  0
LINE
  5
384
330
309
100
AcDbEntity
  8
Stammform
  6
AUSGEZOGEN
 62
    56
370
    18
100
AcDbLine
 10
166.651830933283
 20
96.258625653501
 30
0.0
 11
164.651830933283
 21
97.413334515805
 31
0.0
  0
LINE
  5
385
330
309
100
AcDbEntity
  8
Stammform
  6
AUSGEZOGEN
 62
    56
370
    18
100
AcDbLine
 10
166.651830933283
 20
96.258625653501
 30
0.0
 11
166.651830933283
 21
93.94922318768
 31
0.0
  0
LINE
  5
386
330
309
100
AcDbEntity
  8
Stammform
  6
AUSGEZOGEN
 62
    56
370
    18
100
AcDbLine
 10
168.651830933283
 20
97.413334515805
 30
0.0
 11
166.651830933283
 21
96.258625653501
 31
0.0
  0
LINE
  5
387
330
309
100
AcDbEntity
  8
Layer0
  6
AUSGEZOGEN
 62
     9
370
    18
100
AcDbLine
 10
164.651830933283
 20
97.413334515805
 30
0.0
 11
164.651830933283
 21
95.103932049985
 31
0.0
  0
LINE
  5
388
330
309
100
AcDbEntity
  8
Layer0
  6
AUSGEZOGEN
 62
     9
370
    18
100
AcDbLine
 10
164.651830933283
 20
95.103932049985
 30
0.0
 11
166.651830933283
 21
93.94922318768
 31
0.0
  0
LINE
  5
389
330
309
100
AcDbEntity
  8
Layer0
  6
AUSGEZOGEN
 62
     9
370
    18
100
AcDbLine
 10
166.651830933283
 20
93.94922318768
 30
0.0
 11
168.651830933283
 21
95.103932049985
 31
0.0
  0
LINE
  5
38A
330
309
100
AcDbEntity
  8
Layer0
  6
AUSGEZOGEN
 62
     9
370
    18
100
AcDbLine
 10
168.651830933283
 20
95.103932049985
 30
0.0
 11
168.651830933283
 21
97.413334515805
 31
0.0
  0
LINE
  5
38B
330
309
100
AcDbEntity
  8
Layer0
  6
AUSGEZOGEN
 62
     9
370
    18
100
AcDbLine
 10
156.651830933283
 20
97.413334515805
 30
0.0
 11
156.651830933283
 21
95.103932049985
 31
0.0
  0
LINE
  5
38C
330
309
100
AcDbEntity
  8
Layer0
  6
AUSGEZOGEN
 62
     9
370
    18
100
AcDbLine
 10
156.651830933283
 20
95.103932049985
 30
0.0
 11
158.651830933283
 21
93.94922318768
 31
0.0
  0
LINE
  5
38D
330
309
100
AcDbEntity
  8
Layer0
  6
AUSGEZOGEN
 62
     9
370
    18
100
AcDbLine
 10
158.651830933283
 20
93.94922318768
 30
0.0
 11
160.651830933283
 21
95.103932049985
 31
0.0
  0
LINE
  5
38E
330
309
100
AcDbEntity
  8
Layer0
  6
AUSGEZOGEN
 62
     9
370
    18
100
AcDbLine
 10
160.651830933283
 20
95.103932049985
 30
0.0
 11
160.651830933283
 21
97.413334515805
 31
0.0
  0
LINE
  5
38F
330
309
100
AcDbEntity
  8
Stammform
  6
AUSGEZOGEN
 62
    56
370
    18
100
AcDbLine
 10
160.651830933283
 20
97.413334515805
 30
0.0
 11
158.651830933283
 21
96.258625653501
 31
0.0
  0
LINE
  5
390
330
309
100
AcDbEntity
  8
Stammform
  6
AUSGEZOGEN
 62
    56
370
    18
100
AcDbLine
 10
158.651830933283
 20
96.258625653501
 30
0.0
 11
158.651830933283
 21
93.94922318768
 31
0.0
  0
LINE
  5
391
330
309
100
AcDbEntity
  8
Stammform
  6
AUSGEZOGEN
 62
    56
370
    18
100
AcDbLine
 10
158.651830933283
 20
96.258625653501
 30
0.0
 11
156.651830933283
 21
97.413334515805
 31
0.0
  0
LINE
  5
392
330
309
100
AcDbEntity
  8
Stammform
  6
AUSGEZOGEN
 62
    56
370
    18
100
AcDbLine
 10
154.651830933283
 20
96.258625653501
 30
0.0
 11
152.651830933283
 21
97.413334515805
 31
0.0
  0
LINE
  5
393
330
309
100
AcDbEntity
  8
Stammform
  6
AUSGEZOGEN
 62
    56
370
    18
100
AcDbLine
 10
154.651830933283
 20
96.258625653501
 30
0.0
 11
154.651830933283
 21
93.94922318768
 31
0.0
  0
LINE
  5
394
330
309
100
AcDbEntity
  8
Stammform
  6
AUSGEZOGEN
 62
    56
370
    18
100
AcDbLine
 10
156.651830933283
 20
97.413334515805
 30
0.0
 11
154.651830933283
 21
96.258625653501
 31
0.0
  0
LINE
  5
395
330
309
100
AcDbEntity
  8
Layer0
  6
AUSGEZOGEN
 62
     9
370
    18
100
AcDbLine
 10
152.651830933283
 20
97.413334515805
 30
0.0
 11
152.651830933283
 21
95.103932049985
 31
0.0
  0
LINE
  5
396
330
309
100
AcDbEntity
  8
Layer0
  6
AUSGEZOGEN
 62
     9
370
    18
100
AcDbLine
 10
152.651830933283
 20
95.103932049985
 30
0.0
 11
154.651830933283
 21
93.94922318768
 31
0.0
  0
LINE
  5
397
330
309
100
AcDbEntity
  8
Layer0
  6
AUSGEZOGEN
 62
     9
370
    18
100
AcDbLine
 10
154.651830933283
 20
93.94922318768
 30
0.0
 11
156.651830933283
 21
95.103932049985
 31
0.0
  0
LINE
  5
398
330
309
100
AcDbEntity
  8
Layer0
  6
AUSGEZOGEN
 62
     9
370
    18
100
AcDbLine
 10
156.651830933283
 20
95.103932049985
 30
0.0
 11
156.651830933283
 21
97.413334515805
 31
0.0
  0
LINE
  5
399
330
309
100
AcDbEntity
  8
Layer0
  6
AUSGEZOGEN
 62
     9
370
    18
100
AcDbLine
 10
158.651830933283
 20
87.021031049008
 30
0.0
 11
156.651830933283
 21
88.175724652524
 31
0.0
  0
LINE
  5
39A
330
309
100
AcDbEntity
  8
Layer0
  6
AUSGEZOGEN
 62
     9
370
    18
100
AcDbLine
 10
156.651830933283
 20
88.175724652524
 30
0.0
 11
154.651830933283
 21
87.021031049008
 31
0.0
  0
LINE
  5
39B
330
309
100
AcDbEntity
  8
Layer0
  6
AUSGEZOGEN
 62
     9
370
    18
100
AcDbLine
 10
154.651830933283
 20
87.021031049008
 30
0.0
 11
154.651830933283
 21
84.711628583188
 31
0.0
  0
LINE
  5
39C
330
309
100
AcDbEntity
  8
Layer0
  6
AUSGEZOGEN
 62
     9
370
    18
100
AcDbLine
 10
154.651830933283
 20
84.711628583188
 30
0.0
 11
156.651830933283
 21
83.556919720883
 31
0.0
  0
LINE
  5
39D
330
309
100
AcDbEntity
  8
Layer0
  6
AUSGEZOGEN
 62
     9
370
    18
100
AcDbLine
 10
156.651830933283
 20
83.556919720883
 30
0.0
 11
158.651830933283
 21
84.711628583188
 31
0.0
  0
LINE
  5
39E
330
309
100
AcDbEntity
  8
Layer0
  6
AUSGEZOGEN
 62
     9
370
    18
100
AcDbLine
 10
158.651830933283
 20
84.711628583188
 30
0.0
 11
158.651830933283
 21
87.021031049008
 31
0.0
  0
LINE
  5
39F
330
309
100
AcDbEntity
  8
Stammform
  6
AUSGEZOGEN
 62
    56
370
    18
100
AcDbLine
 10
158.651830933283
 20
87.021031049008
 30
0.0
 11
156.651830933283
 21
85.866322186704
 31
0.0
  0
LINE
  5
3A0
330
309
100
AcDbEntity
  8
Stammform
  6
AUSGEZOGEN
 62
    56
370
    18
100
AcDbLine
 10
156.651830933283
 20
85.866322186704
 30
0.0
 11
156.651830933283
 21
83.556919720883
 31
0.0
  0
LINE
  5
3A1
330
309
100
AcDbEntity
  8
Stammform
  6
AUSGEZOGEN
 62
    56
370
    18
100
AcDbLine
 10
156.651830933283
 20
85.866322186704
 30
0.0
 11
154.651830933283
 21
87.021031049008
 31
0.0
  0
LINE
  5
3A2
330
309
100
AcDbEntity
  8
Stammform
  6
AUSGEZOGEN
 62
    56
370
    18
100
AcDbLine
 10
160.651830933283
 20
85.866322186704
 30
0.0
 11
158.651830933283
 21
87.021031049008
 31
0.0
  0
LINE
  5
3A3
330
309
100
AcDbEntity
  8
Stammform
  6
AUSGEZOGEN
 62
    56
370
    18
100
AcDbLine
 10
160.651830933283
 20
85.866322186704
 30
0.0
 11
160.651830933283
 21
83.556919720883
 31
0.0
  0
LINE
  5
3A4
330
309
100
AcDbEntity
  8
Stammform
  6
AUSGEZOGEN
 62
    56
370
    18
100
AcDbLine
 10
162.651830933283
 20
87.021031049008
 30
0.0
 11
160.651830933283
 21
85.866322186704
 31
0.0
  0
LINE
  5
3A5
330
309
100
AcDbEntity
  8
Layer0
  6
AUSGEZOGEN
 62
     9
370
    18
100
AcDbLine
 10
162.651830933283
 20
87.021031049008
 30
0.0
 11
160.651830933283
 21
88.175724652524
 31
0.0
  0
LINE
  5
3A6
330
309
100
AcDbEntity
  8
Layer0
  6
AUSGEZOGEN
 62
     9
370
    18
100
AcDbLine
 10
160.651830933283
 20
88.175724652524
 30
0.0
 11
158.651830933283
 21
87.021031049008
 31
0.0
  0
LINE
  5
3A7
330
309
100
AcDbEntity
  8
Layer0
  6
AUSGEZOGEN
 62
     9
370
    18
100
AcDbLine
 10
158.651830933283
 20
87.021031049008
 30
0.0
 11
158.651830933283
 21
84.711628583188
 31
0.0
  0
LINE
  5
3A8
330
309
100
AcDbEntity
  8
Layer0
  6
AUSGEZOGEN
 62
     9
370
    18
100
AcDbLine
 10
158.651830933283
 20
84.711628583188
 30
0.0
 11
160.651830933283
 21
83.556919720883
 31
0.0
  0
LINE
  5
3A9
330
309
100
AcDbEntity
  8
Layer0
  6
AUSGEZOGEN
 62
     9
370
    18
100
AcDbLine
 10
160.651830933283
 20
83.556919720883
 30
0.0
 11
162.651830933283
 21
84.711628583188
 31
0.0
  0
LINE
  5
3AA
330
309
100
AcDbEntity
  8
Layer0
  6
AUSGEZOGEN
 62
     9
370
    18
100
AcDbLine
 10
162.651830933283
 20
84.711628583188
 30
0.0
 11
162.651830933283
 21
87.021031049008
 31
0.0
  0
LINE
  5
3AB
330
309
100
AcDbEntity
  8
Layer0
  6
AUSGEZOGEN
 62
     9
370
    18
100
AcDbLine
 10
170.651830933283
 20
87.021031049008
 30
0.0
 11
168.651830933283
 21
88.175724652524
 31
0.0
  0
LINE
  5
3AC
330
309
100
AcDbEntity
  8
Layer0
  6
AUSGEZOGEN
 62
     9
370
    18
100
AcDbLine
 10
168.651830933283
 20
88.175724652524
 30
0.0
 11
166.651830933283
 21
87.021031049008
 31
0.0
  0
LINE
  5
3AD
330
309
100
AcDbEntity
  8
Layer0
  6
AUSGEZOGEN
 62
     9
370
    18
100
AcDbLine
 10
166.651830933283
 20
87.021031049008
 30
0.0
 11
166.651830933283
 21
84.711628583188
 31
0.0
  0
LINE
  5
3AE
330
309
100
AcDbEntity
  8
Layer0
  6
AUSGEZOGEN
 62
     9
370
    18
100
AcDbLine
 10
166.651830933283
 20
84.711628583188
 30
0.0
 11
168.651830933283
 21
83.556919720883
 31
0.0
  0
LINE
  5
3AF
330
309
100
AcDbEntity
  8
Layer0
  6
AUSGEZOGEN
 62
     9
370
    18
100
AcDbLine
 10
168.651830933283
 20
83.556919720883
 30
0.0
 11
170.651830933283
 21
84.711628583188
 31
0.0
  0
LINE
  5
3B0
330
309
100
AcDbEntity
  8
Stammform
  6
AUSGEZOGEN
 62
    56
370
    18
100
AcDbLine
 10
170.651830933283
 20
87.021031049008
 30
0.0
 11
168.651830933283
 21
85.866322186704
 31
0.0
  0
LINE
  5
3B1
330
309
100
AcDbEntity
  8
Stammform
  6
AUSGEZOGEN
 62
    56
370
    18
100
AcDbLine
 10
168.651830933283
 20
85.866322186704
 30
0.0
 11
168.651830933283
 21
83.556919720883
 31
0.0
  0
LINE
  5
3B2
330
309
100
AcDbEntity
  8
Stammform
  6
AUSGEZOGEN
 62
    56
370
    18
100
AcDbLine
 10
168.651830933283
 20
85.866322186704
 30
0.0
 11
166.651830933283
 21
87.021031049008
 31
0.0
  0
LINE
  5
3B3
330
309
100
AcDbEntity
  8
Stammform
  6
AUSGEZOGEN
 62
    56
370
    18
100
AcDbLine
 10
164.651830933283
 20
85.866322186704
 30
0.0
 11
162.651830933283
 21
87.021031049008
 31
0.0
  0
LINE
  5
3B4
330
309
100
AcDbEntity
  8
Stammform
  6
AUSGEZOGEN
 62
    56
370
    18
100
AcDbLine
 10
164.651830933283
 20
85.866322186704
 30
0.0
 11
164.651830933283
 21
83.556919720883
 31
0.0
  0
LINE
  5
3B5
330
309
100
AcDbEntity
  8
Stammform
  6
AUSGEZOGEN
 62
    56
370
    18
100
AcDbLine
 10
166.651830933283
 20
87.021031049008
 30
0.0
 11
164.651830933283
 21
85.866322186704
 31
0.0
  0
LINE
  5
3B6
330
309
100
AcDbEntity
  8
Layer0
  6
AUSGEZOGEN
 62
     9
370
    18
100
AcDbLine
 10
166.651830933283
 20
87.021031049008
 30
0.0
 11
164.651830933283
 21
88.175724652524
 31
0.0
  0
LINE
  5
3B7
330
309
100
AcDbEntity
  8
Layer0
  6
AUSGEZOGEN
 62
     9
370
    18
100
AcDbLine
 10
164.651830933283
 20
88.175724652524
 30
0.0
 11
162.651830933283
 21
87.021031049008
 31
0.0
  0
LINE
  5
3B8
330
309
100
AcDbEntity
  8
Layer0
  6
AUSGEZOGEN
 62
     9
370
    18
100
AcDbLine
 10
162.651830933283
 20
87.021031049008
 30
0.0
 11
162.651830933283
 21
84.711628583188
 31
0.0
  0
LINE
  5
3B9
330
309
100
AcDbEntity
  8
Layer0
  6
AUSGEZOGEN
 62
     9
370
    18
100
AcDbLine
 10
162.651830933283
 20
84.711628583188
 30
0.0
 11
164.651830933283
 21
83.556919720883
 31
0.0
  0
LINE
  5
3BA
330
309
100
AcDbEntity
  8
Layer0
  6
AUSGEZOGEN
 62
     9
370
    18
100
AcDbLine
 10
164.651830933283
 20
83.556919720883
 30
0.0
 11
166.651830933283
 21
84.711628583188
 31
0.0
  0
LINE
  5
3BB
330
309
100
AcDbEntity
  8
Layer0
  6
AUSGEZOGEN
 62
     9
370
    18
100
AcDbLine
 10
166.651830933283
 20
84.711628583188
 30
0.0
 11
166.651830933283
 21
87.021031049008
 31
0.0
  0
LINE
  5
3BC
330
309
100
AcDbEntity
  8
Layer0
  6
AUSGEZOGEN
 62
     9
370
    18
100
AcDbLine
 10
150.651830933283
 20
87.021031049008
 30
0.0
 11
148.651830933283
 21
88.175724652524
 31
0.0
  0
LINE
  5
3BD
330
309
100
AcDbEntity
  8
Layer0
  6
AUSGEZOGEN
 62
     9
370
    18
100
AcDbLine
 10
148.651830933283
 20
88.175724652524
 30
0.0
 11
146.651830933283
 21
87.021031049008
 31
0.0
  0
LINE
  5
3BE
330
309
100
AcDbEntity
  8
Layer0
  6
AUSGEZOGEN
 62
     9
370
    18
100
AcDbLine
 10
146.651830933283
 20
87.021031049008
 30
0.0
 11
146.651830933283
 21
84.711628583188
 31
0.0
  0
LINE
  5
3BF
330
309
100
AcDbEntity
  8
Layer0
  6
AUSGEZOGEN
 62
     9
370
    18
100
AcDbLine
 10
146.651830933283
 20
84.711628583188
 30
0.0
 11
148.651830933283
 21
83.556919720883
 31
0.0
  0
LINE
  5
3C0
330
309
100
AcDbEntity
  8
Layer0
  6
AUSGEZOGEN
 62
     9
370
    18
100
AcDbLine
 10
148.651830933283
 20
83.556919720883
 30
0.0
 11
150.651830933283
 21
84.711628583188
 31
0.0
  0
LINE
  5
3C1
330
309
100
AcDbEntity
  8
Layer0
  6
AUSGEZOGEN
 62
     9
370
    18
100
AcDbLine
 10
150.651830933283
 20
84.711628583188
 30
0.0
 11
150.651830933283
 21
87.021031049008
 31
0.0
  0
LINE
  5
3C2
330
309
100
AcDbEntity
  8
Stammform
  6
AUSGEZOGEN
 62
    56
370
    18
100
AcDbLine
 10
150.651830933283
 20
87.021031049008
 30
0.0
 11
148.651830933283
 21
85.866322186704
 31
0.0
  0
LINE
  5
3C3
330
309
100
AcDbEntity
  8
Stammform
  6
AUSGEZOGEN
 62
    56
370
    18
100
AcDbLine
 10
148.651830933283
 20
85.866322186704
 30
0.0
 11
148.651830933283
 21
83.556919720883
 31
0.0
  0
LINE
  5
3C4
330
309
100
AcDbEntity
  8
Stammform
  6
AUSGEZOGEN
 62
    56
370
    18
100
AcDbLine
 10
148.651830933283
 20
85.866322186704
 30
0.0
 11
146.651830933283
 21
87.021031049008
 31
0.0
  0
LINE
  5
3C5
330
309
100
AcDbEntity
  8
Stammform
  6
AUSGEZOGEN
 62
    56
370
    18
100
AcDbLine
 10
152.651830933283
 20
85.866322186704
 30
0.0
 11
150.651830933283
 21
87.021031049008
 31
0.0
  0
LINE
  5
3C6
330
309
100
AcDbEntity
  8
Stammform
  6
AUSGEZOGEN
 62
    56
370
    18
100
AcDbLine
 10
152.651830933283
 20
85.866322186704
 30
0.0
 11
152.651830933283
 21
83.556919720883
 31
0.0
  0
LINE
  5
3C7
330
309
100
AcDbEntity
  8
Stammform
  6
AUSGEZOGEN
 62
    56
370
    18
100
AcDbLine
 10
154.651830933283
 20
87.021031049008
 30
0.0
 11
152.651830933283
 21
85.866322186704
 31
0.0
  0
LINE
  5
3C8
330
309
100
AcDbEntity
  8
Layer0
  6
AUSGEZOGEN
 62
     9
370
    18
100
AcDbLine
 10
154.651830933283
 20
87.021031049008
 30
0.0
 11
152.651830933283
 21
88.175724652524
 31
0.0
  0
LINE
  5
3C9
330
309
100
AcDbEntity
  8
Layer0
  6
AUSGEZOGEN
 62
     9
370
    18
100
AcDbLine
 10
152.651830933283
 20
88.175724652524
 30
0.0
 11
150.651830933283
 21
87.021031049008
 31
0.0
  0
LINE
  5
3CA
330
309
100
AcDbEntity
  8
Layer0
  6
AUSGEZOGEN
 62
     9
370
    18
100
AcDbLine
 10
150.651830933283
 20
87.021031049008
 30
0.0
 11
150.651830933283
 21
84.711628583188
 31
0.0
  0
LINE
  5
3CB
330
309
100
AcDbEntity
  8
Layer0
  6
AUSGEZOGEN
 62
     9
370
    18
100
AcDbLine
 10
150.651830933283
 20
84.711628583188
 30
0.0
 11
152.651830933283
 21
83.556919720883
 31
0.0
  0
LINE
  5
3CC
330
309
100
AcDbEntity
  8
Layer0
  6
AUSGEZOGEN
 62
     9
370
    18
100
AcDbLine
 10
152.651830933283
 20
83.556919720883
 30
0.0
 11
154.651830933283
 21
84.711628583188
 31
0.0
  0
LINE
  5
3CD
330
309
100
AcDbEntity
  8
Layer0
  6
AUSGEZOGEN
 62
     9
370
    18
100
AcDbLine
 10
154.651830933283
 20
84.711628583188
 30
0.0
 11
154.651830933283
 21
87.021031049008
 31
0.0
  0
LINE
  5
3CE
330
309
100
AcDbEntity
  8
Layer0
  6
AUSGEZOGEN
 62
     9
370
    18
100
AcDbLine
 10
142.651830933283
 20
87.021031049008
 30
0.0
 11
140.651830933283
 21
88.175724652524
 31
0.0
  0
LINE
  5
3CF
330
309
100
AcDbEntity
  8
Layer0
  6
AUSGEZOGEN
 62
     9
370
    18
100
AcDbLine
 10
140.651830933283
 20
88.175724652524
 30
0.0
 11
138.651830933283
 21
87.021031049008
 31
0.0
  0
LINE
  5
3D0
330
309
100
AcDbEntity
  8
Layer0
  6
AUSGEZOGEN
 62
     9
370
    18
100
AcDbLine
 10
138.651830933283
 20
87.021031049008
 30
0.0
 11
138.651830933283
 21
84.711628583188
 31
0.0
  0
LINE
  5
3D1
330
309
100
AcDbEntity
  8
Layer0
  6
AUSGEZOGEN
 62
     9
370
    18
100
AcDbLine
 10
138.651830933283
 20
84.711628583188
 30
0.0
 11
140.651830933283
 21
83.556919720883
 31
0.0
  0
LINE
  5
3D2
330
309
100
AcDbEntity
  8
Layer0
  6
AUSGEZOGEN
 62
     9
370
    18
100
AcDbLine
 10
140.651830933283
 20
83.556919720883
 30
0.0
 11
142.651830933283
 21
84.711628583188
 31
0.0
  0
LINE
  5
3D3
330
309
100
AcDbEntity
  8
Layer0
  6
AUSGEZOGEN
 62
     9
370
    18
100
AcDbLine
 10
142.651830933283
 20
84.711628583188
 30
0.0
 11
142.651830933283
 21
87.021031049008
 31
0.0
  0
LINE
  5
3D4
330
309
100
AcDbEntity
  8
Stammform
  6
AUSGEZOGEN
 62
    56
370
    18
100
AcDbLine
 10
142.651830933283
 20
87.021031049008
 30
0.0
 11
140.651830933283
 21
85.866322186704
 31
0.0
  0
LINE
  5
3D5
330
309
100
AcDbEntity
  8
Stammform
  6
AUSGEZOGEN
 62
    56
370
    18
100
AcDbLine
 10
140.651830933283
 20
85.866322186704
 30
0.0
 11
140.651830933283
 21
83.556919720883
 31
0.0
  0
LINE
  5
3D6
330
309
100
AcDbEntity
  8
Stammform
  6
AUSGEZOGEN
 62
    56
370
    18
100
AcDbLine
 10
140.651830933283
 20
85.866322186704
 30
0.0
 11
138.651830933283
 21
87.021031049008
 31
0.0
  0
LINE
  5
3D7
330
309
100
AcDbEntity
  8
Stammform
  6
AUSGEZOGEN
 62
    56
370
    18
100
AcDbLine
 10
144.651830933283
 20
85.866322186704
 30
0.0
 11
142.651830933283
 21
87.021031049008
 31
0.0
  0
LINE
  5
3D8
330
309
100
AcDbEntity
  8
Stammform
  6
AUSGEZOGEN
 62
    56
370
    18
100
AcDbLine
 10
144.651830933283
 20
85.866322186704
 30
0.0
 11
144.651830933283
 21
83.556919720883
 31
0.0
  0
LINE
  5
3D9
330
309
100
AcDbEntity
  8
Stammform
  6
AUSGEZOGEN
 62
    56
370
    18
100
AcDbLine
 10
146.651830933283
 20
87.021031049008
 30
0.0
 11
144.651830933283
 21
85.866322186704
 31
0.0
  0
LINE
  5
3DA
330
309
100
AcDbEntity
  8
Layer0
  6
AUSGEZOGEN
 62
     9
370
    18
100
AcDbLine
 10
146.651830933283
 20
87.021031049008
 30
0.0
 11
144.651830933283
 21
88.175724652524
 31
0.0
  0
LINE
  5
3DB
330
309
100
AcDbEntity
  8
Layer0
  6
AUSGEZOGEN
 62
     9
370
    18
100
AcDbLine
 10
144.651830933283
 20
88.175724652524
 30
0.0
 11
142.651830933283
 21
87.021031049008
 31
0.0
  0
LINE
  5
3DC
330
309
100
AcDbEntity
  8
Layer0
  6
AUSGEZOGEN
 62
     9
370
    18
100
AcDbLine
 10
142.651830933283
 20
87.021031049008
 30
0.0
 11
142.651830933283
 21
84.711628583188
 31
0.0
  0
LINE
  5
3DD
330
309
100
AcDbEntity
  8
Layer0
  6
AUSGEZOGEN
 62
     9
370
    18
100
AcDbLine
 10
142.651830933283
 20
84.711628583188
 30
0.0
 11
144.651830933283
 21
83.556919720883
 31
0.0
  0
LINE
  5
3DE
330
309
100
AcDbEntity
  8
Layer0
  6
AUSGEZOGEN
 62
     9
370
    18
100
AcDbLine
 10
144.651830933283
 20
83.556919720883
 30
0.0
 11
146.651830933283
 21
84.711628583188
 31
0.0
  0
LINE
  5
3DF
330
309
100
AcDbEntity
  8
Layer0
  6
AUSGEZOGEN
 62
     9
370
    18
100
AcDbLine
 10
146.651830933283
 20
84.711628583188
 30
0.0
 11
146.651830933283
 21
87.021031049008
 31
0.0
  0
LINE
  5
3E0
330
309
100
AcDbEntity
  8
Stammform
  6
AUSGEZOGEN
 62
    56
370
    18
100
AcDbLine
 10
136.651830933283
 20
85.866322186704
 30
0.0
 11
134.651830933283
 21
87.021031049008
 31
0.0
  0
LINE
  5
3E1
330
309
100
AcDbEntity
  8
Stammform
  6
AUSGEZOGEN
 62
    56
370
    18
100
AcDbLine
 10
136.651830933283
 20
85.866322186704
 30
0.0
 11
136.651830933283
 21
83.556919720883
 31
0.0
  0
LINE
  5
3E2
330
309
100
AcDbEntity
  8
Stammform
  6
AUSGEZOGEN
 62
    56
370
    18
100
AcDbLine
 10
138.651830933283
 20
87.021031049008
 30
0.0
 11
136.651830933283
 21
85.866322186704
 31
0.0
  0
LINE
  5
3E3
330
309
100
AcDbEntity
  8
Layer0
  6
AUSGEZOGEN
 62
     9
370
    18
100
AcDbLine
 10
138.651830933283
 20
87.021031049008
 30
0.0
 11
136.651830933283
 21
88.175724652524
 31
0.0
  0
LINE
  5
3E4
330
309
100
AcDbEntity
  8
Layer0
  6
AUSGEZOGEN
 62
     9
370
    18
100
AcDbLine
 10
136.651830933283
 20
88.175724652524
 30
0.0
 11
134.651830933283
 21
87.021031049008
 31
0.0
  0
LINE
  5
3E5
330
309
100
AcDbEntity
  8
Layer0
  6
AUSGEZOGEN
 62
     9
370
    18
100
AcDbLine
 10
134.651830933283
 20
84.711628583188
 30
0.0
 11
136.651830933283
 21
83.556919720883
 31
0.0
  0
LINE
  5
3E6
330
309
100
AcDbEntity
  8
Layer0
  6
AUSGEZOGEN
 62
     9
370
    18
100
AcDbLine
 10
136.651830933283
 20
83.556919720883
 30
0.0
 11
138.651830933283
 21
84.711628583188
 31
0.0
  0
LINE
  5
3E7
330
309
100
AcDbEntity
  8
Layer0
  6
AUSGEZOGEN
 62
     9
370
    18
100
AcDbLine
 10
138.651830933283
 20
84.711628583188
 30
0.0
 11
138.651830933283
 21
87.021031049008
 31
0.0
  0
LINE
  5
3E8
330
309
100
AcDbEntity
  8
Layer0
  6
AUSGEZOGEN
 62
     9
370
    18
100
AcDbLine
 10
136.651830933283
 20
90.485127118344
 30
0.0
 11
134.651830933283
 21
91.639835980649
 31
0.0
  0
LINE
  5
3E9
330
309
100
AcDbEntity
  8
Layer0
  6
AUSGEZOGEN
 62
     9
370
    18
100
AcDbLine
 10
134.651830933283
 20
87.021031049008
 30
0.0
 11
136.651830933283
 21
88.175724652524
 31
0.0
  0
LINE
  5
3EA
330
309
100
AcDbEntity
  8
Layer0
  6
AUSGEZOGEN
 62
     9
370
    18
100
AcDbLine
 10
136.651830933283
 20
88.175724652524
 30
0.0
 11
136.651830933283
 21
90.485127118344
 31
0.0
  0
LINE
  5
3EB
330
309
100
AcDbEntity
  8
Stammform
  6
AUSGEZOGEN
 62
    56
370
    18
100
AcDbLine
 10
136.651830933283
 20
90.485127118344
 30
0.0
 11
134.651830933283
 21
89.330433514829
 31
0.0
  0
LINE
  5
3EC
330
309
100
AcDbEntity
  8
Layer0
  6
AUSGEZOGEN
 62
     9
370
    18
100
AcDbLine
 10
144.651830933283
 20
90.485127118344
 30
0.0
 11
142.651830933283
 21
91.639835980649
 31
0.0
  0
LINE
  5
3ED
330
309
100
AcDbEntity
  8
Layer0
  6
AUSGEZOGEN
 62
     9
370
    18
100
AcDbLine
 10
142.651830933283
 20
91.639835980649
 30
0.0
 11
140.651830933283
 21
90.485127118344
 31
0.0
  0
LINE
  5
3EE
330
309
100
AcDbEntity
  8
Layer0
  6
AUSGEZOGEN
 62
     9
370
    18
100
AcDbLine
 10
140.651830933283
 20
90.485127118344
 30
0.0
 11
140.651830933283
 21
88.175724652524
 31
0.0
  0
LINE
  5
3EF
330
309
100
AcDbEntity
  8
Layer0
  6
AUSGEZOGEN
 62
     9
370
    18
100
AcDbLine
 10
140.651830933283
 20
88.175724652524
 30
0.0
 11
142.651830933283
 21
87.021031049008
 31
0.0
  0
LINE
  5
3F0
330
309
100
AcDbEntity
  8
Layer0
  6
AUSGEZOGEN
 62
     9
370
    18
100
AcDbLine
 10
142.651830933283
 20
87.021031049008
 30
0.0
 11
144.651830933283
 21
88.175724652524
 31
0.0
  0
LINE
  5
3F1
330
309
100
AcDbEntity
  8
Layer0
  6
AUSGEZOGEN
 62
     9
370
    18
100
AcDbLine
 10
144.651830933283
 20
88.175724652524
 30
0.0
 11
144.651830933283
 21
90.485127118344
 31
0.0
  0
LINE
  5
3F2
330
309
100
AcDbEntity
  8
Stammform
  6
AUSGEZOGEN
 62
    56
370
    18
100
AcDbLine
 10
144.651830933283
 20
90.485127118344
 30
0.0
 11
142.651830933283
 21
89.330433514829
 31
0.0
  0
LINE
  5
3F3
330
309
100
AcDbEntity
  8
Stammform
  6
AUSGEZOGEN
 62
    56
370
    18
100
AcDbLine
 10
142.651830933283
 20
89.330433514829
 30
0.0
 11
142.651830933283
 21
87.021031049008
 31
0.0
  0
LINE
  5
3F4
330
309
100
AcDbEntity
  8
Stammform
  6
AUSGEZOGEN
 62
    56
370
    18
100
AcDbLine
 10
142.651830933283
 20
89.330433514829
 30
0.0
 11
140.651830933283
 21
90.485127118344
 31
0.0
  0
LINE
  5
3F5
330
309
100
AcDbEntity
  8
Stammform
  6
AUSGEZOGEN
 62
    56
370
    18
100
AcDbLine
 10
138.651830933283
 20
89.330433514829
 30
0.0
 11
136.651830933283
 21
90.485127118344
 31
0.0
  0
LINE
  5
3F6
330
309
100
AcDbEntity
  8
Stammform
  6
AUSGEZOGEN
 62
    56
370
    18
100
AcDbLine
 10
138.651830933283
 20
89.330433514829
 30
0.0
 11
138.651830933283
 21
87.021031049008
 31
0.0
  0
LINE
  5
3F7
330
309
100
AcDbEntity
  8
Stammform
  6
AUSGEZOGEN
 62
    56
370
    18
100
AcDbLine
 10
140.651830933283
 20
90.485127118344
 30
0.0
 11
138.651830933283
 21
89.330433514829
 31
0.0
  0
LINE
  5
3F8
330
309
100
AcDbEntity
  8
Layer0
  6
AUSGEZOGEN
 62
     9
370
    18
100
AcDbLine
 10
140.651830933283
 20
90.485127118344
 30
0.0
 11
138.651830933283
 21
91.639835980649
 31
0.0
  0
LINE
  5
3F9
330
309
100
AcDbEntity
  8
Layer0
  6
AUSGEZOGEN
 62
     9
370
    18
100
AcDbLine
 10
138.651830933283
 20
91.639835980649
 30
0.0
 11
136.651830933283
 21
90.485127118344
 31
0.0
  0
LINE
  5
3FA
330
309
100
AcDbEntity
  8
Layer0
  6
AUSGEZOGEN
 62
     9
370
    18
100
AcDbLine
 10
136.651830933283
 20
90.485127118344
 30
0.0
 11
136.651830933283
 21
88.175724652524
 31
0.0
  0
LINE
  5
3FB
330
309
100
AcDbEntity
  8
Layer0
  6
AUSGEZOGEN
 62
     9
370
    18
100
AcDbLine
 10
136.651830933283
 20
88.175724652524
 30
0.0
 11
138.651830933283
 21
87.021031049008
 31
0.0
  0
LINE
  5
3FC
330
309
100
AcDbEntity
  8
Layer0
  6
AUSGEZOGEN
 62
     9
370
    18
100
AcDbLine
 10
138.651830933283
 20
87.021031049008
 30
0.0
 11
140.651830933283
 21
88.175724652524
 31
0.0
  0
LINE
  5
3FD
330
309
100
AcDbEntity
  8
Layer0
  6
AUSGEZOGEN
 62
     9
370
    18
100
AcDbLine
 10
140.651830933283
 20
88.175724652524
 30
0.0
 11
140.651830933283
 21
90.485127118344
 31
0.0
  0
LINE
  5
3FE
330
309
100
AcDbEntity
  8
Layer0
  6
AUSGEZOGEN
 62
     9
370
    18
100
AcDbLine
 10
152.651830933283
 20
90.485127118344
 30
0.0
 11
150.651830933283
 21
91.639835980649
 31
0.0
  0
LINE
  5
3FF
330
309
100
AcDbEntity
  8
Layer0
  6
AUSGEZOGEN
 62
     9
370
    18
100
AcDbLine
 10
150.651830933283
 20
91.639835980649
 30
0.0
 11
148.651830933283
 21
90.485127118344
 31
0.0
  0
LINE
  5
400
330
309
100
AcDbEntity
  8
Layer0
  6
AUSGEZOGEN
 62
     9
370
    18
100
AcDbLine
 10
148.651830933283
 20
90.485127118344
 30
0.0
 11
148.651830933283
 21
88.175724652524
 31
0.0
  0
LINE
  5
401
330
309
100
AcDbEntity
  8
Layer0
  6
AUSGEZOGEN
 62
     9
370
    18
100
AcDbLine
 10
148.651830933283
 20
88.175724652524
 30
0.0
 11
150.651830933283
 21
87.021031049008
 31
0.0
  0
LINE
  5
402
330
309
100
AcDbEntity
  8
Layer0
  6
AUSGEZOGEN
 62
     9
370
    18
100
AcDbLine
 10
150.651830933283
 20
87.021031049008
 30
0.0
 11
152.651830933283
 21
88.175724652524
 31
0.0
  0
LINE
  5
403
330
309
100
AcDbEntity
  8
Layer0
  6
AUSGEZOGEN
 62
     9
370
    18
100
AcDbLine
 10
152.651830933283
 20
88.175724652524
 30
0.0
 11
152.651830933283
 21
90.485127118344
 31
0.0
  0
LINE
  5
404
330
309
100
AcDbEntity
  8
Stammform
  6
AUSGEZOGEN
 62
    56
370
    18
100
AcDbLine
 10
152.651830933283
 20
90.485127118344
 30
0.0
 11
150.651830933283
 21
89.330433514829
 31
0.0
  0
LINE
  5
405
330
309
100
AcDbEntity
  8
Stammform
  6
AUSGEZOGEN
 62
    56
370
    18
100
AcDbLine
 10
150.651830933283
 20
89.330433514829
 30
0.0
 11
150.651830933283
 21
87.021031049008
 31
0.0
  0
LINE
  5
406
330
309
100
AcDbEntity
  8
Stammform
  6
AUSGEZOGEN
 62
    56
370
    18
100
AcDbLine
 10
150.651830933283
 20
89.330433514829
 30
0.0
 11
148.651830933283
 21
90.485127118344
 31
0.0
  0
LINE
  5
407
330
309
100
AcDbEntity
  8
Stammform
  6
AUSGEZOGEN
 62
    56
370
    18
100
AcDbLine
 10
146.651830933283
 20
89.330433514829
 30
0.0
 11
144.651830933283
 21
90.485127118344
 31
0.0
  0
LINE
  5
408
330
309
100
AcDbEntity
  8
Stammform
  6
AUSGEZOGEN
 62
    56
370
    18
100
AcDbLine
 10
146.651830933283
 20
89.330433514829
 30
0.0
 11
146.651830933283
 21
87.021031049008
 31
0.0
  0
LINE
  5
409
330
309
100
AcDbEntity
  8
Stammform
  6
AUSGEZOGEN
 62
    56
370
    18
100
AcDbLine
 10
148.651830933283
 20
90.485127118344
 30
0.0
 11
146.651830933283
 21
89.330433514829
 31
0.0
  0
LINE
  5
40A
330
309
100
AcDbEntity
  8
Layer0
  6
AUSGEZOGEN
 62
     9
370
    18
100
AcDbLine
 10
148.651830933283
 20
90.485127118344
 30
0.0
 11
146.651830933283
 21
91.639835980649
 31
0.0
  0
LINE
  5
40B
330
309
100
AcDbEntity
  8
Layer0
  6
AUSGEZOGEN
 62
     9
370
    18
100
AcDbLine
 10
146.651830933283
 20
91.639835980649
 30
0.0
 11
144.651830933283
 21
90.485127118344
 31
0.0
  0
LINE
  5
40C
330
309
100
AcDbEntity
  8
Layer0
  6
AUSGEZOGEN
 62
     9
370
    18
100
AcDbLine
 10
144.651830933283
 20
90.485127118344
 30
0.0
 11
144.651830933283
 21
88.175724652524
 31
0.0
  0
LINE
  5
40D
330
309
100
AcDbEntity
  8
Layer0
  6
AUSGEZOGEN
 62
     9
370
    18
100
AcDbLine
 10
144.651830933283
 20
88.175724652524
 30
0.0
 11
146.651830933283
 21
87.021031049008
 31
0.0
  0
LINE
  5
40E
330
309
100
AcDbEntity
  8
Layer0
  6
AUSGEZOGEN
 62
     9
370
    18
100
AcDbLine
 10
146.651830933283
 20
87.021031049008
 30
0.0
 11
148.651830933283
 21
88.175724652524
 31
0.0
  0
LINE
  5
40F
330
309
100
AcDbEntity
  8
Layer0
  6
AUSGEZOGEN
 62
     9
370
    18
100
AcDbLine
 10
148.651830933283
 20
88.175724652524
 30
0.0
 11
148.651830933283
 21
90.485127118344
 31
0.0
  0
LINE
  5
410
330
309
100
AcDbEntity
  8
Layer0
  6
AUSGEZOGEN
 62
     9
370
    18
100
AcDbLine
 10
170.651830933283
 20
91.639835980649
 30
0.0
 11
168.651830933283
 21
90.485127118344
 31
0.0
  0
LINE
  5
411
330
309
100
AcDbEntity
  8
Layer0
  6
AUSGEZOGEN
 62
     9
370
    18
100
AcDbLine
 10
168.651830933283
 20
90.485127118344
 30
0.0
 11
168.651830933283
 21
88.175724652524
 31
0.0
  0
LINE
  5
412
330
309
100
AcDbEntity
  8
Layer0
  6
AUSGEZOGEN
 62
     9
370
    18
100
AcDbLine
 10
168.651830933283
 20
88.175724652524
 30
0.0
 11
170.651830933283
 21
87.021031049008
 31
0.0
  0
LINE
  5
413
330
309
100
AcDbEntity
  8
Stammform
  6
AUSGEZOGEN
 62
    56
370
    18
100
AcDbLine
 10
170.651830933283
 20
89.330433514829
 30
0.0
 11
168.651830933283
 21
90.485127118344
 31
0.0
  0
LINE
  5
414
330
309
100
AcDbEntity
  8
Layer0
  6
AUSGEZOGEN
 62
     9
370
    18
100
AcDbLine
 10
164.651830933283
 20
90.485127118344
 30
0.0
 11
162.651830933283
 21
91.639835980649
 31
0.0
  0
LINE
  5
415
330
309
100
AcDbEntity
  8
Layer0
  6
AUSGEZOGEN
 62
     9
370
    18
100
AcDbLine
 10
162.651830933283
 20
91.639835980649
 30
0.0
 11
160.651830933283
 21
90.485127118344
 31
0.0
  0
LINE
  5
416
330
309
100
AcDbEntity
  8
Layer0
  6
AUSGEZOGEN
 62
     9
370
    18
100
AcDbLine
 10
160.651830933283
 20
90.485127118344
 30
0.0
 11
160.651830933283
 21
88.175724652524
 31
0.0
  0
LINE
  5
417
330
309
100
AcDbEntity
  8
Layer0
  6
AUSGEZOGEN
 62
     9
370
    18
100
AcDbLine
 10
160.651830933283
 20
88.175724652524
 30
0.0
 11
162.651830933283
 21
87.021031049008
 31
0.0
  0
LINE
  5
418
330
309
100
AcDbEntity
  8
Layer0
  6
AUSGEZOGEN
 62
     9
370
    18
100
AcDbLine
 10
162.651830933283
 20
87.021031049008
 30
0.0
 11
164.651830933283
 21
88.175724652524
 31
0.0
  0
LINE
  5
419
330
309
100
AcDbEntity
  8
Layer0
  6
AUSGEZOGEN
 62
     9
370
    18
100
AcDbLine
 10
164.651830933283
 20
88.175724652524
 30
0.0
 11
164.651830933283
 21
90.485127118344
 31
0.0
  0
LINE
  5
41A
330
309
100
AcDbEntity
  8
Stammform
  6
AUSGEZOGEN
 62
    56
370
    18
100
AcDbLine
 10
164.651830933283
 20
90.485127118344
 30
0.0
 11
162.651830933283
 21
89.330433514829
 31
0.0
  0
LINE
  5
41B
330
309
100
AcDbEntity
  8
Stammform
  6
AUSGEZOGEN
 62
    56
370
    18
100
AcDbLine
 10
162.651830933283
 20
89.330433514829
 30
0.0
 11
162.651830933283
 21
87.021031049008
 31
0.0
  0
LINE
  5
41C
330
309
100
AcDbEntity
  8
Stammform
  6
AUSGEZOGEN
 62
    56
370
    18
100
AcDbLine
 10
162.651830933283
 20
89.330433514829
 30
0.0
 11
160.651830933283
 21
90.485127118344
 31
0.0
  0
LINE
  5
41D
330
309
100
AcDbEntity
  8
Stammform
  6
AUSGEZOGEN
 62
    56
370
    18
100
AcDbLine
 10
166.651830933283
 20
89.330433514829
 30
0.0
 11
164.651830933283
 21
90.485127118344
 31
0.0
  0
LINE
  5
41E
330
309
100
AcDbEntity
  8
Stammform
  6
AUSGEZOGEN
 62
    56
370
    18
100
AcDbLine
 10
166.651830933283
 20
89.330433514829
 30
0.0
 11
166.651830933283
 21
87.021031049008
 31
0.0
  0
LINE
  5
41F
330
309
100
AcDbEntity
  8
Stammform
  6
AUSGEZOGEN
 62
    56
370
    18
100
AcDbLine
 10
168.651830933283
 20
90.485127118344
 30
0.0
 11
166.651830933283
 21
89.330433514829
 31
0.0
  0
LINE
  5
420
330
309
100
AcDbEntity
  8
Layer0
  6
AUSGEZOGEN
 62
     9
370
    18
100
AcDbLine
 10
168.651830933283
 20
90.485127118344
 30
0.0
 11
166.651830933283
 21
91.639835980649
 31
0.0
  0
LINE
  5
421
330
309
100
AcDbEntity
  8
Layer0
  6
AUSGEZOGEN
 62
     9
370
    18
100
AcDbLine
 10
166.651830933283
 20
91.639835980649
 30
0.0
 11
164.651830933283
 21
90.485127118344
 31
0.0
  0
LINE
  5
422
330
309
100
AcDbEntity
  8
Layer0
  6
AUSGEZOGEN
 62
     9
370
    18
100
AcDbLine
 10
164.651830933283
 20
90.485127118344
 30
0.0
 11
164.651830933283
 21
88.175724652524
 31
0.0
  0
LINE
  5
423
330
309
100
AcDbEntity
  8
Layer0
  6
AUSGEZOGEN
 62
     9
370
    18
100
AcDbLine
 10
164.651830933283
 20
88.175724652524
 30
0.0
 11
166.651830933283
 21
87.021031049008
 31
0.0
  0
LINE
  5
424
330
309
100
AcDbEntity
  8
Layer0
  6
AUSGEZOGEN
 62
     9
370
    18
100
AcDbLine
 10
166.651830933283
 20
87.021031049008
 30
0.0
 11
168.651830933283
 21
88.175724652524
 31
0.0
  0
LINE
  5
425
330
309
100
AcDbEntity
  8
Layer0
  6
AUSGEZOGEN
 62
     9
370
    18
100
AcDbLine
 10
168.651830933283
 20
88.175724652524
 30
0.0
 11
168.651830933283
 21
90.485127118344
 31
0.0
  0
LINE
  5
426
330
309
100
AcDbEntity
  8
Layer0
  6
AUSGEZOGEN
 62
     9
370
    18
100
AcDbLine
 10
160.651830933283
 20
90.485127118344
 30
0.0
 11
158.651830933283
 21
91.639835980649
 31
0.0
  0
LINE
  5
427
330
309
100
AcDbEntity
  8
Layer0
  6
AUSGEZOGEN
 62
     9
370
    18
100
AcDbLine
 10
158.651830933283
 20
91.639835980649
 30
0.0
 11
156.651830933283
 21
90.485127118344
 31
0.0
  0
LINE
  5
428
330
309
100
AcDbEntity
  8
Layer0
  6
AUSGEZOGEN
 62
     9
370
    18
100
AcDbLine
 10
156.651830933283
 20
90.485127118344
 30
0.0
 11
156.651830933283
 21
88.175724652524
 31
0.0
  0
LINE
  5
429
330
309
100
AcDbEntity
  8
Layer0
  6
AUSGEZOGEN
 62
     9
370
    18
100
AcDbLine
 10
156.651830933283
 20
88.175724652524
 30
0.0
 11
158.651830933283
 21
87.021031049008
 31
0.0
  0
LINE
  5
42A
330
309
100
AcDbEntity
  8
Layer0
  6
AUSGEZOGEN
 62
     9
370
    18
100
AcDbLine
 10
158.651830933283
 20
87.021031049008
 30
0.0
 11
160.651830933283
 21
88.175724652524
 31
0.0
  0
LINE
  5
42B
330
309
100
AcDbEntity
  8
Layer0
  6
AUSGEZOGEN
 62
     9
370
    18
100
AcDbLine
 10
160.651830933283
 20
88.175724652524
 30
0.0
 11
160.651830933283
 21
90.485127118344
 31
0.0
  0
LINE
  5
42C
330
309
100
AcDbEntity
  8
Stammform
  6
AUSGEZOGEN
 62
    56
370
    18
100
AcDbLine
 10
160.651830933283
 20
90.485127118344
 30
0.0
 11
158.651830933283
 21
89.330433514829
 31
0.0
  0
LINE
  5
42D
330
309
100
AcDbEntity
  8
Stammform
  6
AUSGEZOGEN
 62
    56
370
    18
100
AcDbLine
 10
158.651830933283
 20
89.330433514829
 30
0.0
 11
158.651830933283
 21
87.021031049008
 31
0.0
  0
LINE
  5
42E
330
309
100
AcDbEntity
  8
Stammform
  6
AUSGEZOGEN
 62
    56
370
    18
100
AcDbLine
 10
158.651830933283
 20
89.330433514829
 30
0.0
 11
156.651830933283
 21
90.485127118344
 31
0.0
  0
LINE
  5
42F
330
309
100
AcDbEntity
  8
Stammform
  6
AUSGEZOGEN
 62
    56
370
    18
100
AcDbLine
 10
154.651830933283
 20
89.330433514829
 30
0.0
 11
152.651830933283
 21
90.485127118344
 31
0.0
  0
LINE
  5
430
330
309
100
AcDbEntity
  8
Stammform
  6
AUSGEZOGEN
 62
    56
370
    18
100
AcDbLine
 10
154.651830933283
 20
89.330433514829
 30
0.0
 11
154.651830933283
 21
87.021031049008
 31
0.0
  0
LINE
  5
431
330
309
100
AcDbEntity
  8
Stammform
  6
AUSGEZOGEN
 62
    56
370
    18
100
AcDbLine
 10
156.651830933283
 20
90.485127118344
 30
0.0
 11
154.651830933283
 21
89.330433514829
 31
0.0
  0
LINE
  5
432
330
309
100
AcDbEntity
  8
Layer0
  6
AUSGEZOGEN
 62
     9
370
    18
100
AcDbLine
 10
156.651830933283
 20
90.485127118344
 30
0.0
 11
154.651830933283
 21
91.639835980649
 31
0.0
  0
LINE
  5
433
330
309
100
AcDbEntity
  8
Layer0
  6
AUSGEZOGEN
 62
     9
370
    18
100
AcDbLine
 10
154.651830933283
 20
91.639835980649
 30
0.0
 11
152.651830933283
 21
90.485127118344
 31
0.0
  0
LINE
  5
434
330
309
100
AcDbEntity
  8
Layer0
  6
AUSGEZOGEN
 62
     9
370
    18
100
AcDbLine
 10
152.651830933283
 20
90.485127118344
 30
0.0
 11
152.651830933283
 21
88.175724652524
 31
0.0
  0
LINE
  5
435
330
309
100
AcDbEntity
  8
Layer0
  6
AUSGEZOGEN
 62
     9
370
    18
100
AcDbLine
 10
152.651830933283
 20
88.175724652524
 30
0.0
 11
154.651830933283
 21
87.021031049008
 31
0.0
  0
LINE
  5
436
330
309
100
AcDbEntity
  8
Layer0
  6
AUSGEZOGEN
 62
     9
370
    18
100
AcDbLine
 10
154.651830933283
 20
87.021031049008
 30
0.0
 11
156.651830933283
 21
88.175724652524
 31
0.0
  0
LINE
  5
437
330
309
100
AcDbEntity
  8
Layer0
  6
AUSGEZOGEN
 62
     9
370
    18
100
AcDbLine
 10
156.651830933283
 20
88.175724652524
 30
0.0
 11
156.651830933283
 21
90.485127118344
 31
0.0
  0
LINE
  5
438
330
309
100
AcDbEntity
  8
Layer0
  6
AUSGEZOGEN
 62
     9
370
    18
100
AcDbLine
 10
158.651830933283
 20
80.092823651548
 30
0.0
 11
156.651830933283
 21
81.247517255063
 31
0.0
  0
LINE
  5
439
330
309
100
AcDbEntity
  8
Layer0
  6
AUSGEZOGEN
 62
     9
370
    18
100
AcDbLine
 10
156.651830933283
 20
81.247517255063
 30
0.0
 11
154.651830933283
 21
80.092823651548
 31
0.0
  0
LINE
  5
43A
330
309
100
AcDbEntity
  8
Layer0
  6
AUSGEZOGEN
 62
     9
370
    18
100
AcDbLine
 10
154.651830933283
 20
80.092823651548
 30
0.0
 11
154.651830933283
 21
78.938130048032
 31
0.0
  0
LINE
  5
43B
330
309
100
AcDbEntity
  8
Layer0
  6
AUSGEZOGEN
 62
     9
370
    18
100
AcDbLine
 10
158.651830933283
 20
78.938130048032
 30
0.0
 11
158.651830933283
 21
80.092823651548
 31
0.0
  0
LINE
  5
43C
330
309
100
AcDbEntity
  8
Stammform
  6
AUSGEZOGEN
 62
    56
370
    18
100
AcDbLine
 10
158.651830933283
 20
80.092823651548
 30
0.0
 11
156.651830933283
 21
78.938130048032
 31
0.0
  0
LINE
  5
43D
330
309
100
AcDbEntity
  8
Stammform
  6
AUSGEZOGEN
 62
    56
370
    18
100
AcDbLine
 10
156.651830933283
 20
78.938130048032
 30
0.0
 11
154.651830933283
 21
80.092823651548
 31
0.0
  0
LINE
  5
43E
330
309
100
AcDbEntity
  8
Stammform
  6
AUSGEZOGEN
 62
    56
370
    18
100
AcDbLine
 10
160.651830933283
 20
78.938130048032
 30
0.0
 11
158.651830933283
 21
80.092823651548
 31
0.0
  0
LINE
  5
43F
330
309
100
AcDbEntity
  8
Stammform
  6
AUSGEZOGEN
 62
    56
370
    18
100
AcDbLine
 10
162.651830933283
 20
80.092823651548
 30
0.0
 11
160.651830933283
 21
78.938130048032
 31
0.0
  0
LINE
  5
440
330
309
100
AcDbEntity
  8
Layer0
  6
AUSGEZOGEN
 62
     9
370
    18
100
AcDbLine
 10
162.651830933283
 20
80.092823651548
 30
0.0
 11
160.651830933283
 21
81.247517255063
 31
0.0
  0
LINE
  5
441
330
309
100
AcDbEntity
  8
Layer0
  6
AUSGEZOGEN
 62
     9
370
    18
100
AcDbLine
 10
160.651830933283
 20
81.247517255063
 30
0.0
 11
158.651830933283
 21
80.092823651548
 31
0.0
  0
LINE
  5
442
330
309
100
AcDbEntity
  8
Layer0
  6
AUSGEZOGEN
 62
     9
370
    18
100
AcDbLine
 10
162.651830933283
 20
78.938130048032
 30
0.0
 11
162.651830933283
 21
80.092823651548
 31
0.0
  0
LINE
  5
443
330
309
100
AcDbEntity
  8
Layer0
  6
AUSGEZOGEN
 62
     9
370
    18
100
AcDbLine
 10
170.651830933283
 20
80.092823651548
 30
0.0
 11
168.651830933283
 21
81.247517255063
 31
0.0
  0
LINE
  5
444
330
309
100
AcDbEntity
  8
Layer0
  6
AUSGEZOGEN
 62
     9
370
    18
100
AcDbLine
 10
168.651830933283
 20
81.247517255063
 30
0.0
 11
166.651830933283
 21
80.092823651548
 31
0.0
  0
LINE
  5
445
330
309
100
AcDbEntity
  8
Layer0
  6
AUSGEZOGEN
 62
     9
370
    18
100
AcDbLine
 10
166.651830933283
 20
80.092823651548
 30
0.0
 11
166.651830933283
 21
78.938130048032
 31
0.0
  0
LINE
  5
446
330
309
100
AcDbEntity
  8
Stammform
  6
AUSGEZOGEN
 62
    56
370
    18
100
AcDbLine
 10
170.651830933283
 20
80.092823651548
 30
0.0
 11
168.651830933283
 21
78.938130048032
 31
0.0
  0
LINE
  5
447
330
309
100
AcDbEntity
  8
Stammform
  6
AUSGEZOGEN
 62
    56
370
    18
100
AcDbLine
 10
168.651830933283
 20
78.938130048032
 30
0.0
 11
166.651830933283
 21
80.092823651548
 31
0.0
  0
LINE
  5
448
330
309
100
AcDbEntity
  8
Stammform
  6
AUSGEZOGEN
 62
    56
370
    18
100
AcDbLine
 10
164.651830933283
 20
78.938130048032
 30
0.0
 11
162.651830933283
 21
80.092823651548
 31
0.0
  0
LINE
  5
449
330
309
100
AcDbEntity
  8
Stammform
  6
AUSGEZOGEN
 62
    56
370
    18
100
AcDbLine
 10
166.651830933283
 20
80.092823651548
 30
0.0
 11
164.651830933283
 21
78.938130048032
 31
0.0
  0
LINE
  5
44A
330
309
100
AcDbEntity
  8
Layer0
  6
AUSGEZOGEN
 62
     9
370
    18
100
AcDbLine
 10
166.651830933283
 20
80.092823651548
 30
0.0
 11
164.651830933283
 21
81.247517255063
 31
0.0
  0
LINE
  5
44B
330
309
100
AcDbEntity
  8
Layer0
  6
AUSGEZOGEN
 62
     9
370
    18
100
AcDbLine
 10
164.651830933283
 20
81.247517255063
 30
0.0
 11
162.651830933283
 21
80.092823651548
 31
0.0
  0
LINE
  5
44C
330
309
100
AcDbEntity
  8
Layer0
  6
AUSGEZOGEN
 62
     9
370
    18
100
AcDbLine
 10
150.651830933283
 20
80.092823651548
 30
0.0
 11
148.651830933283
 21
81.247517255063
 31
0.0
  0
LINE
  5
44D
330
309
100
AcDbEntity
  8
Layer0
  6
AUSGEZOGEN
 62
     9
370
    18
100
AcDbLine
 10
148.651830933283
 20
81.247517255063
 30
0.0
 11
146.651830933283
 21
80.092823651548
 31
0.0
  0
LINE
  5
44E
330
309
100
AcDbEntity
  8
Layer0
  6
AUSGEZOGEN
 62
     9
370
    18
100
AcDbLine
 10
146.651830933283
 20
80.092823651548
 30
0.0
 11
146.651830933283
 21
78.938130048032
 31
0.0
  0
LINE
  5
44F
330
309
100
AcDbEntity
  8
Layer0
  6
AUSGEZOGEN
 62
     9
370
    18
100
AcDbLine
 10
150.651830933283
 20
78.938130048032
 30
0.0
 11
150.651830933283
 21
80.092823651548
 31
0.0
  0
LINE
  5
450
330
309
100
AcDbEntity
  8
Stammform
  6
AUSGEZOGEN
 62
    56
370
    18
100
AcDbLine
 10
150.651830933283
 20
80.092823651548
 30
0.0
 11
148.651830933283
 21
78.938130048032
 31
0.0
  0
LINE
  5
451
330
309
100
AcDbEntity
  8
Stammform
  6
AUSGEZOGEN
 62
    56
370
    18
100
AcDbLine
 10
148.651830933283
 20
78.938130048032
 30
0.0
 11
146.651830933283
 21
80.092823651548
 31
0.0
  0
LINE
  5
452
330
309
100
AcDbEntity
  8
Stammform
  6
AUSGEZOGEN
 62
    56
370
    18
100
AcDbLine
 10
152.651830933283
 20
78.938130048032
 30
0.0
 11
150.651830933283
 21
80.092823651548
 31
0.0
  0
LINE
  5
453
330
309
100
AcDbEntity
  8
Stammform
  6
AUSGEZOGEN
 62
    56
370
    18
100
AcDbLine
 10
154.651830933283
 20
80.092823651548
 30
0.0
 11
152.651830933283
 21
78.938130048032
 31
0.0
  0
LINE
  5
454
330
309
100
AcDbEntity
  8
Layer0
  6
AUSGEZOGEN
 62
     9
370
    18
100
AcDbLine
 10
154.651830933283
 20
80.092823651548
 30
0.0
 11
152.651830933283
 21
81.247517255063
 31
0.0
  0
LINE
  5
455
330
309
100
AcDbEntity
  8
Layer0
  6
AUSGEZOGEN
 62
     9
370
    18
100
AcDbLine
 10
152.651830933283
 20
81.247517255063
 30
0.0
 11
150.651830933283
 21
80.092823651548
 31
0.0
  0
LINE
  5
456
330
309
100
AcDbEntity
  8
Layer0
  6
AUSGEZOGEN
 62
     9
370
    18
100
AcDbLine
 10
142.651830933283
 20
80.092823651548
 30
0.0
 11
140.651830933283
 21
81.247517255063
 31
0.0
  0
LINE
  5
457
330
309
100
AcDbEntity
  8
Layer0
  6
AUSGEZOGEN
 62
     9
370
    18
100
AcDbLine
 10
140.651830933283
 20
81.247517255063
 30
0.0
 11
138.651830933283
 21
80.092823651548
 31
0.0
  0
LINE
  5
458
330
309
100
AcDbEntity
  8
Layer0
  6
AUSGEZOGEN
 62
     9
370
    18
100
AcDbLine
 10
138.651830933283
 20
80.092823651548
 30
0.0
 11
138.651830933283
 21
78.938130048032
 31
0.0
  0
LINE
  5
459
330
309
100
AcDbEntity
  8
Layer0
  6
AUSGEZOGEN
 62
     9
370
    18
100
AcDbLine
 10
142.651830933283
 20
78.938130048032
 30
0.0
 11
142.651830933283
 21
80.092823651548
 31
0.0
  0
LINE
  5
45A
330
309
100
AcDbEntity
  8
Stammform
  6
AUSGEZOGEN
 62
    56
370
    18
100
AcDbLine
 10
142.651830933283
 20
80.092823651548
 30
0.0
 11
140.651830933283
 21
78.938130048032
 31
0.0
  0
LINE
  5
45B
330
309
100
AcDbEntity
  8
Stammform
  6
AUSGEZOGEN
 62
    56
370
    18
100
AcDbLine
 10
140.651830933283
 20
78.938130048032
 30
0.0
 11
138.651830933283
 21
80.092823651548
 31
0.0
  0
LINE
  5
45C
330
309
100
AcDbEntity
  8
Stammform
  6
AUSGEZOGEN
 62
    56
370
    18
100
AcDbLine
 10
144.651830933283
 20
78.938130048032
 30
0.0
 11
142.651830933283
 21
80.092823651548
 31
0.0
  0
LINE
  5
45D
330
309
100
AcDbEntity
  8
Stammform
  6
AUSGEZOGEN
 62
    56
370
    18
100
AcDbLine
 10
146.651830933283
 20
80.092823651548
 30
0.0
 11
144.651830933283
 21
78.938130048032
 31
0.0
  0
LINE
  5
45E
330
309
100
AcDbEntity
  8
Layer0
  6
AUSGEZOGEN
 62
     9
370
    18
100
AcDbLine
 10
146.651830933283
 20
80.092823651548
 30
0.0
 11
144.651830933283
 21
81.247517255063
 31
0.0
  0
LINE
  5
45F
330
309
100
AcDbEntity
  8
Layer0
  6
AUSGEZOGEN
 62
     9
370
    18
100
AcDbLine
 10
144.651830933283
 20
81.247517255063
 30
0.0
 11
142.651830933283
 21
80.092823651548
 31
0.0
  0
LINE
  5
460
330
309
100
AcDbEntity
  8
Stammform
  6
AUSGEZOGEN
 62
    56
370
    18
100
AcDbLine
 10
136.651830933283
 20
78.938130048032
 30
0.0
 11
134.651830933283
 21
80.092823651548
 31
0.0
  0
LINE
  5
461
330
309
100
AcDbEntity
  8
Stammform
  6
AUSGEZOGEN
 62
    56
370
    18
100
AcDbLine
 10
138.651830933283
 20
80.092823651548
 30
0.0
 11
136.651830933283
 21
78.938130048032
 31
0.0
  0
LINE
  5
462
330
309
100
AcDbEntity
  8
Layer0
  6
AUSGEZOGEN
 62
     9
370
    18
100
AcDbLine
 10
138.651830933283
 20
80.092823651548
 30
0.0
 11
136.651830933283
 21
81.247517255063
 31
0.0
  0
LINE
  5
463
330
309
100
AcDbEntity
  8
Layer0
  6
AUSGEZOGEN
 62
     9
370
    18
100
AcDbLine
 10
136.651830933283
 20
81.247517255063
 30
0.0
 11
134.651830933283
 21
80.092823651548
 31
0.0
  0
LINE
  5
464
330
309
100
AcDbEntity
  8
Layer0
  6
AUSGEZOGEN
 62
     9
370
    18
100
AcDbLine
 10
136.651830933283
 20
83.556919720883
 30
0.0
 11
134.651830933283
 21
84.711628583188
 31
0.0
  0
LINE
  5
465
330
309
100
AcDbEntity
  8
Layer0
  6
AUSGEZOGEN
 62
     9
370
    18
100
AcDbLine
 10
134.651830933283
 20
80.092823651548
 30
0.0
 11
136.651830933283
 21
81.247517255063
 31
0.0
  0
LINE
  5
466
330
309
100
AcDbEntity
  8
Layer0
  6
AUSGEZOGEN
 62
     9
370
    18
100
AcDbLine
 10
136.651830933283
 20
81.247517255063
 30
0.0
 11
136.651830933283
 21
83.556919720883
 31
0.0
  0
LINE
  5
467
330
309
100
AcDbEntity
  8
Stammform
  6
AUSGEZOGEN
 62
    56
370
    18
100
AcDbLine
 10
136.651830933283
 20
83.556919720883
 30
0.0
 11
134.651830933283
 21
82.402226117368
 31
0.0
  0
LINE
  5
468
330
309
100
AcDbEntity
  8
Layer0
  6
AUSGEZOGEN
 62
     9
370
    18
100
AcDbLine
 10
144.651830933283
 20
83.556919720883
 30
0.0
 11
142.651830933283
 21
84.711628583188
 31
0.0
  0
LINE
  5
469
330
309
100
AcDbEntity
  8
Layer0
  6
AUSGEZOGEN
 62
     9
370
    18
100
AcDbLine
 10
142.651830933283
 20
84.711628583188
 30
0.0
 11
140.651830933283
 21
83.556919720883
 31
0.0
  0
LINE
  5
46A
330
309
100
AcDbEntity
  8
Layer0
  6
AUSGEZOGEN
 62
     9
370
    18
100
AcDbLine
 10
140.651830933283
 20
83.556919720883
 30
0.0
 11
140.651830933283
 21
81.247517255063
 31
0.0
  0
LINE
  5
46B
330
309
100
AcDbEntity
  8
Layer0
  6
AUSGEZOGEN
 62
     9
370
    18
100
AcDbLine
 10
140.651830933283
 20
81.247517255063
 30
0.0
 11
142.651830933283
 21
80.092823651548
 31
0.0
  0
LINE
  5
46C
330
309
100
AcDbEntity
  8
Layer0
  6
AUSGEZOGEN
 62
     9
370
    18
100
AcDbLine
 10
142.651830933283
 20
80.092823651548
 30
0.0
 11
144.651830933283
 21
81.247517255063
 31
0.0
  0
LINE
  5
46D
330
309
100
AcDbEntity
  8
Layer0
  6
AUSGEZOGEN
 62
     9
370
    18
100
AcDbLine
 10
144.651830933283
 20
81.247517255063
 30
0.0
 11
144.651830933283
 21
83.556919720883
 31
0.0
  0
LINE
  5
46E
330
309
100
AcDbEntity
  8
Stammform
  6
AUSGEZOGEN
 62
    56
370
    18
100
AcDbLine
 10
144.651830933283
 20
83.556919720883
 30
0.0
 11
142.651830933283
 21
82.402226117368
 31
0.0
  0
LINE
  5
46F
330
309
100
AcDbEntity
  8
Stammform
  6
AUSGEZOGEN
 62
    56
370
    18
100
AcDbLine
 10
142.651830933283
 20
82.402226117368
 30
0.0
 11
142.651830933283
 21
80.092823651548
 31
0.0
  0
LINE
  5
470
330
309
100
AcDbEntity
  8
Stammform
  6
AUSGEZOGEN
 62
    56
370
    18
100
AcDbLine
 10
142.651830933283
 20
82.402226117368
 30
0.0
 11
140.651830933283
 21
83.556919720883
 31
0.0
  0
LINE
  5
471
330
309
100
AcDbEntity
  8
Stammform
  6
AUSGEZOGEN
 62
    56
370
    18
100
AcDbLine
 10
138.651830933283
 20
82.402226117368
 30
0.0
 11
136.651830933283
 21
83.556919720883
 31
0.0
  0
LINE
  5
472
330
309
100
AcDbEntity
  8
Stammform
  6
AUSGEZOGEN
 62
    56
370
    18
100
AcDbLine
 10
138.651830933283
 20
82.402226117368
 30
0.0
 11
138.651830933283
 21
80.092823651548
 31
0.0
  0
LINE
  5
473
330
309
100
AcDbEntity
  8
Stammform
  6
AUSGEZOGEN
 62
    56
370
    18
100
AcDbLine
 10
140.651830933283
 20
83.556919720883
 30
0.0
 11
138.651830933283
 21
82.402226117368
 31
0.0
  0
LINE
  5
474
330
309
100
AcDbEntity
  8
Layer0
  6
AUSGEZOGEN
 62
     9
370
    18
100
AcDbLine
 10
140.651830933283
 20
83.556919720883
 30
0.0
 11
138.651830933283
 21
84.711628583188
 31
0.0
  0
LINE
  5
475
330
309
100
AcDbEntity
  8
Layer0
  6
AUSGEZOGEN
 62
     9
370
    18
100
AcDbLine
 10
138.651830933283
 20
84.711628583188
 30
0.0
 11
136.651830933283
 21
83.556919720883
 31
0.0
  0
LINE
  5
476
330
309
100
AcDbEntity
  8
Layer0
  6
AUSGEZOGEN
 62
     9
370
    18
100
AcDbLine
 10
136.651830933283
 20
83.556919720883
 30
0.0
 11
136.651830933283
 21
81.247517255063
 31
0.0
  0
LINE
  5
477
330
309
100
AcDbEntity
  8
Layer0
  6
AUSGEZOGEN
 62
     9
370
    18
100
AcDbLine
 10
136.651830933283
 20
81.247517255063
 30
0.0
 11
138.651830933283
 21
80.092823651548
 31
0.0
  0
LINE
  5
478
330
309
100
AcDbEntity
  8
Layer0
  6
AUSGEZOGEN
 62
     9
370
    18
100
AcDbLine
 10
138.651830933283
 20
80.092823651548
 30
0.0
 11
140.651830933283
 21
81.247517255063
 31
0.0
  0
LINE
  5
479
330
309
100
AcDbEntity
  8
Layer0
  6
AUSGEZOGEN
 62
     9
370
    18
100
AcDbLine
 10
140.651830933283
 20
81.247517255063
 30
0.0
 11
140.651830933283
 21
83.556919720883
 31
0.0
  0
LINE
  5
47A
330
309
100
AcDbEntity
  8
Layer0
  6
AUSGEZOGEN
 62
     9
370
    18
100
AcDbLine
 10
152.651830933283
 20
83.556919720883
 30
0.0
 11
150.651830933283
 21
84.711628583188
 31
0.0
  0
LINE
  5
47B
330
309
100
AcDbEntity
  8
Layer0
  6
AUSGEZOGEN
 62
     9
370
    18
100
AcDbLine
 10
150.651830933283
 20
84.711628583188
 30
0.0
 11
148.651830933283
 21
83.556919720883
 31
0.0
  0
LINE
  5
47C
330
309
100
AcDbEntity
  8
Layer0
  6
AUSGEZOGEN
 62
     9
370
    18
100
AcDbLine
 10
148.651830933283
 20
83.556919720883
 30
0.0
 11
148.651830933283
 21
81.247517255063
 31
0.0
  0
LINE
  5
47D
330
309
100
AcDbEntity
  8
Layer0
  6
AUSGEZOGEN
 62
     9
370
    18
100
AcDbLine
 10
148.651830933283
 20
81.247517255063
 30
0.0
 11
150.651830933283
 21
80.092823651548
 31
0.0
  0
LINE
  5
47E
330
309
100
AcDbEntity
  8
Layer0
  6
AUSGEZOGEN
 62
     9
370
    18
100
AcDbLine
 10
150.651830933283
 20
80.092823651548
 30
0.0
 11
152.651830933283
 21
81.247517255063
 31
0.0
  0
LINE
  5
47F
330
309
100
AcDbEntity
  8
Layer0
  6
AUSGEZOGEN
 62
     9
370
    18
100
AcDbLine
 10
152.651830933283
 20
81.247517255063
 30
0.0
 11
152.651830933283
 21
83.556919720883
 31
0.0
  0
LINE
  5
480
330
309
100
AcDbEntity
  8
Stammform
  6
AUSGEZOGEN
 62
    56
370
    18
100
AcDbLine
 10
152.651830933283
 20
83.556919720883
 30
0.0
 11
150.651830933283
 21
82.402226117368
 31
0.0
  0
LINE
  5
481
330
309
100
AcDbEntity
  8
Stammform
  6
AUSGEZOGEN
 62
    56
370
    18
100
AcDbLine
 10
150.651830933283
 20
82.402226117368
 30
0.0
 11
150.651830933283
 21
80.092823651548
 31
0.0
  0
LINE
  5
482
330
309
100
AcDbEntity
  8
Stammform
  6
AUSGEZOGEN
 62
    56
370
    18
100
AcDbLine
 10
150.651830933283
 20
82.402226117368
 30
0.0
 11
148.651830933283
 21
83.556919720883
 31
0.0
  0
LINE
  5
483
330
309
100
AcDbEntity
  8
Stammform
  6
AUSGEZOGEN
 62
    56
370
    18
100
AcDbLine
 10
146.651830933283
 20
82.402226117368
 30
0.0
 11
144.651830933283
 21
83.556919720883
 31
0.0
  0
LINE
  5
484
330
309
100
AcDbEntity
  8
Stammform
  6
AUSGEZOGEN
 62
    56
370
    18
100
AcDbLine
 10
146.651830933283
 20
82.402226117368
 30
0.0
 11
146.651830933283
 21
80.092823651548
 31
0.0
  0
LINE
  5
485
330
309
100
AcDbEntity
  8
Stammform
  6
AUSGEZOGEN
 62
    56
370
    18
100
AcDbLine
 10
148.651830933283
 20
83.556919720883
 30
0.0
 11
146.651830933283
 21
82.402226117368
 31
0.0
  0
LINE
  5
486
330
309
100
AcDbEntity
  8
Layer0
  6
AUSGEZOGEN
 62
     9
370
    18
100
AcDbLine
 10
148.651830933283
 20
83.556919720883
 30
0.0
 11
146.651830933283
 21
84.711628583188
 31
0.0
  0
LINE
  5
487
330
309
100
AcDbEntity
  8
Layer0
  6
AUSGEZOGEN
 62
     9
370
    18
100
AcDbLine
 10
146.651830933283
 20
84.711628583188
 30
0.0
 11
144.651830933283
 21
83.556919720883
 31
0.0
  0
LINE
  5
488
330
309
100
AcDbEntity
  8
Layer0
  6
AUSGEZOGEN
 62
     9
370
    18
100
AcDbLine
 10
144.651830933283
 20
83.556919720883
 30
0.0
 11
144.651830933283
 21
81.247517255063
 31
0.0
  0
LINE
  5
489
330
309
100
AcDbEntity
  8
Layer0
  6
AUSGEZOGEN
 62
     9
370
    18
100
AcDbLine
 10
144.651830933283
 20
81.247517255063
 30
0.0
 11
146.651830933283
 21
80.092823651548
 31
0.0
  0
LINE
  5
48A
330
309
100
AcDbEntity
  8
Layer0
  6
AUSGEZOGEN
 62
     9
370
    18
100
AcDbLine
 10
146.651830933283
 20
80.092823651548
 30
0.0
 11
148.651830933283
 21
81.247517255063
 31
0.0
  0
LINE
  5
48B
330
309
100
AcDbEntity
  8
Layer0
  6
AUSGEZOGEN
 62
     9
370
    18
100
AcDbLine
 10
148.651830933283
 20
81.247517255063
 30
0.0
 11
148.651830933283
 21
83.556919720883
 31
0.0
  0
LINE
  5
48C
330
309
100
AcDbEntity
  8
Layer0
  6
AUSGEZOGEN
 62
     9
370
    18
100
AcDbLine
 10
170.651830933283
 20
84.711628583188
 30
0.0
 11
168.651830933283
 21
83.556919720883
 31
0.0
  0
LINE
  5
48D
330
309
100
AcDbEntity
  8
Layer0
  6
AUSGEZOGEN
 62
     9
370
    18
100
AcDbLine
 10
168.651830933283
 20
83.556919720883
 30
0.0
 11
168.651830933283
 21
81.247517255063
 31
0.0
  0
LINE
  5
48E
330
309
100
AcDbEntity
  8
Layer0
  6
AUSGEZOGEN
 62
     9
370
    18
100
AcDbLine
 10
168.651830933283
 20
81.247517255063
 30
0.0
 11
170.651830933283
 21
80.092823651548
 31
0.0
  0
LINE
  5
48F
330
309
100
AcDbEntity
  8
Stammform
  6
AUSGEZOGEN
 62
    56
370
    18
100
AcDbLine
 10
170.651830933283
 20
82.402226117368
 30
0.0
 11
168.651830933283
 21
83.556919720883
 31
0.0
  0
LINE
  5
490
330
309
100
AcDbEntity
  8
Layer0
  6
AUSGEZOGEN
 62
     9
370
    18
100
AcDbLine
 10
164.651830933283
 20
83.556919720883
 30
0.0
 11
162.651830933283
 21
84.711628583188
 31
0.0
  0
LINE
  5
491
330
309
100
AcDbEntity
  8
Layer0
  6
AUSGEZOGEN
 62
     9
370
    18
100
AcDbLine
 10
162.651830933283
 20
84.711628583188
 30
0.0
 11
160.651830933283
 21
83.556919720883
 31
0.0
  0
LINE
  5
492
330
309
100
AcDbEntity
  8
Layer0
  6
AUSGEZOGEN
 62
     9
370
    18
100
AcDbLine
 10
160.651830933283
 20
83.556919720883
 30
0.0
 11
160.651830933283
 21
81.247517255063
 31
0.0
  0
LINE
  5
493
330
309
100
AcDbEntity
  8
Layer0
  6
AUSGEZOGEN
 62
     9
370
    18
100
AcDbLine
 10
160.651830933283
 20
81.247517255063
 30
0.0
 11
162.651830933283
 21
80.092823651548
 31
0.0
  0
LINE
  5
494
330
309
100
AcDbEntity
  8
Layer0
  6
AUSGEZOGEN
 62
     9
370
    18
100
AcDbLine
 10
162.651830933283
 20
80.092823651548
 30
0.0
 11
164.651830933283
 21
81.247517255063
 31
0.0
  0
LINE
  5
495
330
309
100
AcDbEntity
  8
Layer0
  6
AUSGEZOGEN
 62
     9
370
    18
100
AcDbLine
 10
164.651830933283
 20
81.247517255063
 30
0.0
 11
164.651830933283
 21
83.556919720883
 31
0.0
  0
LINE
  5
496
330
309
100
AcDbEntity
  8
Stammform
  6
AUSGEZOGEN
 62
    56
370
    18
100
AcDbLine
 10
164.651830933283
 20
83.556919720883
 30
0.0
 11
162.651830933283
 21
82.402226117368
 31
0.0
  0
LINE
  5
497
330
309
100
AcDbEntity
  8
Stammform
  6
AUSGEZOGEN
 62
    56
370
    18
100
AcDbLine
 10
162.651830933283
 20
82.402226117368
 30
0.0
 11
162.651830933283
 21
80.092823651548
 31
0.0
  0
LINE
  5
498
330
309
100
AcDbEntity
  8
Stammform
  6
AUSGEZOGEN
 62
    56
370
    18
100
AcDbLine
 10
162.651830933283
 20
82.402226117368
 30
0.0
 11
160.651830933283
 21
83.556919720883
 31
0.0
  0
LINE
  5
499
330
309
100
AcDbEntity
  8
Stammform
  6
AUSGEZOGEN
 62
    56
370
    18
100
AcDbLine
 10
166.651830933283
 20
82.402226117368
 30
0.0
 11
164.651830933283
 21
83.556919720883
 31
0.0
  0
LINE
  5
49A
330
309
100
AcDbEntity
  8
Stammform
  6
AUSGEZOGEN
 62
    56
370
    18
100
AcDbLine
 10
166.651830933283
 20
82.402226117368
 30
0.0
 11
166.651830933283
 21
80.092823651548
 31
0.0
  0
LINE
  5
49B
330
309
100
AcDbEntity
  8
Stammform
  6
AUSGEZOGEN
 62
    56
370
    18
100
AcDbLine
 10
168.651830933283
 20
83.556919720883
 30
0.0
 11
166.651830933283
 21
82.402226117368
 31
0.0
  0
LINE
  5
49C
330
309
100
AcDbEntity
  8
Layer0
  6
AUSGEZOGEN
 62
     9
370
    18
100
AcDbLine
 10
168.651830933283
 20
83.556919720883
 30
0.0
 11
166.651830933283
 21
84.711628583188
 31
0.0
  0
LINE
  5
49D
330
309
100
AcDbEntity
  8
Layer0
  6
AUSGEZOGEN
 62
     9
370
    18
100
AcDbLine
 10
166.651830933283
 20
84.711628583188
 30
0.0
 11
164.651830933283
 21
83.556919720883
 31
0.0
  0
LINE
  5
49E
330
309
100
AcDbEntity
  8
Layer0
  6
AUSGEZOGEN
 62
     9
370
    18
100
AcDbLine
 10
164.651830933283
 20
83.556919720883
 30
0.0
 11
164.651830933283
 21
81.247517255063
 31
0.0
  0
LINE
  5
49F
330
309
100
AcDbEntity
  8
Layer0
  6
AUSGEZOGEN
 62
     9
370
    18
100
AcDbLine
 10
164.651830933283
 20
81.247517255063
 30
0.0
 11
166.651830933283
 21
80.092823651548
 31
0.0
  0
LINE
  5
4A0
330
309
100
AcDbEntity
  8
Layer0
  6
AUSGEZOGEN
 62
     9
370
    18
100
AcDbLine
 10
166.651830933283
 20
80.092823651548
 30
0.0
 11
168.651830933283
 21
81.247517255063
 31
0.0
  0
LINE
  5
4A1
330
309
100
AcDbEntity
  8
Layer0
  6
AUSGEZOGEN
 62
     9
370
    18
100
AcDbLine
 10
168.651830933283
 20
81.247517255063
 30
0.0
 11
168.651830933283
 21
83.556919720883
 31
0.0
  0
LINE
  5
4A2
330
309
100
AcDbEntity
  8
Layer0
  6
AUSGEZOGEN
 62
     9
370
    18
100
AcDbLine
 10
160.651830933283
 20
83.556919720883
 30
0.0
 11
158.651830933283
 21
84.711628583188
 31
0.0
  0
LINE
  5
4A3
330
309
100
AcDbEntity
  8
Layer0
  6
AUSGEZOGEN
 62
     9
370
    18
100
AcDbLine
 10
158.651830933283
 20
84.711628583188
 30
0.0
 11
156.651830933283
 21
83.556919720883
 31
0.0
  0
LINE
  5
4A4
330
309
100
AcDbEntity
  8
Layer0
  6
AUSGEZOGEN
 62
     9
370
    18
100
AcDbLine
 10
156.651830933283
 20
83.556919720883
 30
0.0
 11
156.651830933283
 21
81.247517255063
 31
0.0
  0
LINE
  5
4A5
330
309
100
AcDbEntity
  8
Layer0
  6
AUSGEZOGEN
 62
     9
370
    18
100
AcDbLine
 10
156.651830933283
 20
81.247517255063
 30
0.0
 11
158.651830933283
 21
80.092823651548
 31
0.0
  0
LINE
  5
4A6
330
309
100
AcDbEntity
  8
Layer0
  6
AUSGEZOGEN
 62
     9
370
    18
100
AcDbLine
 10
158.651830933283
 20
80.092823651548
 30
0.0
 11
160.651830933283
 21
81.247517255063
 31
0.0
  0
LINE
  5
4A7
330
309
100
AcDbEntity
  8
Layer0
  6
AUSGEZOGEN
 62
     9
370
    18
100
AcDbLine
 10
160.651830933283
 20
81.247517255063
 30
0.0
 11
160.651830933283
 21
83.556919720883
 31
0.0
  0
LINE
  5
4A8
330
309
100
AcDbEntity
  8
Stammform
  6
AUSGEZOGEN
 62
    56
370
    18
100
AcDbLine
 10
160.651830933283
 20
83.556919720883
 30
0.0
 11
158.651830933283
 21
82.402226117368
 31
0.0
  0
LINE
  5
4A9
330
309
100
AcDbEntity
  8
Stammform
  6
AUSGEZOGEN
 62
    56
370
    18
100
AcDbLine
 10
158.651830933283
 20
82.402226117368
 30
0.0
 11
158.651830933283
 21
80.092823651548
 31
0.0
  0
LINE
  5
4AA
330
309
100
AcDbEntity
  8
Stammform
  6
AUSGEZOGEN
 62
    56
370
    18
100
AcDbLine
 10
158.651830933283
 20
82.402226117368
 30
0.0
 11
156.651830933283
 21
83.556919720883
 31
0.0
  0
LINE
  5
4AB
330
309
100
AcDbEntity
  8
Stammform
  6
AUSGEZOGEN
 62
    56
370
    18
100
AcDbLine
 10
154.651830933283
 20
82.402226117368
 30
0.0
 11
152.651830933283
 21
83.556919720883
 31
0.0
  0
LINE
  5
4AC
330
309
100
AcDbEntity
  8
Stammform
  6
AUSGEZOGEN
 62
    56
370
    18
100
AcDbLine
 10
154.651830933283
 20
82.402226117368
 30
0.0
 11
154.651830933283
 21
80.092823651548
 31
0.0
  0
LINE
  5
4AD
330
309
100
AcDbEntity
  8
Stammform
  6
AUSGEZOGEN
 62
    56
370
    18
100
AcDbLine
 10
156.651830933283
 20
83.556919720883
 30
0.0
 11
154.651830933283
 21
82.402226117368
 31
0.0
  0
LINE
  5
4AE
330
309
100
AcDbEntity
  8
Layer0
  6
AUSGEZOGEN
 62
     9
370
    18
100
AcDbLine
 10
156.651830933283
 20
83.556919720883
 30
0.0
 11
154.651830933283
 21
84.711628583188
 31
0.0
  0
LINE
  5
4AF
330
309
100
AcDbEntity
  8
Layer0
  6
AUSGEZOGEN
 62
     9
370
    18
100
AcDbLine
 10
154.651830933283
 20
84.711628583188
 30
0.0
 11
152.651830933283
 21
83.556919720883
 31
0.0
  0
LINE
  5
4B0
330
309
100
AcDbEntity
  8
Layer0
  6
AUSGEZOGEN
 62
     9
370
    18
100
AcDbLine
 10
152.651830933283
 20
83.556919720883
 30
0.0
 11
152.651830933283
 21
81.247517255063
 31
0.0
  0
LINE
  5
4B1
330
309
100
AcDbEntity
  8
Layer0
  6
AUSGEZOGEN
 62
     9
370
    18
100
AcDbLine
 10
152.651830933283
 20
81.247517255063
 30
0.0
 11
154.651830933283
 21
80.092823651548
 31
0.0
  0
LINE
  5
4B2
330
309
100
AcDbEntity
  8
Layer0
  6
AUSGEZOGEN
 62
     9
370
    18
100
AcDbLine
 10
154.651830933283
 20
80.092823651548
 30
0.0
 11
156.651830933283
 21
81.247517255063
 31
0.0
  0
LINE
  5
4B3
330
309
100
AcDbEntity
  8
Layer0
  6
AUSGEZOGEN
 62
     9
370
    18
100
AcDbLine
 10
156.651830933283
 20
81.247517255063
 30
0.0
 11
156.651830933283
 21
83.556919720883
 31
0.0
  0
ENDBLK
  5
30B
330
309
100
AcDbEntity
  8
0
100
AcDbBlockEnd
  0
BLOCK
  5
4C2
330
4C1
100
AcDbEntity
  8
0
100
AcDbBlockBegin
  2
L1_nNn05
 70
     0
 10
0.0
 20
0.0
 30
0.0
  3
L1_nNn05
  1

  0
LINE
  5
4C4
330
4C1
100
AcDbEntity
  8
Layer0
  6
DASHDOT
 62
    56
370
    18
100
AcDbLine
 10
152.651830933283
 20
110.774706914636
 30
0.0
 11
152.651830933283
 21
132.816912230019
 31
0.0
  0
LINE
  5
4C5
330
4C1
100
AcDbEntity
  8
Layer5
  6
AUSGEZOGEN
 62
     9
370
    18
100
AcDbLine
 10
133.097387242437
 20
126.654827402126
 30
0.0
 11
152.651830933283
 21
126.654827402126
 31
0.0
  0
LINE
  5
4C6
330
4C1
100
AcDbEntity
  8
Layer5
  6
AUSGEZOGEN
 62
     9
370
    18
100
AcDbLine
 10
172.20627462413
 20
126.654827402126
 30
0.0
 11
152.651830933283
 21
126.654827402126
 31
0.0
  0
ENDBLK
  5
4C3
330
4C1
100
AcDbEntity
  8
0
100
AcDbBlockEnd
  0
BLOCK
  5
4DF
330
4DE
100
AcDbEntity
  8
0
100
AcDbBlockBegin
  2
*D7
 70
     1
 10
0.0
 20
0.0
 30
0.0
  3
*D7
  1

  0
LINE
  5
4E1
330
4DE
100
AcDbEntity
  8
Layer0
  6
AUSGEZOGEN
 62
   136
370
    18
100
AcDbLine
 10
176.75
 20
96.163334515805
 30
0.0
 11
177.25
 21
96.163334515805
 31
0.0
  0
LINE
  5
4E2
330
4DE
100
AcDbEntity
  8
Layer0
  6
AUSGEZOGEN
 62
   136
370
    18
100
AcDbLine
 10
176.75
 20
96.163334515805
 30
0.0
 11
177.0
 21
97.413334515805
 31
0.0
  0
LINE
  5
4E3
330
4DE
100
AcDbEntity
  8
Layer0
  6
AUSGEZOGEN
 62
   136
370
    18
100
AcDbLine
 10
177.0
 20
97.413334515805
 30
0.0
 11
177.25
 21
96.163334515805
 31
0.0
  0
LINE
  5
4E4
330
4DE
100
AcDbEntity
  8
Layer0
  6
AUSGEZOGEN
 62
   136
370
    18
100
AcDbLine
 10
177.25
 20
80.188130048032
 30
0.0
 11
176.75
 21
80.188130048032
 31
0.0
  0
LINE
  5
4E5
330
4DE
100
AcDbEntity
  8
Layer0
  6
AUSGEZOGEN
 62
   136
370
    18
100
AcDbLine
 10
177.25
 20
80.188130048032
 30
0.0
 11
177.0
 21
78.938130048032
 31
0.0
  0
LINE
  5
4E6
330
4DE
100
AcDbEntity
  8
Layer0
  6
AUSGEZOGEN
 62
   136
370
    18
100
AcDbLine
 10
177.0
 20
78.938130048032
 30
0.0
 11
176.75
 21
80.188130048032
 31
0.0
  0
LINE
  5
4E7
330
4DE
100
AcDbEntity
  8
Layer0
  6
AUSGEZOGEN
 62
   136
370
    18
100
AcDbLine
 10
177.0
 20
78.938130048032
 30
0.0
 11
177.0
 21
97.413334515805
 31
0.0
  0
LINE
  5
4E8
330
4DE
100
AcDbEntity
  8
Layer0
  6
AUSGEZOGEN
 62
   136
370
    18
100
AcDbLine
 10
170.651830933283
 20
78.938130048032
 30
0.0
 11
171.551830933283
 21
78.938130048032
 31
0.0
  0
LINE
  5
4E9
330
4DE
100
AcDbEntity
  8
Layer0
  6
AUSGEZOGEN
 62
   136
370
    18
100
AcDbLine
 10
172.901830933283
 20
78.938130048032
 30
0.0
 11
177.714285714286
 21
78.938130048032
 31
0.0
  0
LINE
  5
4EA
330
4DE
100
AcDbEntity
  8
Layer0
  6
AUSGEZOGEN
 62
   136
370
    18
100
AcDbLine
 10
170.651830933283
 20
97.413334515805
 30
0.0
 11
171.551830933283
 21
97.413334515805
 31
0.0
  0
LINE
  5
4EB
330
4DE
100
AcDbEntity
  8
Layer0
  6
AUSGEZOGEN
 62
   136
370
    18
100
AcDbLine
 10
172.901830933283
 20
97.413334515805
 30
0.0
 11
177.714285714286
 21
97.413334515805
 31
0.0
  0
TEXT
  5
4EC
330
4DE
100
AcDbEntity
  8
Layer0
  6
AUSGEZOGEN
 62
   136
370
    18
100
AcDbText
 10
176.5
 20
85.938601382488
 30
0.0
 40
1.25
  1
18.5
 50
90.0
 41
1.136597938144
  7
Arial
 72
     5
 11
176.5
 21
89.797351382488
 31
0.0
100
AcDbText
  0
ENDBLK
  5
4E0
330
4DE
100
AcDbEntity
  8
0
100
AcDbBlockEnd
  0
BLOCK
  5
4EF
330
4EE
100
AcDbEntity
  8
0
100
AcDbBlockBegin
  2
_CLOSED
 70
     0
 10
0.0
 20
0.0
 30
0.0
  3
_CLOSED
  1

  0
LINE
  5
4F1
330
4EE
100
AcDbEntity
  8
0
  6
ByBlock
 62
     0
370
    -2
100
AcDbLine
 10
-1.0
 20
0.166667
 30
0.0
 11
0.0
 21
0.0
 31
0.0
  0
LINE
  5
4F2
330
4EE
100
AcDbEntity
  8
0
  6
ByBlock
 62
     0
370
    -2
100
AcDbLine
 10
0.0
 20
0.0
 30
0.0
 11
-1.0
 21
-0.166667
 31
0.0
  0
LINE
  5
4F3
330
4EE
100
AcDbEntity
  8
0
  6
ByBlock
 62
     0
370
    -2
100
AcDbLine
 10
-1.0
 20
0.166667
 30
0.0
 11
-1.0
 21
-0.166667
 31
0.0
  0
LINE
  5
4F4
330
4EE
100
AcDbEntity
  8
0
  6
ByBlock
 62
     0
370
    -2
100
AcDbLine
 10
0.0
 20
0.0
 30
0.0
 11
-1.0
 21
0.0
 31
0.0
  0
ENDBLK
  5
4F0
330
4EE
100
AcDbEntity
  8
0
100
AcDbBlockEnd
  0
BLOCK
  5
4F6
330
4F5
100
AcDbEntity
  8
0
100
AcDbBlockBegin
  2
*D9
 70
     1
 10
0.0
 20
0.0
 30
0.0
  3
*D9
  1

  0
LINE
  5
4F8
330
4F5
100
AcDbEntity
  8
Layer0
  6
AUSGEZOGEN
 62
   136
370
    18
100
AcDbLine
 10
179.75
 20
98.175732281919
 30
0.0
 11
180.25
 21
98.175732281919
 31
0.0
  0
LINE
  5
4F9
330
4F5
100
AcDbEntity
  8
Layer0
  6
AUSGEZOGEN
 62
   136
370
    18
100
AcDbLine
 10
179.75
 20
98.175732281919
 30
0.0
 11
180.0
 21
99.425732281919
 31
0.0
  0
LINE
  5
4FA
330
4F5
100
AcDbEntity
  8
Layer0
  6
AUSGEZOGEN
 62
   136
370
    18
100
AcDbLine
 10
180.0
 20
99.425732281919
 30
0.0
 11
180.25
 21
98.175732281919
 31
0.0
  0
LINE
  5
4FB
330
4F5
100
AcDbEntity
  8
Layer0
  6
AUSGEZOGEN
 62
   136
370
    18
100
AcDbLine
 10
180.25
 20
78.175732281919
 30
0.0
 11
179.75
 21
78.175732281919
 31
0.0
  0
LINE
  5
4FC
330
4F5
100
AcDbEntity
  8
Layer0
  6
AUSGEZOGEN
 62
   136
370
    18
100
AcDbLine
 10
180.25
 20
78.175732281919
 30
0.0
 11
180.0
 21
76.925732281919
 31
0.0
  0
LINE
  5
4FD
330
4F5
100
AcDbEntity
  8
Layer0
  6
AUSGEZOGEN
 62
   136
370
    18
100
AcDbLine
 10
180.0
 20
76.925732281919
 30
0.0
 11
179.75
 21
78.175732281919
 31
0.0
  0
LINE
  5
4FE
330
4F5
100
AcDbEntity
  8
Layer0
  6
AUSGEZOGEN
 62
   136
370
    18
100
AcDbLine
 10
180.0
 20
76.925732281919
 30
0.0
 11
180.0
 21
99.425732281919
 31
0.0
  0
LINE
  5
4FF
330
4F5
100
AcDbEntity
  8
Layer0
  6
AUSGEZOGEN
 62
   136
370
    18
100
AcDbLine
 10
172.401830933283
 20
76.925732281919
 30
0.0
 11
180.714285714286
 21
76.925732281919
 31
0.0
  0
LINE
  5
500
330
4F5
100
AcDbEntity
  8
Layer0
  6
AUSGEZOGEN
 62
   136
370
    18
100
AcDbLine
 10
172.401830933283
 20
99.425732281919
 30
0.0
 11
180.714285714286
 21
99.425732281919
 31
0.0
  0
TEXT
  5
501
330
4F5
100
AcDbEntity
  8
Layer0
  6
AUSGEZOGEN
 62
   136
370
    18
100
AcDbText
 10
179.5
 20
86.938601382488
 30
0.0
 40
1.25
  1
22.5
 50
90.0
 41
1.136597938144
  7
Arial
 72
     5
 11
179.5
 21
90.797351382488
 31
0.0
100
AcDbText
  0
ENDBLK
  5
4F7
330
4F5
100
AcDbEntity
  8
0
100
AcDbBlockEnd
  0
BLOCK
  5
504
330
503
100
AcDbEntity
  8
0
100
AcDbBlockBegin
  2
*D10
 70
     1
 10
0.0
 20
0.0
 30
0.0
  3
*D10
  1

  0
LINE
  5
506
330
503
100
AcDbEntity
  8
Layer0
  6
AUSGEZOGEN
 62
   136
370
    18
100
AcDbLine
 10
169.401830933283
 20
72.188601382488
 30
0.0
 11
169.401830933283
 21
71.688601382488
 31
0.0
  0
LINE
  5
507
330
503
100
AcDbEntity
  8
Layer0
  6
AUSGEZOGEN
 62
   136
370
    18
100
AcDbLine
 10
169.401830933283
 20
72.188601382488
 30
0.0
 11
170.651830933283
 21
71.938601382488
 31
0.0
  0
LINE
  5
508
330
503
100
AcDbEntity
  8
Layer0
  6
AUSGEZOGEN
 62
   136
370
    18
100
AcDbLine
 10
170.651830933283
 20
71.938601382488
 30
0.0
 11
169.401830933283
 21
71.688601382488
 31
0.0
  0
LINE
  5
509
330
503
100
AcDbEntity
  8
Layer0
  6
AUSGEZOGEN
 62
   136
370
    18
100
AcDbLine
 10
135.901830933283
 20
71.688601382488
 30
0.0
 11
135.901830933283
 21
72.188601382488
 31
0.0
  0
LINE
  5
50A
330
503
100
AcDbEntity
  8
Layer0
  6
AUSGEZOGEN
 62
   136
370
    18
100
AcDbLine
 10
135.901830933283
 20
71.688601382488
 30
0.0
 11
134.651830933283
 21
71.938601382488
 31
0.0
  0
LINE
  5
50B
330
503
100
AcDbEntity
  8
Layer0
  6
AUSGEZOGEN
 62
   136
370
    18
100
AcDbLine
 10
134.651830933283
 20
71.938601382488
 30
0.0
 11
135.901830933283
 21
72.188601382488
 31
0.0
  0
LINE
  5
50C
330
503
100
AcDbEntity
  8
Layer0
  6
AUSGEZOGEN
 62
   136
370
    18
100
AcDbLine
 10
134.651830933283
 20
71.938601382488
 30
0.0
 11
170.651830933283
 21
71.938601382488
 31
0.0
  0
LINE
  5
50D
330
503
100
AcDbEntity
  8
Layer0
  6
AUSGEZOGEN
 62
   136
370
    18
100
AcDbLine
 10
134.651830933283
 20
78.938130048032
 30
0.0
 11
134.651830933283
 21
77.675732281919
 31
0.0
  0
LINE
  5
50E
330
503
100
AcDbEntity
  8
Layer0
  6
AUSGEZOGEN
 62
   136
370
    18
100
AcDbLine
 10
134.651830933283
 20
76.425732281919
 30
0.0
 11
134.651830933283
 21
71.224315668203
 31
0.0
  0
LINE
  5
50F
330
503
100
AcDbEntity
  8
Layer0
  6
AUSGEZOGEN
 62
   136
370
    18
100
AcDbLine
 10
170.651830933283
 20
78.938130048032
 30
0.0
 11
170.651830933283
 21
77.675732281919
 31
0.0
  0
LINE
  5
510
330
503
100
AcDbEntity
  8
Layer0
  6
AUSGEZOGEN
 62
   136
370
    18
100
AcDbLine
 10
170.651830933283
 20
76.425732281919
 30
0.0
 11
170.651830933283
 21
71.224315668203
 31
0.0
  0
TEXT
  5
511
330
503
100
AcDbEntity
  8
Layer0
  6
AUSGEZOGEN
 62
   136
370
    18
100
AcDbText
 10
152.0
 20
72.438601382488
 30
0.0
 40
1.25
  1
36
 41
1.136597938144
  7
Arial
 72
     5
 11
154.205
 21
72.438601382488
 31
0.0
100
AcDbText
  0
ENDBLK
  5
505
330
503
100
AcDbEntity
  8
0
100
AcDbBlockEnd
  0
BLOCK
  5
514
330
513
100
AcDbEntity
  8
0
100
AcDbBlockBegin
  2
*D11
 70
     1
 10
0.0
 20
0.0
 30
0.0
  3
*D11
  1

  0
LINE
  5
516
330
513
100
AcDbEntity
  8
Layer0
  6
AUSGEZOGEN
 62
   136
370
    18
100
AcDbLine
 10
171.151830933283
 20
69.188601382488
 30
0.0
 11
171.151830933283
 21
68.688601382488
 31
0.0
  0
LINE
  5
517
330
513
100
AcDbEntity
  8
Layer0
  6
AUSGEZOGEN
 62
   136
370
    18
100
AcDbLine
 10
171.151830933283
 20
69.188601382488
 30
0.0
 11
172.401830933283
 21
68.938601382488
 31
0.0
  0
LINE
  5
518
330
513
100
AcDbEntity
  8
Layer0
  6
AUSGEZOGEN
 62
   136
370
    18
100
AcDbLine
 10
172.401830933283
 20
68.938601382488
 30
0.0
 11
171.151830933283
 21
68.688601382488
 31
0.0
  0
LINE
  5
519
330
513
100
AcDbEntity
  8
Layer0
  6
AUSGEZOGEN
 62
   136
370
    18
100
AcDbLine
 10
134.151830933283
 20
68.688601382488
 30
0.0
 11
134.151830933283
 21
69.188601382488
 31
0.0
  0
LINE
  5
51A
330
513
100
AcDbEntity
  8
Layer0
  6
AUSGEZOGEN
 62
   136
370
    18
100
AcDbLine
 10
134.151830933283
 20
68.688601382488
 30
0.0
 11
132.901830933283
 21
68.938601382488
 31
0.0
  0
LINE
  5
51B
330
513
100
AcDbEntity
  8
Layer0
  6
AUSGEZOGEN
 62
   136
370
    18
100
AcDbLine
 10
132.901830933283
 20
68.938601382488
 30
0.0
 11
134.151830933283
 21
69.188601382488
 31
0.0
  0
LINE
  5
51C
330
513
100
AcDbEntity
  8
Layer0
  6
AUSGEZOGEN
 62
   136
370
    18
100
AcDbLine
 10
132.901830933283
 20
68.938601382488
 30
0.0
 11
172.401830933283
 21
68.938601382488
 31
0.0
  0
LINE
  5
51D
330
513
100
AcDbEntity
  8
Layer0
  6
AUSGEZOGEN
 62
   136
370
    18
100
AcDbLine
 10
132.901830933283
 20
76.925732281919
 30
0.0
 11
132.901830933283
 21
68.224315668203
 31
0.0
  0
LINE
  5
51E
330
513
100
AcDbEntity
  8
Layer0
  6
AUSGEZOGEN
 62
   136
370
    18
100
AcDbLine
 10
172.401830933283
 20
76.925732281919
 30
0.0
 11
172.401830933283
 21
68.224315668203
 31
0.0
  0
TEXT
  5
51F
330
513
100
AcDbEntity
  8
Layer0
  6
AUSGEZOGEN
 62
   136
370
    18
100
AcDbText
 10
151.0
 20
69.438601382488
 30
0.0
 40
1.25
  1
39.5
 41
1.136597938144
  7
Arial
 72
     5
 11
154.85875
 21
69.438601382488
 31
0.0
100
AcDbText
  0
ENDBLK
  5
515
330
513
100
AcDbEntity
  8
0
100
AcDbBlockEnd
  0
BLOCK
  5
522
330
521
100
AcDbEntity
  8
0
100
AcDbBlockBegin
  2
*D12
 70
     1
 10
0.0
 20
0.0
 30
0.0
  3
*D12
  1

  0
LINE
  5
524
330
521
100
AcDbEntity
  8
Layer0
  6
AUSGEZOGEN
 62
   136
370
    18
100
AcDbLine
 10
141.651830933283
 20
109.188601382488
 30
0.0
 11
141.651830933283
 21
108.688601382488
 31
0.0
  0
LINE
  5
525
330
521
100
AcDbEntity
  8
Layer0
  6
AUSGEZOGEN
 62
   136
370
    18
100
AcDbLine
 10
141.651830933283
 20
109.188601382488
 30
0.0
 11
142.901830933283
 21
108.938601382488
 31
0.0
  0
LINE
  5
526
330
521
100
AcDbEntity
  8
Layer0
  6
AUSGEZOGEN
 62
   136
370
    18
100
AcDbLine
 10
142.901830933283
 20
108.938601382488
 30
0.0
 11
141.651830933283
 21
108.688601382488
 31
0.0
  0
LINE
  5
527
330
521
100
AcDbEntity
  8
Layer0
  6
AUSGEZOGEN
 62
   136
370
    18
100
AcDbLine
 10
147.651830933283
 20
108.688601382488
 30
0.0
 11
147.651830933283
 21
109.188601382488
 31
0.0
  0
LINE
  5
528
330
521
100
AcDbEntity
  8
Layer0
  6
AUSGEZOGEN
 62
   136
370
    18
100
AcDbLine
 10
147.651830933283
 20
108.688601382488
 30
0.0
 11
146.401830933283
 21
108.938601382488
 31
0.0
  0
LINE
  5
529
330
521
100
AcDbEntity
  8
Layer0
  6
AUSGEZOGEN
 62
   136
370
    18
100
AcDbLine
 10
146.401830933283
 20
108.938601382488
 30
0.0
 11
147.651830933283
 21
109.188601382488
 31
0.0
  0
LINE
  5
52A
330
521
100
AcDbEntity
  8
Layer0
  6
AUSGEZOGEN
 62
   136
370
    18
100
AcDbLine
 10
146.401830933283
 20
108.938601382488
 30
0.0
 11
142.901830933283
 21
108.938601382488
 31
0.0
  0
LINE
  5
52B
330
521
100
AcDbEntity
  8
Layer0
  6
AUSGEZOGEN
 62
   136
370
    18
100
AcDbLine
 10
142.901830933283
 20
108.938601382488
 30
0.0
 11
140.401830933283
 21
108.938601382488
 31
0.0
  0
LINE
  5
52C
330
521
100
AcDbEntity
  8
Layer0
  6
AUSGEZOGEN
 62
   136
370
    18
100
AcDbLine
 10
146.401830933283
 20
108.938601382488
 30
0.0
 11
148.901830933283
 21
108.938601382488
 31
0.0
  0
LINE
  5
52D
330
521
100
AcDbEntity
  8
Layer0
  6
AUSGEZOGEN
 62
   136
370
    18
100
AcDbLine
 10
142.901830933283
 20
108.938601382488
 30
0.0
 11
137.0
 21
108.938601382488
 31
0.0
  0
LINE
  5
52E
330
521
100
AcDbEntity
  8
Layer0
  6
AUSGEZOGEN
 62
   136
370
    18
100
AcDbLine
 10
146.401830933283
 20
121.054827402126
 30
0.0
 11
146.401830933283
 21
108.224315668203
 31
0.0
  0
LINE
  5
52F
330
521
100
AcDbEntity
  8
Layer0
  6
AUSGEZOGEN
 62
   136
370
    18
100
AcDbLine
 10
142.901830933283
 20
121.054827402126
 30
0.0
 11
142.901830933283
 21
108.224315668203
 31
0.0
  0
TEXT
  5
530
330
521
100
AcDbEntity
  8
Layer0
  6
AUSGEZOGEN
 62
   136
370
    18
100
AcDbText
 10
137.0
 20
109.438601382488
 30
0.0
 40
1.25
  1
%%c3.5
 41
1.047918043622
  7
Arial
 72
     5
 11
140.96375
 21
109.438601382488
 31
0.0
100
AcDbText
  0
ENDBLK
  5
523
330
521
100
AcDbEntity
  8
0
100
AcDbBlockEnd
  0
BLOCK
  5
533
330
532
100
AcDbEntity
  8
0
100
AcDbBlockBegin
  2
*D13
 70
     1
 10
0.0
 20
0.0
 30
0.0
  3
*D13
  1

  0
LINE
  5
535
330
532
100
AcDbEntity
  8
Layer0
  6
AUSGEZOGEN
 62
   136
370
    18
100
AcDbLine
 10
153.401830933283
 20
109.188601382488
 30
0.0
 11
153.401830933283
 21
108.688601382488
 31
0.0
  0
LINE
  5
536
330
532
100
AcDbEntity
  8
Layer0
  6
AUSGEZOGEN
 62
   136
370
    18
100
AcDbLine
 10
153.401830933283
 20
109.188601382488
 30
0.0
 11
154.651830933283
 21
108.938601382488
 31
0.0
  0
LINE
  5
537
330
532
100
AcDbEntity
  8
Layer0
  6
AUSGEZOGEN
 62
   136
370
    18
100
AcDbLine
 10
154.651830933283
 20
108.938601382488
 30
0.0
 11
153.401830933283
 21
108.688601382488
 31
0.0
  0
LINE
  5
538
330
532
100
AcDbEntity
  8
Layer0
  6
AUSGEZOGEN
 62
   136
370
    18
100
AcDbLine
 10
151.901830933283
 20
108.688601382488
 30
0.0
 11
151.901830933283
 21
109.188601382488
 31
0.0
  0
LINE
  5
539
330
532
100
AcDbEntity
  8
Layer0
  6
AUSGEZOGEN
 62
   136
370
    18
100
AcDbLine
 10
151.901830933283
 20
108.688601382488
 30
0.0
 11
150.651830933283
 21
108.938601382488
 31
0.0
  0
LINE
  5
53A
330
532
100
AcDbEntity
  8
Layer0
  6
AUSGEZOGEN
 62
   136
370
    18
100
AcDbLine
 10
150.651830933283
 20
108.938601382488
 30
0.0
 11
151.901830933283
 21
109.188601382488
 31
0.0
  0
LINE
  5
53B
330
532
100
AcDbEntity
  8
Layer0
  6
AUSGEZOGEN
 62
   136
370
    18
100
AcDbLine
 10
150.651830933283
 20
108.938601382488
 30
0.0
 11
154.651830933283
 21
108.938601382488
 31
0.0
  0
LINE
  5
53C
330
532
100
AcDbEntity
  8
Layer0
  6
AUSGEZOGEN
 62
   136
370
    18
100
AcDbLine
 10
154.651830933283
 20
108.938601382488
 30
0.0
 11
158.75625
 21
108.938601382488
 31
0.0
  0
LINE
  5
53D
330
532
100
AcDbEntity
  8
Layer0
  6
AUSGEZOGEN
 62
   136
370
    18
100
AcDbLine
 10
150.651830933283
 20
112.904827783596
 30
0.0
 11
150.651830933283
 21
108.224315668203
 31
0.0
  0
LINE
  5
53E
330
532
100
AcDbEntity
  8
Layer0
  6
AUSGEZOGEN
 62
   136
370
    18
100
AcDbLine
 10
154.651830933283
 20
112.904827783596
 30
0.0
 11
154.651830933283
 21
108.224315668203
 31
0.0
  0
TEXT
  5
53F
330
532
100
AcDbEntity
  8
Layer0
  6
AUSGEZOGEN
 62
   136
370
    18
100
AcDbText
 10
156.0
 20
109.438601382488
 30
0.0
 40
1.25
  1
M4
 41
1.137184115523
  7
Arial
 72
     5
 11
158.75625
 21
109.438601382488
 31
0.0
100
AcDbText
  0
ENDBLK
  5
534
330
532
100
AcDbEntity
  8
0
100
AcDbBlockEnd
  0
BLOCK
  5
542
330
541
100
AcDbEntity
  8
0
100
AcDbBlockBegin
  2
*D14
 70
     1
 10
0.0
 20
0.0
 30
0.0
  3
*D14
  1

  0
LINE
  5
544
330
541
100
AcDbEntity
  8
Layer0
  6
AUSGEZOGEN
 62
   136
370
    18
100
AcDbLine
 10
178.25
 20
122.304827402126
 30
0.0
 11
177.75
 21
122.304827402126
 31
0.0
  0
LINE
  5
545
330
541
100
AcDbEntity
  8
Layer0
  6
AUSGEZOGEN
 62
   136
370
    18
100
AcDbLine
 10
178.25
 20
122.304827402126
 30
0.0
 11
178.0
 21
121.054827402126
 31
0.0
  0
LINE
  5
546
330
541
100
AcDbEntity
  8
Layer0
  6
AUSGEZOGEN
 62
   136
370
    18
100
AcDbLine
 10
178.0
 20
121.054827402126
 30
0.0
 11
177.75
 21
122.304827402126
 31
0.0
  0
LINE
  5
547
330
541
100
AcDbEntity
  8
Layer0
  6
AUSGEZOGEN
 62
   136
370
    18
100
AcDbLine
 10
177.75
 20
128.004827402126
 30
0.0
 11
178.25
 21
128.004827402126
 31
0.0
  0
LINE
  5
548
330
541
100
AcDbEntity
  8
Layer0
  6
AUSGEZOGEN
 62
   136
370
    18
100
AcDbLine
 10
177.75
 20
128.004827402126
 30
0.0
 11
178.0
 21
129.254827402126
 31
0.0
  0
LINE
  5
549
330
541
100
AcDbEntity
  8
Layer0
  6
AUSGEZOGEN
 62
   136
370
    18
100
AcDbLine
 10
178.0
 20
129.254827402126
 30
0.0
 11
178.25
 21
128.004827402126
 31
0.0
  0
LINE
  5
54A
330
541
100
AcDbEntity
  8
Layer0
  6
AUSGEZOGEN
 62
   136
370
    18
100
AcDbLine
 10
178.0
 20
129.254827402126
 30
0.0
 11
178.0
 21
121.054827402126
 31
0.0
  0
LINE
  5
54B
330
541
100
AcDbEntity
  8
Layer0
  6
AUSGEZOGEN
 62
   136
370
    18
100
AcDbLine
 10
172.051830933283
 20
129.254827402126
 30
0.0
 11
178.714285714286
 21
129.254827402126
 31
0.0
  0
LINE
  5
54C
330
541
100
AcDbEntity
  8
Layer0
  6
AUSGEZOGEN
 62
   136
370
    18
100
AcDbLine
 10
172.401830933283
 20
121.054827402126
 30
0.0
 11
177.5
 21
121.054827402126
 31
0.0
  0
LINE
  5
54D
330
541
100
AcDbEntity
  8
Layer0
  6
AUSGEZOGEN
 62
   136
370
    18
100
AcDbLine
 10
178.5
 20
121.054827402126
 30
0.0
 11
178.714285714286
 21
121.054827402126
 31
0.0
  0
TEXT
  5
54E
330
541
100
AcDbEntity
  8
Layer0
  6
AUSGEZOGEN
 62
   136
370
    18
100
AcDbText
 10
177.5
 20
122.938601382488
 30
0.0
 40
1.25
  1
8.2
 50
90.0
 41
1.136597938144
  7
Arial
 72
     5
 11
177.5
 21
125.694851382488
 31
0.0
100
AcDbText
  0
TEXT
  5
54F
330
541
100
AcDbEntity
  8
Layer0
  6
AUSGEZOGEN
 62
   136
370
    18
100
AcDbText
 10
177.3125
 20
125.694851382488
 30
0.0
 40
0.875
  1
%%p0.3
 50
90.0
 41
1.135624538064
  7
Arial
 72
     5
 11
177.3125
 21
128.383726382488
 31
0.0
100
AcDbText
  0
ENDBLK
  5
543
330
541
100
AcDbEntity
  8
0
100
AcDbBlockEnd
  0
BLOCK
  5
552
330
551
100
AcDbEntity
  8
0
100
AcDbBlockBegin
  2
*D15
 70
     1
 10
0.0
 20
0.0
 30
0.0
  3
*D15
  1

  0
LINE
  5
554
330
551
100
AcDbEntity
  8
Layer0
  6
AUSGEZOGEN
 62
   136
370
    18
100
AcDbLine
 10
178.25
 20
113.804827402126
 30
0.0
 11
177.75
 21
113.804827402126
 31
0.0
  0
LINE
  5
555
330
551
100
AcDbEntity
  8
Layer0
  6
AUSGEZOGEN
 62
   136
370
    18
100
AcDbLine
 10
178.25
 20
113.804827402126
 30
0.0
 11
178.0
 21
112.554827402126
 31
0.0
  0
LINE
  5
556
330
551
100
AcDbEntity
  8
Layer0
  6
AUSGEZOGEN
 62
   136
370
    18
100
AcDbLine
 10
178.0
 20
112.554827402126
 30
0.0
 11
177.75
 21
113.804827402126
 31
0.0
  0
LINE
  5
557
330
551
100
AcDbEntity
  8
Layer0
  6
AUSGEZOGEN
 62
   136
370
    18
100
AcDbLine
 10
177.75
 20
119.804827402126
 30
0.0
 11
178.25
 21
119.804827402126
 31
0.0
  0
LINE
  5
558
330
551
100
AcDbEntity
  8
Layer0
  6
AUSGEZOGEN
 62
   136
370
    18
100
AcDbLine
 10
177.75
 20
119.804827402126
 30
0.0
 11
178.0
 21
121.054827402126
 31
0.0
  0
LINE
  5
559
330
551
100
AcDbEntity
  8
Layer0
  6
AUSGEZOGEN
 62
   136
370
    18
100
AcDbLine
 10
178.0
 20
121.054827402126
 30
0.0
 11
178.25
 21
119.804827402126
 31
0.0
  0
LINE
  5
55A
330
551
100
AcDbEntity
  8
Layer0
  6
AUSGEZOGEN
 62
   136
370
    18
100
AcDbLine
 10
178.0
 20
121.054827402126
 30
0.0
 11
178.0
 21
112.554827402126
 31
0.0
  0
LINE
  5
55B
330
551
100
AcDbEntity
  8
Layer0
  6
AUSGEZOGEN
 62
   136
370
    18
100
AcDbLine
 10
172.401830933283
 20
121.054827402126
 30
0.0
 11
177.5
 21
121.054827402126
 31
0.0
  0
LINE
  5
55C
330
551
100
AcDbEntity
  8
Layer0
  6
AUSGEZOGEN
 62
   136
370
    18
100
AcDbLine
 10
178.5
 20
121.054827402126
 30
0.0
 11
178.714285714286
 21
121.054827402126
 31
0.0
  0
LINE
  5
55D
330
551
100
AcDbEntity
  8
Layer0
  6
AUSGEZOGEN
 62
   136
370
    18
100
AcDbLine
 10
154.301830909441
 20
112.554827402126
 30
0.0
 11
178.714285714286
 21
112.554827402126
 31
0.0
  0
TEXT
  5
55E
330
551
100
AcDbEntity
  8
Layer0
  6
AUSGEZOGEN
 62
   136
370
    18
100
AcDbText
 10
177.5
 20
114.938601382488
 30
0.0
 40
1.25
  1
8.5
 50
90.0
 41
1.136597938144
  7
Arial
 72
     5
 11
177.5
 21
117.694851382488
 31
0.0
100
AcDbText
  0
TEXT
  5
55F
330
551
100
AcDbEntity
  8
Layer0
  6
AUSGEZOGEN
 62
   136
370
    18
100
AcDbText
 10
177.3125
 20
117.694851382488
 30
0.0
 40
0.875
  1
%%p1
 50
90.0
 41
1.134889753567
  7
Arial
 72
     5
 11
177.3125
 21
119.226101382488
 31
0.0
100
AcDbText
  0
ENDBLK
  5
553
330
551
100
AcDbEntity
  8
0
100
AcDbBlockEnd
  0
BLOCK
  5
562
330
561
100
AcDbEntity
  8
0
100
AcDbBlockBegin
  2
*D16
 70
     1
 10
0.0
 20
0.0
 30
0.0
  3
*D16
  1

  0
LINE
  5
564
330
561
100
AcDbEntity
  8
Layer0
  6
AUSGEZOGEN
 62
   136
370
    18
100
AcDbLine
 10
129.25
 20
122.304827402126
 30
0.0
 11
128.75
 21
122.304827402126
 31
0.0
  0
LINE
  5
565
330
561
100
AcDbEntity
  8
Layer0
  6
AUSGEZOGEN
 62
   136
370
    18
100
AcDbLine
 10
129.25
 20
122.304827402126
 30
0.0
 11
129.0
 21
121.054827402126
 31
0.0
  0
LINE
  5
566
330
561
100
AcDbEntity
  8
Layer0
  6
AUSGEZOGEN
 62
   136
370
    18
100
AcDbLine
 10
129.0
 20
121.054827402126
 30
0.0
 11
128.75
 21
122.304827402126
 31
0.0
  0
LINE
  5
567
330
561
100
AcDbEntity
  8
Layer0
  6
AUSGEZOGEN
 62
   136
370
    18
100
AcDbLine
 10
128.75
 20
116.804827402126
 30
0.0
 11
129.25
 21
116.804827402126
 31
0.0
  0
LINE
  5
568
330
561
100
AcDbEntity
  8
Layer0
  6
AUSGEZOGEN
 62
   136
370
    18
100
AcDbLine
 10
128.75
 20
116.804827402126
 30
0.0
 11
129.0
 21
118.054827402126
 31
0.0
  0
LINE
  5
569
330
561
100
AcDbEntity
  8
Layer0
  6
AUSGEZOGEN
 62
   136
370
    18
100
AcDbLine
 10
129.0
 20
118.054827402126
 30
0.0
 11
129.25
 21
116.804827402126
 31
0.0
  0
LINE
  5
56A
330
561
100
AcDbEntity
  8
Layer0
  6
AUSGEZOGEN
 62
   136
370
    18
100
AcDbLine
 10
129.0
 20
118.054827402126
 30
0.0
 11
129.0
 21
121.054827402126
 31
0.0
  0
LINE
  5
56B
330
561
100
AcDbEntity
  8
Layer0
  6
AUSGEZOGEN
 62
   136
370
    18
100
AcDbLine
 10
129.0
 20
121.054827402126
 30
0.0
 11
129.0
 21
123.554827402126
 31
0.0
  0
LINE
  5
56C
330
561
100
AcDbEntity
  8
Layer0
  6
AUSGEZOGEN
 62
   136
370
    18
100
AcDbLine
 10
129.0
 20
118.054827402126
 30
0.0
 11
129.0
 21
115.554827402126
 31
0.0
  0
LINE
  5
56D
330
561
100
AcDbEntity
  8
Layer0
  6
AUSGEZOGEN
 62
   136
370
    18
100
AcDbLine
 10
143.006593241759
 20
118.054827402126
 30
0.0
 11
128.285714285714
 21
118.054827402126
 31
0.0
  0
LINE
  5
56E
330
561
100
AcDbEntity
  8
Layer0
  6
AUSGEZOGEN
 62
   136
370
    18
100
AcDbLine
 10
132.901830933283
 20
121.054827402126
 30
0.0
 11
128.285714285714
 21
121.054827402126
 31
0.0
  0
TEXT
  5
56F
330
561
100
AcDbEntity
  8
Layer0
  6
AUSGEZOGEN
 62
   136
370
    18
100
AcDbText
 10
128.5
 20
118.938601382488
 30
0.0
 40
1.25
  1
3
 50
90.0
 41
1.136597938144
  7
Arial
 72
     5
 11
128.5
 21
120.041101382488
 31
0.0
100
AcDbText
  0
ENDBLK
  5
563
330
561
100
AcDbEntity
  8
0
100
AcDbBlockEnd
  0
BLOCK
  5
573
330
572
100
AcDbEntity
  8
0
100
AcDbBlockBegin
  2
*D17
 70
     1
 10
0.0
 20
0.0
 30
0.0
  3
*D17
  1

  0
LINE
  5
575
330
572
100
AcDbEntity
  8
Layer0
  6
AUSGEZOGEN
 62
   136
370
    18
100
AcDbLine
 10
151.401830933283
 20
103.25
 30
0.0
 11
151.401830933283
 21
102.75
 31
0.0
  0
LINE
  5
576
330
572
100
AcDbEntity
  8
Layer0
  6
AUSGEZOGEN
 62
   136
370
    18
100
AcDbLine
 10
151.401830933283
 20
103.25
 30
0.0
 11
152.651830933283
 21
103.0
 31
0.0
  0
LINE
  5
577
330
572
100
AcDbEntity
  8
Layer0
  6
AUSGEZOGEN
 62
   136
370
    18
100
AcDbLine
 10
152.651830933283
 20
103.0
 30
0.0
 11
151.401830933283
 21
102.75
 31
0.0
  0
LINE
  5
578
330
572
100
AcDbEntity
  8
Layer0
  6
AUSGEZOGEN
 62
   136
370
    18
100
AcDbLine
 10
145.901830933283
 20
102.75
 30
0.0
 11
145.901830933283
 21
103.25
 31
0.0
  0
LINE
  5
579
330
572
100
AcDbEntity
  8
Layer0
  6
AUSGEZOGEN
 62
   136
370
    18
100
AcDbLine
 10
145.901830933283
 20
102.75
 30
0.0
 11
144.651830933283
 21
103.0
 31
0.0
  0
LINE
  5
57A
330
572
100
AcDbEntity
  8
Layer0
  6
AUSGEZOGEN
 62
   136
370
    18
100
AcDbLine
 10
144.651830933283
 20
103.0
 30
0.0
 11
145.901830933283
 21
103.25
 31
0.0
  0
LINE
  5
57B
330
572
100
AcDbEntity
  8
Layer0
  6
AUSGEZOGEN
 62
   136
370
    18
100
AcDbLine
 10
144.651830933283
 20
103.0
 30
0.0
 11
152.651830933283
 21
103.0
 31
0.0
  0
LINE
  5
57C
330
572
100
AcDbEntity
  8
Layer0
  6
AUSGEZOGEN
 62
   136
370
    18
100
AcDbLine
 10
144.651830933283
 20
90.485127118344
 30
0.0
 11
144.651830933283
 21
92.294529584165
 31
0.0
  0
LINE
  5
57D
330
572
100
AcDbEntity
  8
Layer0
  6
AUSGEZOGEN
 62
   136
370
    18
100
AcDbLine
 10
144.651830933283
 20
93.294529584165
 30
0.0
 11
144.651830933283
 21
94.603932049985
 31
0.0
  0
LINE
  5
57E
330
572
100
AcDbEntity
  8
Layer0
  6
AUSGEZOGEN
 62
   136
370
    18
100
AcDbLine
 10
144.651830933283
 20
95.603932049985
 30
0.0
 11
144.651830933283
 21
96.913334515805
 31
0.0
  0
LINE
  5
57F
330
572
100
AcDbEntity
  8
Layer0
  6
AUSGEZOGEN
 62
   136
370
    18
100
AcDbLine
 10
144.651830933283
 20
97.913334515805
 30
0.0
 11
144.651830933283
 21
98.675732281919
 31
0.0
  0
LINE
  5
580
330
572
100
AcDbEntity
  8
Layer0
  6
AUSGEZOGEN
 62
   136
370
    18
100
AcDbLine
 10
144.651830933283
 20
99.925732281919
 30
0.0
 11
144.651830933283
 21
103.714285714286
 31
0.0
  0
LINE
  5
581
330
572
100
AcDbEntity
  8
Layer0
  6
AUSGEZOGEN
 62
   136
370
    18
100
AcDbLine
 10
152.651830933283
 20
100.707795780604
 30
0.0
 11
152.651830933283
 21
103.714285714286
 31
0.0
  0
TEXT
  5
582
330
572
100
AcDbEntity
  8
Layer0
  6
AUSGEZOGEN
 62
   136
370
    18
100
AcDbText
 10
148.0
 20
103.5
 30
0.0
 40
1.25
  1
8
 41
1.136597938144
  7
Arial
 72
     5
 11
149.1025
 21
103.5
 31
0.0
100
AcDbText
  0
ENDBLK
  5
574
330
572
100
AcDbEntity
  8
0
100
AcDbBlockEnd
  0
BLOCK
  5
585
330
584
100
AcDbEntity
  8
0
100
AcDbBlockBegin
  2
*D18
 70
     1
 10
0.0
 20
0.0
 30
0.0
  3
*D18
  1

  0
LINE
  5
587
330
584
100
AcDbEntity
  8
Layer0
  6
AUSGEZOGEN
 62
   136
370
    18
100
AcDbLine
 10
163.401830933283
 20
103.25
 30
0.0
 11
163.401830933283
 21
102.75
 31
0.0
  0
LINE
  5
588
330
584
100
AcDbEntity
  8
Layer0
  6
AUSGEZOGEN
 62
   136
370
    18
100
AcDbLine
 10
163.401830933283
 20
103.25
 30
0.0
 11
164.651830933283
 21
103.0
 31
0.0
  0
LINE
  5
589
330
584
100
AcDbEntity
  8
Layer0
  6
AUSGEZOGEN
 62
   136
370
    18
100
AcDbLine
 10
164.651830933283
 20
103.0
 30
0.0
 11
163.401830933283
 21
102.75
 31
0.0
  0
LINE
  5
58A
330
584
100
AcDbEntity
  8
Layer0
  6
AUSGEZOGEN
 62
   136
370
    18
100
AcDbLine
 10
161.901830933283
 20
102.75
 30
0.0
 11
161.901830933283
 21
103.25
 31
0.0
  0
LINE
  5
58B
330
584
100
AcDbEntity
  8
Layer0
  6
AUSGEZOGEN
 62
   136
370
    18
100
AcDbLine
 10
161.901830933283
 20
102.75
 30
0.0
 11
160.651830933283
 21
103.0
 31
0.0
  0
LINE
  5
58C
330
584
100
AcDbEntity
  8
Layer0
  6
AUSGEZOGEN
 62
   136
370
    18
100
AcDbLine
 10
160.651830933283
 20
103.0
 30
0.0
 11
161.901830933283
 21
103.25
 31
0.0
  0
LINE
  5
58D
330
584
100
AcDbEntity
  8
Layer0
  6
AUSGEZOGEN
 62
   136
370
    18
100
AcDbLine
 10
160.651830933283
 20
103.0
 30
0.0
 11
164.651830933283
 21
103.0
 31
0.0
  0
LINE
  5
58E
330
584
100
AcDbEntity
  8
Layer0
  6
AUSGEZOGEN
 62
   136
370
    18
100
AcDbLine
 10
160.651830933283
 20
97.413334515805
 30
0.0
 11
160.651830933283
 21
98.675732281919
 31
0.0
  0
LINE
  5
58F
330
584
100
AcDbEntity
  8
Layer0
  6
AUSGEZOGEN
 62
   136
370
    18
100
AcDbLine
 10
160.651830933283
 20
99.925732281919
 30
0.0
 11
160.651830933283
 21
103.714285714286
 31
0.0
  0
LINE
  5
590
330
584
100
AcDbEntity
  8
Layer0
  6
AUSGEZOGEN
 62
   136
370
    18
100
AcDbLine
 10
164.651830933283
 20
97.413334515805
 30
0.0
 11
164.651830933283
 21
98.675732281919
 31
0.0
  0
LINE
  5
591
330
584
100
AcDbEntity
  8
Layer0
  6
AUSGEZOGEN
 62
   136
370
    18
100
AcDbLine
 10
164.651830933283
 20
99.925732281919
 30
0.0
 11
164.651830933283
 21
103.714285714286
 31
0.0
  0
TEXT
  5
592
330
584
100
AcDbEntity
  8
Layer0
  6
AUSGEZOGEN
 62
   136
370
    18
100
AcDbText
 10
162.0
 20
103.5
 30
0.0
 40
1.25
  1
4
 41
1.136597938144
  7
Arial
 72
     5
 11
163.1025
 21
103.5
 31
0.0
100
AcDbText
  0
ENDBLK
  5
586
330
584
100
AcDbEntity
  8
0
100
AcDbBlockEnd
  0
ENDSEC
  0
SECTION
  2
ENTITIES
  0
INSERT
  5
19F
330
1F
100
AcDbEntity
  8
0
100
AcDbBlockReference
  2
A4_nNn00
 10
0.0
 20
0.0
 30
0.0
  0
TEXT
  5
1A0
330
1F
100
AcDbEntity
  8
Layer0
  6
AUSGEZOGEN
 62
   136
370
    18
100
AcDbText
 10
113.350452160062
 20
43.335120743806
 30
0.0
 40
1.25
  1
Reflexionswerte werden gesondert vereinbart
 41
1.135633657373
  7
Arial
 72
     5
 11
153.215452160062
 21
43.335120743806
 31
0.0
100
AcDbText
  0
TEXT
  5
1A1
330
1F
100
AcDbEntity
  8
Layer50
  6
AUSGEZOGEN
 62
     9
370
    18
100
AcDbText
 10
163.649972251522
 20
29.237301631815
 30
0.0
 40
1.75
  1
Reflektor 23,5x40 LF M4
 41
1.135902659025
  7
Arial
 72
     5
 11
194.0299728428
 21
29.237301631815
 31
0.0
100
AcDbText
  0
TEXT
  5
1A2
330
1F
100
AcDbEntity
  8
Layer0
  6
AUSGEZOGEN
 62
   136
370
    18
100
AcDbText
 10
113.148601624054
 20
50.713057223769
 30
0.0
 40
1.25
  1
Teil frei von Rissen, Grat, Blasen, Einfallstellen,
 41
1.134961395871
  7
Arial
 72
     5
 11
154.859851624054
 21
50.713057223769
 31
0.0
100
AcDbText
  0
TEXT
  5
1A3
330
1F
100
AcDbEntity
  8
Layer0
  6
AUSGEZOGEN
 62
   136
370
    18
100
AcDbText
 10
113.148601624054
 20
48.713057193966
 30
0.0
 40
1.25
  1
Fliesslinien, Einschlüssen, Formbelag, Kratzer, Schlieren
 41
1.134732239196
  7
Arial
 72
     5
 11
163.102351624054
 21
48.713057193966
 31
0.0
100
AcDbText
  0
TEXT
  5
1A4
330
1F
100
AcDbEntity
  8
Layer0
  6
AUSGEZOGEN
 62
   136
370
    18
100
AcDbText
 10
113.148601624054
 20
46.713057164164
 30
0.0
 40
1.25
  1
Grenzwertmuster werden gesondert vereinbart
 41
1.135456372583
  7
Arial
 72
     5
 11
154.107351624054
 21
46.713057164164
 31
0.0
100
AcDbText
  0
TEXT
  5
1A5
330
1F
100
AcDbEntity
  8
Layer0
  6
AUSGEZOGEN
 62
   136
370
    18
100
AcDbText
 10
113.184959317707
 20
62.81953387818
 30
0.0
 40
1.25
  1
Reflektor: PMMA glasklar
 41
1.135399466531
  7
Arial
 72
     5
 11
135.532459317707
 21
62.81953387818
 31
0.0
100
AcDbText
  0
TEXT
  5
1A6
330
1F
100
AcDbEntity
  8
Layer0
  6
AUSGEZOGEN
 62
   136
370
    18
100
AcDbText
 10
113.184959317707
 20
60.819533848377
 30
0.0
 40
1.25
  1
Halterung: PMMA weiss
 41
1.136037064393
  7
Arial
 72
     5
 11
134.333709317707
 21
60.819533848377
 31
0.0
100
AcDbText
  0
TEXT
  5
1A7
330
1F
100
AcDbEntity
  8
Layer0
  6
AUSGEZOGEN
 62
   136
370
    18
100
AcDbText
 10
113.184959317707
 20
58.819533818575
 30
0.0
 40
1.25
  1
Schraube, Mutter, Scheibe: Ms
 41
1.135737396931
  7
Arial
 72
     5
 11
140.388709317707
 21
58.819533818575
 31
0.0
100
AcDbText
  0
TEXT
  5
1A8
330
1F
100
AcDbEntity
  8
Layer0
  6
AUSGEZOGEN
 62
   136
370
    18
100
AcDbText
 10
113.184959317707
 20
54.81953375897
 30
0.0
 40
1.25
  1
Mutter und Scheibe im Lieferumfang enthalten
 41
1.136020679055
  7
Arial
 72
     5
 11
153.837459317707
 21
54.81953375897
 31
0.0
100
AcDbText
  0
INSERT
  5
305
330
1F
100
AcDbEntity
  8
0
100
AcDbBlockReference
  2
SECHSK1_nNn03
 10
0.0
 20
0.0
 30
0.0
  0
LINE
  5
306
330
1F
100
AcDbEntity
  8
Layer0
  6
AUSGEZOGEN
 62
     9
370
    18
100
AcDbLine
 10
170.651830933283
 20
82.402226117368
 30
0.0
 11
170.651830933283
 21
97.413334515805
 31
0.0
  0
LINE
  5
307
330
1F
100
AcDbEntity
  8
Layer0
  6
AUSGEZOGEN
 62
     9
370
    18
100
AcDbLine
 10
133.251830933283
 20
99.175732281919
 30
0.0
 11
172.051830933283
 21
99.175732281919
 31
0.0
  0
LINE
  5
308
330
1F
100
AcDbEntity
  8
Layer0
  6
AUSGEZOGEN
 62
     9
370
    18
100
AcDbLine
 10
133.251830933283
 20
77.175732281919
 30
0.0
 11
172.051830933283
 21
77.175732281919
 31
0.0
  0
INSERT
  5
4B4
330
1F
100
AcDbEntity
  8
0
100
AcDbBlockReference
  2
SECHSK1_nNn04
 10
0.0
 20
0.0
 30
0.0
  0
LINE
  5
4B5
330
1F
100
AcDbEntity
  8
Layer0
  6
AUSGEZOGEN
 62
   136
370
    18
100
AcDbLine
 10
134.651830933283
 20
78.938130048032
 30
0.0
 11
170.651830933283
 21
78.938130048032
 31
0.0
  0
LINE
  5
4B6
330
1F
100
AcDbEntity
  8
Layer0
  6
AUSGEZOGEN
 62
   136
370
    18
100
AcDbLine
 10
134.651830933283
 20
97.413334515805
 30
0.0
 11
170.651830933283
 21
97.413334515805
 31
0.0
  0
LINE
  5
4B7
330
1F
100
AcDbEntity
  8
Layer0
  6
AUSGEZOGEN
 62
   136
370
    18
100
AcDbLine
 10
170.651830933283
 20
78.938130048032
 30
0.0
 11
170.651830933283
 21
97.413334515805
 31
0.0
  0
LINE
  5
4B8
330
1F
100
AcDbEntity
  8
Layer0
  6
AUSGEZOGEN
 62
   136
370
    18
100
AcDbLine
 10
134.651830933283
 20
78.938130048032
 30
0.0
 11
134.651830933283
 21
97.413334515805
 31
0.0
  0
LINE
  5
4B9
330
1F
100
AcDbEntity
  8
Layer0
  6
AUSGEZOGEN
 62
     9
370
    18
100
AcDbLine
 10
172.051830933283
 20
77.175732281919
 30
0.0
 11
172.051830933283
 21
99.175732281919
 31
0.0
  0
LINE
  5
4BA
330
1F
100
AcDbEntity
  8
Layer0
  6
AUSGEZOGEN
 62
     9
370
    18
100
AcDbLine
 10
133.251830933283
 20
77.175732281919
 30
0.0
 11
133.251830933283
 21
99.175732281919
 31
0.0
  0
LINE
  5
4BB
330
1F
100
AcDbEntity
  8
Layer0
  6
DASHDOT
 62
    56
370
    18
100
AcDbLine
 10
130.514536521696
 20
88.175732281919
 30
0.0
 11
174.270855124345
 21
88.175732281919
 31
0.0
  0
LINE
  5
4BC
330
1F
100
AcDbEntity
  8
Layer0
  6
DASHDOT
 62
    56
370
    18
100
AcDbLine
 10
152.651830933283
 20
100.707795780604
 30
0.0
 11
152.651830933283
 21
75.01414626187
 31
0.0
  0
LINE
  5
4BD
330
1F
100
AcDbEntity
  8
Layer0
  6
AUSGEZOGEN
 62
     9
370
    18
100
AcDbLine
 10
132.901830933283
 20
99.425732281919
 30
0.0
 11
132.901830933283
 21
76.925732281919
 31
0.0
  0
LINE
  5
4BE
330
1F
100
AcDbEntity
  8
Layer0
  6
AUSGEZOGEN
 62
     9
370
    18
100
AcDbLine
 10
172.401830933283
 20
99.425732281919
 30
0.0
 11
172.401830933283
 21
76.925732281919
 31
0.0
  0
LINE
  5
4BF
330
1F
100
AcDbEntity
  8
Layer0
  6
AUSGEZOGEN
 62
     9
370
    18
100
AcDbLine
 10
132.901830933283
 20
99.425732281919
 30
0.0
 11
172.401830933283
 21
99.425732281919
 31
0.0
  0
LINE
  5
4C0
330
1F
100
AcDbEntity
  8
Layer0
  6
AUSGEZOGEN
 62
     9
370
    18
100
AcDbLine
 10
132.901830933283
 20
76.925732281919
 30
0.0
 11
172.401830933283
 21
76.925732281919
 31
0.0
  0
INSERT
  5
4C7
330
1F
100
AcDbEntity
  8
0
100
AcDbBlockReference
  2
L1_nNn05
 10
0.0
 20
0.0
 30
0.0
  0
LINE
  5
4C8
330
1F
100
AcDbEntity
  8
Layer0
  6
AUSGEZOGEN
 62
     9
370
    18
100
AcDbLine
 10
172.051830933283
 20
129.254827402126
 30
0.0
 11
152.651830933283
 21
129.254827402126
 31
0.0
  0
LINE
  5
4C9
330
1F
100
AcDbEntity
  8
Layer0
  6
AUSGEZOGEN
 62
     9
370
    18
100
AcDbLine
 10
133.251830933283
 20
129.254827402126
 30
0.0
 11
152.651830933283
 21
129.254827402126
 31
0.0
  0
LINE
  5
4CA
330
1F
100
AcDbEntity
  8
Layer0
  6
AUSGEZOGEN
 62
     9
370
    18
100
AcDbLine
 10
172.401830933283
 20
121.054827402126
 30
0.0
 11
132.901830933283
 21
121.054827402126
 31
0.0
  0
LINE
  5
4CB
330
1F
100
AcDbEntity
  8
Layer0
  6
AUSGEZOGEN
 62
     9
370
    18
100
AcDbLine
 10
154.651830933283
 20
121.054827402126
 30
0.0
 11
154.651830933283
 21
112.904827783596
 31
0.0
  0
LINE
  5
4CC
330
1F
100
AcDbEntity
  8
Layer0
  6
AUSGEZOGEN
 62
     9
370
    18
100
AcDbLine
 10
154.651830933283
 20
112.904827783596
 30
0.0
 11
154.301830909441
 21
112.554827402126
 31
0.0
  0
LINE
  5
4CD
330
1F
100
AcDbEntity
  8
Layer0
  6
AUSGEZOGEN
 62
     9
370
    18
100
AcDbLine
 10
154.301830909441
 20
112.554827402126
 30
0.0
 11
151.001830957125
 21
112.554827402126
 31
0.0
  0
LINE
  5
4CE
330
1F
100
AcDbEntity
  8
Layer0
  6
AUSGEZOGEN
 62
     9
370
    18
100
AcDbLine
 10
151.001830957125
 20
112.554827402126
 30
0.0
 11
150.651830933283
 21
112.904827783596
 31
0.0
  0
LINE
  5
4CF
330
1F
100
AcDbEntity
  8
Layer0
  6
AUSGEZOGEN
 62
     9
370
    18
100
AcDbLine
 10
150.651830933283
 20
112.904827783596
 30
0.0
 11
150.651830933283
 21
121.054827402126
 31
0.0
  0
LINE
  5
4D0
330
1F
100
AcDbEntity
  8
Layer0
  6
AUSGEZOGEN
 62
     9
370
    18
100
AcDbLine
 10
154.651830933283
 20
112.904827783596
 30
0.0
 11
150.651830933283
 21
112.904827783596
 31
0.0
  0
LINE
  5
4D1
330
1F
100
AcDbEntity
  8
Layer0
  6
AUSGEZOGEN
 62
    56
370
    18
100
AcDbLine
 10
154.301830909441
 20
121.054827402126
 30
0.0
 11
154.301830909441
 21
112.554827402126
 31
0.0
  0
LINE
  5
4D2
330
1F
100
AcDbEntity
  8
Layer0
  6
AUSGEZOGEN
 62
    56
370
    18
100
AcDbLine
 10
151.001830957125
 20
121.054827402126
 30
0.0
 11
151.001830957125
 21
112.554827402126
 31
0.0
  0
LINE
  5
4D3
330
1F
100
AcDbEntity
  8
Layer0
  6
AUSGEZOGEN
 62
     9
370
    18
100
AcDbLine
 10
132.901830933283
 20
121.054827402126
 30
0.0
 11
133.097387242437
 21
126.654827402126
 31
0.0
  0
LINE
  5
4D4
330
1F
100
AcDbEntity
  8
Layer0
  6
AUSGEZOGEN
 62
     9
370
    18
100
AcDbLine
 10
172.401830933283
 20
121.054827402126
 30
0.0
 11
172.20627462413
 21
126.654827402126
 31
0.0
  0
LINE
  5
4D5
330
1F
100
AcDbEntity
  8
Layer0
  6
DASHDOT
 62
    56
370
    18
100
AcDbLine
 10
144.651830933283
 20
116.810516122376
 30
0.0
 11
144.651830933283
 21
122.826859086512
 31
0.0
  0
LINE
  5
4D6
330
1F
100
AcDbEntity
  8
Layer0
  6
AUSGEZOGEN
 62
     9
370
    18
100
AcDbLine
 10
146.297068624808
 20
118.054827402126
 30
0.0
 11
143.006593241759
 21
118.054827402126
 31
0.0
  0
LINE
  5
4D7
330
1F
100
AcDbEntity
  8
Layer0
  6
AUSGEZOGEN
 62
     9
370
    18
100
AcDbLine
 10
146.297068624808
 20
118.054827402126
 30
0.0
 11
146.401830933283
 21
121.054827402126
 31
0.0
  0
LINE
  5
4D8
330
1F
100
AcDbEntity
  8
Layer0
  6
AUSGEZOGEN
 62
     9
370
    18
100
AcDbLine
 10
143.006593241759
 20
118.054827402126
 30
0.0
 11
142.901830933283
 21
121.054827402126
 31
0.0
  0
LINE
  5
4D9
330
1F
100
AcDbEntity
  8
Layer0
  6
AUSGEZOGEN
 62
     9
370
    18
100
AcDbLine
 10
133.251830933283
 20
126.654827402126
 30
0.0
 11
133.251830933283
 21
129.254827402126
 31
0.0
  0
LINE
  5
4DA
330
1F
100
AcDbEntity
  8
Layer0
  6
AUSGEZOGEN
 62
     9
370
    18
100
AcDbLine
 10
172.051830933283
 20
126.654827402126
 30
0.0
 11
172.051830933283
 21
129.254827402126
 31
0.0
  0
CIRCLE
  5
4DB
330
1F
100
AcDbEntity
  8
Layer0
  6
DASHED
 62
   136
370
    18
100
AcDbCircle
 10
144.651830933283
 20
88.175732281919
 30
0.0
 40
1.75
  0
CIRCLE
  5
4DC
330
1F
100
AcDbEntity
  8
Layer0
  6
DASHED
 62
   136
370
    18
100
AcDbCircle
 10
152.651830933283
 20
88.175724652524
 30
0.0
 40
2.0
  0
ARC
  5
4DD
330
1F
100
AcDbEntity
  8
Layer0
  6
DASHED
 62
   136
370
    18
100
AcDbCircle
 10
152.651844147862
 20
88.175732281919
 30
0.0
 40
1.65
100
AcDbArc
 50
30.0
 51
330.0
  0
DIMENSION
  5
4ED
330
1F
100
AcDbEntity
  8
Layer0
  6
AUSGEZOGEN
 62
   136
370
    18
100
AcDbDimension
  2
*D7
 10
177.0
 20
97.413334515805
 30
0.0
 11
175.875
 21
87.867976382488
 31
0.0
 70
   160
 71
     5
 42
-1.0
 53
90.0
  3
ISO-25
100
AcDbAlignedDimension
 13
170.651830933283
 23
78.938130048032
 33
0.0
 14
170.651830933283
 24
97.413334515805
 34
0.0
 50
90.0
100
AcDbRotatedDimension
1001
ACAD
1000
DSTYLE
1002
{
1070
     3
1000
<>
1070
    44
1040
0.892857142857
1070
   280
1070
     0
1070
    77
1070
     1
1070
    78
1070
     8
1070
   179
1070
     1
1070
   271
1070
     1
1070
   344
1005
4EE
1070
   343
1005
4EE
1070
   173
1070
     1
1070
    41
1040
1.25
1070
   147
1040
0.178571428571
1070
   140
1040
1.25
1070
   178
1070
   136
1070
   177
1070
   136
1070
   176
1070
   136
1002
}
  0
DIMENSION
  5
502
330
1F
100
AcDbEntity
  8
Layer0
  6
AUSGEZOGEN
 62
   136
370
    18
100
AcDbDimension
  2
*D9
 10
180.0
 20
99.425732281919
 30
0.0
 11
178.875
 21
88.867976382488
 31
0.0
 70
   160
 71
     5
 42
-1.0
 53
90.0
  3
ISO-25
100
AcDbAlignedDimension
 13
172.401830933283
 23
76.925732281919
 33
0.0
 14
172.401830933283
 24
99.425732281919
 34
0.0
 50
90.0
100
AcDbRotatedDimension
1001
ACAD
1000
DSTYLE
1002
{
1070
     3
1000
<>
1070
    44
1040
0.892857142857
1070
   280
1070
     0
1070
    77
1070
     1
1070
    78
1070
     8
1070
   179
1070
     2
1070
   271
1070
     2
1070
   344
1005
4EE
1070
   343
1005
4EE
1070
   173
1070
     1
1070
    41
1040
1.25
1070
   147
1040
0.178571428571
1070
   140
1040
1.25
1070
   178
1070
   136
1070
   177
1070
   136
1070
   176
1070
   136
1002
}
  0
DIMENSION
  5
512
330
1F
100
AcDbEntity
  8
Layer0
  6
AUSGEZOGEN
 62
   136
370
    18
100
AcDbDimension
  2
*D10
 10
170.651830933283
 20
71.938601382488
 30
0.0
 11
153.1025
 21
73.063601382488
 31
0.0
 70
   160
 71
     5
 42
-1.0
  3
ISO-25
100
AcDbAlignedDimension
 13
134.651830933283
 23
78.938130048032
 33
0.0
 14
170.651830933283
 24
78.938130048032
 34
0.0
100
AcDbRotatedDimension
1001
ACAD
1000
DSTYLE
1002
{
1070
     3
1000
<>
1070
    44
1040
0.892857142857
1070
   280
1070
     0
1070
    77
1070
     1
1070
    78
1070
     8
1070
   179
1070
     2
1070
   271
1070
     2
1070
   344
1005
4EE
1070
   343
1005
4EE
1070
   173
1070
     1
1070
    41
1040
1.25
1070
   147
1040
0.178571428571
1070
   140
1040
1.25
1070
   178
1070
   136
1070
   177
1070
   136
1070
   176
1070
   136
1002
}
  0
DIMENSION
  5
520
330
1F
100
AcDbEntity
  8
Layer0
  6
AUSGEZOGEN
 62
   136
370
    18
100
AcDbDimension
  2
*D11
 10
172.401830933283
 20
68.938601382488
 30
0.0
 11
152.929375
 21
70.063601382488
 31
0.0
 70
   160
 71
     5
 42
-1.0
  3
ISO-25
100
AcDbAlignedDimension
 13
132.901830933283
 23
76.925732281919
 33
0.0
 14
172.401830933283
 24
76.925732281919
 34
0.0
100
AcDbRotatedDimension
1001
ACAD
1000
DSTYLE
1002
{
1070
     3
1000
<>
1070
    44
1040
0.892857142857
1070
   280
1070
     0
1070
    77
1070
     1
1070
    78
1070
     8
1070
   179
1070
     2
1070
   271
1070
     2
1070
   344
1005
4EE
1070
   343
1005
4EE
1070
   173
1070
     1
1070
    41
1040
1.25
1070
   147
1040
0.178571428571
1070
   140
1040
1.25
1070
   178
1070
   136
1070
   177
1070
   136
1070
   176
1070
   136
1002
}
  0
DIMENSION
  5
531
330
1F
100
AcDbEntity
  8
Layer0
  6
AUSGEZOGEN
 62
   136
370
    18
100
AcDbDimension
  2
*D12
 10
142.901830933283
 20
108.938601382488
 30
0.0
 11
138.981875
 21
110.063601382488
 31
0.0
 70
   160
 71
     5
 42
-1.0
  3
ISO-25
100
AcDbAlignedDimension
 13
146.401830933283
 23
121.054827402126
 33
0.0
 14
142.901830933283
 24
121.054827402126
 34
0.0
 50
180.0
100
AcDbRotatedDimension
1001
ACAD
1000
DSTYLE
1002
{
1070
     3
1000
%%c<>
1070
    44
1040
0.892857142857
1070
   280
1070
     0
1070
    77
1070
     1
1070
    78
1070
     8
1070
   179
1070
     2
1070
   271
1070
     2
1070
   344
1005
4EE
1070
   343
1005
4EE
1070
   173
1070
     1
1070
    41
1040
1.25
1070
   147
1040
0.178571428571
1070
   140
1040
1.25
1070
   178
1070
   136
1070
   177
1070
   136
1070
   176
1070
   136
1002
}
  0
DIMENSION
  5
540
330
1F
100
AcDbEntity
  8
Layer0
  6
AUSGEZOGEN
 62
   136
370
    18
100
AcDbDimension
  2
*D13
 10
154.651830933283
 20
108.938601382488
 30
0.0
 11
157.378125
 21
110.063601382488
 31
0.0
 70
   160
 71
     5
 42
-1.0
  3
ISO-25
100
AcDbAlignedDimension
 13
150.651830933283
 23
112.904827783596
 33
0.0
 14
154.651830933283
 24
112.904827783596
 34
0.0
100
AcDbRotatedDimension
1001
ACAD
1000
DSTYLE
1002
{
1070
     3
1000
M<>
1070
    44
1040
0.892857142857
1070
   280
1070
     0
1070
    77
1070
     1
1070
    78
1070
     8
1070
   179
1070
     2
1070
   271
1070
     2
1070
   344
1005
4EE
1070
   343
1005
4EE
1070
   173
1070
     1
1070
    41
1040
1.25
1070
   147
1040
0.178571428571
1070
   140
1040
1.25
1070
   178
1070
   136
1070
   177
1070
   136
1070
   176
1070
   136
1002
}
  0
DIMENSION
  5
550
330
1F
100
AcDbEntity
  8
Layer0
  6
AUSGEZOGEN
 62
   136
370
    18
100
AcDbDimension
  2
*D14
 10
178.0
 20
121.054827402126
 30
0.0
 11
176.875
 21
125.661163882488
 31
0.0
 70
   160
 71
     5
 42
-1.0
 53
90.0
  3
ISO-25
100
AcDbAlignedDimension
 13
172.051830933283
 23
129.254827402126
 33
0.0
 14
172.401830933283
 24
121.054827402126
 34
0.0
 50
-90.0
100
AcDbRotatedDimension
1001
ACAD
1000
DSTYLE
1002
{
1070
     3
1000
<>\S%%p0.3
1070
    44
1040
0.892857142857
1070
   280
1070
     0
1070
    77
1070
     1
1070
    78
1070
     8
1070
   179
1070
     2
1070
   271
1070
     2
1070
   344
1005
4EE
1070
   343
1005
4EE
1070
   173
1070
     1
1070
    41
1040
1.25
1070
   147
1040
0.178571428571
1070
   140
1040
1.25
1070
   178
1070
   136
1070
   177
1070
   136
1070
   176
1070
   136
1002
}
  0
DIMENSION
  5
560
330
1F
100
AcDbEntity
  8
Layer0
  6
AUSGEZOGEN
 62
   136
370
    18
100
AcDbDimension
  2
*D15
 10
178.0
 20
112.554827402126
 30
0.0
 11
176.875
 21
117.082351382488
 31
0.0
 70
   160
 71
     5
 42
-1.0
 53
90.0
  3
ISO-25
100
AcDbAlignedDimension
 13
172.401830933283
 23
121.054827402126
 33
0.0
 14
154.301830909441
 24
112.554827402126
 34
0.0
 50
-90.0
100
AcDbRotatedDimension
1001
ACAD
1000
DSTYLE
1002
{
1070
     3
1000
<>\S%%p1
1070
    44
1040
0.892857142857
1070
   280
1070
     0
1070
    77
1070
     1
1070
    78
1070
     8
1070
   179
1070
     2
1070
   271
1070
     2
1070
   344
1005
4EE
1070
   343
1005
4EE
1070
   173
1070
     1
1070
    41
1040
1.25
1070
   147
1040
0.178571428571
1070
   140
1040
1.25
1070
   178
1070
   136
1070
   177
1070
   136
1070
   176
1070
   136
1002
}
  0
DIMENSION
  5
570
330
1F
100
AcDbEntity
  8
Layer0
  6
AUSGEZOGEN
 62
   136
370
    18
100
AcDbDimension
  2
*D16
 10
129.0
 20
121.054827402126
 30
0.0
 11
127.875
 21
119.489851382488
 31
0.0
 70
   160
 71
     5
 42
-1.0
 53
90.0
  3
ISO-25
100
AcDbAlignedDimension
 13
143.006593241759
 23
118.054827402126
 33
0.0
 14
132.901830933283
 24
121.054827402126
 34
0.0
 50
90.0
100
AcDbRotatedDimension
1001
ACAD
1000
DSTYLE
1002
{
1070
     3
1000
<>
1070
    44
1040
0.892857142857
1070
   280
1070
     0
1070
    77
1070
     1
1070
    78
1070
     8
1070
   179
1070
     2
1070
   271
1070
     2
1070
   344
1005
4EE
1070
   343
1005
4EE
1070
   173
1070
     1
1070
    41
1040
1.25
1070
   147
1040
0.178571428571
1070
   140
1040
1.25
1070
   178
1070
   136
1070
   177
1070
   136
1070
   176
1070
   136
1002
}
  0
LINE
  5
571
330
1F
100
AcDbEntity
  8
Layer0
  6
DASHDOT
 62
    56
370
    18
100
AcDbLine
 10
144.651830933283
 20
91.224643275234
 30
0.0
 11
144.651830933283
 21
85.113041558273
 31
0.0
  0
DIMENSION
  5
583
330
1F
100
AcDbEntity
  8
Layer0
  6
AUSGEZOGEN
 62
   136
370
    18
100
AcDbDimension
  2
*D17
 10
152.651830933283
 20
103.0
 30
0.0
 11
148.55125
 21
104.125
 31
0.0
 70
   160
 71
     5
 42
-1.0
  3
ISO-25
100
AcDbAlignedDimension
 13
144.651830933283
 23
90.485127118344
 33
0.0
 14
152.651830933283
 24
100.707795780604
 34
0.0
100
AcDbRotatedDimension
1001
ACAD
1000
DSTYLE
1002
{
1070
     3
1000
<>
1070
    44
1040
0.892857142857
1070
   280
1070
     0
1070
    77
1070
     1
1070
    78
1070
     8
1070
   179
1070
     2
1070
   271
1070
     2
1070
   344
1005
4EE
1070
   343
1005
4EE
1070
   173
1070
     1
1070
    41
1040
1.25
1070
   147
1040
0.178571428571
1070
   140
1040
1.25
1070
   178
1070
   136
1070
   177
1070
   136
1070
   176
1070
   136
1002
}
  0
DIMENSION
  5
593
330
1F
100
AcDbEntity
  8
Layer0
  6
AUSGEZOGEN
 62
   136
370
    18
100
AcDbDimension
  2
*D18
 10
164.651830933283
 20
103.0
 30
0.0
 11
162.55125
 21
104.125
 31
0.0
 70
   160
 71
     5
 42
-1.0
  3
ISO-25
100
AcDbAlignedDimension
 13
160.651830933283
 23
97.413334515805
 33
0.0
 14
164.651830933283
 24
97.413334515805
 34
0.0
100
AcDbRotatedDimension
1001
ACAD
1000
DSTYLE
1002
{
1070
     3
1000
<>
1070
    44
1040
0.892857142857
1070
   280
1070
     0
1070
    77
1070
     1
1070
    78
1070
     8
1070
   179
1070
     2
1070
   271
1070
     2
1070
   344
1005
4EE
1070
   343
1005
4EE
1070
   173
1070
     1
1070
    41
1040
1.25
1070
   147
1040
0.178571428571
1070
   140
1040
1.25
1070
   178
1070
   136
1070
   177
1070
   136
1070
   176
1070
   136
1002
}
  0
ENDSEC
  0
SECTION
  2
OBJECTS
  0
DICTIONARY
  5
C
330
0
100
AcDbDictionary
281
     1
  3
ACAD_GROUP
350
D
  3
ACAD_LAYOUT
350
1A
  3
ACAD_MATERIAL
350
3B
  3
ACAD_MLEADERSTYLE
350
5BB
  3
ACAD_MLINESTYLE
350
17
  3
ACAD_PLOTSETTINGS
350
19
  3
ACAD_PLOTSTYLENAME
350
E
  3
ACAD_TABLESTYLE
350
5BA
  3
ACAD_VISUALSTYLE
350
2A
  3
ACAD_WIPEOUT_VARS
350
3F
  0
DICTIONARY
  5
D
102
{ACAD_REACTORS
330
C
102
}
330
C
100
AcDbDictionary
281
     1
  0
DICTIONARY
  5
1A
102
{ACAD_REACTORS
330
C
102
}
330
C
100
AcDbDictionary
281
     1
  3
Layout1
350
1E
  3
Layout2
350
26
  3
Model
350
22
  0
DICTIONARY
  5
3B
102
{ACAD_REACTORS
330
C
102
}
330
C
100
AcDbDictionary
281
     1
  3
ByBlock
350
3D
  3
ByLayer
350
3C
  3
Global
350
3E
  0
DICTIONARY
  5
5BB
102
{ACAD_REACTORS
330
C
102
}
330
C
100
AcDbDictionary
281
     1
  0
DICTIONARY
  5
17
102
{ACAD_REACTORS
330
C
102
}
330
C
100
AcDbDictionary
281
     1
  3
Standard
350
18
  0
DICTIONARY
  5
19
102
{ACAD_REACTORS
330
C
102
}
330
C
100
AcDbDictionary
281
     1
  0
ACDBDICTIONARYWDFLT
  5
E
102
{ACAD_REACTORS
330
C
102
}
330
C
100
AcDbDictionary
281
     1
  3
Normal
350
F
100
AcDbDictionaryWithDefault
340
F
  0
DICTIONARY
  5
5BA
102
{ACAD_REACTORS
330
C
102
}
330
C
100
AcDbDictionary
281
     1
  0
DICTIONARY
  5
2A
102
{ACAD_REACTORS
330
C
102
}
330
C
100
AcDbDictionary
281
     1
  3
2dWireframe
350
2F
  3
3D Hidden
350
31
  3
3dWireframe
350
30
  3
Basic
350
32
  3
Brighten
350
36
  3
ColorChange
350
3A
  3
Conceptual
350
34
  3
Dim
350
35
  3
Facepattern
350
39
  3
Flat
350
2B
  3
FlatWithEdges
350
2C
  3
Gouraud
350
2D
  3
GouraudWithEdges
350
2E
  3
Linepattern
350
38
  3
Realistic
350
33
  3
Thicken
350
37
  0
WIPEOUTVARIABLES
  5
3F
102
{ACAD_REACTORS
330
C
102
}
330
C
100
AcDbWipeoutVariables
 70
     0
  0
LAYOUT
  5
1E
102
{ACAD_REACTORS
330
1A
102
}
330
1A
100
AcDbPlotSettings
  1

  2
none_device
  4

  6

 40
0.0
 41
0.0
 42
0.0
 43
0.0
 44
0.0
 45
0.0
 46
0.0
 47
0.0
 48
0.0
 49
0.0
140
0.0
141
0.0
142
1.0
143
1.0
 70
   688
 72
     0
 73
     0
 74
     5
  7

 75
    16
 76
     0
 77
     2
 78
   300
147
1.0
148
0.0
149
0.0
100
AcDbLayout
  1
Layout1
 70
     1
 71
     1
 10
0.0
 20
0.0
 11
420.0
 21
297.0
 12
0.0
 22
0.0
 32
0.0
 14
1.000000000000E+20
 24
1.000000000000E+20
 34
1.000000000000E+20
 15
-1.000000000000E+20
 25
-1.000000000000E+20
 35
-1.000000000000E+20
146
0.0
 13
0.0
 23
0.0
 33
0.0
 16
1.0
 26
0.0
 36
0.0
 17
0.0
 27
1.0
 37
0.0
 76
     0
330
1B
  0
LAYOUT
  5
26
102
{ACAD_REACTORS
330
1A
102
}
330
1A
100
AcDbPlotSettings
  1

  2
none_device
  4

  6

 40
0.0
 41
0.0
 42
0.0
 43
0.0
 44
0.0
 45
0.0
 46
0.0
 47
0.0
 48
0.0
 49
0.0
140
0.0
141
0.0
142
1.0
143
1.0
 70
   688
 72
     0
 73
     0
 74
     5
  7

 75
    16
 76
     0
 77
     2
 78
   300
147
1.0
148
0.0
149
0.0
100
AcDbLayout
  1
Layout2
 70
     1
 71
     2
 10
0.0
 20
0.0
 11
0.0
 21
0.0
 12
0.0
 22
0.0
 32
0.0
 14
0.0
 24
0.0
 34
0.0
 15
0.0
 25
0.0
 35
0.0
146
0.0
 13
0.0
 23
0.0
 33
0.0
 16
1.0
 26
0.0
 36
0.0
 17
0.0
 27
1.0
 37
0.0
 76
     0
330
23
  0
LAYOUT
  5
22
102
{ACAD_REACTORS
330
1A
102
}
330
1A
100
AcDbPlotSettings
  1

  2
none_device
  4

  6

 40
0.0
 41
0.0
 42
0.0
 43
0.0
 44
0.0
 45
0.0
 46
0.0
 47
0.0
 48
0.0
 49
0.0
140
0.0
141
0.0
142
1.0
143
1.0
 70
  1712
 72
     0
 73
     0
 74
     0
  7

 75
     0
 76
     0
 77
     2
 78
   300
147
1.0
148
0.0
149
0.0
100
AcDbLayout
  1
Model
 70
     1
 71
     0
 10
0.0
 20
0.0
 11
420.0
 21
297.0
 12
0.0
 22
0.0
 32
0.0
 14
-58.408507904808
 24
6.782301991346
 34
0.0
 15
365.311114949252
 25
160.331301991346
 35
0.0
146
0.0
 13
0.0
 23
0.0
 33
0.0
 16
1.0
 26
0.0
 36
0.0
 17
0.0
 27
1.0
 37
0.0
 76
     0
330
1F
331
29
  0
MATERIAL
  5
3D
102
{ACAD_REACTORS
330
3B
102
}
102
{ACAD_XDICTIONARY
360
5B6
102
}
330
3B
100
AcDbMaterial
  1
ByBlock
  0
MATERIAL
  5
3C
102
{ACAD_REACTORS
330
3B
102
}
102
{ACAD_XDICTIONARY
360
5B4
102
}
330
3B
100
AcDbMaterial
  1
ByLayer
  0
MATERIAL
  5
3E
102
{ACAD_REACTORS
330
3B
102
}
102
{ACAD_XDICTIONARY
360
5B8
102
}
330
3B
100
AcDbMaterial
  1
Global
  0
MLINESTYLE
  5
18
102
{ACAD_REACTORS
330
17
102
}
330
17
100
AcDbMlineStyle
  2
Standard
 70
     0
  3

 62
   256
 51
90.0
 52
90.0
 71
     2
 49
0.5
 62
   256
  6
BYLAYER
 49
-0.5
 62
   256
  6
BYLAYER
  0
ACDBPLACEHOLDER
  5
F
102
{ACAD_REACTORS
330
E
102
}
330
E
  0
VISUALSTYLE
  5
2F
102
{ACAD_REACTORS
330
2A
102
}
102
{ACAD_XDICTIONARY
360
59C
102
}
330
2A
100
AcDbVisualStyle
  2
2dWireframe
 70
     4
 71
     0
 72
     2
 73
     0
 90
        0
 40
-0.6
 41
-30.0
 62
     5
 63
     7
421
 16777215
 74
     1
 91
        4
 64
     7
 65
   257
 75
     1
175
     1
 42
1.0
 92
        0
 66
   257
 43
1.0
 76
     1
 77
     6
 78
     2
 67
     7
 79
     5
170
     0
171
     0
290
     0
174
     0
 93
        1
 44
0.0
173
     0
291
     0
 45
0.0
1001
ACAD
1000
AcDbSavedByObjectVersion
1070
     0
  0
VISUALSTYLE
  5
31
102
{ACAD_REACTORS
330
2A
102
}
102
{ACAD_XDICTIONARY
360
5A0
102
}
330
2A
100
AcDbVisualStyle
  2
3D Hidden
 70
     6
 71
     1
 72
     2
 73
     2
 90
        0
 40
-0.6
 41
-30.0
 62
     5
 63
     7
421
 16777215
 74
     2
 91
        2
 64
     7
 65
   257
 75
     2
175
     1
 42
40.0
 92
        0
 66
   257
 43
1.0
 76
     1
 77
     6
 78
     2
 67
     7
 79
     3
170
     0
171
     0
290
     0
174
     0
 93
        1
 44
0.0
173
     0
291
     0
 45
0.0
1001
ACAD
1000
AcDbSavedByObjectVersion
1070
     0
  0
VISUALSTYLE
  5
30
102
{ACAD_REACTORS
330
2A
102
}
102
{ACAD_XDICTIONARY
360
59E
102
}
330
2A
100
AcDbVisualStyle
  2
3dWireframe
 70
     5
 71
     0
 72
     2
 73
     0
 90
        0
 40
-0.6
 41
-30.0
 62
     5
 63
     7
421
 16777215
 74
     1
 91
        4
 64
     7
 65
   257
 75
     1
175
     1
 42
1.0
 92
        0
 66
   257
 43
1.0
 76
     1
 77
     6
 78
     2
 67
     7
 79
     5
170
     0
171
     0
290
     0
174
     0
 93
        1
 44
0.0
173
     0
291
     0
 45
0.0
1001
ACAD
1000
AcDbSavedByObjectVersion
1070
     0
  0
VISUALSTYLE
  5
32
102
{ACAD_REACTORS
330
2A
102
}
102
{ACAD_XDICTIONARY
360
5A2
102
}
330
2A
100
AcDbVisualStyle
  2
Basic
 70
     7
 71
     1
 72
     0
 73
     1
 90
        0
 40
-0.6
 41
-30.0
 62
     5
 63
     7
421
 16777215
 74
     0
 91
        4
 64
     7
 65
   257
 75
     1
175
     1
 42
1.0
 92
        8
 66
     7
 43
1.0
 76
     1
 77
     6
 78
     2
 67
     7
 79
     5
170
     0
171
     0
290
     0
174
     0
 93
        1
 44
0.0
173
     0
291
     1
 45
0.0
1001
ACAD
1000
AcDbSavedByObjectVersion
1070
     0
  0
VISUALSTYLE
  5
36
102
{ACAD_REACTORS
330
2A
102
}
102
{ACAD_XDICTIONARY
360
5AA
102
}
330
2A
100
AcDbVisualStyle
  2
Brighten
 70
    12
 71
     2
 72
     2
 73
     0
 90
        0
 40
-0.6
 41
-30.0
 62
     5
 63
     7
421
 16777215
 74
     1
 91
        4
 64
     7
 65
   257
 75
     1
175
     1
 42
1.0
 92
        8
 66
     7
 43
1.0
 76
     1
 77
     6
 78
     2
 67
     7
 79
     5
170
     0
171
     0
290
     0
174
     0
 93
        1
 44
50.0
173
     0
291
     1
 45
0.0
1001
ACAD
1000
AcDbSavedByObjectVersion
1070
     0
  0
VISUALSTYLE
  5
3A
102
{ACAD_REACTORS
330
2A
102
}
102
{ACAD_XDICTIONARY
360
5B2
102
}
330
2A
100
AcDbVisualStyle
  2
ColorChange
 70
    16
 71
     2
 72
     2
 73
     3
 90
        0
 40
-0.6
 41
-30.0
 62
     5
 63
     8
421
  8421504
 74
     1
 91
        4
 64
     7
 65
   257
 75
     1
175
     1
 42
1.0
 92
        8
 66
     8
424
  8421504
 43
1.0
 76
     1
 77
     6
 78
     2
 67
     7
 79
     5
170
     0
171
     0
290
     0
174
     0
 93
        1
 44
0.0
173
     0
291
     1
 45
0.0
1001
ACAD
1000
AcDbSavedByObjectVersion
1070
     0
  0
VISUALSTYLE
  5
34
102
{ACAD_REACTORS
330
2A
102
}
102
{ACAD_XDICTIONARY
360
5A6
102
}
330
2A
100
AcDbVisualStyle
  2
Conceptual
 70
     9
 71
     3
 72
     2
 73
     0
 90
        0
 40
-0.6
 41
-30.0
 62
     5
 63
     7
421
 16777215
 74
     2
 91
        2
 64
     7
 65
   257
 75
     1
175
     1
 42
40.0
 92
        8
 66
     7
 43
1.0
 76
     1
 77
     6
 78
     2
 67
     7
 79
     3
170
     0
171
     0
290
     0
174
     0
 93
        1
 44
0.0
173
     0
291
     0
 45
0.0
1001
ACAD
1000
AcDbSavedByObjectVersion
1070
     0
  0
VISUALSTYLE
  5
35
102
{ACAD_REACTORS
330
2A
102
}
102
{ACAD_XDICTIONARY
360
5A8
102
}
330
2A
100
AcDbVisualStyle
  2
Dim
 70
    11
 71
     2
 72
     2
 73
     0
 90
        0
 40
-0.6
 41
-30.0
 62
     5
 63
     7
421
 16777215
 74
     1
 91
        4
 64
     7
 65
   257
 75
     1
175
     1
 42
1.0
 92
        8
 66
     7
 43
1.0
 76
     1
 77
     6
 78
     2
 67
     7
 79
     5
170
     0
171
     0
290
     0
174
     0
 93
        1
 44
-50.0
173
     0
291
     1
 45
0.0
1001
ACAD
1000
AcDbSavedByObjectVersion
1070
     0
  0
VISUALSTYLE
  5
39
102
{ACAD_REACTORS
330
2A
102
}
102
{ACAD_XDICTIONARY
360
5B0
102
}
330
2A
100
AcDbVisualStyle
  2
Facepattern
 70
    15
 71
     2
 72
     2
 73
     0
 90
        0
 40
-0.6
 41
-30.0
 62
     5
 63
     7
421
 16777215
 74
     1
 91
        4
 64
     7
 65
   257
 75
     1
175
     1
 42
1.0
 92
        8
 66
     7
 43
1.0
 76
     1
 77
     6
 78
     2
 67
     7
 79
     5
170
     0
171
     0
290
     0
174
     0
 93
        1
 44
0.0
173
     0
291
     1
 45
0.0
1001
ACAD
1000
AcDbSavedByObjectVersion
1070
     0
  0
VISUALSTYLE
  5
2B
102
{ACAD_REACTORS
330
2A
102
}
102
{ACAD_XDICTIONARY
360
594
102
}
330
2A
100
AcDbVisualStyle
  2
Flat
 70
     0
 71
     2
 72
     1
 73
     1
 90
        2
 40
-0.6
 41
30.0
 62
     5
 63
     7
421
 16777215
 74
     0
 91
        4
 64
     7
 65
   257
 75
     1
175
     1
 42
1.0
 92
        8
 66
     7
 43
1.0
 76
     1
 77
     6
 78
     2
 67
     7
 79
     5
170
     0
171
     0
290
     0
174
     0
 93
       13
 44
0.0
173
     0
291
     1
 45
0.0
1001
ACAD
1000
AcDbSavedByObjectVersion
1070
     0
  0
VISUALSTYLE
  5
2C
102
{ACAD_REACTORS
330
2A
102
}
102
{ACAD_XDICTIONARY
360
596
102
}
330
2A
100
AcDbVisualStyle
  2
FlatWithEdges
 70
     1
 71
     2
 72
     1
 73
     1
 90
        2
 40
-0.6
 41
30.0
 62
     5
 63
     7
421
 16777215
 74
     1
 91
        4
 64
     7
 65
   257
 75
     1
175
     1
 42
1.0
 92
        0
 66
   257
 43
1.0
 76
     1
 77
     6
 78
     2
 67
     7
 79
     5
170
     0
171
     0
290
     0
174
     0
 93
       13
 44
0.0
173
     0
291
     1
 45
0.0
1001
ACAD
1000
AcDbSavedByObjectVersion
1070
     0
  0
VISUALSTYLE
  5
2D
102
{ACAD_REACTORS
330
2A
102
}
102
{ACAD_XDICTIONARY
360
598
102
}
330
2A
100
AcDbVisualStyle
  2
Gouraud
 70
     2
 71
     2
 72
     2
 73
     1
 90
        2
 40
-0.6
 41
30.0
 62
     5
 63
     7
421
 16777215
 74
     0
 91
        4
 64
     7
 65
   257
 75
     1
175
     1
 42
1.0
 92
        0
 66
     7
 43
1.0
 76
     1
 77
     6
 78
     2
 67
     7
 79
     5
170
     0
171
     0
290
     0
174
     0
 93
       13
 44
0.0
173
     0
291
     1
 45
0.0
1001
ACAD
1000
AcDbSavedByObjectVersion
1070
     0
  0
VISUALSTYLE
  5
2E
102
{ACAD_REACTORS
330
2A
102
}
102
{ACAD_XDICTIONARY
360
59A
102
}
330
2A
100
AcDbVisualStyle
  2
GouraudWithEdges
 70
     3
 71
     2
 72
     2
 73
     1
 90
        2
 40
-0.6
 41
30.0
 62
     5
 63
     7
421
 16777215
 74
     1
 91
        4
 64
     7
 65
   257
 75
     1
175
     1
 42
1.0
 92
        0
 66
   257
 43
1.0
 76
     1
 77
     6
 78
     2
 67
     7
 79
     5
170
     0
171
     0
290
     0
174
     0
 93
       13
 44
0.0
173
     0
291
     1
 45
0.0
1001
ACAD
1000
AcDbSavedByObjectVersion
1070
     0
  0
VISUALSTYLE
  5
38
102
{ACAD_REACTORS
330
2A
102
}
102
{ACAD_XDICTIONARY
360
5AE
102
}
330
2A
100
AcDbVisualStyle
  2
Linepattern
 70
    14
 71
     2
 72
     2
 73
     0
 90
        0
 40
-0.6
 41
-30.0
 62
     5
 63
     7
421
 16777215
 74
     1
 91
        4
 64
     7
 65
   257
 75
     7
175
     7
 42
1.0
 92
        8
 66
     7
 43
1.0
 76
     1
 77
     6
 78
     2
 67
     7
 79
     5
170
     0
171
     0
290
     0
174
     0
 93
        1
 44
0.0
173
     0
291
     1
 45
0.0
1001
ACAD
1000
AcDbSavedByObjectVersion
1070
     0
  0
VISUALSTYLE
  5
33
102
{ACAD_REACTORS
330
2A
102
}
102
{ACAD_XDICTIONARY
360
5A4
102
}
330
2A
100
AcDbVisualStyle
  2
Realistic
 70
     8
 71
     2
 72
     2
 73
     0
 90
        0
 40
-0.6
 41
-30.0
 62
     5
 63
     7
421
 16777215
 74
     1
 91
        0
 64
     7
 65
   257
 75
     1
175
     1
 42
1.0
 92
        8
 66
     8
424
  7895160
 43
1.0
 76
     1
 77
     6
 78
     2
 67
     7
 79
     5
170
     0
171
     0
290
     0
174
     0
 93
       13
 44
0.0
173
     0
291
     0
 45
0.0
1001
ACAD
1000
AcDbSavedByObjectVersion
1070
     0
  0
VISUALSTYLE
  5
37
102
{ACAD_REACTORS
330
2A
102
}
102
{ACAD_XDICTIONARY
360
5AC
102
}
330
2A
100
AcDbVisualStyle
  2
Thicken
 70
    13
 71
     2
 72
     2
 73
     0
 90
        0
 40
-0.6
 41
-30.0
 62
     5
 63
     7
421
 16777215
 74
     1
 91
        4
 64
     7
 65
   257
 75
     1
175
     1
 42
1.0
 92
       12
 66
     7
 43
1.0
 76
     1
 77
     6
 78
     2
 67
     7
 79
     5
170
     0
171
     0
290
     0
174
     0
 93
        1
 44
0.0
173
     0
291
     1
 45
0.0
1001
ACAD
1000
AcDbSavedByObjectVersion
1070
     0
  0
DICTIONARY
  5
5B6
330
3D
100
AcDbDictionary
280
     1
281
     1
  3
ACAD_XREC_ROUNDTRIP
360
5B7
  0
DICTIONARY
  5
5B4
330
3C
100
AcDbDictionary
280
     1
281
     1
  3
ACAD_XREC_ROUNDTRIP
360
5B5
  0
DICTIONARY
  5
5B8
330
3E
100
AcDbDictionary
280
     1
281
     1
  3
ACAD_XREC_ROUNDTRIP
360
5B9
  0
DICTIONARY
  5
59C
330
2F
100
AcDbDictionary
280
     1
281
     1
  3
ACAD_XREC_ROUNDTRIP
360
59D
  0
DICTIONARY
  5
5A0
330
31
100
AcDbDictionary
280
     1
281
     1
  3
ACAD_XREC_ROUNDTRIP
360
5A1
  0
DICTIONARY
  5
59E
330
30
100
AcDbDictionary
280
     1
281
     1
  3
ACAD_XREC_ROUNDTRIP
360
59F
  0
DICTIONARY
  5
5A2
330
32
100
AcDbDictionary
280
     1
281
     1
  3
ACAD_XREC_ROUNDTRIP
360
5A3
  0
DICTIONARY
  5
5AA
330
36
100
AcDbDictionary
280
     1
281
     1
  3
ACAD_XREC_ROUNDTRIP
360
5AB
  0
DICTIONARY
  5
5B2
330
3A
100
AcDbDictionary
280
     1
281
     1
  3
ACAD_XREC_ROUNDTRIP
360
5B3
  0
DICTIONARY
  5
5A6
330
34
100
AcDbDictionary
280
     1
281
     1
  3
ACAD_XREC_ROUNDTRIP
360
5A7
  0
DICTIONARY
  5
5A8
330
35
100
AcDbDictionary
280
     1
281
     1
  3
ACAD_XREC_ROUNDTRIP
360
5A9
  0
DICTIONARY
  5
5B0
330
39
100
AcDbDictionary
280
     1
281
     1
  3
ACAD_XREC_ROUNDTRIP
360
5B1
  0
DICTIONARY
  5
594
330
2B
100
AcDbDictionary
280
     1
281
     1
  3
ACAD_XREC_ROUNDTRIP
360
595
  0
DICTIONARY
  5
596
330
2C
100
AcDbDictionary
280
     1
281
     1
  3
ACAD_XREC_ROUNDTRIP
360
597
  0
DICTIONARY
  5
598
330
2D
100
AcDbDictionary
280
     1
281
     1
  3
ACAD_XREC_ROUNDTRIP
360
599
  0
DICTIONARY
  5
59A
330
2E
100
AcDbDictionary
280
     1
281
     1
  3
ACAD_XREC_ROUNDTRIP
360
59B
  0
DICTIONARY
  5
5AE
330
38
100
AcDbDictionary
280
     1
281
     1
  3
ACAD_XREC_ROUNDTRIP
360
5AF
  0
DICTIONARY
  5
5A4
330
33
100
AcDbDictionary
280
     1
281
     1
  3
ACAD_XREC_ROUNDTRIP
360
5A5
  0
DICTIONARY
  5
5AC
330
37
100
AcDbDictionary
280
     1
281
     1
  3
ACAD_XREC_ROUNDTRIP
360
5AD
  0
XRECORD
  5
5B7
102
{ACAD_REACTORS
330
5B6
102
}
330
5B6
100
AcDbXrecord
280
     1
102
MATERIAL
148
0.0
149
0.0
149
0.0
 93
        0
 94
      127
282
     0
 72
     1
 77
     1
171
     1
175
     1
179
     1
273
     0
  0
XRECORD
  5
5B5
102
{ACAD_REACTORS
330
5B4
102
}
330
5B4
100
AcDbXrecord
280
     1
102
MATERIAL
148
0.0
149
0.0
149
0.0
 93
        0
 94
      127
282
     0
 72
     1
 77
     1
171
     1
175
     1
179
     1
273
     0
  0
XRECORD
  5
5B9
102
{ACAD_REACTORS
330
5B8
102
}
330
5B8
100
AcDbXrecord
280
     1
102
MATERIAL
148
0.0
149
0.0
149
0.0
 93
        0
 94
      127
282
     0
 72
     1
 77
     1
171
     1
175
     1
179
     1
273
     0
  0
XRECORD
  5
59D
102
{ACAD_REACTORS
330
59C
102
}
330
59C
100
AcDbXrecord
280
     1
102
RTVSPropertyOp0
 70
     1
102
RTVSPropertyOp1
 70
     1
102
RTVSPropertyOp2
 70
     1
102
RTVSPropertyOp3
 70
     1
102
RTVSPropertyOp4
 70
     1
102
RTVSPropertyOp5
 70
     1
102
RTVSPropertyOp6
 70
     1
102
RTVSPropertyOp7
 70
     1
102
RTVSPropertyOp8
 70
     1
102
RTVSPropertyOp9
 70
     1
102
RTVSPropertyOp10
 70
     1
102
RTVSPropertyOp11
 70
     1
102
RTVSPropertyOp12
 70
     1
102
RTVSPropertyOp13
 70
     1
102
RTVSPropertyOp14
 70
     1
102
RTVSPropertyOp15
 70
     1
102
RTVSPropertyOp16
 70
     1
102
RTVSPropertyOp17
 70
     1
102
RTVSPropertyOp18
 70
     1
102
RTVSPropertyOp19
 70
     1
102
RTVSPropertyOp20
 70
     1
102
RTVSPropertyOp21
 70
     1
102
RTVSPropertyOp22
 70
     1
102
RTVSPropertyOp23
 70
     1
102
RTVSPropertyOp24
 70
     1
102
RTVSPropertyOp25
 70
     1
102
RTVSPropertyOp26
 70
     1
102
RTVSPropertyOp27
 70
     1
102
RTVSPropertyOp28
 70
     1
102
RTVSPropertyOp29
 70
     1
102
RTVSPropertyOp30
 70
     1
102
RTVSPropertyOp31
 70
     1
102
RTVSPropertyOp32
 70
     1
  0
XRECORD
  5
5A1
102
{ACAD_REACTORS
330
5A0
102
}
330
5A0
100
AcDbXrecord
280
     1
102
RTVSPropertyOp0
 70
     1
102
RTVSPropertyOp1
 70
     1
102
RTVSPropertyOp2
 70
     1
102
RTVSPropertyOp3
 70
     1
102
RTVSPropertyOp4
 70
     1
102
RTVSPropertyOp5
 70
     1
102
RTVSPropertyOp6
 70
     1
102
RTVSPropertyOp7
 70
     1
102
RTVSPropertyOp8
 70
     1
102
RTVSPropertyOp9
 70
     1
102
RTVSPropertyOp10
 70
     1
102
RTVSPropertyOp11
 70
     1
102
RTVSPropertyOp12
 70
     1
102
RTVSPropertyOp13
 70
     1
102
RTVSPropertyOp14
 70
     1
102
RTVSPropertyOp15
 70
     1
102
RTVSPropertyOp16
 70
     1
102
RTVSPropertyOp17
 70
     1
102
RTVSPropertyOp18
 70
     1
102
RTVSPropertyOp19
 70
     1
102
RTVSPropertyOp20
 70
     1
102
RTVSPropertyOp21
 70
     1
102
RTVSPropertyOp22
 70
     1
102
RTVSPropertyOp23
 70
     1
102
RTVSPropertyOp24
 70
     1
102
RTVSPropertyOp25
 70
     1
102
RTVSPropertyOp26
 70
     1
102
RTVSPropertyOp27
 70
     1
102
RTVSPropertyOp28
 70
     1
102
RTVSPropertyOp29
 70
     1
102
RTVSPropertyOp30
 70
     1
102
RTVSPropertyOp31
 70
     1
102
RTVSPropertyOp32
 70
     1
  0
XRECORD
  5
59F
102
{ACAD_REACTORS
330
59E
102
}
330
59E
100
AcDbXrecord
280
     1
102
RTVSPropertyOp0
 70
     1
102
RTVSPropertyOp1
 70
     1
102
RTVSPropertyOp2
 70
     1
102
RTVSPropertyOp3
 70
     1
102
RTVSPropertyOp4
 70
     1
102
RTVSPropertyOp5
 70
     1
102
RTVSPropertyOp6
 70
     1
102
RTVSPropertyOp7
 70
     1
102
RTVSPropertyOp8
 70
     1
102
RTVSPropertyOp9
 70
     1
102
RTVSPropertyOp10
 70
     1
102
RTVSPropertyOp11
 70
     1
102
RTVSPropertyOp12
 70
     1
102
RTVSPropertyOp13
 70
     1
102
RTVSPropertyOp14
 70
     1
102
RTVSPropertyOp15
 70
     1
102
RTVSPropertyOp16
 70
     1
102
RTVSPropertyOp17
 70
     1
102
RTVSPropertyOp18
 70
     1
102
RTVSPropertyOp19
 70
     1
102
RTVSPropertyOp20
 70
     1
102
RTVSPropertyOp21
 70
     1
102
RTVSPropertyOp22
 70
     1
102
RTVSPropertyOp23
 70
     1
102
RTVSPropertyOp24
 70
     1
102
RTVSPropertyOp25
 70
     1
102
RTVSPropertyOp26
 70
     1
102
RTVSPropertyOp27
 70
     1
102
RTVSPropertyOp28
 70
     1
102
RTVSPropertyOp29
 70
     1
102
RTVSPropertyOp30
 70
     1
102
RTVSPropertyOp31
 70
     1
102
RTVSPropertyOp32
 70
     1
  0
XRECORD
  5
5A3
102
{ACAD_REACTORS
330
5A2
102
}
330
5A2
100
AcDbXrecord
280
     1
102
RTVSPropertyOp0
 70
     1
102
RTVSPropertyOp1
 70
     1
102
RTVSPropertyOp2
 70
     1
102
RTVSPropertyOp3
 70
     1
102
RTVSPropertyOp4
 70
     1
102
RTVSPropertyOp5
 70
     1
102
RTVSPropertyOp6
 70
     1
102
RTVSPropertyOp7
 70
     1
102
RTVSPropertyOp8
 70
     1
102
RTVSPropertyOp9
 70
     1
102
RTVSPropertyOp10
 70
     1
102
RTVSPropertyOp11
 70
     1
102
RTVSPropertyOp12
 70
     1
102
RTVSPropertyOp13
 70
     1
102
RTVSPropertyOp14
 70
     1
102
RTVSPropertyOp15
 70
     1
102
RTVSPropertyOp16
 70
     1
102
RTVSPropertyOp17
 70
     1
102
RTVSPropertyOp18
 70
     1
102
RTVSPropertyOp19
 70
     1
102
RTVSPropertyOp20
 70
     1
102
RTVSPropertyOp21
 70
     1
102
RTVSPropertyOp22
 70
     1
102
RTVSPropertyOp23
 70
     1
102
RTVSPropertyOp24
 70
     1
102
RTVSPropertyOp25
 70
     1
102
RTVSPropertyOp26
 70
     1
102
RTVSPropertyOp27
 70
     1
102
RTVSPropertyOp28
 70
     1
102
RTVSPropertyOp29
 70
     1
102
RTVSPropertyOp30
 70
     1
102
RTVSPropertyOp31
 70
     1
102
RTVSPropertyOp32
 70
     1
  0
XRECORD
  5
5AB
102
{ACAD_REACTORS
330
5AA
102
}
330
5AA
100
AcDbXrecord
280
     1
102
RTVSPropertyOp0
 70
     1
102
RTVSPropertyOp1
 70
     1
102
RTVSPropertyOp2
 70
     1
102
RTVSPropertyOp3
 70
     1
102
RTVSPropertyOp4
 70
     1
102
RTVSPropertyOp5
 70
     1
102
RTVSPropertyOp6
 70
     1
102
RTVSPropertyOp7
 70
     1
102
RTVSPropertyOp8
 70
     1
102
RTVSPropertyOp9
 70
     1
102
RTVSPropertyOp10
 70
     1
102
RTVSPropertyOp11
 70
     1
102
RTVSPropertyOp12
 70
     1
102
RTVSPropertyOp13
 70
     1
102
RTVSPropertyOp14
 70
     1
102
RTVSPropertyOp15
 70
     1
102
RTVSPropertyOp16
 70
     1
102
RTVSPropertyOp17
 70
     1
102
RTVSPropertyOp18
 70
     1
102
RTVSPropertyOp19
 70
     1
102
RTVSPropertyOp20
 70
     1
102
RTVSPropertyOp21
 70
     1
102
RTVSPropertyOp22
 70
     1
102
RTVSPropertyOp23
 70
     1
102
RTVSPropertyOp24
 70
     1
102
RTVSPropertyOp25
 70
     1
102
RTVSPropertyOp26
 70
     1
102
RTVSPropertyOp27
 70
     1
102
RTVSPropertyOp28
 70
     1
102
RTVSPropertyOp29
 70
     1
102
RTVSPropertyOp30
 70
     1
102
RTVSPropertyOp31
 70
     1
102
RTVSPropertyOp32
 70
     1
  0
XRECORD
  5
5B3
102
{ACAD_REACTORS
330
5B2
102
}
330
5B2
100
AcDbXrecord
280
     1
102
RTVSPropertyOp0
 70
     1
102
RTVSPropertyOp1
 70
     1
102
RTVSPropertyOp2
 70
     1
102
RTVSPropertyOp3
 70
     1
102
RTVSPropertyOp4
 70
     1
102
RTVSPropertyOp5
 70
     1
102
RTVSPropertyOp6
 70
     1
102
RTVSPropertyOp7
 70
     1
102
RTVSPropertyOp8
 70
     1
102
RTVSPropertyOp9
 70
     1
102
RTVSPropertyOp10
 70
     1
102
RTVSPropertyOp11
 70
     1
102
RTVSPropertyOp12
 70
     1
102
RTVSPropertyOp13
 70
     1
102
RTVSPropertyOp14
 70
     1
102
RTVSPropertyOp15
 70
     1
102
RTVSPropertyOp16
 70
     1
102
RTVSPropertyOp17
 70
     1
102
RTVSPropertyOp18
 70
     1
102
RTVSPropertyOp19
 70
     1
102
RTVSPropertyOp20
 70
     1
102
RTVSPropertyOp21
 70
     1
102
RTVSPropertyOp22
 70
     1
102
RTVSPropertyOp23
 70
     1
102
RTVSPropertyOp24
 70
     1
102
RTVSPropertyOp25
 70
     1
102
RTVSPropertyOp26
 70
     1
102
RTVSPropertyOp27
 70
     1
102
RTVSPropertyOp28
 70
     1
102
RTVSPropertyOp29
 70
     1
102
RTVSPropertyOp30
 70
     1
102
RTVSPropertyOp31
 70
     1
102
RTVSPropertyOp32
 70
     1
  0
XRECORD
  5
5A7
102
{ACAD_REACTORS
330
5A6
102
}
330
5A6
100
AcDbXrecord
280
     1
102
RTVSPropertyOp0
 70
     1
102
RTVSPropertyOp1
 70
     1
102
RTVSPropertyOp2
 70
     1
102
RTVSPropertyOp3
 70
     1
102
RTVSPropertyOp4
 70
     1
102
RTVSPropertyOp5
 70
     1
102
RTVSPropertyOp6
 70
     1
102
RTVSPropertyOp7
 70
     1
102
RTVSPropertyOp8
 70
     1
102
RTVSPropertyOp9
 70
     1
102
RTVSPropertyOp10
 70
     1
102
RTVSPropertyOp11
 70
     1
102
RTVSPropertyOp12
 70
     1
102
RTVSPropertyOp13
 70
     1
102
RTVSPropertyOp14
 70
     1
102
RTVSPropertyOp15
 70
     1
102
RTVSPropertyOp16
 70
     1
102
RTVSPropertyOp17
 70
     1
102
RTVSPropertyOp18
 70
     1
102
RTVSPropertyOp19
 70
     1
102
RTVSPropertyOp20
 70
     1
102
RTVSPropertyOp21
 70
     1
102
RTVSPropertyOp22
 70
     1
102
RTVSPropertyOp23
 70
     1
102
RTVSPropertyOp24
 70
     1
102
RTVSPropertyOp25
 70
     1
102
RTVSPropertyOp26
 70
     1
102
RTVSPropertyOp27
 70
     1
102
RTVSPropertyOp28
 70
     1
102
RTVSPropertyOp29
 70
     1
102
RTVSPropertyOp30
 70
     1
102
RTVSPropertyOp31
 70
     1
102
RTVSPropertyOp32
 70
     1
  0
XRECORD
  5
5A9
102
{ACAD_REACTORS
330
5A8
102
}
330
5A8
100
AcDbXrecord
280
     1
102
RTVSPropertyOp0
 70
     1
102
RTVSPropertyOp1
 70
     1
102
RTVSPropertyOp2
 70
     1
102
RTVSPropertyOp3
 70
     1
102
RTVSPropertyOp4
 70
     1
102
RTVSPropertyOp5
 70
     1
102
RTVSPropertyOp6
 70
     1
102
RTVSPropertyOp7
 70
     1
102
RTVSPropertyOp8
 70
     1
102
RTVSPropertyOp9
 70
     1
102
RTVSPropertyOp10
 70
     1
102
RTVSPropertyOp11
 70
     1
102
RTVSPropertyOp12
 70
     1
102
RTVSPropertyOp13
 70
     1
102
RTVSPropertyOp14
 70
     1
102
RTVSPropertyOp15
 70
     1
102
RTVSPropertyOp16
 70
     1
102
RTVSPropertyOp17
 70
     1
102
RTVSPropertyOp18
 70
     1
102
RTVSPropertyOp19
 70
     1
102
RTVSPropertyOp20
 70
     1
102
RTVSPropertyOp21
 70
     1
102
RTVSPropertyOp22
 70
     1
102
RTVSPropertyOp23
 70
     1
102
RTVSPropertyOp24
 70
     1
102
RTVSPropertyOp25
 70
     1
102
RTVSPropertyOp26
 70
     1
102
RTVSPropertyOp27
 70
     1
102
RTVSPropertyOp28
 70
     1
102
RTVSPropertyOp29
 70
     1
102
RTVSPropertyOp30
 70
     1
102
RTVSPropertyOp31
 70
     1
102
RTVSPropertyOp32
 70
     1
  0
XRECORD
  5
5B1
102
{ACAD_REACTORS
330
5B0
102
}
330
5B0
100
AcDbXrecord
280
     1
102
RTVSPropertyOp0
 70
     1
102
RTVSPropertyOp1
 70
     1
102
RTVSPropertyOp2
 70
     1
102
RTVSPropertyOp3
 70
     1
102
RTVSPropertyOp4
 70
     1
102
RTVSPropertyOp5
 70
     1
102
RTVSPropertyOp6
 70
     1
102
RTVSPropertyOp7
 70
     1
102
RTVSPropertyOp8
 70
     1
102
RTVSPropertyOp9
 70
     1
102
RTVSPropertyOp10
 70
     1
102
RTVSPropertyOp11
 70
     1
102
RTVSPropertyOp12
 70
     1
102
RTVSPropertyOp13
 70
     1
102
RTVSPropertyOp14
 70
     1
102
RTVSPropertyOp15
 70
     1
102
RTVSPropertyOp16
 70
     1
102
RTVSPropertyOp17
 70
     1
102
RTVSPropertyOp18
 70
     1
102
RTVSPropertyOp19
 70
     1
102
RTVSPropertyOp20
 70
     1
102
RTVSPropertyOp21
 70
     1
102
RTVSPropertyOp22
 70
     1
102
RTVSPropertyOp23
 70
     1
102
RTVSPropertyOp24
 70
     1
102
RTVSPropertyOp25
 70
     1
102
RTVSPropertyOp26
 70
     1
102
RTVSPropertyOp27
 70
     1
102
RTVSPropertyOp28
 70
     1
102
RTVSPropertyOp29
 70
     1
102
RTVSPropertyOp30
 70
     1
102
RTVSPropertyOp31
 70
     1
102
RTVSPropertyOp32
 70
     1
  0
XRECORD
  5
595
102
{ACAD_REACTORS
330
594
102
}
330
594
100
AcDbXrecord
280
     1
102
RTVSPropertyOp0
 70
     1
102
RTVSPropertyOp1
 70
     1
102
RTVSPropertyOp2
 70
     1
102
RTVSPropertyOp3
 70
     1
102
RTVSPropertyOp4
 70
     1
102
RTVSPropertyOp5
 70
     1
102
RTVSPropertyOp6
 70
     1
102
RTVSPropertyOp7
 70
     1
102
RTVSPropertyOp8
 70
     1
102
RTVSPropertyOp9
 70
     1
102
RTVSPropertyOp10
 70
     1
102
RTVSPropertyOp11
 70
     1
102
RTVSPropertyOp12
 70
     1
102
RTVSPropertyOp13
 70
     1
102
RTVSPropertyOp14
 70
     1
102
RTVSPropertyOp15
 70
     1
102
RTVSPropertyOp16
 70
     1
102
RTVSPropertyOp17
 70
     1
102
RTVSPropertyOp18
 70
     1
102
RTVSPropertyOp19
 70
     1
102
RTVSPropertyOp20
 70
     1
102
RTVSPropertyOp21
 70
     1
102
RTVSPropertyOp22
 70
     1
102
RTVSPropertyOp23
 70
     1
102
RTVSPropertyOp24
 70
     1
102
RTVSPropertyOp25
 70
     1
102
RTVSPropertyOp26
 70
     1
102
RTVSPropertyOp27
 70
     1
102
RTVSPropertyOp28
 70
     1
102
RTVSPropertyOp29
 70
     1
102
RTVSPropertyOp30
 70
     1
102
RTVSPropertyOp31
 70
     1
102
RTVSPropertyOp32
 70
     1
  0
XRECORD
  5
597
102
{ACAD_REACTORS
330
596
102
}
330
596
100
AcDbXrecord
280
     1
102
RTVSPropertyOp0
 70
     1
102
RTVSPropertyOp1
 70
     1
102
RTVSPropertyOp2
 70
     1
102
RTVSPropertyOp3
 70
     1
102
RTVSPropertyOp4
 70
     1
102
RTVSPropertyOp5
 70
     1
102
RTVSPropertyOp6
 70
     1
102
RTVSPropertyOp7
 70
     1
102
RTVSPropertyOp8
 70
     1
102
RTVSPropertyOp9
 70
     1
102
RTVSPropertyOp10
 70
     1
102
RTVSPropertyOp11
 70
     1
102
RTVSPropertyOp12
 70
     1
102
RTVSPropertyOp13
 70
     1
102
RTVSPropertyOp14
 70
     1
102
RTVSPropertyOp15
 70
     1
102
RTVSPropertyOp16
 70
     1
102
RTVSPropertyOp17
 70
     1
102
RTVSPropertyOp18
 70
     1
102
RTVSPropertyOp19
 70
     1
102
RTVSPropertyOp20
 70
     1
102
RTVSPropertyOp21
 70
     1
102
RTVSPropertyOp22
 70
     1
102
RTVSPropertyOp23
 70
     1
102
RTVSPropertyOp24
 70
     1
102
RTVSPropertyOp25
 70
     1
102
RTVSPropertyOp26
 70
     1
102
RTVSPropertyOp27
 70
     1
102
RTVSPropertyOp28
 70
     1
102
RTVSPropertyOp29
 70
     1
102
RTVSPropertyOp30
 70
     1
102
RTVSPropertyOp31
 70
     1
102
RTVSPropertyOp32
 70
     1
  0
XRECORD
  5
599
102
{ACAD_REACTORS
330
598
102
}
330
598
100
AcDbXrecord
280
     1
102
RTVSPropertyOp0
 70
     1
102
RTVSPropertyOp1
 70
     1
102
RTVSPropertyOp2
 70
     1
102
RTVSPropertyOp3
 70
     1
102
RTVSPropertyOp4
 70
     1
102
RTVSPropertyOp5
 70
     1
102
RTVSPropertyOp6
 70
     1
102
RTVSPropertyOp7
 70
     1
102
RTVSPropertyOp8
 70
     1
102
RTVSPropertyOp9
 70
     1
102
RTVSPropertyOp10
 70
     1
102
RTVSPropertyOp11
 70
     1
102
RTVSPropertyOp12
 70
     1
102
RTVSPropertyOp13
 70
     1
102
RTVSPropertyOp14
 70
     1
102
RTVSPropertyOp15
 70
     1
102
RTVSPropertyOp16
 70
     1
102
RTVSPropertyOp17
 70
     1
102
RTVSPropertyOp18
 70
     1
102
RTVSPropertyOp19
 70
     1
102
RTVSPropertyOp20
 70
     1
102
RTVSPropertyOp21
 70
     1
102
RTVSPropertyOp22
 70
     1
102
RTVSPropertyOp23
 70
     1
102
RTVSPropertyOp24
 70
     1
102
RTVSPropertyOp25
 70
     1
102
RTVSPropertyOp26
 70
     1
102
RTVSPropertyOp27
 70
     1
102
RTVSPropertyOp28
 70
     1
102
RTVSPropertyOp29
 70
     1
102
RTVSPropertyOp30
 70
     1
102
RTVSPropertyOp31
 70
     1
102
RTVSPropertyOp32
 70
     1
  0
XRECORD
  5
59B
102
{ACAD_REACTORS
330
59A
102
}
330
59A
100
AcDbXrecord
280
     1
102
RTVSPropertyOp0
 70
     1
102
RTVSPropertyOp1
 70
     1
102
RTVSPropertyOp2
 70
     1
102
RTVSPropertyOp3
 70
     1
102
RTVSPropertyOp4
 70
     1
102
RTVSPropertyOp5
 70
     1
102
RTVSPropertyOp6
 70
     1
102
RTVSPropertyOp7
 70
     1
102
RTVSPropertyOp8
 70
     1
102
RTVSPropertyOp9
 70
     1
102
RTVSPropertyOp10
 70
     1
102
RTVSPropertyOp11
 70
     1
102
RTVSPropertyOp12
 70
     1
102
RTVSPropertyOp13
 70
     1
102
RTVSPropertyOp14
 70
     1
102
RTVSPropertyOp15
 70
     1
102
RTVSPropertyOp16
 70
     1
102
RTVSPropertyOp17
 70
     1
102
RTVSPropertyOp18
 70
     1
102
RTVSPropertyOp19
 70
     1
102
RTVSPropertyOp20
 70
     1
102
RTVSPropertyOp21
 70
     1
102
RTVSPropertyOp22
 70
     1
102
RTVSPropertyOp23
 70
     1
102
RTVSPropertyOp24
 70
     1
102
RTVSPropertyOp25
 70
     1
102
RTVSPropertyOp26
 70
     1
102
RTVSPropertyOp27
 70
     1
102
RTVSPropertyOp28
 70
     1
102
RTVSPropertyOp29
 70
     1
102
RTVSPropertyOp30
 70
     1
102
RTVSPropertyOp31
 70
     1
102
RTVSPropertyOp32
 70
     1
  0
XRECORD
  5
5AF
102
{ACAD_REACTORS
330
5AE
102
}
330
5AE
100
AcDbXrecord
280
     1
102
RTVSPropertyOp0
 70
     1
102
RTVSPropertyOp1
 70
     1
102
RTVSPropertyOp2
 70
     1
102
RTVSPropertyOp3
 70
     1
102
RTVSPropertyOp4
 70
     1
102
RTVSPropertyOp5
 70
     1
102
RTVSPropertyOp6
 70
     1
102
RTVSPropertyOp7
 70
     1
102
RTVSPropertyOp8
 70
     1
102
RTVSPropertyOp9
 70
     1
102
RTVSPropertyOp10
 70
     1
102
RTVSPropertyOp11
 70
     1
102
RTVSPropertyOp12
 70
     1
102
RTVSPropertyOp13
 70
     1
102
RTVSPropertyOp14
 70
     1
102
RTVSPropertyOp15
 70
     1
102
RTVSPropertyOp16
 70
     1
102
RTVSPropertyOp17
 70
     1
102
RTVSPropertyOp18
 70
     1
102
RTVSPropertyOp19
 70
     1
102
RTVSPropertyOp20
 70
     1
102
RTVSPropertyOp21
 70
     1
102
RTVSPropertyOp22
 70
     1
102
RTVSPropertyOp23
 70
     1
102
RTVSPropertyOp24
 70
     1
102
RTVSPropertyOp25
 70
     1
102
RTVSPropertyOp26
 70
     1
102
RTVSPropertyOp27
 70
     1
102
RTVSPropertyOp28
 70
     1
102
RTVSPropertyOp29
 70
     1
102
RTVSPropertyOp30
 70
     1
102
RTVSPropertyOp31
 70
     1
102
RTVSPropertyOp32
 70
     1
  0
XRECORD
  5
5A5
102
{ACAD_REACTORS
330
5A4
102
}
330
5A4
100
AcDbXrecord
280
     1
102
RTVSPropertyOp0
 70
     1
102
RTVSPropertyOp1
 70
     1
102
RTVSPropertyOp2
 70
     1
102
RTVSPropertyOp3
 70
     1
102
RTVSPropertyOp4
 70
     1
102
RTVSPropertyOp5
 70
     1
102
RTVSPropertyOp6
 70
     1
102
RTVSPropertyOp7
 70
     1
102
RTVSPropertyOp8
 70
     1
102
RTVSPropertyOp9
 70
     1
102
RTVSPropertyOp10
 70
     1
102
RTVSPropertyOp11
 70
     1
102
RTVSPropertyOp12
 70
     1
102
RTVSPropertyOp13
 70
     1
102
RTVSPropertyOp14
 70
     1
102
RTVSPropertyOp15
 70
     1
102
RTVSPropertyOp16
 70
     1
102
RTVSPropertyOp17
 70
     1
102
RTVSPropertyOp18
 70
     1
102
RTVSPropertyOp19
 70
     1
102
RTVSPropertyOp20
 70
     1
102
RTVSPropertyOp21
 70
     1
102
RTVSPropertyOp22
 70
     1
102
RTVSPropertyOp23
 70
     1
102
RTVSPropertyOp24
 70
     1
102
RTVSPropertyOp25
 70
     1
102
RTVSPropertyOp26
 70
     1
102
RTVSPropertyOp27
 70
     1
102
RTVSPropertyOp28
 70
     1
102
RTVSPropertyOp29
 70
     1
102
RTVSPropertyOp30
 70
     1
102
RTVSPropertyOp31
 70
     1
102
RTVSPropertyOp32
 70
     1
  0
XRECORD
  5
5AD
102
{ACAD_REACTORS
330
5AC
102
}
330
5AC
100
AcDbXrecord
280
     1
102
RTVSPropertyOp0
 70
     1
102
RTVSPropertyOp1
 70
     1
102
RTVSPropertyOp2
 70
     1
102
RTVSPropertyOp3
 70
     1
102
RTVSPropertyOp4
 70
     1
102
RTVSPropertyOp5
 70
     1
102
RTVSPropertyOp6
 70
     1
102
RTVSPropertyOp7
 70
     1
102
RTVSPropertyOp8
 70
     1
102
RTVSPropertyOp9
 70
     1
102
RTVSPropertyOp10
 70
     1
102
RTVSPropertyOp11
 70
     1
102
RTVSPropertyOp12
 70
     1
102
RTVSPropertyOp13
 70
     1
102
RTVSPropertyOp14
 70
     1
102
RTVSPropertyOp15
 70
     1
102
RTVSPropertyOp16
 70
     1
102
RTVSPropertyOp17
 70
     1
102
RTVSPropertyOp18
 70
     1
102
RTVSPropertyOp19
 70
     1
102
RTVSPropertyOp20
 70
     1
102
RTVSPropertyOp21
 70
     1
102
RTVSPropertyOp22
 70
     1
102
RTVSPropertyOp23
 70
     1
102
RTVSPropertyOp24
 70
     1
102
RTVSPropertyOp25
 70
     1
102
RTVSPropertyOp26
 70
     1
102
RTVSPropertyOp27
 70
     1
102
RTVSPropertyOp28
 70
     1
102
RTVSPropertyOp29
 70
     1
102
RTVSPropertyOp30
 70
     1
102
RTVSPropertyOp31
 70
     1
102
RTVSPropertyOp32
 70
     1
  0
ENDSEC
  0
EOF
