  0
SECTION
  2
HEADER
  9
$ACADVER
  1
AC1018
  9
$ACADMAINTVER
 70
     0
  9
$DWGCODEPAGE
  3
ANSI_1252
  9
$INSBASE
 10
0.0
 20
0.0
 30
0.0
  9
$EXTMIN
 10
-355.052322930985
 20
28.171601214577
 30
0.0
  9
$EXTMAX
 10
68.667299923074
 20
181.720601214577
 30
0.0
  9
$LIMMIN
 10
0.0
 20
0.0
  9
$LIMMAX
 10
420.0
 20
297.0
  9
$ORTHOMODE
 70
     0
  9
$REGENMODE
 70
     1
  9
$FILLMODE
 70
     1
  9
$QTEXTMODE
 70
     0
  9
$MIRRTEXT
 70
     1
  9
$LTSCALE
 40
5.0
  9
$ATTMODE
 70
     1
  9
$TEXTSIZE
 40
2.5
  9
$TRACEWID
 40
1.0
  9
$TEXTSTYLE
  7
Standard
  9
$CLAYER
  8
0
  9
$CELTYPE
  6
ByLayer
  9
$CECOLOR
 62
   256
  9
$CELTSCALE
 40
1.0
  9
$DISPSILH
 70
     0
  9
$DIMSCALE
 40
1.0
  9
$DIMASZ
 40
2.5
  9
$DIMEXO
 40
0.625
  9
$DIMDLI
 40
3.75
  9
$DIMRND
 40
0.0
  9
$DIMDLE
 40
0.0
  9
$DIMEXE
 40
1.25
  9
$DIMTP
 40
0.0
  9
$DIMTM
 40
0.0
  9
$DIMTXT
 40
2.5
  9
$DIMCEN
 40
2.5
  9
$DIMTSZ
 40
0.0
  9
$DIMTOL
 70
     0
  9
$DIMLIM
 70
     0
  9
$DIMTIH
 70
     0
  9
$DIMTOH
 70
     0
  9
$DIMSE1
 70
     0
  9
$DIMSE2
 70
     0
  9
$DIMTAD
 70
     1
  9
$DIMZIN
 70
     8
  9
$DIMBLK
  1

  9
$DIMASO
 70
     1
  9
$DIMSHO
 70
     1
  9
$DIMPOST
  1

  9
$DIMAPOST
  1

  9
$DIMALT
 70
     0
  9
$DIMALTD
 70
     3
  9
$DIMALTF
 40
0.03937007874
  9
$DIMLFAC
 40
1.0
  9
$DIMTOFL
 70
     1
  9
$DIMTVP
 40
0.0
  9
$DIMTIX
 70
     0
  9
$DIMSOXD
 70
     0
  9
$DIMSAH
 70
     0
  9
$DIMBLK1
  1

  9
$DIMBLK2
  1

  9
$DIMSTYLE
  2
ISO-25
  9
$DIMCLRD
 70
     0
  9
$DIMCLRE
 70
     0
  9
$DIMCLRT
 70
     0
  9
$DIMTFAC
 40
1.0
  9
$DIMGAP
 40
0.625
  9
$DIMJUST
 70
     0
  9
$DIMSD1
 70
     0
  9
$DIMSD2
 70
     0
  9
$DIMTOLJ
 70
     0
  9
$DIMTZIN
 70
     8
  9
$DIMALTZ
 70
     0
  9
$DIMALTTZ
 70
     0
  9
$DIMUPT
 70
     0
  9
$DIMDEC
 70
     2
  9
$DIMTDEC
 70
     2
  9
$DIMALTU
 70
     2
  9
$DIMALTTD
 70
     3
  9
$DIMTXSTY
  7
Standard
  9
$DIMAUNIT
 70
     0
  9
$DIMADEC
 70
     0
  9
$DIMALTRND
 40
0.0
  9
$DIMAZIN
 70
     0
  9
$DIMDSEP
 70
    44
  9
$DIMATFIT
 70
     3
  9
$DIMFRAC
 70
     0
  9
$DIMLDRBLK
  1

  9
$DIMLUNIT
 70
     2
  9
$DIMLWD
 70
    -2
  9
$DIMLWE
 70
    -2
  9
$DIMTMOVE
 70
     0
  9
$LUNITS
 70
     2
  9
$LUPREC
 70
     4
  9
$SKETCHINC
 40
1.0
  9
$FILLETRAD
 40
10.0
  9
$AUNITS
 70
     0
  9
$AUPREC
 70
     0
  9
$MENU
  1
.
  9
$ELEVATION
 40
0.0
  9
$PELEVATION
 40
0.0
  9
$THICKNESS
 40
0.0
  9
$LIMCHECK
 70
     0
  9
$CHAMFERA
 40
10.0
  9
$CHAMFERB
 40
10.0
  9
$CHAMFERC
 40
20.0
  9
$CHAMFERD
 40
0.0
  9
$SKPOLY
 70
     0
  9
$TDCREATE
 40
2458718.398971239
  9
$TDUCREATE
 40
2458718.315637905
  9
$TDUPDATE
 40
2458718.398981702
  9
$TDUUPDATE
 40
2458718.315648368
  9
$TDINDWG
 40
0.0000000116
  9
$TDUSRTIMER
 40
0.0000000116
  9
$USRTIMER
 70
     1
  9
$ANGBASE
 50
0.0
  9
$ANGDIR
 70
     0
  9
$PDMODE
 70
     2
  9
$PDSIZE
 40
1.0
  9
$PLINEWID
 40
0.0
  9
$SPLFRAME
 70
     0
  9
$SPLINETYPE
 70
     6
  9
$SPLINESEGS
 70
     8
  9
$HANDSEED
  5
5BB
  9
$SURFTAB1
 70
     6
  9
$SURFTAB2
 70
     6
  9
$SURFTYPE
 70
     6
  9
$SURFU
 70
     6
  9
$SURFV
 70
     6
  9
$UCSBASE
  2

  9
$UCSNAME
  2

  9
$UCSORG
 10
0.0
 20
0.0
 30
0.0
  9
$UCSXDIR
 10
1.0
 20
0.0
 30
0.0
  9
$UCSYDIR
 10
0.0
 20
1.0
 30
0.0
  9
$UCSORTHOREF
  2

  9
$UCSORTHOVIEW
 70
     0
  9
$UCSORGTOP
 10
0.0
 20
0.0
 30
0.0
  9
$UCSORGBOTTOM
 10
0.0
 20
0.0
 30
0.0
  9
$UCSORGLEFT
 10
0.0
 20
0.0
 30
0.0
  9
$UCSORGRIGHT
 10
0.0
 20
0.0
 30
0.0
  9
$UCSORGFRONT
 10
0.0
 20
0.0
 30
0.0
  9
$UCSORGBACK
 10
0.0
 20
0.0
 30
0.0
  9
$PUCSBASE
  2

  9
$PUCSNAME
  2

  9
$PUCSORG
 10
0.0
 20
0.0
 30
0.0
  9
$PUCSXDIR
 10
1.0
 20
0.0
 30
0.0
  9
$PUCSYDIR
 10
0.0
 20
1.0
 30
0.0
  9
$PUCSORTHOREF
  2

  9
$PUCSORTHOVIEW
 70
     0
  9
$PUCSORGTOP
 10
0.0
 20
0.0
 30
0.0
  9
$PUCSORGBOTTOM
 10
0.0
 20
0.0
 30
0.0
  9
$PUCSORGLEFT
 10
0.0
 20
0.0
 30
0.0
  9
$PUCSORGRIGHT
 10
0.0
 20
0.0
 30
0.0
  9
$PUCSORGFRONT
 10
0.0
 20
0.0
 30
0.0
  9
$PUCSORGBACK
 10
0.0
 20
0.0
 30
0.0
  9
$USERI1
 70
     0
  9
$USERI2
 70
     0
  9
$USERI3
 70
     0
  9
$USERI4
 70
     0
  9
$USERI5
 70
     0
  9
$USERR1
 40
0.0
  9
$USERR2
 40
0.0
  9
$USERR3
 40
0.0
  9
$USERR4
 40
0.0
  9
$USERR5
 40
0.0
  9
$WORLDVIEW
 70
     1
  9
$SHADEDGE
 70
     3
  9
$SHADEDIF
 70
    70
  9
$TILEMODE
 70
     1
  9
$MAXACTVP
 70
    64
  9
$PINSBASE
 10
0.0
 20
0.0
 30
0.0
  9
$PLIMCHECK
 70
     0
  9
$PEXTMIN
 10
1.000000000000E+20
 20
1.000000000000E+20
 30
1.000000000000E+20
  9
$PEXTMAX
 10
-1.000000000000E+20
 20
-1.000000000000E+20
 30
-1.000000000000E+20
  9
$PLIMMIN
 10
0.0
 20
0.0
  9
$PLIMMAX
 10
420.0
 20
297.0
  9
$UNITMODE
 70
     0
  9
$VISRETAIN
 70
     1
  9
$PLINEGEN
 70
     0
  9
$PSLTSCALE
 70
     1
  9
$TREEDEPTH
 70
  3020
  9
$CMLSTYLE
  2
Standard
  9
$CMLJUST
 70
     0
  9
$CMLSCALE
 40
20.0
  9
$PROXYGRAPHICS
 70
     1
  9
$MEASUREMENT
 70
     1
  9
$CELWEIGHT
370
    -1
  9
$ENDCAPS
280
     0
  9
$JOINSTYLE
280
     0
  9
$LWDISPLAY
290
     0
  9
$INSUNITS
 70
     4
  9
$HYPERLINKBASE
  1

  9
$STYLESHEET
  1

  9
$XEDIT
290
     1
  9
$CEPSNTYPE
380
     0
  9
$PSTYLEMODE
290
     1
  9
$FINGERPRINTGUID
  2
{82BA4016-D8A4-4660-8CA9-E423677B8DD0}
  9
$VERSIONGUID
  2
{FAEB1C32-E019-11D5-929B-00C0DF256EC4}
  9
$EXTNAMES
290
     1
  9
$PSVPSCALE
 40
0.0
  9
$OLESTARTUP
290
     0
  9
$SORTENTS
280
   127
  9
$INDEXCTL
280
     0
  9
$HIDETEXT
280
     1
  9
$XCLIPFRAME
290
     0
  9
$HALOGAP
280
     0
  9
$OBSCOLOR
 70
   257
  9
$OBSLTYPE
280
     0
  9
$INTERSECTIONDISPLAY
280
     0
  9
$INTERSECTIONCOLOR
 70
   257
  9
$DIMASSOC
280
     2
  9
$PROJECTNAME
  1

  0
ENDSEC
  0
SECTION
  2
CLASSES
  0
CLASS
  1
ACDBDICTIONARYWDFLT
  2
AcDbDictionaryWithDefault
  3
ObjectDBX Classes
 90
        0
 91
        4
280
     0
281
     0
  0
CLASS
  1
VISUALSTYLE
  2
AcDbVisualStyle
  3
ObjectDBX Classes
 90
     4095
 91
        4
280
     0
281
     0
  0
CLASS
  1
MATERIAL
  2
AcDbMaterial
  3
ObjectDBX Classes
 90
     1153
 91
        4
280
     0
281
     0
  0
CLASS
  1
WIPEOUTVARIABLES
  2
AcDbWipeoutVariables
  3
WipeOut|AutoCAD Express Tool|expresstools@autodesk.com
 90
        0
 91
        4
280
     0
281
     0
  0
CLASS
  1
WIPEOUT
  2
AcDbWipeout
  3
WipeOut|AutoCAD Express Tool|expresstools@autodesk.com
 90
      127
 91
        4
280
     0
281
     1
  0
ENDSEC
  0
SECTION
  2
TABLES
  0
TABLE
  2
VPORT
  5
8
330
0
100
AcDbSymbolTable
 70
     1
  0
VPORT
  5
29
330
8
100
AcDbSymbolTableRecord
100
AcDbViewportTableRecord
  2
*Active
 70
     0
 10
0.0
 20
0.0
 11
1.0
 21
1.0
 12
-143.192511503955
 22
104.946101214577
 13
0.0
 23
0.0
 14
10.0
 24
10.0
 15
10.0
 25
10.0
 16
0.0
 26
0.0
 36
1.0
 17
0.0
 27
0.0
 37
0.0
 40
153.549
 41
2.75950753736
 42
50.0
 43
0.0
 44
0.0
 50
0.0
 51
0.0
 71
     0
 72
   100
 73
     1
 74
     3
 75
     0
 76
     0
 77
     0
 78
     0
281
     0
 65
     1
110
0.0
120
0.0
130
0.0
111
1.0
121
0.0
131
0.0
112
0.0
122
1.0
132
0.0
 79
     0
146
0.0
  0
ENDTAB
  0
TABLE
  2
LTYPE
  5
5
330
0
100
AcDbSymbolTable
 70
     3
  0
LTYPE
  5
14
330
5
100
AcDbSymbolTableRecord
100
AcDbLinetypeTableRecord
  2
ByBlock
 70
     0
  3

 72
    65
 73
     0
 40
0.0
  0
LTYPE
  5
15
330
5
100
AcDbSymbolTableRecord
100
AcDbLinetypeTableRecord
  2
ByLayer
 70
     0
  3

 72
    65
 73
     0
 40
0.0
  0
LTYPE
  5
16
330
5
100
AcDbSymbolTableRecord
100
AcDbLinetypeTableRecord
  2
Continuous
 70
     0
  3
Solid line
 72
    65
 73
     0
 40
0.0
  0
LTYPE
  5
40
330
5
100
AcDbSymbolTableRecord
100
AcDbLinetypeTableRecord
  2
AUSGEZOGEN
 70
     0
  3

 72
    65
 73
     0
 40
0.0
  0
LTYPE
  5
41
330
5
100
AcDbSymbolTableRecord
100
AcDbLinetypeTableRecord
  2
DASHDOT
 70
     0
  3

 72
    65
 73
     4
 40
1.0
 49
0.5
 74
     0
 49
-0.25
 74
     0
 49
0.0
 74
     0
 49
-0.25
 74
     0
  0
ENDTAB
  0
TABLE
  2
LAYER
  5
2
330
0
100
AcDbSymbolTable
 70
   257
  0
LAYER
  5
10
330
2
100
AcDbSymbolTableRecord
100
AcDbLayerTableRecord
  2
0
 70
     0
 62
     7
  6
Continuous
370
    -3
390
F
  0
LAYER
  5
45
330
2
100
AcDbSymbolTableRecord
100
AcDbLayerTableRecord
  2
Layer0
 70
     0
 62
     7
  6
Continuous
370
    -3
390
F
  0
LAYER
  5
46
330
2
100
AcDbSymbolTableRecord
100
AcDbLayerTableRecord
  2
Stammform
 70
     0
 62
     7
  6
Continuous
370
    -3
390
F
  0
LAYER
  5
47
330
2
100
AcDbSymbolTableRecord
100
AcDbLayerTableRecord
  2
Formteil
 70
     0
 62
     7
  6
Continuous
370
    -3
390
F
  0
LAYER
  5
48
330
2
100
AcDbSymbolTableRecord
100
AcDbLayerTableRecord
  2
Layer3
 70
     0
 62
     7
  6
Continuous
370
    -3
390
F
  0
LAYER
  5
49
330
2
100
AcDbSymbolTableRecord
100
AcDbLayerTableRecord
  2
Auswerfsystem
 70
     0
 62
     7
  6
Continuous
370
    -3
390
F
  0
LAYER
  5
4A
330
2
100
AcDbSymbolTableRecord
100
AcDbLayerTableRecord
  2
Text
 70
     0
 62
     7
  6
Continuous
370
    -3
390
F
  0
LAYER
  5
4B
330
2
100
AcDbSymbolTableRecord
100
AcDbLayerTableRecord
  2
Schraffur
 70
     0
 62
     7
  6
Continuous
370
    -3
390
F
  0
LAYER
  5
4C
330
2
100
AcDbSymbolTableRecord
100
AcDbLayerTableRecord
  2
Bemaßung
 70
     0
 62
     7
  6
Continuous
370
    -3
390
F
  0
LAYER
  5
4D
330
2
100
AcDbSymbolTableRecord
100
AcDbLayerTableRecord
  2
Heißkanal
 70
     0
 62
     7
  6
Continuous
370
    -3
390
F
  0
LAYER
  5
4E
330
2
100
AcDbSymbolTableRecord
100
AcDbLayerTableRecord
  2
Layer9
 70
     0
 62
     7
  6
Continuous
370
    -3
390
F
  0
LAYER
  5
4F
330
2
100
AcDbSymbolTableRecord
100
AcDbLayerTableRecord
  2
Hilsgeometrie
 70
     0
 62
     7
  6
Continuous
370
    -3
390
F
  0
LAYER
  5
50
330
2
100
AcDbSymbolTableRecord
100
AcDbLayerTableRecord
  2
Layer11
 70
     0
 62
     7
  6
Continuous
370
    -3
390
F
  0
LAYER
  5
51
330
2
100
AcDbSymbolTableRecord
100
AcDbLayerTableRecord
  2
Layer12
 70
     0
 62
     7
  6
Continuous
370
    -3
390
F
  0
LAYER
  5
52
330
2
100
AcDbSymbolTableRecord
100
AcDbLayerTableRecord
  2
Layer13
 70
     0
 62
     7
  6
Continuous
370
    -3
390
F
  0
LAYER
  5
53
330
2
100
AcDbSymbolTableRecord
100
AcDbLayerTableRecord
  2
Layer14
 70
     0
 62
     7
  6
Continuous
370
    -3
390
F
  0
LAYER
  5
54
330
2
100
AcDbSymbolTableRecord
100
AcDbLayerTableRecord
  2
Layer15
 70
     0
 62
     7
  6
Continuous
370
    -3
390
F
  0
LAYER
  5
55
330
2
100
AcDbSymbolTableRecord
100
AcDbLayerTableRecord
  2
Layer16
 70
     0
 62
     7
  6
Continuous
370
    -3
390
F
  0
LAYER
  5
56
330
2
100
AcDbSymbolTableRecord
100
AcDbLayerTableRecord
  2
Layer17
 70
     0
 62
     7
  6
Continuous
370
    -3
390
F
  0
LAYER
  5
57
330
2
100
AcDbSymbolTableRecord
100
AcDbLayerTableRecord
  2
Layer18
 70
     0
 62
     7
  6
Continuous
370
    -3
390
F
  0
LAYER
  5
58
330
2
100
AcDbSymbolTableRecord
100
AcDbLayerTableRecord
  2
Layer19
 70
     0
 62
     7
  6
Continuous
370
    -3
390
F
  0
LAYER
  5
59
330
2
100
AcDbSymbolTableRecord
100
AcDbLayerTableRecord
  2
Layer20
 70
     0
 62
     7
  6
Continuous
370
    -3
390
F
  0
LAYER
  5
5A
330
2
100
AcDbSymbolTableRecord
100
AcDbLayerTableRecord
  2
Layer21
 70
     0
 62
     7
  6
Continuous
370
    -3
390
F
  0
LAYER
  5
5B
330
2
100
AcDbSymbolTableRecord
100
AcDbLayerTableRecord
  2
Layer22
 70
     0
 62
     7
  6
Continuous
370
    -3
390
F
  0
LAYER
  5
5C
330
2
100
AcDbSymbolTableRecord
100
AcDbLayerTableRecord
  2
Layer23
 70
     0
 62
     7
  6
Continuous
370
    -3
390
F
  0
LAYER
  5
5D
330
2
100
AcDbSymbolTableRecord
100
AcDbLayerTableRecord
  2
Layer24
 70
     0
 62
     7
  6
Continuous
370
    -3
390
F
  0
LAYER
  5
5E
330
2
100
AcDbSymbolTableRecord
100
AcDbLayerTableRecord
  2
Layer25
 70
     0
 62
     7
  6
Continuous
370
    -3
390
F
  0
LAYER
  5
5F
330
2
100
AcDbSymbolTableRecord
100
AcDbLayerTableRecord
  2
Layer26
 70
     0
 62
     7
  6
Continuous
370
    -3
390
F
  0
LAYER
  5
60
330
2
100
AcDbSymbolTableRecord
100
AcDbLayerTableRecord
  2
Layer27
 70
     0
 62
     7
  6
Continuous
370
    -3
390
F
  0
LAYER
  5
61
330
2
100
AcDbSymbolTableRecord
100
AcDbLayerTableRecord
  2
Layer28
 70
     0
 62
     7
  6
Continuous
370
    -3
390
F
  0
LAYER
  5
62
330
2
100
AcDbSymbolTableRecord
100
AcDbLayerTableRecord
  2
Layer29
 70
     0
 62
     7
  6
Continuous
370
    -3
390
F
  0
LAYER
  5
63
330
2
100
AcDbSymbolTableRecord
100
AcDbLayerTableRecord
  2
Kühlsystem
 70
     0
 62
     7
  6
Continuous
370
    -3
390
F
  0
LAYER
  5
64
330
2
100
AcDbSymbolTableRecord
100
AcDbLayerTableRecord
  2
Layer31
 70
     0
 62
     7
  6
Continuous
370
    -3
390
F
  0
LAYER
  5
65
330
2
100
AcDbSymbolTableRecord
100
AcDbLayerTableRecord
  2
Layer32
 70
     0
 62
     7
  6
Continuous
370
    -3
390
F
  0
LAYER
  5
66
330
2
100
AcDbSymbolTableRecord
100
AcDbLayerTableRecord
  2
Layer33
 70
     0
 62
     7
  6
Continuous
370
    -3
390
F
  0
LAYER
  5
67
330
2
100
AcDbSymbolTableRecord
100
AcDbLayerTableRecord
  2
Layer34
 70
     0
 62
     7
  6
Continuous
370
    -3
390
F
  0
LAYER
  5
68
330
2
100
AcDbSymbolTableRecord
100
AcDbLayerTableRecord
  2
Layer35
 70
     0
 62
     7
  6
Continuous
370
    -3
390
F
  0
LAYER
  5
69
330
2
100
AcDbSymbolTableRecord
100
AcDbLayerTableRecord
  2
Layer36
 70
     0
 62
     7
  6
Continuous
370
    -3
390
F
  0
LAYER
  5
6A
330
2
100
AcDbSymbolTableRecord
100
AcDbLayerTableRecord
  2
Layer37
 70
     0
 62
     7
  6
Continuous
370
    -3
390
F
  0
LAYER
  5
6B
330
2
100
AcDbSymbolTableRecord
100
AcDbLayerTableRecord
  2
Layer38
 70
     0
 62
     7
  6
Continuous
370
    -3
390
F
  0
LAYER
  5
6C
330
2
100
AcDbSymbolTableRecord
100
AcDbLayerTableRecord
  2
Layer39
 70
     0
 62
     7
  6
Continuous
370
    -3
390
F
  0
LAYER
  5
6D
330
2
100
AcDbSymbolTableRecord
100
AcDbLayerTableRecord
  2
Layer40
 70
     0
 62
     7
  6
Continuous
370
    -3
390
F
  0
LAYER
  5
6E
330
2
100
AcDbSymbolTableRecord
100
AcDbLayerTableRecord
  2
Layer41
 70
     0
 62
     7
  6
Continuous
370
    -3
390
F
  0
LAYER
  5
6F
330
2
100
AcDbSymbolTableRecord
100
AcDbLayerTableRecord
  2
Layer42
 70
     0
 62
     7
  6
Continuous
370
    -3
390
F
  0
LAYER
  5
70
330
2
100
AcDbSymbolTableRecord
100
AcDbLayerTableRecord
  2
Layer43
 70
     0
 62
     7
  6
Continuous
370
    -3
390
F
  0
LAYER
  5
71
330
2
100
AcDbSymbolTableRecord
100
AcDbLayerTableRecord
  2
Layer44
 70
     0
 62
     7
  6
Continuous
370
    -3
390
F
  0
LAYER
  5
72
330
2
100
AcDbSymbolTableRecord
100
AcDbLayerTableRecord
  2
Layer45
 70
     0
 62
     7
  6
Continuous
370
    -3
390
F
  0
LAYER
  5
73
330
2
100
AcDbSymbolTableRecord
100
AcDbLayerTableRecord
  2
Layer46
 70
     0
 62
     7
  6
Continuous
370
    -3
390
F
  0
LAYER
  5
74
330
2
100
AcDbSymbolTableRecord
100
AcDbLayerTableRecord
  2
Layer47
 70
     0
 62
     7
  6
Continuous
370
    -3
390
F
  0
LAYER
  5
75
330
2
100
AcDbSymbolTableRecord
100
AcDbLayerTableRecord
  2
Layer48
 70
     0
 62
     7
  6
Continuous
370
    -3
390
F
  0
LAYER
  5
76
330
2
100
AcDbSymbolTableRecord
100
AcDbLayerTableRecord
  2
Layer49
 70
     0
 62
     7
  6
Continuous
370
    -3
390
F
  0
LAYER
  5
77
330
2
100
AcDbSymbolTableRecord
100
AcDbLayerTableRecord
  2
Layer50
 70
     0
 62
     7
  6
Continuous
370
    -3
390
F
  0
LAYER
  5
78
330
2
100
AcDbSymbolTableRecord
100
AcDbLayerTableRecord
  2
Layer51
 70
     0
 62
     7
  6
Continuous
370
    -3
390
F
  0
LAYER
  5
79
330
2
100
AcDbSymbolTableRecord
100
AcDbLayerTableRecord
  2
Layer52
 70
     0
 62
     7
  6
Continuous
370
    -3
390
F
  0
LAYER
  5
7A
330
2
100
AcDbSymbolTableRecord
100
AcDbLayerTableRecord
  2
Layer53
 70
     0
 62
     7
  6
Continuous
370
    -3
390
F
  0
LAYER
  5
7B
330
2
100
AcDbSymbolTableRecord
100
AcDbLayerTableRecord
  2
Layer54
 70
     0
 62
     7
  6
Continuous
370
    -3
390
F
  0
LAYER
  5
7C
330
2
100
AcDbSymbolTableRecord
100
AcDbLayerTableRecord
  2
Layer55
 70
     0
 62
     7
  6
Continuous
370
    -3
390
F
  0
LAYER
  5
7D
330
2
100
AcDbSymbolTableRecord
100
AcDbLayerTableRecord
  2
Layer56
 70
     0
 62
     7
  6
Continuous
370
    -3
390
F
  0
LAYER
  5
7E
330
2
100
AcDbSymbolTableRecord
100
AcDbLayerTableRecord
  2
Layer57
 70
     0
 62
     7
  6
Continuous
370
    -3
390
F
  0
LAYER
  5
7F
330
2
100
AcDbSymbolTableRecord
100
AcDbLayerTableRecord
  2
Layer58
 70
     0
 62
     7
  6
Continuous
370
    -3
390
F
  0
LAYER
  5
80
330
2
100
AcDbSymbolTableRecord
100
AcDbLayerTableRecord
  2
Layer59
 70
     0
 62
     7
  6
Continuous
370
    -3
390
F
  0
LAYER
  5
81
330
2
100
AcDbSymbolTableRecord
100
AcDbLayerTableRecord
  2
Layer60
 70
     0
 62
     7
  6
Continuous
370
    -3
390
F
  0
LAYER
  5
82
330
2
100
AcDbSymbolTableRecord
100
AcDbLayerTableRecord
  2
Layer61
 70
     0
 62
     7
  6
Continuous
370
    -3
390
F
  0
LAYER
  5
83
330
2
100
AcDbSymbolTableRecord
100
AcDbLayerTableRecord
  2
Layer62
 70
     0
 62
     7
  6
Continuous
370
    -3
390
F
  0
LAYER
  5
84
330
2
100
AcDbSymbolTableRecord
100
AcDbLayerTableRecord
  2
Layer63
 70
     0
 62
     7
  6
Continuous
370
    -3
390
F
  0
LAYER
  5
85
330
2
100
AcDbSymbolTableRecord
100
AcDbLayerTableRecord
  2
Layer64
 70
     0
 62
     7
  6
Continuous
370
    -3
390
F
  0
LAYER
  5
86
330
2
100
AcDbSymbolTableRecord
100
AcDbLayerTableRecord
  2
Layer65
 70
     0
 62
     7
  6
Continuous
370
    -3
390
F
  0
LAYER
  5
87
330
2
100
AcDbSymbolTableRecord
100
AcDbLayerTableRecord
  2
Layer66
 70
     0
 62
     7
  6
Continuous
370
    -3
390
F
  0
LAYER
  5
88
330
2
100
AcDbSymbolTableRecord
100
AcDbLayerTableRecord
  2
Layer67
 70
     0
 62
     7
  6
Continuous
370
    -3
390
F
  0
LAYER
  5
89
330
2
100
AcDbSymbolTableRecord
100
AcDbLayerTableRecord
  2
Layer68
 70
     0
 62
     7
  6
Continuous
370
    -3
390
F
  0
LAYER
  5
8A
330
2
100
AcDbSymbolTableRecord
100
AcDbLayerTableRecord
  2
Layer69
 70
     0
 62
     7
  6
Continuous
370
    -3
390
F
  0
LAYER
  5
8B
330
2
100
AcDbSymbolTableRecord
100
AcDbLayerTableRecord
  2
Layer70
 70
     0
 62
     7
  6
Continuous
370
    -3
390
F
  0
LAYER
  5
8C
330
2
100
AcDbSymbolTableRecord
100
AcDbLayerTableRecord
  2
Layer71
 70
     0
 62
     7
  6
Continuous
370
    -3
390
F
  0
LAYER
  5
8D
330
2
100
AcDbSymbolTableRecord
100
AcDbLayerTableRecord
  2
Layer72
 70
     0
 62
     7
  6
Continuous
370
    -3
390
F
  0
LAYER
  5
8E
330
2
100
AcDbSymbolTableRecord
100
AcDbLayerTableRecord
  2
Layer73
 70
     0
 62
     7
  6
Continuous
370
    -3
390
F
  0
LAYER
  5
8F
330
2
100
AcDbSymbolTableRecord
100
AcDbLayerTableRecord
  2
Layer74
 70
     0
 62
     7
  6
Continuous
370
    -3
390
F
  0
LAYER
  5
90
330
2
100
AcDbSymbolTableRecord
100
AcDbLayerTableRecord
  2
Layer75
 70
     0
 62
     7
  6
Continuous
370
    -3
390
F
  0
LAYER
  5
91
330
2
100
AcDbSymbolTableRecord
100
AcDbLayerTableRecord
  2
Layer76
 70
     0
 62
     7
  6
Continuous
370
    -3
390
F
  0
LAYER
  5
92
330
2
100
AcDbSymbolTableRecord
100
AcDbLayerTableRecord
  2
Layer77
 70
     0
 62
     7
  6
Continuous
370
    -3
390
F
  0
LAYER
  5
93
330
2
100
AcDbSymbolTableRecord
100
AcDbLayerTableRecord
  2
Layer78
 70
     0
 62
     7
  6
Continuous
370
    -3
390
F
  0
LAYER
  5
94
330
2
100
AcDbSymbolTableRecord
100
AcDbLayerTableRecord
  2
Layer79
 70
     0
 62
     7
  6
Continuous
370
    -3
390
F
  0
LAYER
  5
95
330
2
100
AcDbSymbolTableRecord
100
AcDbLayerTableRecord
  2
Layer80
 70
     0
 62
     7
  6
Continuous
370
    -3
390
F
  0
LAYER
  5
96
330
2
100
AcDbSymbolTableRecord
100
AcDbLayerTableRecord
  2
Layer81
 70
     0
 62
     7
  6
Continuous
370
    -3
390
F
  0
LAYER
  5
97
330
2
100
AcDbSymbolTableRecord
100
AcDbLayerTableRecord
  2
Layer82
 70
     0
 62
     7
  6
Continuous
370
    -3
390
F
  0
LAYER
  5
98
330
2
100
AcDbSymbolTableRecord
100
AcDbLayerTableRecord
  2
Layer83
 70
     0
 62
     7
  6
Continuous
370
    -3
390
F
  0
LAYER
  5
99
330
2
100
AcDbSymbolTableRecord
100
AcDbLayerTableRecord
  2
Layer84
 70
     0
 62
     7
  6
Continuous
370
    -3
390
F
  0
LAYER
  5
9A
330
2
100
AcDbSymbolTableRecord
100
AcDbLayerTableRecord
  2
Layer85
 70
     0
 62
     7
  6
Continuous
370
    -3
390
F
  0
LAYER
  5
9B
330
2
100
AcDbSymbolTableRecord
100
AcDbLayerTableRecord
  2
Layer86
 70
     0
 62
     7
  6
Continuous
370
    -3
390
F
  0
LAYER
  5
9C
330
2
100
AcDbSymbolTableRecord
100
AcDbLayerTableRecord
  2
Layer87
 70
     0
 62
     7
  6
Continuous
370
    -3
390
F
  0
LAYER
  5
9D
330
2
100
AcDbSymbolTableRecord
100
AcDbLayerTableRecord
  2
Layer88
 70
     0
 62
     7
  6
Continuous
370
    -3
390
F
  0
LAYER
  5
9E
330
2
100
AcDbSymbolTableRecord
100
AcDbLayerTableRecord
  2
Layer89
 70
     0
 62
     7
  6
Continuous
370
    -3
390
F
  0
LAYER
  5
9F
330
2
100
AcDbSymbolTableRecord
100
AcDbLayerTableRecord
  2
Layer90
 70
     0
 62
     7
  6
Continuous
370
    -3
390
F
  0
LAYER
  5
A0
330
2
100
AcDbSymbolTableRecord
100
AcDbLayerTableRecord
  2
Layer91
 70
     0
 62
     7
  6
Continuous
370
    -3
390
F
  0
LAYER
  5
A1
330
2
100
AcDbSymbolTableRecord
100
AcDbLayerTableRecord
  2
Layer92
 70
     0
 62
     7
  6
Continuous
370
    -3
390
F
  0
LAYER
  5
A2
330
2
100
AcDbSymbolTableRecord
100
AcDbLayerTableRecord
  2
Layer93
 70
     0
 62
     7
  6
Continuous
370
    -3
390
F
  0
LAYER
  5
A3
330
2
100
AcDbSymbolTableRecord
100
AcDbLayerTableRecord
  2
Layer94
 70
     0
 62
     7
  6
Continuous
370
    -3
390
F
  0
LAYER
  5
A4
330
2
100
AcDbSymbolTableRecord
100
AcDbLayerTableRecord
  2
Layer95
 70
     0
 62
     7
  6
Continuous
370
    -3
390
F
  0
LAYER
  5
A5
330
2
100
AcDbSymbolTableRecord
100
AcDbLayerTableRecord
  2
Layer96
 70
     0
 62
     7
  6
Continuous
370
    -3
390
F
  0
LAYER
  5
A6
330
2
100
AcDbSymbolTableRecord
100
AcDbLayerTableRecord
  2
Layer97
 70
     0
 62
     7
  6
Continuous
370
    -3
390
F
  0
LAYER
  5
A7
330
2
100
AcDbSymbolTableRecord
100
AcDbLayerTableRecord
  2
Layer98
 70
     0
 62
     7
  6
Continuous
370
    -3
390
F
  0
LAYER
  5
A8
330
2
100
AcDbSymbolTableRecord
100
AcDbLayerTableRecord
  2
Layer99
 70
     0
 62
     7
  6
Continuous
370
    -3
390
F
  0
LAYER
  5
A9
330
2
100
AcDbSymbolTableRecord
100
AcDbLayerTableRecord
  2
Layer100
 70
     0
 62
     7
  6
Continuous
370
    -3
390
F
  0
LAYER
  5
AA
330
2
100
AcDbSymbolTableRecord
100
AcDbLayerTableRecord
  2
Layer101
 70
     0
 62
     7
  6
Continuous
370
    -3
390
F
  0
LAYER
  5
AB
330
2
100
AcDbSymbolTableRecord
100
AcDbLayerTableRecord
  2
Layer102
 70
     0
 62
     7
  6
Continuous
370
    -3
390
F
  0
LAYER
  5
AC
330
2
100
AcDbSymbolTableRecord
100
AcDbLayerTableRecord
  2
Layer103
 70
     0
 62
     7
  6
Continuous
370
    -3
390
F
  0
LAYER
  5
AD
330
2
100
AcDbSymbolTableRecord
100
AcDbLayerTableRecord
  2
Layer104
 70
     0
 62
     7
  6
Continuous
370
    -3
390
F
  0
LAYER
  5
AE
330
2
100
AcDbSymbolTableRecord
100
AcDbLayerTableRecord
  2
Layer105
 70
     0
 62
     7
  6
Continuous
370
    -3
390
F
  0
LAYER
  5
AF
330
2
100
AcDbSymbolTableRecord
100
AcDbLayerTableRecord
  2
Layer106
 70
     0
 62
     7
  6
Continuous
370
    -3
390
F
  0
LAYER
  5
B0
330
2
100
AcDbSymbolTableRecord
100
AcDbLayerTableRecord
  2
Layer107
 70
     0
 62
     7
  6
Continuous
370
    -3
390
F
  0
LAYER
  5
B1
330
2
100
AcDbSymbolTableRecord
100
AcDbLayerTableRecord
  2
Layer108
 70
     0
 62
     7
  6
Continuous
370
    -3
390
F
  0
LAYER
  5
B2
330
2
100
AcDbSymbolTableRecord
100
AcDbLayerTableRecord
  2
Layer109
 70
     0
 62
     7
  6
Continuous
370
    -3
390
F
  0
LAYER
  5
B3
330
2
100
AcDbSymbolTableRecord
100
AcDbLayerTableRecord
  2
Layer110
 70
     0
 62
     7
  6
Continuous
370
    -3
390
F
  0
LAYER
  5
B4
330
2
100
AcDbSymbolTableRecord
100
AcDbLayerTableRecord
  2
Layer111
 70
     0
 62
     7
  6
Continuous
370
    -3
390
F
  0
LAYER
  5
B5
330
2
100
AcDbSymbolTableRecord
100
AcDbLayerTableRecord
  2
Layer112
 70
     0
 62
     7
  6
Continuous
370
    -3
390
F
  0
LAYER
  5
B6
330
2
100
AcDbSymbolTableRecord
100
AcDbLayerTableRecord
  2
Layer113
 70
     0
 62
     7
  6
Continuous
370
    -3
390
F
  0
LAYER
  5
B7
330
2
100
AcDbSymbolTableRecord
100
AcDbLayerTableRecord
  2
Layer114
 70
     0
 62
     7
  6
Continuous
370
    -3
390
F
  0
LAYER
  5
B8
330
2
100
AcDbSymbolTableRecord
100
AcDbLayerTableRecord
  2
Layer115
 70
     0
 62
     7
  6
Continuous
370
    -3
390
F
  0
LAYER
  5
B9
330
2
100
AcDbSymbolTableRecord
100
AcDbLayerTableRecord
  2
Layer116
 70
     0
 62
     7
  6
Continuous
370
    -3
390
F
  0
LAYER
  5
BA
330
2
100
AcDbSymbolTableRecord
100
AcDbLayerTableRecord
  2
Layer117
 70
     0
 62
     7
  6
Continuous
370
    -3
390
F
  0
LAYER
  5
BB
330
2
100
AcDbSymbolTableRecord
100
AcDbLayerTableRecord
  2
Layer118
 70
     0
 62
     7
  6
Continuous
370
    -3
390
F
  0
LAYER
  5
BC
330
2
100
AcDbSymbolTableRecord
100
AcDbLayerTableRecord
  2
Layer119
 70
     0
 62
     7
  6
Continuous
370
    -3
390
F
  0
LAYER
  5
BD
330
2
100
AcDbSymbolTableRecord
100
AcDbLayerTableRecord
  2
Layer120
 70
     0
 62
     7
  6
Continuous
370
    -3
390
F
  0
LAYER
  5
BE
330
2
100
AcDbSymbolTableRecord
100
AcDbLayerTableRecord
  2
Layer121
 70
     0
 62
     7
  6
Continuous
370
    -3
390
F
  0
LAYER
  5
BF
330
2
100
AcDbSymbolTableRecord
100
AcDbLayerTableRecord
  2
Layer122
 70
     0
 62
     7
  6
Continuous
370
    -3
390
F
  0
LAYER
  5
C0
330
2
100
AcDbSymbolTableRecord
100
AcDbLayerTableRecord
  2
Layer123
 70
     0
 62
     7
  6
Continuous
370
    -3
390
F
  0
LAYER
  5
C1
330
2
100
AcDbSymbolTableRecord
100
AcDbLayerTableRecord
  2
Layer124
 70
     0
 62
     7
  6
Continuous
370
    -3
390
F
  0
LAYER
  5
C2
330
2
100
AcDbSymbolTableRecord
100
AcDbLayerTableRecord
  2
Layer125
 70
     0
 62
     7
  6
Continuous
370
    -3
390
F
  0
LAYER
  5
C3
330
2
100
AcDbSymbolTableRecord
100
AcDbLayerTableRecord
  2
Layer126
 70
     0
 62
     7
  6
Continuous
370
    -3
390
F
  0
LAYER
  5
C4
330
2
100
AcDbSymbolTableRecord
100
AcDbLayerTableRecord
  2
Layer127
 70
     0
 62
     7
  6
Continuous
370
    -3
390
F
  0
LAYER
  5
C5
330
2
100
AcDbSymbolTableRecord
100
AcDbLayerTableRecord
  2
Layer128
 70
     0
 62
     7
  6
Continuous
370
    -3
390
F
  0
LAYER
  5
C6
330
2
100
AcDbSymbolTableRecord
100
AcDbLayerTableRecord
  2
Layer129
 70
     0
 62
     7
  6
Continuous
370
    -3
390
F
  0
LAYER
  5
C7
330
2
100
AcDbSymbolTableRecord
100
AcDbLayerTableRecord
  2
Layer130
 70
     0
 62
     7
  6
Continuous
370
    -3
390
F
  0
LAYER
  5
C8
330
2
100
AcDbSymbolTableRecord
100
AcDbLayerTableRecord
  2
Layer131
 70
     0
 62
     7
  6
Continuous
370
    -3
390
F
  0
LAYER
  5
C9
330
2
100
AcDbSymbolTableRecord
100
AcDbLayerTableRecord
  2
Layer132
 70
     0
 62
     7
  6
Continuous
370
    -3
390
F
  0
LAYER
  5
CA
330
2
100
AcDbSymbolTableRecord
100
AcDbLayerTableRecord
  2
Layer133
 70
     0
 62
     7
  6
Continuous
370
    -3
390
F
  0
LAYER
  5
CB
330
2
100
AcDbSymbolTableRecord
100
AcDbLayerTableRecord
  2
Layer134
 70
     0
 62
     7
  6
Continuous
370
    -3
390
F
  0
LAYER
  5
CC
330
2
100
AcDbSymbolTableRecord
100
AcDbLayerTableRecord
  2
Layer135
 70
     0
 62
     7
  6
Continuous
370
    -3
390
F
  0
LAYER
  5
CD
330
2
100
AcDbSymbolTableRecord
100
AcDbLayerTableRecord
  2
Layer136
 70
     0
 62
     7
  6
Continuous
370
    -3
390
F
  0
LAYER
  5
CE
330
2
100
AcDbSymbolTableRecord
100
AcDbLayerTableRecord
  2
Layer137
 70
     0
 62
     7
  6
Continuous
370
    -3
390
F
  0
LAYER
  5
CF
330
2
100
AcDbSymbolTableRecord
100
AcDbLayerTableRecord
  2
Layer138
 70
     0
 62
     7
  6
Continuous
370
    -3
390
F
  0
LAYER
  5
D0
330
2
100
AcDbSymbolTableRecord
100
AcDbLayerTableRecord
  2
Layer139
 70
     0
 62
     7
  6
Continuous
370
    -3
390
F
  0
LAYER
  5
D1
330
2
100
AcDbSymbolTableRecord
100
AcDbLayerTableRecord
  2
Layer140
 70
     0
 62
     7
  6
Continuous
370
    -3
390
F
  0
LAYER
  5
D2
330
2
100
AcDbSymbolTableRecord
100
AcDbLayerTableRecord
  2
Layer141
 70
     0
 62
     7
  6
Continuous
370
    -3
390
F
  0
LAYER
  5
D3
330
2
100
AcDbSymbolTableRecord
100
AcDbLayerTableRecord
  2
Layer142
 70
     0
 62
     7
  6
Continuous
370
    -3
390
F
  0
LAYER
  5
D4
330
2
100
AcDbSymbolTableRecord
100
AcDbLayerTableRecord
  2
Layer143
 70
     0
 62
     7
  6
Continuous
370
    -3
390
F
  0
LAYER
  5
D5
330
2
100
AcDbSymbolTableRecord
100
AcDbLayerTableRecord
  2
Layer144
 70
     0
 62
     7
  6
Continuous
370
    -3
390
F
  0
LAYER
  5
D6
330
2
100
AcDbSymbolTableRecord
100
AcDbLayerTableRecord
  2
Layer145
 70
     0
 62
     7
  6
Continuous
370
    -3
390
F
  0
LAYER
  5
D7
330
2
100
AcDbSymbolTableRecord
100
AcDbLayerTableRecord
  2
Layer146
 70
     0
 62
     7
  6
Continuous
370
    -3
390
F
  0
LAYER
  5
D8
330
2
100
AcDbSymbolTableRecord
100
AcDbLayerTableRecord
  2
Layer147
 70
     0
 62
     7
  6
Continuous
370
    -3
390
F
  0
LAYER
  5
D9
330
2
100
AcDbSymbolTableRecord
100
AcDbLayerTableRecord
  2
Layer148
 70
     0
 62
     7
  6
Continuous
370
    -3
390
F
  0
LAYER
  5
DA
330
2
100
AcDbSymbolTableRecord
100
AcDbLayerTableRecord
  2
Layer149
 70
     0
 62
     7
  6
Continuous
370
    -3
390
F
  0
LAYER
  5
DB
330
2
100
AcDbSymbolTableRecord
100
AcDbLayerTableRecord
  2
Layer150
 70
     0
 62
     7
  6
Continuous
370
    -3
390
F
  0
LAYER
  5
DC
330
2
100
AcDbSymbolTableRecord
100
AcDbLayerTableRecord
  2
Layer151
 70
     0
 62
     7
  6
Continuous
370
    -3
390
F
  0
LAYER
  5
DD
330
2
100
AcDbSymbolTableRecord
100
AcDbLayerTableRecord
  2
Layer152
 70
     0
 62
     7
  6
Continuous
370
    -3
390
F
  0
LAYER
  5
DE
330
2
100
AcDbSymbolTableRecord
100
AcDbLayerTableRecord
  2
Layer153
 70
     0
 62
     7
  6
Continuous
370
    -3
390
F
  0
LAYER
  5
DF
330
2
100
AcDbSymbolTableRecord
100
AcDbLayerTableRecord
  2
Layer154
 70
     0
 62
     7
  6
Continuous
370
    -3
390
F
  0
LAYER
  5
E0
330
2
100
AcDbSymbolTableRecord
100
AcDbLayerTableRecord
  2
Layer155
 70
     0
 62
     7
  6
Continuous
370
    -3
390
F
  0
LAYER
  5
E1
330
2
100
AcDbSymbolTableRecord
100
AcDbLayerTableRecord
  2
Layer156
 70
     0
 62
     7
  6
Continuous
370
    -3
390
F
  0
LAYER
  5
E2
330
2
100
AcDbSymbolTableRecord
100
AcDbLayerTableRecord
  2
Layer157
 70
     0
 62
     7
  6
Continuous
370
    -3
390
F
  0
LAYER
  5
E3
330
2
100
AcDbSymbolTableRecord
100
AcDbLayerTableRecord
  2
Layer158
 70
     0
 62
     7
  6
Continuous
370
    -3
390
F
  0
LAYER
  5
E4
330
2
100
AcDbSymbolTableRecord
100
AcDbLayerTableRecord
  2
Layer159
 70
     0
 62
     7
  6
Continuous
370
    -3
390
F
  0
LAYER
  5
E5
330
2
100
AcDbSymbolTableRecord
100
AcDbLayerTableRecord
  2
Layer160
 70
     0
 62
     7
  6
Continuous
370
    -3
390
F
  0
LAYER
  5
E6
330
2
100
AcDbSymbolTableRecord
100
AcDbLayerTableRecord
  2
Layer161
 70
     0
 62
     7
  6
Continuous
370
    -3
390
F
  0
LAYER
  5
E7
330
2
100
AcDbSymbolTableRecord
100
AcDbLayerTableRecord
  2
Layer162
 70
     0
 62
     7
  6
Continuous
370
    -3
390
F
  0
LAYER
  5
E8
330
2
100
AcDbSymbolTableRecord
100
AcDbLayerTableRecord
  2
Layer163
 70
     0
 62
     7
  6
Continuous
370
    -3
390
F
  0
LAYER
  5
E9
330
2
100
AcDbSymbolTableRecord
100
AcDbLayerTableRecord
  2
Layer164
 70
     0
 62
     7
  6
Continuous
370
    -3
390
F
  0
LAYER
  5
EA
330
2
100
AcDbSymbolTableRecord
100
AcDbLayerTableRecord
  2
Layer165
 70
     0
 62
     7
  6
Continuous
370
    -3
390
F
  0
LAYER
  5
EB
330
2
100
AcDbSymbolTableRecord
100
AcDbLayerTableRecord
  2
Layer166
 70
     0
 62
     7
  6
Continuous
370
    -3
390
F
  0
LAYER
  5
EC
330
2
100
AcDbSymbolTableRecord
100
AcDbLayerTableRecord
  2
Layer167
 70
     0
 62
     7
  6
Continuous
370
    -3
390
F
  0
LAYER
  5
ED
330
2
100
AcDbSymbolTableRecord
100
AcDbLayerTableRecord
  2
Layer168
 70
     0
 62
     7
  6
Continuous
370
    -3
390
F
  0
LAYER
  5
EE
330
2
100
AcDbSymbolTableRecord
100
AcDbLayerTableRecord
  2
Layer169
 70
     0
 62
     7
  6
Continuous
370
    -3
390
F
  0
LAYER
  5
EF
330
2
100
AcDbSymbolTableRecord
100
AcDbLayerTableRecord
  2
Layer170
 70
     0
 62
     7
  6
Continuous
370
    -3
390
F
  0
LAYER
  5
F0
330
2
100
AcDbSymbolTableRecord
100
AcDbLayerTableRecord
  2
Layer171
 70
     0
 62
     7
  6
Continuous
370
    -3
390
F
  0
LAYER
  5
F1
330
2
100
AcDbSymbolTableRecord
100
AcDbLayerTableRecord
  2
Layer172
 70
     0
 62
     7
  6
Continuous
370
    -3
390
F
  0
LAYER
  5
F2
330
2
100
AcDbSymbolTableRecord
100
AcDbLayerTableRecord
  2
Layer173
 70
     0
 62
     7
  6
Continuous
370
    -3
390
F
  0
LAYER
  5
F3
330
2
100
AcDbSymbolTableRecord
100
AcDbLayerTableRecord
  2
Layer174
 70
     0
 62
     7
  6
Continuous
370
    -3
390
F
  0
LAYER
  5
F4
330
2
100
AcDbSymbolTableRecord
100
AcDbLayerTableRecord
  2
Layer175
 70
     0
 62
     7
  6
Continuous
370
    -3
390
F
  0
LAYER
  5
F5
330
2
100
AcDbSymbolTableRecord
100
AcDbLayerTableRecord
  2
Layer176
 70
     0
 62
     7
  6
Continuous
370
    -3
390
F
  0
LAYER
  5
F6
330
2
100
AcDbSymbolTableRecord
100
AcDbLayerTableRecord
  2
Layer177
 70
     0
 62
     7
  6
Continuous
370
    -3
390
F
  0
LAYER
  5
F7
330
2
100
AcDbSymbolTableRecord
100
AcDbLayerTableRecord
  2
Layer178
 70
     0
 62
     7
  6
Continuous
370
    -3
390
F
  0
LAYER
  5
F8
330
2
100
AcDbSymbolTableRecord
100
AcDbLayerTableRecord
  2
Layer179
 70
     0
 62
     7
  6
Continuous
370
    -3
390
F
  0
LAYER
  5
F9
330
2
100
AcDbSymbolTableRecord
100
AcDbLayerTableRecord
  2
Layer180
 70
     0
 62
     7
  6
Continuous
370
    -3
390
F
  0
LAYER
  5
FA
330
2
100
AcDbSymbolTableRecord
100
AcDbLayerTableRecord
  2
Layer181
 70
     0
 62
     7
  6
Continuous
370
    -3
390
F
  0
LAYER
  5
FB
330
2
100
AcDbSymbolTableRecord
100
AcDbLayerTableRecord
  2
Layer182
 70
     0
 62
     7
  6
Continuous
370
    -3
390
F
  0
LAYER
  5
FC
330
2
100
AcDbSymbolTableRecord
100
AcDbLayerTableRecord
  2
Layer183
 70
     0
 62
     7
  6
Continuous
370
    -3
390
F
  0
LAYER
  5
FD
330
2
100
AcDbSymbolTableRecord
100
AcDbLayerTableRecord
  2
Layer184
 70
     0
 62
     7
  6
Continuous
370
    -3
390
F
  0
LAYER
  5
FE
330
2
100
AcDbSymbolTableRecord
100
AcDbLayerTableRecord
  2
Layer185
 70
     0
 62
     7
  6
Continuous
370
    -3
390
F
  0
LAYER
  5
FF
330
2
100
AcDbSymbolTableRecord
100
AcDbLayerTableRecord
  2
Layer186
 70
     0
 62
     7
  6
Continuous
370
    -3
390
F
  0
LAYER
  5
100
330
2
100
AcDbSymbolTableRecord
100
AcDbLayerTableRecord
  2
Layer187
 70
     0
 62
     7
  6
Continuous
370
    -3
390
F
  0
LAYER
  5
101
330
2
100
AcDbSymbolTableRecord
100
AcDbLayerTableRecord
  2
Layer188
 70
     0
 62
     7
  6
Continuous
370
    -3
390
F
  0
LAYER
  5
102
330
2
100
AcDbSymbolTableRecord
100
AcDbLayerTableRecord
  2
Layer189
 70
     0
 62
     7
  6
Continuous
370
    -3
390
F
  0
LAYER
  5
103
330
2
100
AcDbSymbolTableRecord
100
AcDbLayerTableRecord
  2
Layer190
 70
     0
 62
     7
  6
Continuous
370
    -3
390
F
  0
LAYER
  5
104
330
2
100
AcDbSymbolTableRecord
100
AcDbLayerTableRecord
  2
Layer191
 70
     0
 62
     7
  6
Continuous
370
    -3
390
F
  0
LAYER
  5
105
330
2
100
AcDbSymbolTableRecord
100
AcDbLayerTableRecord
  2
Layer192
 70
     0
 62
     7
  6
Continuous
370
    -3
390
F
  0
LAYER
  5
106
330
2
100
AcDbSymbolTableRecord
100
AcDbLayerTableRecord
  2
Layer193
 70
     0
 62
     7
  6
Continuous
370
    -3
390
F
  0
LAYER
  5
107
330
2
100
AcDbSymbolTableRecord
100
AcDbLayerTableRecord
  2
Layer194
 70
     0
 62
     7
  6
Continuous
370
    -3
390
F
  0
LAYER
  5
108
330
2
100
AcDbSymbolTableRecord
100
AcDbLayerTableRecord
  2
Layer195
 70
     0
 62
     7
  6
Continuous
370
    -3
390
F
  0
LAYER
  5
109
330
2
100
AcDbSymbolTableRecord
100
AcDbLayerTableRecord
  2
Layer196
 70
     0
 62
     7
  6
Continuous
370
    -3
390
F
  0
LAYER
  5
10A
330
2
100
AcDbSymbolTableRecord
100
AcDbLayerTableRecord
  2
Layer197
 70
     0
 62
     7
  6
Continuous
370
    -3
390
F
  0
LAYER
  5
10B
330
2
100
AcDbSymbolTableRecord
100
AcDbLayerTableRecord
  2
Layer198
 70
     0
 62
     7
  6
Continuous
370
    -3
390
F
  0
LAYER
  5
10C
330
2
100
AcDbSymbolTableRecord
100
AcDbLayerTableRecord
  2
Layer199
 70
     0
 62
     7
  6
Continuous
370
    -3
390
F
  0
LAYER
  5
10D
330
2
100
AcDbSymbolTableRecord
100
AcDbLayerTableRecord
  2
Layer200
 70
     0
 62
     7
  6
Continuous
370
    -3
390
F
  0
LAYER
  5
10E
330
2
100
AcDbSymbolTableRecord
100
AcDbLayerTableRecord
  2
Layer201
 70
     0
 62
     7
  6
Continuous
370
    -3
390
F
  0
LAYER
  5
10F
330
2
100
AcDbSymbolTableRecord
100
AcDbLayerTableRecord
  2
Layer202
 70
     0
 62
     7
  6
Continuous
370
    -3
390
F
  0
LAYER
  5
110
330
2
100
AcDbSymbolTableRecord
100
AcDbLayerTableRecord
  2
Layer203
 70
     0
 62
     7
  6
Continuous
370
    -3
390
F
  0
LAYER
  5
111
330
2
100
AcDbSymbolTableRecord
100
AcDbLayerTableRecord
  2
Layer204
 70
     0
 62
     7
  6
Continuous
370
    -3
390
F
  0
LAYER
  5
112
330
2
100
AcDbSymbolTableRecord
100
AcDbLayerTableRecord
  2
Layer205
 70
     0
 62
     7
  6
Continuous
370
    -3
390
F
  0
LAYER
  5
113
330
2
100
AcDbSymbolTableRecord
100
AcDbLayerTableRecord
  2
Layer206
 70
     0
 62
     7
  6
Continuous
370
    -3
390
F
  0
LAYER
  5
114
330
2
100
AcDbSymbolTableRecord
100
AcDbLayerTableRecord
  2
Layer207
 70
     0
 62
     7
  6
Continuous
370
    -3
390
F
  0
LAYER
  5
115
330
2
100
AcDbSymbolTableRecord
100
AcDbLayerTableRecord
  2
Layer208
 70
     0
 62
     7
  6
Continuous
370
    -3
390
F
  0
LAYER
  5
116
330
2
100
AcDbSymbolTableRecord
100
AcDbLayerTableRecord
  2
Layer209
 70
     0
 62
     7
  6
Continuous
370
    -3
390
F
  0
LAYER
  5
117
330
2
100
AcDbSymbolTableRecord
100
AcDbLayerTableRecord
  2
Layer210
 70
     0
 62
     7
  6
Continuous
370
    -3
390
F
  0
LAYER
  5
118
330
2
100
AcDbSymbolTableRecord
100
AcDbLayerTableRecord
  2
Layer211
 70
     0
 62
     7
  6
Continuous
370
    -3
390
F
  0
LAYER
  5
119
330
2
100
AcDbSymbolTableRecord
100
AcDbLayerTableRecord
  2
Layer212
 70
     0
 62
     7
  6
Continuous
370
    -3
390
F
  0
LAYER
  5
11A
330
2
100
AcDbSymbolTableRecord
100
AcDbLayerTableRecord
  2
Layer213
 70
     0
 62
     7
  6
Continuous
370
    -3
390
F
  0
LAYER
  5
11B
330
2
100
AcDbSymbolTableRecord
100
AcDbLayerTableRecord
  2
Layer214
 70
     0
 62
     7
  6
Continuous
370
    -3
390
F
  0
LAYER
  5
11C
330
2
100
AcDbSymbolTableRecord
100
AcDbLayerTableRecord
  2
Layer215
 70
     0
 62
     7
  6
Continuous
370
    -3
390
F
  0
LAYER
  5
11D
330
2
100
AcDbSymbolTableRecord
100
AcDbLayerTableRecord
  2
Layer216
 70
     0
 62
     7
  6
Continuous
370
    -3
390
F
  0
LAYER
  5
11E
330
2
100
AcDbSymbolTableRecord
100
AcDbLayerTableRecord
  2
Layer217
 70
     0
 62
     7
  6
Continuous
370
    -3
390
F
  0
LAYER
  5
11F
330
2
100
AcDbSymbolTableRecord
100
AcDbLayerTableRecord
  2
Layer218
 70
     0
 62
     7
  6
Continuous
370
    -3
390
F
  0
LAYER
  5
120
330
2
100
AcDbSymbolTableRecord
100
AcDbLayerTableRecord
  2
Layer219
 70
     0
 62
     7
  6
Continuous
370
    -3
390
F
  0
LAYER
  5
121
330
2
100
AcDbSymbolTableRecord
100
AcDbLayerTableRecord
  2
Layer220
 70
     0
 62
     7
  6
Continuous
370
    -3
390
F
  0
LAYER
  5
122
330
2
100
AcDbSymbolTableRecord
100
AcDbLayerTableRecord
  2
Layer221
 70
     0
 62
     7
  6
Continuous
370
    -3
390
F
  0
LAYER
  5
123
330
2
100
AcDbSymbolTableRecord
100
AcDbLayerTableRecord
  2
Layer222
 70
     0
 62
     7
  6
Continuous
370
    -3
390
F
  0
LAYER
  5
124
330
2
100
AcDbSymbolTableRecord
100
AcDbLayerTableRecord
  2
Layer223
 70
     0
 62
     7
  6
Continuous
370
    -3
390
F
  0
LAYER
  5
125
330
2
100
AcDbSymbolTableRecord
100
AcDbLayerTableRecord
  2
Layer224
 70
     0
 62
     7
  6
Continuous
370
    -3
390
F
  0
LAYER
  5
126
330
2
100
AcDbSymbolTableRecord
100
AcDbLayerTableRecord
  2
Layer225
 70
     0
 62
     7
  6
Continuous
370
    -3
390
F
  0
LAYER
  5
127
330
2
100
AcDbSymbolTableRecord
100
AcDbLayerTableRecord
  2
Layer226
 70
     0
 62
     7
  6
Continuous
370
    -3
390
F
  0
LAYER
  5
128
330
2
100
AcDbSymbolTableRecord
100
AcDbLayerTableRecord
  2
Layer227
 70
     0
 62
     7
  6
Continuous
370
    -3
390
F
  0
LAYER
  5
129
330
2
100
AcDbSymbolTableRecord
100
AcDbLayerTableRecord
  2
Layer228
 70
     0
 62
     7
  6
Continuous
370
    -3
390
F
  0
LAYER
  5
12A
330
2
100
AcDbSymbolTableRecord
100
AcDbLayerTableRecord
  2
Layer229
 70
     0
 62
     7
  6
Continuous
370
    -3
390
F
  0
LAYER
  5
12B
330
2
100
AcDbSymbolTableRecord
100
AcDbLayerTableRecord
  2
Layer230
 70
     0
 62
     7
  6
Continuous
370
    -3
390
F
  0
LAYER
  5
12C
330
2
100
AcDbSymbolTableRecord
100
AcDbLayerTableRecord
  2
Layer231
 70
     0
 62
     7
  6
Continuous
370
    -3
390
F
  0
LAYER
  5
12D
330
2
100
AcDbSymbolTableRecord
100
AcDbLayerTableRecord
  2
Layer232
 70
     0
 62
     7
  6
Continuous
370
    -3
390
F
  0
LAYER
  5
12E
330
2
100
AcDbSymbolTableRecord
100
AcDbLayerTableRecord
  2
Layer233
 70
     0
 62
     7
  6
Continuous
370
    -3
390
F
  0
LAYER
  5
12F
330
2
100
AcDbSymbolTableRecord
100
AcDbLayerTableRecord
  2
Layer234
 70
     0
 62
     7
  6
Continuous
370
    -3
390
F
  0
LAYER
  5
130
330
2
100
AcDbSymbolTableRecord
100
AcDbLayerTableRecord
  2
Layer235
 70
     0
 62
     7
  6
Continuous
370
    -3
390
F
  0
LAYER
  5
131
330
2
100
AcDbSymbolTableRecord
100
AcDbLayerTableRecord
  2
Layer236
 70
     0
 62
     7
  6
Continuous
370
    -3
390
F
  0
LAYER
  5
132
330
2
100
AcDbSymbolTableRecord
100
AcDbLayerTableRecord
  2
Layer237
 70
     0
 62
     7
  6
Continuous
370
    -3
390
F
  0
LAYER
  5
133
330
2
100
AcDbSymbolTableRecord
100
AcDbLayerTableRecord
  2
Layer238
 70
     0
 62
     7
  6
Continuous
370
    -3
390
F
  0
LAYER
  5
134
330
2
100
AcDbSymbolTableRecord
100
AcDbLayerTableRecord
  2
Layer239
 70
     0
 62
     7
  6
Continuous
370
    -3
390
F
  0
LAYER
  5
135
330
2
100
AcDbSymbolTableRecord
100
AcDbLayerTableRecord
  2
Layer240
 70
     0
 62
     7
  6
Continuous
370
    -3
390
F
  0
LAYER
  5
136
330
2
100
AcDbSymbolTableRecord
100
AcDbLayerTableRecord
  2
Layer241
 70
     0
 62
     7
  6
Continuous
370
    -3
390
F
  0
LAYER
  5
137
330
2
100
AcDbSymbolTableRecord
100
AcDbLayerTableRecord
  2
Layer242
 70
     0
 62
     7
  6
Continuous
370
    -3
390
F
  0
LAYER
  5
138
330
2
100
AcDbSymbolTableRecord
100
AcDbLayerTableRecord
  2
Layer243
 70
     0
 62
     7
  6
Continuous
370
    -3
390
F
  0
LAYER
  5
139
330
2
100
AcDbSymbolTableRecord
100
AcDbLayerTableRecord
  2
Layer244
 70
     0
 62
     7
  6
Continuous
370
    -3
390
F
  0
LAYER
  5
13A
330
2
100
AcDbSymbolTableRecord
100
AcDbLayerTableRecord
  2
Layer245
 70
     0
 62
     7
  6
Continuous
370
    -3
390
F
  0
LAYER
  5
13B
330
2
100
AcDbSymbolTableRecord
100
AcDbLayerTableRecord
  2
Layer246
 70
     0
 62
     7
  6
Continuous
370
    -3
390
F
  0
LAYER
  5
13C
330
2
100
AcDbSymbolTableRecord
100
AcDbLayerTableRecord
  2
Layer247
 70
     0
 62
     7
  6
Continuous
370
    -3
390
F
  0
LAYER
  5
13D
330
2
100
AcDbSymbolTableRecord
100
AcDbLayerTableRecord
  2
Layer248
 70
     0
 62
     7
  6
Continuous
370
    -3
390
F
  0
LAYER
  5
13E
330
2
100
AcDbSymbolTableRecord
100
AcDbLayerTableRecord
  2
Layer249
 70
     0
 62
     7
  6
Continuous
370
    -3
390
F
  0
LAYER
  5
13F
330
2
100
AcDbSymbolTableRecord
100
AcDbLayerTableRecord
  2
Layer250
 70
     0
 62
     7
  6
Continuous
370
    -3
390
F
  0
LAYER
  5
140
330
2
100
AcDbSymbolTableRecord
100
AcDbLayerTableRecord
  2
Layer251
 70
     0
 62
     7
  6
Continuous
370
    -3
390
F
  0
LAYER
  5
141
330
2
100
AcDbSymbolTableRecord
100
AcDbLayerTableRecord
  2
Layer252
 70
     0
 62
     7
  6
Continuous
370
    -3
390
F
  0
LAYER
  5
142
330
2
100
AcDbSymbolTableRecord
100
AcDbLayerTableRecord
  2
Layer253
 70
     0
 62
     7
  6
Continuous
370
    -3
390
F
  0
LAYER
  5
143
330
2
100
AcDbSymbolTableRecord
100
AcDbLayerTableRecord
  2
Layer254
 70
     0
 62
     7
  6
Continuous
370
    -3
390
F
  0
LAYER
  5
144
330
2
100
AcDbSymbolTableRecord
100
AcDbLayerTableRecord
  2
Layer255
 70
     0
 62
     7
  6
Continuous
370
    -3
390
F
  0
ENDTAB
  0
TABLE
  2
STYLE
  5
3
330
0
100
AcDbSymbolTable
 70
     4
  0
STYLE
  5
11
330
3
100
AcDbSymbolTableRecord
100
AcDbTextStyleTableRecord
  2
Standard
 70
     0
 40
0.0
 41
1.0
 50
0.0
 71
     0
 42
2.5
  3
txt
  4

  0
STYLE
  5
42
330
3
100
AcDbSymbolTableRecord
100
AcDbTextStyleTableRecord
  2
Arial
 70
     0
 40
0.0
 41
1.0
 50
0.0
 71
     0
 42
0.2
  3
arial.ttf
  4

1001
ACAD
1000
Arial
1071
       34
  0
STYLE
  5
43
330
3
100
AcDbSymbolTableRecord
100
AcDbTextStyleTableRecord
  2
Arial Black
 70
     0
 40
0.0
 41
1.0
 50
0.0
 71
     0
 42
0.2
  3
ariblk.ttf
  4

1001
ACAD
1000
Arial Black
1071
       34
  0
STYLE
  5
44
330
3
100
AcDbSymbolTableRecord
100
AcDbTextStyleTableRecord
  2
Toleranzfont
 70
     0
 40
0.0
 41
1.0
 50
0.0
 71
     0
 42
0.2
  3
IGES1003.SHX
  4

  0
ENDTAB
  0
TABLE
  2
VIEW
  5
6
330
0
100
AcDbSymbolTable
 70
     0
  0
ENDTAB
  0
TABLE
  2
UCS
  5
7
330
0
100
AcDbSymbolTable
 70
     0
  0
ENDTAB
  0
TABLE
  2
APPID
  5
9
330
0
100
AcDbSymbolTable
 70
     1
  0
APPID
  5
12
330
9
100
AcDbSymbolTableRecord
100
AcDbRegAppTableRecord
  2
ACAD
 70
     0
  0
ENDTAB
  0
TABLE
  2
DIMSTYLE
  5
A
330
0
100
AcDbSymbolTable
 70
     1
100
AcDbDimStyleTable
  0
DIMSTYLE
105
27
102
{ACAD_REACTORS
330
4F5
330
50B
330
51B
330
529
330
538
330
549
330
557
330
568
330
57F
330
592
102
}
330
A
100
AcDbSymbolTableRecord
100
AcDbDimStyleTableRecord
  2
ISO-25
 70
     0
 41
2.5
 42
0.625
 43
3.75
 44
1.25
 73
     0
 74
     0
 77
     1
 78
     8
140
2.5
141
2.5
143
0.03937007874
147
0.625
171
     3
172
     1
178
     0
271
     2
272
     2
274
     3
278
    44
283
     0
284
     8
340
11
  0
ENDTAB
  0
TABLE
  2
BLOCK_RECORD
  5
1
330
0
100
AcDbSymbolTable
 70
    18
  0
BLOCK_RECORD
  5
1F
330
1
100
AcDbSymbolTableRecord
100
AcDbBlockTableRecord
  2
*Model_Space
340
22
  0
BLOCK_RECORD
  5
1B
330
1
100
AcDbSymbolTableRecord
100
AcDbBlockTableRecord
  2
*Paper_Space
340
1E
  0
BLOCK_RECORD
  5
23
330
1
100
AcDbSymbolTableRecord
100
AcDbBlockTableRecord
  2
*Paper_Space0
340
26
  0
BLOCK_RECORD
  5
14A
330
1
100
AcDbSymbolTableRecord
100
AcDbBlockTableRecord
  2
SECHSK1_nNn00
340
0
102
{BLKREFS
331
2A6
102
}
  0
BLOCK_RECORD
  5
2AA
330
1
100
AcDbSymbolTableRecord
100
AcDbBlockTableRecord
  2
SECHSK1_nNn01
340
0
102
{BLKREFS
331
455
102
}
  0
BLOCK_RECORD
  5
47B
330
1
100
AcDbSymbolTableRecord
100
AcDbBlockTableRecord
  2
A4_nNn02
340
0
102
{BLKREFS
331
4D2
102
}
  0
BLOCK_RECORD
  5
486
330
1
100
AcDbSymbolTableRecord
100
AcDbBlockTableRecord
  2
Schriftfeld_nNn03
340
0
102
{BLKREFS
331
4D1
102
}
  0
BLOCK_RECORD
  5
4B2
330
1
100
AcDbSymbolTableRecord
100
AcDbBlockTableRecord
  2
ULTRAREFLEX_nNn04
340
0
102
{BLKREFS
331
4CA
102
}
  0
BLOCK_RECORD
  5
4D5
330
1
100
AcDbSymbolTableRecord
100
AcDbBlockTableRecord
  2
L1_nNn05
340
0
102
{BLKREFS
331
4DC
102
}
  0
BLOCK_RECORD
  5
4E8
330
1
100
AcDbSymbolTableRecord
100
AcDbBlockTableRecord
  2
*D7
340
0
  0
BLOCK_RECORD
  5
4F6
330
1
100
AcDbSymbolTableRecord
100
AcDbBlockTableRecord
  2
_CLOSED
340
0
  0
BLOCK_RECORD
  5
4FD
330
1
100
AcDbSymbolTableRecord
100
AcDbBlockTableRecord
  2
*D9
340
0
  0
BLOCK_RECORD
  5
50C
330
1
100
AcDbSymbolTableRecord
100
AcDbBlockTableRecord
  2
*D10
340
0
  0
BLOCK_RECORD
  5
51C
330
1
100
AcDbSymbolTableRecord
100
AcDbBlockTableRecord
  2
*D11
340
0
  0
BLOCK_RECORD
  5
52A
330
1
100
AcDbSymbolTableRecord
100
AcDbBlockTableRecord
  2
*D12
340
0
  0
BLOCK_RECORD
  5
539
330
1
100
AcDbSymbolTableRecord
100
AcDbBlockTableRecord
  2
*D13
340
0
  0
BLOCK_RECORD
  5
54A
330
1
100
AcDbSymbolTableRecord
100
AcDbBlockTableRecord
  2
*D14
340
0
  0
BLOCK_RECORD
  5
558
330
1
100
AcDbSymbolTableRecord
100
AcDbBlockTableRecord
  2
*D15
340
0
  0
BLOCK_RECORD
  5
56D
330
1
100
AcDbSymbolTableRecord
100
AcDbBlockTableRecord
  2
*D16
340
0
  0
BLOCK_RECORD
  5
580
330
1
100
AcDbSymbolTableRecord
100
AcDbBlockTableRecord
  2
*D17
340
0
  0
ENDTAB
  0
ENDSEC
  0
SECTION
  2
BLOCKS
  0
BLOCK
  5
20
330
1F
100
AcDbEntity
  8
0
100
AcDbBlockBegin
  2
*Model_Space
 70
     0
 10
0.0
 20
0.0
 30
0.0
  3
*Model_Space
  1

  0
ENDBLK
  5
21
330
1F
100
AcDbEntity
  8
0
100
AcDbBlockEnd
  0
BLOCK
  5
1C
330
1B
100
AcDbEntity
 67
     1
  8
0
100
AcDbBlockBegin
  2
*Paper_Space
 70
     0
 10
0.0
 20
0.0
 30
0.0
  3
*Paper_Space
  1

  0
ENDBLK
  5
1D
330
1B
100
AcDbEntity
 67
     1
  8
0
100
AcDbBlockEnd
  0
BLOCK
  5
24
330
23
100
AcDbEntity
  8
0
100
AcDbBlockBegin
  2
*Paper_Space0
 70
     0
 10
0.0
 20
0.0
 30
0.0
  3
*Paper_Space0
  1

  0
ENDBLK
  5
25
330
23
100
AcDbEntity
  8
0
100
AcDbBlockEnd
  0
BLOCK
  5
14B
330
14A
100
AcDbEntity
  8
0
100
AcDbBlockBegin
  2
SECHSK1_nNn00
 70
     0
 10
0.0
 20
0.0
 30
0.0
  3
SECHSK1_nNn00
  1

  0
LINE
  5
14D
330
14A
100
AcDbEntity
  8
Layer0
  6
AUSGEZOGEN
 62
     9
370
    18
100
AcDbLine
 10
-142.276558916858
 20
120.711929217786
 30
0.0
 11
-144.276558916858
 21
121.86663808009
 31
0.0
  0
LINE
  5
14E
330
14A
100
AcDbEntity
  8
Layer0
  6
AUSGEZOGEN
 62
     9
370
    18
100
AcDbLine
 10
-144.276558916858
 20
121.86663808009
 30
0.0
 11
-146.276558916858
 21
120.711929217786
 31
0.0
  0
LINE
  5
14F
330
14A
100
AcDbEntity
  8
Layer0
  6
AUSGEZOGEN
 62
     9
370
    18
100
AcDbLine
 10
-146.276558916858
 20
120.711929217786
 30
0.0
 11
-146.276558916858
 21
118.402542010754
 31
0.0
  0
LINE
  5
150
330
14A
100
AcDbEntity
  8
Layer0
  6
AUSGEZOGEN
 62
     9
370
    18
100
AcDbLine
 10
-146.276558916858
 20
118.402542010754
 30
0.0
 11
-144.276558916858
 21
117.24783314845
 31
0.0
  0
LINE
  5
151
330
14A
100
AcDbEntity
  8
Layer0
  6
AUSGEZOGEN
 62
     9
370
    18
100
AcDbLine
 10
-144.276558916858
 20
117.24783314845
 30
0.0
 11
-142.276558916858
 21
118.402542010754
 31
0.0
  0
LINE
  5
152
330
14A
100
AcDbEntity
  8
Layer0
  6
AUSGEZOGEN
 62
     9
370
    18
100
AcDbLine
 10
-142.276558916858
 20
118.402542010754
 30
0.0
 11
-142.276558916858
 21
120.711929217786
 31
0.0
  0
LINE
  5
153
330
14A
100
AcDbEntity
  8
Stammform
  6
AUSGEZOGEN
 62
    56
370
    18
100
AcDbLine
 10
-142.276558916858
 20
120.711929217786
 30
0.0
 11
-144.276558916858
 21
119.55723561427
 31
0.0
  0
LINE
  5
154
330
14A
100
AcDbEntity
  8
Stammform
  6
AUSGEZOGEN
 62
    56
370
    18
100
AcDbLine
 10
-144.276558916858
 20
119.55723561427
 30
0.0
 11
-144.276558916858
 21
117.24783314845
 31
0.0
  0
LINE
  5
155
330
14A
100
AcDbEntity
  8
Stammform
  6
AUSGEZOGEN
 62
    56
370
    18
100
AcDbLine
 10
-144.276558916858
 20
119.55723561427
 30
0.0
 11
-146.276558916858
 21
120.711929217786
 31
0.0
  0
LINE
  5
156
330
14A
100
AcDbEntity
  8
Stammform
  6
AUSGEZOGEN
 62
    56
370
    18
100
AcDbLine
 10
-140.276558916858
 20
119.55723561427
 30
0.0
 11
-142.276558916858
 21
120.711929217786
 31
0.0
  0
LINE
  5
157
330
14A
100
AcDbEntity
  8
Stammform
  6
AUSGEZOGEN
 62
    56
370
    18
100
AcDbLine
 10
-140.276558916858
 20
119.55723561427
 30
0.0
 11
-140.276558916858
 21
117.24783314845
 31
0.0
  0
LINE
  5
158
330
14A
100
AcDbEntity
  8
Stammform
  6
AUSGEZOGEN
 62
    56
370
    18
100
AcDbLine
 10
-138.276558916858
 20
120.711929217786
 30
0.0
 11
-140.276558916858
 21
119.55723561427
 31
0.0
  0
LINE
  5
159
330
14A
100
AcDbEntity
  8
Layer0
  6
AUSGEZOGEN
 62
     9
370
    18
100
AcDbLine
 10
-138.276558916858
 20
120.711929217786
 30
0.0
 11
-140.276558916858
 21
121.86663808009
 31
0.0
  0
LINE
  5
15A
330
14A
100
AcDbEntity
  8
Layer0
  6
AUSGEZOGEN
 62
     9
370
    18
100
AcDbLine
 10
-140.276558916858
 20
121.86663808009
 30
0.0
 11
-142.276558916858
 21
120.711929217786
 31
0.0
  0
LINE
  5
15B
330
14A
100
AcDbEntity
  8
Layer0
  6
AUSGEZOGEN
 62
     9
370
    18
100
AcDbLine
 10
-142.276558916858
 20
120.711929217786
 30
0.0
 11
-142.276558916858
 21
118.402542010754
 31
0.0
  0
LINE
  5
15C
330
14A
100
AcDbEntity
  8
Layer0
  6
AUSGEZOGEN
 62
     9
370
    18
100
AcDbLine
 10
-142.276558916858
 20
118.402542010754
 30
0.0
 11
-140.276558916858
 21
117.24783314845
 31
0.0
  0
LINE
  5
15D
330
14A
100
AcDbEntity
  8
Layer0
  6
AUSGEZOGEN
 62
     9
370
    18
100
AcDbLine
 10
-140.276558916858
 20
117.24783314845
 30
0.0
 11
-138.276558916858
 21
118.402542010754
 31
0.0
  0
LINE
  5
15E
330
14A
100
AcDbEntity
  8
Layer0
  6
AUSGEZOGEN
 62
     9
370
    18
100
AcDbLine
 10
-138.276558916858
 20
118.402542010754
 30
0.0
 11
-138.276558916858
 21
120.711929217786
 31
0.0
  0
LINE
  5
15F
330
14A
100
AcDbEntity
  8
Layer0
  6
AUSGEZOGEN
 62
     9
370
    18
100
AcDbLine
 10
-130.276558916858
 20
120.711929217786
 30
0.0
 11
-132.276558916858
 21
121.86663808009
 31
0.0
  0
LINE
  5
160
330
14A
100
AcDbEntity
  8
Layer0
  6
AUSGEZOGEN
 62
     9
370
    18
100
AcDbLine
 10
-132.276558916858
 20
121.86663808009
 30
0.0
 11
-134.276558916858
 21
120.711929217786
 31
0.0
  0
LINE
  5
161
330
14A
100
AcDbEntity
  8
Layer0
  6
AUSGEZOGEN
 62
     9
370
    18
100
AcDbLine
 10
-134.276558916858
 20
120.711929217786
 30
0.0
 11
-134.276558916858
 21
118.402542010754
 31
0.0
  0
LINE
  5
162
330
14A
100
AcDbEntity
  8
Layer0
  6
AUSGEZOGEN
 62
     9
370
    18
100
AcDbLine
 10
-134.276558916858
 20
118.402542010754
 30
0.0
 11
-132.276558916858
 21
117.24783314845
 31
0.0
  0
LINE
  5
163
330
14A
100
AcDbEntity
  8
Layer0
  6
AUSGEZOGEN
 62
     9
370
    18
100
AcDbLine
 10
-132.276558916858
 20
117.24783314845
 30
0.0
 11
-130.276558916858
 21
118.402542010754
 31
0.0
  0
LINE
  5
164
330
14A
100
AcDbEntity
  8
Stammform
  6
AUSGEZOGEN
 62
    56
370
    18
100
AcDbLine
 10
-130.276558916858
 20
120.711929217786
 30
0.0
 11
-132.276558916858
 21
119.55723561427
 31
0.0
  0
LINE
  5
165
330
14A
100
AcDbEntity
  8
Stammform
  6
AUSGEZOGEN
 62
    56
370
    18
100
AcDbLine
 10
-132.276558916858
 20
119.55723561427
 30
0.0
 11
-132.276558916858
 21
117.24783314845
 31
0.0
  0
LINE
  5
166
330
14A
100
AcDbEntity
  8
Stammform
  6
AUSGEZOGEN
 62
    56
370
    18
100
AcDbLine
 10
-132.276558916858
 20
119.55723561427
 30
0.0
 11
-134.276558916858
 21
120.711929217786
 31
0.0
  0
LINE
  5
167
330
14A
100
AcDbEntity
  8
Stammform
  6
AUSGEZOGEN
 62
    56
370
    18
100
AcDbLine
 10
-136.276558916858
 20
119.55723561427
 30
0.0
 11
-138.276558916858
 21
120.711929217786
 31
0.0
  0
LINE
  5
168
330
14A
100
AcDbEntity
  8
Stammform
  6
AUSGEZOGEN
 62
    56
370
    18
100
AcDbLine
 10
-136.276558916858
 20
119.55723561427
 30
0.0
 11
-136.276558916858
 21
117.24783314845
 31
0.0
  0
LINE
  5
169
330
14A
100
AcDbEntity
  8
Stammform
  6
AUSGEZOGEN
 62
    56
370
    18
100
AcDbLine
 10
-134.276558916858
 20
120.711929217786
 30
0.0
 11
-136.276558916858
 21
119.55723561427
 31
0.0
  0
LINE
  5
16A
330
14A
100
AcDbEntity
  8
Layer0
  6
AUSGEZOGEN
 62
     9
370
    18
100
AcDbLine
 10
-134.276558916858
 20
120.711929217786
 30
0.0
 11
-136.276558916858
 21
121.86663808009
 31
0.0
  0
LINE
  5
16B
330
14A
100
AcDbEntity
  8
Layer0
  6
AUSGEZOGEN
 62
     9
370
    18
100
AcDbLine
 10
-136.276558916858
 20
121.86663808009
 30
0.0
 11
-138.276558916858
 21
120.711929217786
 31
0.0
  0
LINE
  5
16C
330
14A
100
AcDbEntity
  8
Layer0
  6
AUSGEZOGEN
 62
     9
370
    18
100
AcDbLine
 10
-138.276558916858
 20
120.711929217786
 30
0.0
 11
-138.276558916858
 21
118.402542010754
 31
0.0
  0
LINE
  5
16D
330
14A
100
AcDbEntity
  8
Layer0
  6
AUSGEZOGEN
 62
     9
370
    18
100
AcDbLine
 10
-138.276558916858
 20
118.402542010754
 30
0.0
 11
-136.276558916858
 21
117.24783314845
 31
0.0
  0
LINE
  5
16E
330
14A
100
AcDbEntity
  8
Layer0
  6
AUSGEZOGEN
 62
     9
370
    18
100
AcDbLine
 10
-136.276558916858
 20
117.24783314845
 30
0.0
 11
-134.276558916858
 21
118.402542010754
 31
0.0
  0
LINE
  5
16F
330
14A
100
AcDbEntity
  8
Layer0
  6
AUSGEZOGEN
 62
     9
370
    18
100
AcDbLine
 10
-134.276558916858
 20
118.402542010754
 30
0.0
 11
-134.276558916858
 21
120.711929217786
 31
0.0
  0
LINE
  5
170
330
14A
100
AcDbEntity
  8
Layer0
  6
AUSGEZOGEN
 62
     9
370
    18
100
AcDbLine
 10
-150.276558916858
 20
120.711929217786
 30
0.0
 11
-152.276558916858
 21
121.86663808009
 31
0.0
  0
LINE
  5
171
330
14A
100
AcDbEntity
  8
Layer0
  6
AUSGEZOGEN
 62
     9
370
    18
100
AcDbLine
 10
-152.276558916858
 20
121.86663808009
 30
0.0
 11
-154.276558916858
 21
120.711929217786
 31
0.0
  0
LINE
  5
172
330
14A
100
AcDbEntity
  8
Layer0
  6
AUSGEZOGEN
 62
     9
370
    18
100
AcDbLine
 10
-154.276558916858
 20
120.711929217786
 30
0.0
 11
-154.276558916858
 21
118.402542010754
 31
0.0
  0
LINE
  5
173
330
14A
100
AcDbEntity
  8
Layer0
  6
AUSGEZOGEN
 62
     9
370
    18
100
AcDbLine
 10
-154.276558916858
 20
118.402542010754
 30
0.0
 11
-152.276558916858
 21
117.24783314845
 31
0.0
  0
LINE
  5
174
330
14A
100
AcDbEntity
  8
Layer0
  6
AUSGEZOGEN
 62
     9
370
    18
100
AcDbLine
 10
-152.276558916858
 20
117.24783314845
 30
0.0
 11
-150.276558916858
 21
118.402542010754
 31
0.0
  0
LINE
  5
175
330
14A
100
AcDbEntity
  8
Layer0
  6
AUSGEZOGEN
 62
     9
370
    18
100
AcDbLine
 10
-150.276558916858
 20
118.402542010754
 30
0.0
 11
-150.276558916858
 21
120.711929217786
 31
0.0
  0
LINE
  5
176
330
14A
100
AcDbEntity
  8
Stammform
  6
AUSGEZOGEN
 62
    56
370
    18
100
AcDbLine
 10
-150.276558916858
 20
120.711929217786
 30
0.0
 11
-152.276558916858
 21
119.55723561427
 31
0.0
  0
LINE
  5
177
330
14A
100
AcDbEntity
  8
Stammform
  6
AUSGEZOGEN
 62
    56
370
    18
100
AcDbLine
 10
-152.276558916858
 20
119.55723561427
 30
0.0
 11
-152.276558916858
 21
117.24783314845
 31
0.0
  0
LINE
  5
178
330
14A
100
AcDbEntity
  8
Stammform
  6
AUSGEZOGEN
 62
    56
370
    18
100
AcDbLine
 10
-152.276558916858
 20
119.55723561427
 30
0.0
 11
-154.276558916858
 21
120.711929217786
 31
0.0
  0
LINE
  5
179
330
14A
100
AcDbEntity
  8
Stammform
  6
AUSGEZOGEN
 62
    56
370
    18
100
AcDbLine
 10
-148.276558916858
 20
119.55723561427
 30
0.0
 11
-150.276558916858
 21
120.711929217786
 31
0.0
  0
LINE
  5
17A
330
14A
100
AcDbEntity
  8
Stammform
  6
AUSGEZOGEN
 62
    56
370
    18
100
AcDbLine
 10
-148.276558916858
 20
119.55723561427
 30
0.0
 11
-148.276558916858
 21
117.24783314845
 31
0.0
  0
LINE
  5
17B
330
14A
100
AcDbEntity
  8
Stammform
  6
AUSGEZOGEN
 62
    56
370
    18
100
AcDbLine
 10
-146.276558916858
 20
120.711929217786
 30
0.0
 11
-148.276558916858
 21
119.55723561427
 31
0.0
  0
LINE
  5
17C
330
14A
100
AcDbEntity
  8
Layer0
  6
AUSGEZOGEN
 62
     9
370
    18
100
AcDbLine
 10
-146.276558916858
 20
120.711929217786
 30
0.0
 11
-148.276558916858
 21
121.86663808009
 31
0.0
  0
LINE
  5
17D
330
14A
100
AcDbEntity
  8
Layer0
  6
AUSGEZOGEN
 62
     9
370
    18
100
AcDbLine
 10
-148.276558916858
 20
121.86663808009
 30
0.0
 11
-150.276558916858
 21
120.711929217786
 31
0.0
  0
LINE
  5
17E
330
14A
100
AcDbEntity
  8
Layer0
  6
AUSGEZOGEN
 62
     9
370
    18
100
AcDbLine
 10
-150.276558916858
 20
120.711929217786
 30
0.0
 11
-150.276558916858
 21
118.402542010754
 31
0.0
  0
LINE
  5
17F
330
14A
100
AcDbEntity
  8
Layer0
  6
AUSGEZOGEN
 62
     9
370
    18
100
AcDbLine
 10
-150.276558916858
 20
118.402542010754
 30
0.0
 11
-148.276558916858
 21
117.24783314845
 31
0.0
  0
LINE
  5
180
330
14A
100
AcDbEntity
  8
Layer0
  6
AUSGEZOGEN
 62
     9
370
    18
100
AcDbLine
 10
-148.276558916858
 20
117.24783314845
 30
0.0
 11
-146.276558916858
 21
118.402542010754
 31
0.0
  0
LINE
  5
181
330
14A
100
AcDbEntity
  8
Layer0
  6
AUSGEZOGEN
 62
     9
370
    18
100
AcDbLine
 10
-146.276558916858
 20
118.402542010754
 30
0.0
 11
-146.276558916858
 21
120.711929217786
 31
0.0
  0
LINE
  5
182
330
14A
100
AcDbEntity
  8
Layer0
  6
AUSGEZOGEN
 62
     9
370
    18
100
AcDbLine
 10
-158.276558916858
 20
120.711929217786
 30
0.0
 11
-160.276558916858
 21
121.86663808009
 31
0.0
  0
LINE
  5
183
330
14A
100
AcDbEntity
  8
Layer0
  6
AUSGEZOGEN
 62
     9
370
    18
100
AcDbLine
 10
-160.276558916858
 20
121.86663808009
 30
0.0
 11
-162.276558916858
 21
120.711929217786
 31
0.0
  0
LINE
  5
184
330
14A
100
AcDbEntity
  8
Layer0
  6
AUSGEZOGEN
 62
     9
370
    18
100
AcDbLine
 10
-162.276558916858
 20
120.711929217786
 30
0.0
 11
-162.276558916858
 21
118.402542010754
 31
0.0
  0
LINE
  5
185
330
14A
100
AcDbEntity
  8
Layer0
  6
AUSGEZOGEN
 62
     9
370
    18
100
AcDbLine
 10
-162.276558916858
 20
118.402542010754
 30
0.0
 11
-160.276558916858
 21
117.24783314845
 31
0.0
  0
LINE
  5
186
330
14A
100
AcDbEntity
  8
Layer0
  6
AUSGEZOGEN
 62
     9
370
    18
100
AcDbLine
 10
-160.276558916858
 20
117.24783314845
 30
0.0
 11
-158.276558916858
 21
118.402542010754
 31
0.0
  0
LINE
  5
187
330
14A
100
AcDbEntity
  8
Layer0
  6
AUSGEZOGEN
 62
     9
370
    18
100
AcDbLine
 10
-158.276558916858
 20
118.402542010754
 30
0.0
 11
-158.276558916858
 21
120.711929217786
 31
0.0
  0
LINE
  5
188
330
14A
100
AcDbEntity
  8
Stammform
  6
AUSGEZOGEN
 62
    56
370
    18
100
AcDbLine
 10
-158.276558916858
 20
120.711929217786
 30
0.0
 11
-160.276558916858
 21
119.55723561427
 31
0.0
  0
LINE
  5
189
330
14A
100
AcDbEntity
  8
Stammform
  6
AUSGEZOGEN
 62
    56
370
    18
100
AcDbLine
 10
-160.276558916858
 20
119.55723561427
 30
0.0
 11
-160.276558916858
 21
117.24783314845
 31
0.0
  0
LINE
  5
18A
330
14A
100
AcDbEntity
  8
Stammform
  6
AUSGEZOGEN
 62
    56
370
    18
100
AcDbLine
 10
-160.276558916858
 20
119.55723561427
 30
0.0
 11
-162.276558916858
 21
120.711929217786
 31
0.0
  0
LINE
  5
18B
330
14A
100
AcDbEntity
  8
Stammform
  6
AUSGEZOGEN
 62
    56
370
    18
100
AcDbLine
 10
-156.276558916858
 20
119.55723561427
 30
0.0
 11
-158.276558916858
 21
120.711929217786
 31
0.0
  0
LINE
  5
18C
330
14A
100
AcDbEntity
  8
Stammform
  6
AUSGEZOGEN
 62
    56
370
    18
100
AcDbLine
 10
-156.276558916858
 20
119.55723561427
 30
0.0
 11
-156.276558916858
 21
117.24783314845
 31
0.0
  0
LINE
  5
18D
330
14A
100
AcDbEntity
  8
Stammform
  6
AUSGEZOGEN
 62
    56
370
    18
100
AcDbLine
 10
-154.276558916858
 20
120.711929217786
 30
0.0
 11
-156.276558916858
 21
119.55723561427
 31
0.0
  0
LINE
  5
18E
330
14A
100
AcDbEntity
  8
Layer0
  6
AUSGEZOGEN
 62
     9
370
    18
100
AcDbLine
 10
-154.276558916858
 20
120.711929217786
 30
0.0
 11
-156.276558916858
 21
121.86663808009
 31
0.0
  0
LINE
  5
18F
330
14A
100
AcDbEntity
  8
Layer0
  6
AUSGEZOGEN
 62
     9
370
    18
100
AcDbLine
 10
-156.276558916858
 20
121.86663808009
 30
0.0
 11
-158.276558916858
 21
120.711929217786
 31
0.0
  0
LINE
  5
190
330
14A
100
AcDbEntity
  8
Layer0
  6
AUSGEZOGEN
 62
     9
370
    18
100
AcDbLine
 10
-158.276558916858
 20
120.711929217786
 30
0.0
 11
-158.276558916858
 21
118.402542010754
 31
0.0
  0
LINE
  5
191
330
14A
100
AcDbEntity
  8
Layer0
  6
AUSGEZOGEN
 62
     9
370
    18
100
AcDbLine
 10
-158.276558916858
 20
118.402542010754
 30
0.0
 11
-156.276558916858
 21
117.24783314845
 31
0.0
  0
LINE
  5
192
330
14A
100
AcDbEntity
  8
Layer0
  6
AUSGEZOGEN
 62
     9
370
    18
100
AcDbLine
 10
-156.276558916858
 20
117.24783314845
 30
0.0
 11
-154.276558916858
 21
118.402542010754
 31
0.0
  0
LINE
  5
193
330
14A
100
AcDbEntity
  8
Layer0
  6
AUSGEZOGEN
 62
     9
370
    18
100
AcDbLine
 10
-154.276558916858
 20
118.402542010754
 30
0.0
 11
-154.276558916858
 21
120.711929217786
 31
0.0
  0
LINE
  5
194
330
14A
100
AcDbEntity
  8
Stammform
  6
AUSGEZOGEN
 62
    56
370
    18
100
AcDbLine
 10
-164.276558916858
 20
119.55723561427
 30
0.0
 11
-166.276558916858
 21
120.711929217786
 31
0.0
  0
LINE
  5
195
330
14A
100
AcDbEntity
  8
Stammform
  6
AUSGEZOGEN
 62
    56
370
    18
100
AcDbLine
 10
-164.276558916858
 20
119.55723561427
 30
0.0
 11
-164.276558916858
 21
117.24783314845
 31
0.0
  0
LINE
  5
196
330
14A
100
AcDbEntity
  8
Stammform
  6
AUSGEZOGEN
 62
    56
370
    18
100
AcDbLine
 10
-162.276558916858
 20
120.711929217786
 30
0.0
 11
-164.276558916858
 21
119.55723561427
 31
0.0
  0
LINE
  5
197
330
14A
100
AcDbEntity
  8
Layer0
  6
AUSGEZOGEN
 62
     9
370
    18
100
AcDbLine
 10
-162.276558916858
 20
120.711929217786
 30
0.0
 11
-164.276558916858
 21
121.86663808009
 31
0.0
  0
LINE
  5
198
330
14A
100
AcDbEntity
  8
Layer0
  6
AUSGEZOGEN
 62
     9
370
    18
100
AcDbLine
 10
-164.276558916858
 20
121.86663808009
 30
0.0
 11
-166.276558916858
 21
120.711929217786
 31
0.0
  0
LINE
  5
199
330
14A
100
AcDbEntity
  8
Layer0
  6
AUSGEZOGEN
 62
     9
370
    18
100
AcDbLine
 10
-166.276558916858
 20
118.402542010754
 30
0.0
 11
-164.276558916858
 21
117.24783314845
 31
0.0
  0
LINE
  5
19A
330
14A
100
AcDbEntity
  8
Layer0
  6
AUSGEZOGEN
 62
     9
370
    18
100
AcDbLine
 10
-164.276558916858
 20
117.24783314845
 30
0.0
 11
-162.276558916858
 21
118.402542010754
 31
0.0
  0
LINE
  5
19B
330
14A
100
AcDbEntity
  8
Layer0
  6
AUSGEZOGEN
 62
     9
370
    18
100
AcDbLine
 10
-162.276558916858
 20
118.402542010754
 30
0.0
 11
-162.276558916858
 21
120.711929217786
 31
0.0
  0
LINE
  5
19C
330
14A
100
AcDbEntity
  8
Layer0
  6
AUSGEZOGEN
 62
     9
370
    18
100
AcDbLine
 10
-166.276558916858
 20
120.711929217786
 30
0.0
 11
-164.276558916858
 21
121.86663808009
 31
0.0
  0
LINE
  5
19D
330
14A
100
AcDbEntity
  8
Layer0
  6
AUSGEZOGEN
 62
     9
370
    18
100
AcDbLine
 10
-164.276558916858
 20
121.86663808009
 30
0.0
 11
-164.276558916858
 21
124.176040545911
 31
0.0
  0
LINE
  5
19E
330
14A
100
AcDbEntity
  8
Stammform
  6
AUSGEZOGEN
 62
    56
370
    18
100
AcDbLine
 10
-164.276558916858
 20
124.176040545911
 30
0.0
 11
-166.276558916858
 21
123.021331683606
 31
0.0
  0
LINE
  5
19F
330
14A
100
AcDbEntity
  8
Layer0
  6
AUSGEZOGEN
 62
     9
370
    18
100
AcDbLine
 10
-160.276558916858
 20
124.176040545911
 30
0.0
 11
-160.276558916858
 21
121.86663808009
 31
0.0
  0
LINE
  5
1A0
330
14A
100
AcDbEntity
  8
Layer0
  6
AUSGEZOGEN
 62
     9
370
    18
100
AcDbLine
 10
-160.276558916858
 20
121.86663808009
 30
0.0
 11
-158.276558916858
 21
120.711929217786
 31
0.0
  0
LINE
  5
1A1
330
14A
100
AcDbEntity
  8
Layer0
  6
AUSGEZOGEN
 62
     9
370
    18
100
AcDbLine
 10
-158.276558916858
 20
120.711929217786
 30
0.0
 11
-156.276558916858
 21
121.86663808009
 31
0.0
  0
LINE
  5
1A2
330
14A
100
AcDbEntity
  8
Layer0
  6
AUSGEZOGEN
 62
     9
370
    18
100
AcDbLine
 10
-156.276558916858
 20
121.86663808009
 30
0.0
 11
-156.276558916858
 21
124.176040545911
 31
0.0
  0
LINE
  5
1A3
330
14A
100
AcDbEntity
  8
Stammform
  6
AUSGEZOGEN
 62
    56
370
    18
100
AcDbLine
 10
-156.276558916858
 20
124.176040545911
 30
0.0
 11
-158.276558916858
 21
123.021331683606
 31
0.0
  0
LINE
  5
1A4
330
14A
100
AcDbEntity
  8
Stammform
  6
AUSGEZOGEN
 62
    56
370
    18
100
AcDbLine
 10
-158.276558916858
 20
123.021331683606
 30
0.0
 11
-158.276558916858
 21
120.711929217786
 31
0.0
  0
LINE
  5
1A5
330
14A
100
AcDbEntity
  8
Stammform
  6
AUSGEZOGEN
 62
    56
370
    18
100
AcDbLine
 10
-158.276558916858
 20
123.021331683606
 30
0.0
 11
-160.276558916858
 21
124.176040545911
 31
0.0
  0
LINE
  5
1A6
330
14A
100
AcDbEntity
  8
Stammform
  6
AUSGEZOGEN
 62
    56
370
    18
100
AcDbLine
 10
-162.276558916858
 20
123.021331683606
 30
0.0
 11
-164.276558916858
 21
124.176040545911
 31
0.0
  0
LINE
  5
1A7
330
14A
100
AcDbEntity
  8
Stammform
  6
AUSGEZOGEN
 62
    56
370
    18
100
AcDbLine
 10
-162.276558916858
 20
123.021331683606
 30
0.0
 11
-162.276558916858
 21
120.711929217786
 31
0.0
  0
LINE
  5
1A8
330
14A
100
AcDbEntity
  8
Stammform
  6
AUSGEZOGEN
 62
    56
370
    18
100
AcDbLine
 10
-160.276558916858
 20
124.176040545911
 30
0.0
 11
-162.276558916858
 21
123.021331683606
 31
0.0
  0
LINE
  5
1A9
330
14A
100
AcDbEntity
  8
Layer0
  6
AUSGEZOGEN
 62
     9
370
    18
100
AcDbLine
 10
-164.276558916858
 20
124.176040545911
 30
0.0
 11
-164.276558916858
 21
121.86663808009
 31
0.0
  0
LINE
  5
1AA
330
14A
100
AcDbEntity
  8
Layer0
  6
AUSGEZOGEN
 62
     9
370
    18
100
AcDbLine
 10
-164.276558916858
 20
121.86663808009
 30
0.0
 11
-162.276558916858
 21
120.711929217786
 31
0.0
  0
LINE
  5
1AB
330
14A
100
AcDbEntity
  8
Layer0
  6
AUSGEZOGEN
 62
     9
370
    18
100
AcDbLine
 10
-162.276558916858
 20
120.711929217786
 30
0.0
 11
-160.276558916858
 21
121.86663808009
 31
0.0
  0
LINE
  5
1AC
330
14A
100
AcDbEntity
  8
Layer0
  6
AUSGEZOGEN
 62
     9
370
    18
100
AcDbLine
 10
-160.276558916858
 20
121.86663808009
 30
0.0
 11
-160.276558916858
 21
124.176040545911
 31
0.0
  0
LINE
  5
1AD
330
14A
100
AcDbEntity
  8
Layer0
  6
AUSGEZOGEN
 62
     9
370
    18
100
AcDbLine
 10
-152.276558916858
 20
124.176040545911
 30
0.0
 11
-152.276558916858
 21
121.86663808009
 31
0.0
  0
LINE
  5
1AE
330
14A
100
AcDbEntity
  8
Layer0
  6
AUSGEZOGEN
 62
     9
370
    18
100
AcDbLine
 10
-152.276558916858
 20
121.86663808009
 30
0.0
 11
-150.276558916858
 21
120.711929217786
 31
0.0
  0
LINE
  5
1AF
330
14A
100
AcDbEntity
  8
Layer0
  6
AUSGEZOGEN
 62
     9
370
    18
100
AcDbLine
 10
-150.276558916858
 20
120.711929217786
 30
0.0
 11
-148.276558916858
 21
121.86663808009
 31
0.0
  0
LINE
  5
1B0
330
14A
100
AcDbEntity
  8
Layer0
  6
AUSGEZOGEN
 62
     9
370
    18
100
AcDbLine
 10
-148.276558916858
 20
121.86663808009
 30
0.0
 11
-148.276558916858
 21
124.176040545911
 31
0.0
  0
LINE
  5
1B1
330
14A
100
AcDbEntity
  8
Stammform
  6
AUSGEZOGEN
 62
    56
370
    18
100
AcDbLine
 10
-148.276558916858
 20
124.176040545911
 30
0.0
 11
-150.276558916858
 21
123.021331683606
 31
0.0
  0
LINE
  5
1B2
330
14A
100
AcDbEntity
  8
Stammform
  6
AUSGEZOGEN
 62
    56
370
    18
100
AcDbLine
 10
-150.276558916858
 20
123.021331683606
 30
0.0
 11
-150.276558916858
 21
120.711929217786
 31
0.0
  0
LINE
  5
1B3
330
14A
100
AcDbEntity
  8
Stammform
  6
AUSGEZOGEN
 62
    56
370
    18
100
AcDbLine
 10
-150.276558916858
 20
123.021331683606
 30
0.0
 11
-152.276558916858
 21
124.176040545911
 31
0.0
  0
LINE
  5
1B4
330
14A
100
AcDbEntity
  8
Stammform
  6
AUSGEZOGEN
 62
    56
370
    18
100
AcDbLine
 10
-154.276558916858
 20
123.021331683606
 30
0.0
 11
-156.276558916858
 21
124.176040545911
 31
0.0
  0
LINE
  5
1B5
330
14A
100
AcDbEntity
  8
Stammform
  6
AUSGEZOGEN
 62
    56
370
    18
100
AcDbLine
 10
-154.276558916858
 20
123.021331683606
 30
0.0
 11
-154.276558916858
 21
120.711929217786
 31
0.0
  0
LINE
  5
1B6
330
14A
100
AcDbEntity
  8
Stammform
  6
AUSGEZOGEN
 62
    56
370
    18
100
AcDbLine
 10
-152.276558916858
 20
124.176040545911
 30
0.0
 11
-154.276558916858
 21
123.021331683606
 31
0.0
  0
LINE
  5
1B7
330
14A
100
AcDbEntity
  8
Layer0
  6
AUSGEZOGEN
 62
     9
370
    18
100
AcDbLine
 10
-156.276558916858
 20
124.176040545911
 30
0.0
 11
-156.276558916858
 21
121.86663808009
 31
0.0
  0
LINE
  5
1B8
330
14A
100
AcDbEntity
  8
Layer0
  6
AUSGEZOGEN
 62
     9
370
    18
100
AcDbLine
 10
-156.276558916858
 20
121.86663808009
 30
0.0
 11
-154.276558916858
 21
120.711929217786
 31
0.0
  0
LINE
  5
1B9
330
14A
100
AcDbEntity
  8
Layer0
  6
AUSGEZOGEN
 62
     9
370
    18
100
AcDbLine
 10
-154.276558916858
 20
120.711929217786
 30
0.0
 11
-152.276558916858
 21
121.86663808009
 31
0.0
  0
LINE
  5
1BA
330
14A
100
AcDbEntity
  8
Layer0
  6
AUSGEZOGEN
 62
     9
370
    18
100
AcDbLine
 10
-152.276558916858
 20
121.86663808009
 30
0.0
 11
-152.276558916858
 21
124.176040545911
 31
0.0
  0
LINE
  5
1BB
330
14A
100
AcDbEntity
  8
Layer0
  6
AUSGEZOGEN
 62
     9
370
    18
100
AcDbLine
 10
-132.276558916858
 20
124.176040545911
 30
0.0
 11
-132.276558916858
 21
121.86663808009
 31
0.0
  0
LINE
  5
1BC
330
14A
100
AcDbEntity
  8
Layer0
  6
AUSGEZOGEN
 62
     9
370
    18
100
AcDbLine
 10
-132.276558916858
 20
121.86663808009
 30
0.0
 11
-130.276558916858
 21
120.711929217786
 31
0.0
  0
LINE
  5
1BD
330
14A
100
AcDbEntity
  8
Stammform
  6
AUSGEZOGEN
 62
    56
370
    18
100
AcDbLine
 10
-130.276558916858
 20
123.021331683606
 30
0.0
 11
-132.276558916858
 21
124.176040545911
 31
0.0
  0
LINE
  5
1BE
330
14A
100
AcDbEntity
  8
Layer0
  6
AUSGEZOGEN
 62
     9
370
    18
100
AcDbLine
 10
-140.276558916858
 20
124.176040545911
 30
0.0
 11
-140.276558916858
 21
121.86663808009
 31
0.0
  0
LINE
  5
1BF
330
14A
100
AcDbEntity
  8
Layer0
  6
AUSGEZOGEN
 62
     9
370
    18
100
AcDbLine
 10
-140.276558916858
 20
121.86663808009
 30
0.0
 11
-138.276558916858
 21
120.711929217786
 31
0.0
  0
LINE
  5
1C0
330
14A
100
AcDbEntity
  8
Layer0
  6
AUSGEZOGEN
 62
     9
370
    18
100
AcDbLine
 10
-138.276558916858
 20
120.711929217786
 30
0.0
 11
-136.276558916858
 21
121.86663808009
 31
0.0
  0
LINE
  5
1C1
330
14A
100
AcDbEntity
  8
Layer0
  6
AUSGEZOGEN
 62
     9
370
    18
100
AcDbLine
 10
-136.276558916858
 20
121.86663808009
 30
0.0
 11
-136.276558916858
 21
124.176040545911
 31
0.0
  0
LINE
  5
1C2
330
14A
100
AcDbEntity
  8
Stammform
  6
AUSGEZOGEN
 62
    56
370
    18
100
AcDbLine
 10
-136.276558916858
 20
124.176040545911
 30
0.0
 11
-138.276558916858
 21
123.021331683606
 31
0.0
  0
LINE
  5
1C3
330
14A
100
AcDbEntity
  8
Stammform
  6
AUSGEZOGEN
 62
    56
370
    18
100
AcDbLine
 10
-138.276558916858
 20
123.021331683606
 30
0.0
 11
-138.276558916858
 21
120.711929217786
 31
0.0
  0
LINE
  5
1C4
330
14A
100
AcDbEntity
  8
Stammform
  6
AUSGEZOGEN
 62
    56
370
    18
100
AcDbLine
 10
-138.276558916858
 20
123.021331683606
 30
0.0
 11
-140.276558916858
 21
124.176040545911
 31
0.0
  0
LINE
  5
1C5
330
14A
100
AcDbEntity
  8
Stammform
  6
AUSGEZOGEN
 62
    56
370
    18
100
AcDbLine
 10
-134.276558916858
 20
123.021331683606
 30
0.0
 11
-136.276558916858
 21
124.176040545911
 31
0.0
  0
LINE
  5
1C6
330
14A
100
AcDbEntity
  8
Stammform
  6
AUSGEZOGEN
 62
    56
370
    18
100
AcDbLine
 10
-134.276558916858
 20
123.021331683606
 30
0.0
 11
-134.276558916858
 21
120.711929217786
 31
0.0
  0
LINE
  5
1C7
330
14A
100
AcDbEntity
  8
Stammform
  6
AUSGEZOGEN
 62
    56
370
    18
100
AcDbLine
 10
-132.276558916858
 20
124.176040545911
 30
0.0
 11
-134.276558916858
 21
123.021331683606
 31
0.0
  0
LINE
  5
1C8
330
14A
100
AcDbEntity
  8
Layer0
  6
AUSGEZOGEN
 62
     9
370
    18
100
AcDbLine
 10
-136.276558916858
 20
124.176040545911
 30
0.0
 11
-136.276558916858
 21
121.86663808009
 31
0.0
  0
LINE
  5
1C9
330
14A
100
AcDbEntity
  8
Layer0
  6
AUSGEZOGEN
 62
     9
370
    18
100
AcDbLine
 10
-136.276558916858
 20
121.86663808009
 30
0.0
 11
-134.276558916858
 21
120.711929217786
 31
0.0
  0
LINE
  5
1CA
330
14A
100
AcDbEntity
  8
Layer0
  6
AUSGEZOGEN
 62
     9
370
    18
100
AcDbLine
 10
-134.276558916858
 20
120.711929217786
 30
0.0
 11
-132.276558916858
 21
121.86663808009
 31
0.0
  0
LINE
  5
1CB
330
14A
100
AcDbEntity
  8
Layer0
  6
AUSGEZOGEN
 62
     9
370
    18
100
AcDbLine
 10
-132.276558916858
 20
121.86663808009
 30
0.0
 11
-132.276558916858
 21
124.176040545911
 31
0.0
  0
LINE
  5
1CC
330
14A
100
AcDbEntity
  8
Layer0
  6
AUSGEZOGEN
 62
     9
370
    18
100
AcDbLine
 10
-144.276558916858
 20
124.176040545911
 30
0.0
 11
-144.276558916858
 21
121.86663808009
 31
0.0
  0
LINE
  5
1CD
330
14A
100
AcDbEntity
  8
Layer0
  6
AUSGEZOGEN
 62
     9
370
    18
100
AcDbLine
 10
-144.276558916858
 20
121.86663808009
 30
0.0
 11
-142.276558916858
 21
120.711929217786
 31
0.0
  0
LINE
  5
1CE
330
14A
100
AcDbEntity
  8
Layer0
  6
AUSGEZOGEN
 62
     9
370
    18
100
AcDbLine
 10
-142.276558916858
 20
120.711929217786
 30
0.0
 11
-140.276558916858
 21
121.86663808009
 31
0.0
  0
LINE
  5
1CF
330
14A
100
AcDbEntity
  8
Layer0
  6
AUSGEZOGEN
 62
     9
370
    18
100
AcDbLine
 10
-140.276558916858
 20
121.86663808009
 30
0.0
 11
-140.276558916858
 21
124.176040545911
 31
0.0
  0
LINE
  5
1D0
330
14A
100
AcDbEntity
  8
Stammform
  6
AUSGEZOGEN
 62
    56
370
    18
100
AcDbLine
 10
-140.276558916858
 20
124.176040545911
 30
0.0
 11
-142.276558916858
 21
123.021331683606
 31
0.0
  0
LINE
  5
1D1
330
14A
100
AcDbEntity
  8
Stammform
  6
AUSGEZOGEN
 62
    56
370
    18
100
AcDbLine
 10
-142.276558916858
 20
123.021331683606
 30
0.0
 11
-142.276558916858
 21
120.711929217786
 31
0.0
  0
LINE
  5
1D2
330
14A
100
AcDbEntity
  8
Stammform
  6
AUSGEZOGEN
 62
    56
370
    18
100
AcDbLine
 10
-142.276558916858
 20
123.021331683606
 30
0.0
 11
-144.276558916858
 21
124.176040545911
 31
0.0
  0
LINE
  5
1D3
330
14A
100
AcDbEntity
  8
Stammform
  6
AUSGEZOGEN
 62
    56
370
    18
100
AcDbLine
 10
-146.276558916858
 20
123.021331683606
 30
0.0
 11
-148.276558916858
 21
124.176040545911
 31
0.0
  0
LINE
  5
1D4
330
14A
100
AcDbEntity
  8
Stammform
  6
AUSGEZOGEN
 62
    56
370
    18
100
AcDbLine
 10
-146.276558916858
 20
123.021331683606
 30
0.0
 11
-146.276558916858
 21
120.711929217786
 31
0.0
  0
LINE
  5
1D5
330
14A
100
AcDbEntity
  8
Stammform
  6
AUSGEZOGEN
 62
    56
370
    18
100
AcDbLine
 10
-144.276558916858
 20
124.176040545911
 30
0.0
 11
-146.276558916858
 21
123.021331683606
 31
0.0
  0
LINE
  5
1D6
330
14A
100
AcDbEntity
  8
Layer0
  6
AUSGEZOGEN
 62
     9
370
    18
100
AcDbLine
 10
-148.276558916858
 20
124.176040545911
 30
0.0
 11
-148.276558916858
 21
121.86663808009
 31
0.0
  0
LINE
  5
1D7
330
14A
100
AcDbEntity
  8
Layer0
  6
AUSGEZOGEN
 62
     9
370
    18
100
AcDbLine
 10
-148.276558916858
 20
121.86663808009
 30
0.0
 11
-146.276558916858
 21
120.711929217786
 31
0.0
  0
LINE
  5
1D8
330
14A
100
AcDbEntity
  8
Layer0
  6
AUSGEZOGEN
 62
     9
370
    18
100
AcDbLine
 10
-146.276558916858
 20
120.711929217786
 30
0.0
 11
-144.276558916858
 21
121.86663808009
 31
0.0
  0
LINE
  5
1D9
330
14A
100
AcDbEntity
  8
Layer0
  6
AUSGEZOGEN
 62
     9
370
    18
100
AcDbLine
 10
-144.276558916858
 20
121.86663808009
 30
0.0
 11
-144.276558916858
 21
124.176040545911
 31
0.0
  0
LINE
  5
1DA
330
14A
100
AcDbEntity
  8
Layer0
  6
AUSGEZOGEN
 62
     9
370
    18
100
AcDbLine
 10
-142.276558916858
 20
113.783737079114
 30
0.0
 11
-144.276558916858
 21
114.938430682629
 31
0.0
  0
LINE
  5
1DB
330
14A
100
AcDbEntity
  8
Layer0
  6
AUSGEZOGEN
 62
     9
370
    18
100
AcDbLine
 10
-144.276558916858
 20
114.938430682629
 30
0.0
 11
-146.276558916858
 21
113.783737079114
 31
0.0
  0
LINE
  5
1DC
330
14A
100
AcDbEntity
  8
Layer0
  6
AUSGEZOGEN
 62
     9
370
    18
100
AcDbLine
 10
-146.276558916858
 20
113.783737079114
 30
0.0
 11
-146.276558916858
 21
111.474334613293
 31
0.0
  0
LINE
  5
1DD
330
14A
100
AcDbEntity
  8
Layer0
  6
AUSGEZOGEN
 62
     9
370
    18
100
AcDbLine
 10
-146.276558916858
 20
111.474334613293
 30
0.0
 11
-144.276558916858
 21
110.319625750989
 31
0.0
  0
LINE
  5
1DE
330
14A
100
AcDbEntity
  8
Layer0
  6
AUSGEZOGEN
 62
     9
370
    18
100
AcDbLine
 10
-144.276558916858
 20
110.319625750989
 30
0.0
 11
-142.276558916858
 21
111.474334613293
 31
0.0
  0
LINE
  5
1DF
330
14A
100
AcDbEntity
  8
Layer0
  6
AUSGEZOGEN
 62
     9
370
    18
100
AcDbLine
 10
-142.276558916858
 20
111.474334613293
 30
0.0
 11
-142.276558916858
 21
113.783737079114
 31
0.0
  0
LINE
  5
1E0
330
14A
100
AcDbEntity
  8
Stammform
  6
AUSGEZOGEN
 62
    56
370
    18
100
AcDbLine
 10
-142.276558916858
 20
113.783737079114
 30
0.0
 11
-144.276558916858
 21
112.629028216809
 31
0.0
  0
LINE
  5
1E1
330
14A
100
AcDbEntity
  8
Stammform
  6
AUSGEZOGEN
 62
    56
370
    18
100
AcDbLine
 10
-144.276558916858
 20
112.629028216809
 30
0.0
 11
-144.276558916858
 21
110.319625750989
 31
0.0
  0
LINE
  5
1E2
330
14A
100
AcDbEntity
  8
Stammform
  6
AUSGEZOGEN
 62
    56
370
    18
100
AcDbLine
 10
-144.276558916858
 20
112.629028216809
 30
0.0
 11
-146.276558916858
 21
113.783737079114
 31
0.0
  0
LINE
  5
1E3
330
14A
100
AcDbEntity
  8
Stammform
  6
AUSGEZOGEN
 62
    56
370
    18
100
AcDbLine
 10
-140.276558916858
 20
112.629028216809
 30
0.0
 11
-142.276558916858
 21
113.783737079114
 31
0.0
  0
LINE
  5
1E4
330
14A
100
AcDbEntity
  8
Stammform
  6
AUSGEZOGEN
 62
    56
370
    18
100
AcDbLine
 10
-140.276558916858
 20
112.629028216809
 30
0.0
 11
-140.276558916858
 21
110.319625750989
 31
0.0
  0
LINE
  5
1E5
330
14A
100
AcDbEntity
  8
Stammform
  6
AUSGEZOGEN
 62
    56
370
    18
100
AcDbLine
 10
-138.276558916858
 20
113.783737079114
 30
0.0
 11
-140.276558916858
 21
112.629028216809
 31
0.0
  0
LINE
  5
1E6
330
14A
100
AcDbEntity
  8
Layer0
  6
AUSGEZOGEN
 62
     9
370
    18
100
AcDbLine
 10
-138.276558916858
 20
113.783737079114
 30
0.0
 11
-140.276558916858
 21
114.938430682629
 31
0.0
  0
LINE
  5
1E7
330
14A
100
AcDbEntity
  8
Layer0
  6
AUSGEZOGEN
 62
     9
370
    18
100
AcDbLine
 10
-140.276558916858
 20
114.938430682629
 30
0.0
 11
-142.276558916858
 21
113.783737079114
 31
0.0
  0
LINE
  5
1E8
330
14A
100
AcDbEntity
  8
Layer0
  6
AUSGEZOGEN
 62
     9
370
    18
100
AcDbLine
 10
-142.276558916858
 20
113.783737079114
 30
0.0
 11
-142.276558916858
 21
111.474334613293
 31
0.0
  0
LINE
  5
1E9
330
14A
100
AcDbEntity
  8
Layer0
  6
AUSGEZOGEN
 62
     9
370
    18
100
AcDbLine
 10
-142.276558916858
 20
111.474334613293
 30
0.0
 11
-140.276558916858
 21
110.319625750989
 31
0.0
  0
LINE
  5
1EA
330
14A
100
AcDbEntity
  8
Layer0
  6
AUSGEZOGEN
 62
     9
370
    18
100
AcDbLine
 10
-140.276558916858
 20
110.319625750989
 30
0.0
 11
-138.276558916858
 21
111.474334613293
 31
0.0
  0
LINE
  5
1EB
330
14A
100
AcDbEntity
  8
Layer0
  6
AUSGEZOGEN
 62
     9
370
    18
100
AcDbLine
 10
-138.276558916858
 20
111.474334613293
 30
0.0
 11
-138.276558916858
 21
113.783737079114
 31
0.0
  0
LINE
  5
1EC
330
14A
100
AcDbEntity
  8
Layer0
  6
AUSGEZOGEN
 62
     9
370
    18
100
AcDbLine
 10
-130.276558916858
 20
113.783737079114
 30
0.0
 11
-132.276558916858
 21
114.938430682629
 31
0.0
  0
LINE
  5
1ED
330
14A
100
AcDbEntity
  8
Layer0
  6
AUSGEZOGEN
 62
     9
370
    18
100
AcDbLine
 10
-132.276558916858
 20
114.938430682629
 30
0.0
 11
-134.276558916858
 21
113.783737079114
 31
0.0
  0
LINE
  5
1EE
330
14A
100
AcDbEntity
  8
Layer0
  6
AUSGEZOGEN
 62
     9
370
    18
100
AcDbLine
 10
-134.276558916858
 20
113.783737079114
 30
0.0
 11
-134.276558916858
 21
111.474334613293
 31
0.0
  0
LINE
  5
1EF
330
14A
100
AcDbEntity
  8
Layer0
  6
AUSGEZOGEN
 62
     9
370
    18
100
AcDbLine
 10
-134.276558916858
 20
111.474334613293
 30
0.0
 11
-132.276558916858
 21
110.319625750989
 31
0.0
  0
LINE
  5
1F0
330
14A
100
AcDbEntity
  8
Layer0
  6
AUSGEZOGEN
 62
     9
370
    18
100
AcDbLine
 10
-132.276558916858
 20
110.319625750989
 30
0.0
 11
-130.276558916858
 21
111.474334613293
 31
0.0
  0
LINE
  5
1F1
330
14A
100
AcDbEntity
  8
Stammform
  6
AUSGEZOGEN
 62
    56
370
    18
100
AcDbLine
 10
-130.276558916858
 20
113.783737079114
 30
0.0
 11
-132.276558916858
 21
112.629028216809
 31
0.0
  0
LINE
  5
1F2
330
14A
100
AcDbEntity
  8
Stammform
  6
AUSGEZOGEN
 62
    56
370
    18
100
AcDbLine
 10
-132.276558916858
 20
112.629028216809
 30
0.0
 11
-132.276558916858
 21
110.319625750989
 31
0.0
  0
LINE
  5
1F3
330
14A
100
AcDbEntity
  8
Stammform
  6
AUSGEZOGEN
 62
    56
370
    18
100
AcDbLine
 10
-132.276558916858
 20
112.629028216809
 30
0.0
 11
-134.276558916858
 21
113.783737079114
 31
0.0
  0
LINE
  5
1F4
330
14A
100
AcDbEntity
  8
Stammform
  6
AUSGEZOGEN
 62
    56
370
    18
100
AcDbLine
 10
-136.276558916858
 20
112.629028216809
 30
0.0
 11
-138.276558916858
 21
113.783737079114
 31
0.0
  0
LINE
  5
1F5
330
14A
100
AcDbEntity
  8
Stammform
  6
AUSGEZOGEN
 62
    56
370
    18
100
AcDbLine
 10
-136.276558916858
 20
112.629028216809
 30
0.0
 11
-136.276558916858
 21
110.319625750989
 31
0.0
  0
LINE
  5
1F6
330
14A
100
AcDbEntity
  8
Stammform
  6
AUSGEZOGEN
 62
    56
370
    18
100
AcDbLine
 10
-134.276558916858
 20
113.783737079114
 30
0.0
 11
-136.276558916858
 21
112.629028216809
 31
0.0
  0
LINE
  5
1F7
330
14A
100
AcDbEntity
  8
Layer0
  6
AUSGEZOGEN
 62
     9
370
    18
100
AcDbLine
 10
-134.276558916858
 20
113.783737079114
 30
0.0
 11
-136.276558916858
 21
114.938430682629
 31
0.0
  0
LINE
  5
1F8
330
14A
100
AcDbEntity
  8
Layer0
  6
AUSGEZOGEN
 62
     9
370
    18
100
AcDbLine
 10
-136.276558916858
 20
114.938430682629
 30
0.0
 11
-138.276558916858
 21
113.783737079114
 31
0.0
  0
LINE
  5
1F9
330
14A
100
AcDbEntity
  8
Layer0
  6
AUSGEZOGEN
 62
     9
370
    18
100
AcDbLine
 10
-138.276558916858
 20
113.783737079114
 30
0.0
 11
-138.276558916858
 21
111.474334613293
 31
0.0
  0
LINE
  5
1FA
330
14A
100
AcDbEntity
  8
Layer0
  6
AUSGEZOGEN
 62
     9
370
    18
100
AcDbLine
 10
-138.276558916858
 20
111.474334613293
 30
0.0
 11
-136.276558916858
 21
110.319625750989
 31
0.0
  0
LINE
  5
1FB
330
14A
100
AcDbEntity
  8
Layer0
  6
AUSGEZOGEN
 62
     9
370
    18
100
AcDbLine
 10
-136.276558916858
 20
110.319625750989
 30
0.0
 11
-134.276558916858
 21
111.474334613293
 31
0.0
  0
LINE
  5
1FC
330
14A
100
AcDbEntity
  8
Layer0
  6
AUSGEZOGEN
 62
     9
370
    18
100
AcDbLine
 10
-134.276558916858
 20
111.474334613293
 30
0.0
 11
-134.276558916858
 21
113.783737079114
 31
0.0
  0
LINE
  5
1FD
330
14A
100
AcDbEntity
  8
Layer0
  6
AUSGEZOGEN
 62
     9
370
    18
100
AcDbLine
 10
-150.276558916858
 20
113.783737079114
 30
0.0
 11
-152.276558916858
 21
114.938430682629
 31
0.0
  0
LINE
  5
1FE
330
14A
100
AcDbEntity
  8
Layer0
  6
AUSGEZOGEN
 62
     9
370
    18
100
AcDbLine
 10
-152.276558916858
 20
114.938430682629
 30
0.0
 11
-154.276558916858
 21
113.783737079114
 31
0.0
  0
LINE
  5
1FF
330
14A
100
AcDbEntity
  8
Layer0
  6
AUSGEZOGEN
 62
     9
370
    18
100
AcDbLine
 10
-154.276558916858
 20
113.783737079114
 30
0.0
 11
-154.276558916858
 21
111.474334613293
 31
0.0
  0
LINE
  5
200
330
14A
100
AcDbEntity
  8
Layer0
  6
AUSGEZOGEN
 62
     9
370
    18
100
AcDbLine
 10
-154.276558916858
 20
111.474334613293
 30
0.0
 11
-152.276558916858
 21
110.319625750989
 31
0.0
  0
LINE
  5
201
330
14A
100
AcDbEntity
  8
Layer0
  6
AUSGEZOGEN
 62
     9
370
    18
100
AcDbLine
 10
-152.276558916858
 20
110.319625750989
 30
0.0
 11
-150.276558916858
 21
111.474334613293
 31
0.0
  0
LINE
  5
202
330
14A
100
AcDbEntity
  8
Layer0
  6
AUSGEZOGEN
 62
     9
370
    18
100
AcDbLine
 10
-150.276558916858
 20
111.474334613293
 30
0.0
 11
-150.276558916858
 21
113.783737079114
 31
0.0
  0
LINE
  5
203
330
14A
100
AcDbEntity
  8
Stammform
  6
AUSGEZOGEN
 62
    56
370
    18
100
AcDbLine
 10
-150.276558916858
 20
113.783737079114
 30
0.0
 11
-152.276558916858
 21
112.629028216809
 31
0.0
  0
LINE
  5
204
330
14A
100
AcDbEntity
  8
Stammform
  6
AUSGEZOGEN
 62
    56
370
    18
100
AcDbLine
 10
-152.276558916858
 20
112.629028216809
 30
0.0
 11
-152.276558916858
 21
110.319625750989
 31
0.0
  0
LINE
  5
205
330
14A
100
AcDbEntity
  8
Stammform
  6
AUSGEZOGEN
 62
    56
370
    18
100
AcDbLine
 10
-152.276558916858
 20
112.629028216809
 30
0.0
 11
-154.276558916858
 21
113.783737079114
 31
0.0
  0
LINE
  5
206
330
14A
100
AcDbEntity
  8
Stammform
  6
AUSGEZOGEN
 62
    56
370
    18
100
AcDbLine
 10
-148.276558916858
 20
112.629028216809
 30
0.0
 11
-150.276558916858
 21
113.783737079114
 31
0.0
  0
LINE
  5
207
330
14A
100
AcDbEntity
  8
Stammform
  6
AUSGEZOGEN
 62
    56
370
    18
100
AcDbLine
 10
-148.276558916858
 20
112.629028216809
 30
0.0
 11
-148.276558916858
 21
110.319625750989
 31
0.0
  0
LINE
  5
208
330
14A
100
AcDbEntity
  8
Stammform
  6
AUSGEZOGEN
 62
    56
370
    18
100
AcDbLine
 10
-146.276558916858
 20
113.783737079114
 30
0.0
 11
-148.276558916858
 21
112.629028216809
 31
0.0
  0
LINE
  5
209
330
14A
100
AcDbEntity
  8
Layer0
  6
AUSGEZOGEN
 62
     9
370
    18
100
AcDbLine
 10
-146.276558916858
 20
113.783737079114
 30
0.0
 11
-148.276558916858
 21
114.938430682629
 31
0.0
  0
LINE
  5
20A
330
14A
100
AcDbEntity
  8
Layer0
  6
AUSGEZOGEN
 62
     9
370
    18
100
AcDbLine
 10
-148.276558916858
 20
114.938430682629
 30
0.0
 11
-150.276558916858
 21
113.783737079114
 31
0.0
  0
LINE
  5
20B
330
14A
100
AcDbEntity
  8
Layer0
  6
AUSGEZOGEN
 62
     9
370
    18
100
AcDbLine
 10
-150.276558916858
 20
113.783737079114
 30
0.0
 11
-150.276558916858
 21
111.474334613293
 31
0.0
  0
LINE
  5
20C
330
14A
100
AcDbEntity
  8
Layer0
  6
AUSGEZOGEN
 62
     9
370
    18
100
AcDbLine
 10
-150.276558916858
 20
111.474334613293
 30
0.0
 11
-148.276558916858
 21
110.319625750989
 31
0.0
  0
LINE
  5
20D
330
14A
100
AcDbEntity
  8
Layer0
  6
AUSGEZOGEN
 62
     9
370
    18
100
AcDbLine
 10
-148.276558916858
 20
110.319625750989
 30
0.0
 11
-146.276558916858
 21
111.474334613293
 31
0.0
  0
LINE
  5
20E
330
14A
100
AcDbEntity
  8
Layer0
  6
AUSGEZOGEN
 62
     9
370
    18
100
AcDbLine
 10
-146.276558916858
 20
111.474334613293
 30
0.0
 11
-146.276558916858
 21
113.783737079114
 31
0.0
  0
LINE
  5
20F
330
14A
100
AcDbEntity
  8
Layer0
  6
AUSGEZOGEN
 62
     9
370
    18
100
AcDbLine
 10
-158.276558916858
 20
113.783737079114
 30
0.0
 11
-160.276558916858
 21
114.938430682629
 31
0.0
  0
LINE
  5
210
330
14A
100
AcDbEntity
  8
Layer0
  6
AUSGEZOGEN
 62
     9
370
    18
100
AcDbLine
 10
-160.276558916858
 20
114.938430682629
 30
0.0
 11
-162.276558916858
 21
113.783737079114
 31
0.0
  0
LINE
  5
211
330
14A
100
AcDbEntity
  8
Layer0
  6
AUSGEZOGEN
 62
     9
370
    18
100
AcDbLine
 10
-162.276558916858
 20
113.783737079114
 30
0.0
 11
-162.276558916858
 21
111.474334613293
 31
0.0
  0
LINE
  5
212
330
14A
100
AcDbEntity
  8
Layer0
  6
AUSGEZOGEN
 62
     9
370
    18
100
AcDbLine
 10
-162.276558916858
 20
111.474334613293
 30
0.0
 11
-160.276558916858
 21
110.319625750989
 31
0.0
  0
LINE
  5
213
330
14A
100
AcDbEntity
  8
Layer0
  6
AUSGEZOGEN
 62
     9
370
    18
100
AcDbLine
 10
-160.276558916858
 20
110.319625750989
 30
0.0
 11
-158.276558916858
 21
111.474334613293
 31
0.0
  0
LINE
  5
214
330
14A
100
AcDbEntity
  8
Layer0
  6
AUSGEZOGEN
 62
     9
370
    18
100
AcDbLine
 10
-158.276558916858
 20
111.474334613293
 30
0.0
 11
-158.276558916858
 21
113.783737079114
 31
0.0
  0
LINE
  5
215
330
14A
100
AcDbEntity
  8
Stammform
  6
AUSGEZOGEN
 62
    56
370
    18
100
AcDbLine
 10
-158.276558916858
 20
113.783737079114
 30
0.0
 11
-160.276558916858
 21
112.629028216809
 31
0.0
  0
LINE
  5
216
330
14A
100
AcDbEntity
  8
Stammform
  6
AUSGEZOGEN
 62
    56
370
    18
100
AcDbLine
 10
-160.276558916858
 20
112.629028216809
 30
0.0
 11
-160.276558916858
 21
110.319625750989
 31
0.0
  0
LINE
  5
217
330
14A
100
AcDbEntity
  8
Stammform
  6
AUSGEZOGEN
 62
    56
370
    18
100
AcDbLine
 10
-160.276558916858
 20
112.629028216809
 30
0.0
 11
-162.276558916858
 21
113.783737079114
 31
0.0
  0
LINE
  5
218
330
14A
100
AcDbEntity
  8
Stammform
  6
AUSGEZOGEN
 62
    56
370
    18
100
AcDbLine
 10
-156.276558916858
 20
112.629028216809
 30
0.0
 11
-158.276558916858
 21
113.783737079114
 31
0.0
  0
LINE
  5
219
330
14A
100
AcDbEntity
  8
Stammform
  6
AUSGEZOGEN
 62
    56
370
    18
100
AcDbLine
 10
-156.276558916858
 20
112.629028216809
 30
0.0
 11
-156.276558916858
 21
110.319625750989
 31
0.0
  0
LINE
  5
21A
330
14A
100
AcDbEntity
  8
Stammform
  6
AUSGEZOGEN
 62
    56
370
    18
100
AcDbLine
 10
-154.276558916858
 20
113.783737079114
 30
0.0
 11
-156.276558916858
 21
112.629028216809
 31
0.0
  0
LINE
  5
21B
330
14A
100
AcDbEntity
  8
Layer0
  6
AUSGEZOGEN
 62
     9
370
    18
100
AcDbLine
 10
-154.276558916858
 20
113.783737079114
 30
0.0
 11
-156.276558916858
 21
114.938430682629
 31
0.0
  0
LINE
  5
21C
330
14A
100
AcDbEntity
  8
Layer0
  6
AUSGEZOGEN
 62
     9
370
    18
100
AcDbLine
 10
-156.276558916858
 20
114.938430682629
 30
0.0
 11
-158.276558916858
 21
113.783737079114
 31
0.0
  0
LINE
  5
21D
330
14A
100
AcDbEntity
  8
Layer0
  6
AUSGEZOGEN
 62
     9
370
    18
100
AcDbLine
 10
-158.276558916858
 20
113.783737079114
 30
0.0
 11
-158.276558916858
 21
111.474334613293
 31
0.0
  0
LINE
  5
21E
330
14A
100
AcDbEntity
  8
Layer0
  6
AUSGEZOGEN
 62
     9
370
    18
100
AcDbLine
 10
-158.276558916858
 20
111.474334613293
 30
0.0
 11
-156.276558916858
 21
110.319625750989
 31
0.0
  0
LINE
  5
21F
330
14A
100
AcDbEntity
  8
Layer0
  6
AUSGEZOGEN
 62
     9
370
    18
100
AcDbLine
 10
-156.276558916858
 20
110.319625750989
 30
0.0
 11
-154.276558916858
 21
111.474334613293
 31
0.0
  0
LINE
  5
220
330
14A
100
AcDbEntity
  8
Layer0
  6
AUSGEZOGEN
 62
     9
370
    18
100
AcDbLine
 10
-154.276558916858
 20
111.474334613293
 30
0.0
 11
-154.276558916858
 21
113.783737079114
 31
0.0
  0
LINE
  5
221
330
14A
100
AcDbEntity
  8
Stammform
  6
AUSGEZOGEN
 62
    56
370
    18
100
AcDbLine
 10
-164.276558916858
 20
112.629028216809
 30
0.0
 11
-166.276558916858
 21
113.783737079114
 31
0.0
  0
LINE
  5
222
330
14A
100
AcDbEntity
  8
Stammform
  6
AUSGEZOGEN
 62
    56
370
    18
100
AcDbLine
 10
-164.276558916858
 20
112.629028216809
 30
0.0
 11
-164.276558916858
 21
110.319625750989
 31
0.0
  0
LINE
  5
223
330
14A
100
AcDbEntity
  8
Stammform
  6
AUSGEZOGEN
 62
    56
370
    18
100
AcDbLine
 10
-162.276558916858
 20
113.783737079114
 30
0.0
 11
-164.276558916858
 21
112.629028216809
 31
0.0
  0
LINE
  5
224
330
14A
100
AcDbEntity
  8
Layer0
  6
AUSGEZOGEN
 62
     9
370
    18
100
AcDbLine
 10
-162.276558916858
 20
113.783737079114
 30
0.0
 11
-164.276558916858
 21
114.938430682629
 31
0.0
  0
LINE
  5
225
330
14A
100
AcDbEntity
  8
Layer0
  6
AUSGEZOGEN
 62
     9
370
    18
100
AcDbLine
 10
-164.276558916858
 20
114.938430682629
 30
0.0
 11
-166.276558916858
 21
113.783737079114
 31
0.0
  0
LINE
  5
226
330
14A
100
AcDbEntity
  8
Layer0
  6
AUSGEZOGEN
 62
     9
370
    18
100
AcDbLine
 10
-166.276558916858
 20
111.474334613293
 30
0.0
 11
-164.276558916858
 21
110.319625750989
 31
0.0
  0
LINE
  5
227
330
14A
100
AcDbEntity
  8
Layer0
  6
AUSGEZOGEN
 62
     9
370
    18
100
AcDbLine
 10
-164.276558916858
 20
110.319625750989
 30
0.0
 11
-162.276558916858
 21
111.474334613293
 31
0.0
  0
LINE
  5
228
330
14A
100
AcDbEntity
  8
Layer0
  6
AUSGEZOGEN
 62
     9
370
    18
100
AcDbLine
 10
-162.276558916858
 20
111.474334613293
 30
0.0
 11
-162.276558916858
 21
113.783737079114
 31
0.0
  0
LINE
  5
229
330
14A
100
AcDbEntity
  8
Layer0
  6
AUSGEZOGEN
 62
     9
370
    18
100
AcDbLine
 10
-164.276558916858
 20
117.24783314845
 30
0.0
 11
-166.276558916858
 21
118.402542010754
 31
0.0
  0
LINE
  5
22A
330
14A
100
AcDbEntity
  8
Layer0
  6
AUSGEZOGEN
 62
     9
370
    18
100
AcDbLine
 10
-166.276558916858
 20
113.783737079114
 30
0.0
 11
-164.276558916858
 21
114.938430682629
 31
0.0
  0
LINE
  5
22B
330
14A
100
AcDbEntity
  8
Layer0
  6
AUSGEZOGEN
 62
     9
370
    18
100
AcDbLine
 10
-164.276558916858
 20
114.938430682629
 30
0.0
 11
-164.276558916858
 21
117.24783314845
 31
0.0
  0
LINE
  5
22C
330
14A
100
AcDbEntity
  8
Stammform
  6
AUSGEZOGEN
 62
    56
370
    18
100
AcDbLine
 10
-164.276558916858
 20
117.24783314845
 30
0.0
 11
-166.276558916858
 21
116.093139544934
 31
0.0
  0
LINE
  5
22D
330
14A
100
AcDbEntity
  8
Layer0
  6
AUSGEZOGEN
 62
     9
370
    18
100
AcDbLine
 10
-156.276558916858
 20
117.24783314845
 30
0.0
 11
-158.276558916858
 21
118.402542010754
 31
0.0
  0
LINE
  5
22E
330
14A
100
AcDbEntity
  8
Layer0
  6
AUSGEZOGEN
 62
     9
370
    18
100
AcDbLine
 10
-158.276558916858
 20
118.402542010754
 30
0.0
 11
-160.276558916858
 21
117.24783314845
 31
0.0
  0
LINE
  5
22F
330
14A
100
AcDbEntity
  8
Layer0
  6
AUSGEZOGEN
 62
     9
370
    18
100
AcDbLine
 10
-160.276558916858
 20
117.24783314845
 30
0.0
 11
-160.276558916858
 21
114.938430682629
 31
0.0
  0
LINE
  5
230
330
14A
100
AcDbEntity
  8
Layer0
  6
AUSGEZOGEN
 62
     9
370
    18
100
AcDbLine
 10
-160.276558916858
 20
114.938430682629
 30
0.0
 11
-158.276558916858
 21
113.783737079114
 31
0.0
  0
LINE
  5
231
330
14A
100
AcDbEntity
  8
Layer0
  6
AUSGEZOGEN
 62
     9
370
    18
100
AcDbLine
 10
-158.276558916858
 20
113.783737079114
 30
0.0
 11
-156.276558916858
 21
114.938430682629
 31
0.0
  0
LINE
  5
232
330
14A
100
AcDbEntity
  8
Layer0
  6
AUSGEZOGEN
 62
     9
370
    18
100
AcDbLine
 10
-156.276558916858
 20
114.938430682629
 30
0.0
 11
-156.276558916858
 21
117.24783314845
 31
0.0
  0
LINE
  5
233
330
14A
100
AcDbEntity
  8
Stammform
  6
AUSGEZOGEN
 62
    56
370
    18
100
AcDbLine
 10
-156.276558916858
 20
117.24783314845
 30
0.0
 11
-158.276558916858
 21
116.093139544934
 31
0.0
  0
LINE
  5
234
330
14A
100
AcDbEntity
  8
Stammform
  6
AUSGEZOGEN
 62
    56
370
    18
100
AcDbLine
 10
-158.276558916858
 20
116.093139544934
 30
0.0
 11
-158.276558916858
 21
113.783737079114
 31
0.0
  0
LINE
  5
235
330
14A
100
AcDbEntity
  8
Stammform
  6
AUSGEZOGEN
 62
    56
370
    18
100
AcDbLine
 10
-158.276558916858
 20
116.093139544934
 30
0.0
 11
-160.276558916858
 21
117.24783314845
 31
0.0
  0
LINE
  5
236
330
14A
100
AcDbEntity
  8
Stammform
  6
AUSGEZOGEN
 62
    56
370
    18
100
AcDbLine
 10
-162.276558916858
 20
116.093139544934
 30
0.0
 11
-164.276558916858
 21
117.24783314845
 31
0.0
  0
LINE
  5
237
330
14A
100
AcDbEntity
  8
Stammform
  6
AUSGEZOGEN
 62
    56
370
    18
100
AcDbLine
 10
-162.276558916858
 20
116.093139544934
 30
0.0
 11
-162.276558916858
 21
113.783737079114
 31
0.0
  0
LINE
  5
238
330
14A
100
AcDbEntity
  8
Stammform
  6
AUSGEZOGEN
 62
    56
370
    18
100
AcDbLine
 10
-160.276558916858
 20
117.24783314845
 30
0.0
 11
-162.276558916858
 21
116.093139544934
 31
0.0
  0
LINE
  5
239
330
14A
100
AcDbEntity
  8
Layer0
  6
AUSGEZOGEN
 62
     9
370
    18
100
AcDbLine
 10
-160.276558916858
 20
117.24783314845
 30
0.0
 11
-162.276558916858
 21
118.402542010754
 31
0.0
  0
LINE
  5
23A
330
14A
100
AcDbEntity
  8
Layer0
  6
AUSGEZOGEN
 62
     9
370
    18
100
AcDbLine
 10
-162.276558916858
 20
118.402542010754
 30
0.0
 11
-164.276558916858
 21
117.24783314845
 31
0.0
  0
LINE
  5
23B
330
14A
100
AcDbEntity
  8
Layer0
  6
AUSGEZOGEN
 62
     9
370
    18
100
AcDbLine
 10
-164.276558916858
 20
117.24783314845
 30
0.0
 11
-164.276558916858
 21
114.938430682629
 31
0.0
  0
LINE
  5
23C
330
14A
100
AcDbEntity
  8
Layer0
  6
AUSGEZOGEN
 62
     9
370
    18
100
AcDbLine
 10
-164.276558916858
 20
114.938430682629
 30
0.0
 11
-162.276558916858
 21
113.783737079114
 31
0.0
  0
LINE
  5
23D
330
14A
100
AcDbEntity
  8
Layer0
  6
AUSGEZOGEN
 62
     9
370
    18
100
AcDbLine
 10
-162.276558916858
 20
113.783737079114
 30
0.0
 11
-160.276558916858
 21
114.938430682629
 31
0.0
  0
LINE
  5
23E
330
14A
100
AcDbEntity
  8
Layer0
  6
AUSGEZOGEN
 62
     9
370
    18
100
AcDbLine
 10
-160.276558916858
 20
114.938430682629
 30
0.0
 11
-160.276558916858
 21
117.24783314845
 31
0.0
  0
LINE
  5
23F
330
14A
100
AcDbEntity
  8
Layer0
  6
AUSGEZOGEN
 62
     9
370
    18
100
AcDbLine
 10
-148.276558916858
 20
117.24783314845
 30
0.0
 11
-150.276558916858
 21
118.402542010754
 31
0.0
  0
LINE
  5
240
330
14A
100
AcDbEntity
  8
Layer0
  6
AUSGEZOGEN
 62
     9
370
    18
100
AcDbLine
 10
-150.276558916858
 20
118.402542010754
 30
0.0
 11
-152.276558916858
 21
117.24783314845
 31
0.0
  0
LINE
  5
241
330
14A
100
AcDbEntity
  8
Layer0
  6
AUSGEZOGEN
 62
     9
370
    18
100
AcDbLine
 10
-152.276558916858
 20
117.24783314845
 30
0.0
 11
-152.276558916858
 21
114.938430682629
 31
0.0
  0
LINE
  5
242
330
14A
100
AcDbEntity
  8
Layer0
  6
AUSGEZOGEN
 62
     9
370
    18
100
AcDbLine
 10
-152.276558916858
 20
114.938430682629
 30
0.0
 11
-150.276558916858
 21
113.783737079114
 31
0.0
  0
LINE
  5
243
330
14A
100
AcDbEntity
  8
Layer0
  6
AUSGEZOGEN
 62
     9
370
    18
100
AcDbLine
 10
-150.276558916858
 20
113.783737079114
 30
0.0
 11
-148.276558916858
 21
114.938430682629
 31
0.0
  0
LINE
  5
244
330
14A
100
AcDbEntity
  8
Layer0
  6
AUSGEZOGEN
 62
     9
370
    18
100
AcDbLine
 10
-148.276558916858
 20
114.938430682629
 30
0.0
 11
-148.276558916858
 21
117.24783314845
 31
0.0
  0
LINE
  5
245
330
14A
100
AcDbEntity
  8
Stammform
  6
AUSGEZOGEN
 62
    56
370
    18
100
AcDbLine
 10
-148.276558916858
 20
117.24783314845
 30
0.0
 11
-150.276558916858
 21
116.093139544934
 31
0.0
  0
LINE
  5
246
330
14A
100
AcDbEntity
  8
Stammform
  6
AUSGEZOGEN
 62
    56
370
    18
100
AcDbLine
 10
-150.276558916858
 20
116.093139544934
 30
0.0
 11
-150.276558916858
 21
113.783737079114
 31
0.0
  0
LINE
  5
247
330
14A
100
AcDbEntity
  8
Stammform
  6
AUSGEZOGEN
 62
    56
370
    18
100
AcDbLine
 10
-150.276558916858
 20
116.093139544934
 30
0.0
 11
-152.276558916858
 21
117.24783314845
 31
0.0
  0
LINE
  5
248
330
14A
100
AcDbEntity
  8
Stammform
  6
AUSGEZOGEN
 62
    56
370
    18
100
AcDbLine
 10
-154.276558916858
 20
116.093139544934
 30
0.0
 11
-156.276558916858
 21
117.24783314845
 31
0.0
  0
LINE
  5
249
330
14A
100
AcDbEntity
  8
Stammform
  6
AUSGEZOGEN
 62
    56
370
    18
100
AcDbLine
 10
-154.276558916858
 20
116.093139544934
 30
0.0
 11
-154.276558916858
 21
113.783737079114
 31
0.0
  0
LINE
  5
24A
330
14A
100
AcDbEntity
  8
Stammform
  6
AUSGEZOGEN
 62
    56
370
    18
100
AcDbLine
 10
-152.276558916858
 20
117.24783314845
 30
0.0
 11
-154.276558916858
 21
116.093139544934
 31
0.0
  0
LINE
  5
24B
330
14A
100
AcDbEntity
  8
Layer0
  6
AUSGEZOGEN
 62
     9
370
    18
100
AcDbLine
 10
-152.276558916858
 20
117.24783314845
 30
0.0
 11
-154.276558916858
 21
118.402542010754
 31
0.0
  0
LINE
  5
24C
330
14A
100
AcDbEntity
  8
Layer0
  6
AUSGEZOGEN
 62
     9
370
    18
100
AcDbLine
 10
-154.276558916858
 20
118.402542010754
 30
0.0
 11
-156.276558916858
 21
117.24783314845
 31
0.0
  0
LINE
  5
24D
330
14A
100
AcDbEntity
  8
Layer0
  6
AUSGEZOGEN
 62
     9
370
    18
100
AcDbLine
 10
-156.276558916858
 20
117.24783314845
 30
0.0
 11
-156.276558916858
 21
114.938430682629
 31
0.0
  0
LINE
  5
24E
330
14A
100
AcDbEntity
  8
Layer0
  6
AUSGEZOGEN
 62
     9
370
    18
100
AcDbLine
 10
-156.276558916858
 20
114.938430682629
 30
0.0
 11
-154.276558916858
 21
113.783737079114
 31
0.0
  0
LINE
  5
24F
330
14A
100
AcDbEntity
  8
Layer0
  6
AUSGEZOGEN
 62
     9
370
    18
100
AcDbLine
 10
-154.276558916858
 20
113.783737079114
 30
0.0
 11
-152.276558916858
 21
114.938430682629
 31
0.0
  0
LINE
  5
250
330
14A
100
AcDbEntity
  8
Layer0
  6
AUSGEZOGEN
 62
     9
370
    18
100
AcDbLine
 10
-152.276558916858
 20
114.938430682629
 30
0.0
 11
-152.276558916858
 21
117.24783314845
 31
0.0
  0
LINE
  5
251
330
14A
100
AcDbEntity
  8
Layer0
  6
AUSGEZOGEN
 62
     9
370
    18
100
AcDbLine
 10
-130.276558916858
 20
118.402542010754
 30
0.0
 11
-132.276558916858
 21
117.24783314845
 31
0.0
  0
LINE
  5
252
330
14A
100
AcDbEntity
  8
Layer0
  6
AUSGEZOGEN
 62
     9
370
    18
100
AcDbLine
 10
-132.276558916858
 20
117.24783314845
 30
0.0
 11
-132.276558916858
 21
114.938430682629
 31
0.0
  0
LINE
  5
253
330
14A
100
AcDbEntity
  8
Layer0
  6
AUSGEZOGEN
 62
     9
370
    18
100
AcDbLine
 10
-132.276558916858
 20
114.938430682629
 30
0.0
 11
-130.276558916858
 21
113.783737079114
 31
0.0
  0
LINE
  5
254
330
14A
100
AcDbEntity
  8
Stammform
  6
AUSGEZOGEN
 62
    56
370
    18
100
AcDbLine
 10
-130.276558916858
 20
116.093139544934
 30
0.0
 11
-132.276558916858
 21
117.24783314845
 31
0.0
  0
LINE
  5
255
330
14A
100
AcDbEntity
  8
Layer0
  6
AUSGEZOGEN
 62
     9
370
    18
100
AcDbLine
 10
-136.276558916858
 20
117.24783314845
 30
0.0
 11
-138.276558916858
 21
118.402542010754
 31
0.0
  0
LINE
  5
256
330
14A
100
AcDbEntity
  8
Layer0
  6
AUSGEZOGEN
 62
     9
370
    18
100
AcDbLine
 10
-138.276558916858
 20
118.402542010754
 30
0.0
 11
-140.276558916858
 21
117.24783314845
 31
0.0
  0
LINE
  5
257
330
14A
100
AcDbEntity
  8
Layer0
  6
AUSGEZOGEN
 62
     9
370
    18
100
AcDbLine
 10
-140.276558916858
 20
117.24783314845
 30
0.0
 11
-140.276558916858
 21
114.938430682629
 31
0.0
  0
LINE
  5
258
330
14A
100
AcDbEntity
  8
Layer0
  6
AUSGEZOGEN
 62
     9
370
    18
100
AcDbLine
 10
-140.276558916858
 20
114.938430682629
 30
0.0
 11
-138.276558916858
 21
113.783737079114
 31
0.0
  0
LINE
  5
259
330
14A
100
AcDbEntity
  8
Layer0
  6
AUSGEZOGEN
 62
     9
370
    18
100
AcDbLine
 10
-138.276558916858
 20
113.783737079114
 30
0.0
 11
-136.276558916858
 21
114.938430682629
 31
0.0
  0
LINE
  5
25A
330
14A
100
AcDbEntity
  8
Layer0
  6
AUSGEZOGEN
 62
     9
370
    18
100
AcDbLine
 10
-136.276558916858
 20
114.938430682629
 30
0.0
 11
-136.276558916858
 21
117.24783314845
 31
0.0
  0
LINE
  5
25B
330
14A
100
AcDbEntity
  8
Stammform
  6
AUSGEZOGEN
 62
    56
370
    18
100
AcDbLine
 10
-136.276558916858
 20
117.24783314845
 30
0.0
 11
-138.276558916858
 21
116.093139544934
 31
0.0
  0
LINE
  5
25C
330
14A
100
AcDbEntity
  8
Stammform
  6
AUSGEZOGEN
 62
    56
370
    18
100
AcDbLine
 10
-138.276558916858
 20
116.093139544934
 30
0.0
 11
-138.276558916858
 21
113.783737079114
 31
0.0
  0
LINE
  5
25D
330
14A
100
AcDbEntity
  8
Stammform
  6
AUSGEZOGEN
 62
    56
370
    18
100
AcDbLine
 10
-138.276558916858
 20
116.093139544934
 30
0.0
 11
-140.276558916858
 21
117.24783314845
 31
0.0
  0
LINE
  5
25E
330
14A
100
AcDbEntity
  8
Stammform
  6
AUSGEZOGEN
 62
    56
370
    18
100
AcDbLine
 10
-134.276558916858
 20
116.093139544934
 30
0.0
 11
-136.276558916858
 21
117.24783314845
 31
0.0
  0
LINE
  5
25F
330
14A
100
AcDbEntity
  8
Stammform
  6
AUSGEZOGEN
 62
    56
370
    18
100
AcDbLine
 10
-134.276558916858
 20
116.093139544934
 30
0.0
 11
-134.276558916858
 21
113.783737079114
 31
0.0
  0
LINE
  5
260
330
14A
100
AcDbEntity
  8
Stammform
  6
AUSGEZOGEN
 62
    56
370
    18
100
AcDbLine
 10
-132.276558916858
 20
117.24783314845
 30
0.0
 11
-134.276558916858
 21
116.093139544934
 31
0.0
  0
LINE
  5
261
330
14A
100
AcDbEntity
  8
Layer0
  6
AUSGEZOGEN
 62
     9
370
    18
100
AcDbLine
 10
-132.276558916858
 20
117.24783314845
 30
0.0
 11
-134.276558916858
 21
118.402542010754
 31
0.0
  0
LINE
  5
262
330
14A
100
AcDbEntity
  8
Layer0
  6
AUSGEZOGEN
 62
     9
370
    18
100
AcDbLine
 10
-134.276558916858
 20
118.402542010754
 30
0.0
 11
-136.276558916858
 21
117.24783314845
 31
0.0
  0
LINE
  5
263
330
14A
100
AcDbEntity
  8
Layer0
  6
AUSGEZOGEN
 62
     9
370
    18
100
AcDbLine
 10
-136.276558916858
 20
117.24783314845
 30
0.0
 11
-136.276558916858
 21
114.938430682629
 31
0.0
  0
LINE
  5
264
330
14A
100
AcDbEntity
  8
Layer0
  6
AUSGEZOGEN
 62
     9
370
    18
100
AcDbLine
 10
-136.276558916858
 20
114.938430682629
 30
0.0
 11
-134.276558916858
 21
113.783737079114
 31
0.0
  0
LINE
  5
265
330
14A
100
AcDbEntity
  8
Layer0
  6
AUSGEZOGEN
 62
     9
370
    18
100
AcDbLine
 10
-134.276558916858
 20
113.783737079114
 30
0.0
 11
-132.276558916858
 21
114.938430682629
 31
0.0
  0
LINE
  5
266
330
14A
100
AcDbEntity
  8
Layer0
  6
AUSGEZOGEN
 62
     9
370
    18
100
AcDbLine
 10
-132.276558916858
 20
114.938430682629
 30
0.0
 11
-132.276558916858
 21
117.24783314845
 31
0.0
  0
LINE
  5
267
330
14A
100
AcDbEntity
  8
Layer0
  6
AUSGEZOGEN
 62
     9
370
    18
100
AcDbLine
 10
-140.276558916858
 20
117.24783314845
 30
0.0
 11
-142.276558916858
 21
118.402542010754
 31
0.0
  0
LINE
  5
268
330
14A
100
AcDbEntity
  8
Layer0
  6
AUSGEZOGEN
 62
     9
370
    18
100
AcDbLine
 10
-142.276558916858
 20
118.402542010754
 30
0.0
 11
-144.276558916858
 21
117.24783314845
 31
0.0
  0
LINE
  5
269
330
14A
100
AcDbEntity
  8
Layer0
  6
AUSGEZOGEN
 62
     9
370
    18
100
AcDbLine
 10
-144.276558916858
 20
117.24783314845
 30
0.0
 11
-144.276558916858
 21
114.938430682629
 31
0.0
  0
LINE
  5
26A
330
14A
100
AcDbEntity
  8
Layer0
  6
AUSGEZOGEN
 62
     9
370
    18
100
AcDbLine
 10
-144.276558916858
 20
114.938430682629
 30
0.0
 11
-142.276558916858
 21
113.783737079114
 31
0.0
  0
LINE
  5
26B
330
14A
100
AcDbEntity
  8
Layer0
  6
AUSGEZOGEN
 62
     9
370
    18
100
AcDbLine
 10
-142.276558916858
 20
113.783737079114
 30
0.0
 11
-140.276558916858
 21
114.938430682629
 31
0.0
  0
LINE
  5
26C
330
14A
100
AcDbEntity
  8
Layer0
  6
AUSGEZOGEN
 62
     9
370
    18
100
AcDbLine
 10
-140.276558916858
 20
114.938430682629
 30
0.0
 11
-140.276558916858
 21
117.24783314845
 31
0.0
  0
LINE
  5
26D
330
14A
100
AcDbEntity
  8
Stammform
  6
AUSGEZOGEN
 62
    56
370
    18
100
AcDbLine
 10
-140.276558916858
 20
117.24783314845
 30
0.0
 11
-142.276558916858
 21
116.093139544934
 31
0.0
  0
LINE
  5
26E
330
14A
100
AcDbEntity
  8
Stammform
  6
AUSGEZOGEN
 62
    56
370
    18
100
AcDbLine
 10
-142.276558916858
 20
116.093139544934
 30
0.0
 11
-142.276558916858
 21
113.783737079114
 31
0.0
  0
LINE
  5
26F
330
14A
100
AcDbEntity
  8
Stammform
  6
AUSGEZOGEN
 62
    56
370
    18
100
AcDbLine
 10
-142.276558916858
 20
116.093139544934
 30
0.0
 11
-144.276558916858
 21
117.24783314845
 31
0.0
  0
LINE
  5
270
330
14A
100
AcDbEntity
  8
Stammform
  6
AUSGEZOGEN
 62
    56
370
    18
100
AcDbLine
 10
-146.276558916858
 20
116.093139544934
 30
0.0
 11
-148.276558916858
 21
117.24783314845
 31
0.0
  0
LINE
  5
271
330
14A
100
AcDbEntity
  8
Stammform
  6
AUSGEZOGEN
 62
    56
370
    18
100
AcDbLine
 10
-146.276558916858
 20
116.093139544934
 30
0.0
 11
-146.276558916858
 21
113.783737079114
 31
0.0
  0
LINE
  5
272
330
14A
100
AcDbEntity
  8
Stammform
  6
AUSGEZOGEN
 62
    56
370
    18
100
AcDbLine
 10
-144.276558916858
 20
117.24783314845
 30
0.0
 11
-146.276558916858
 21
116.093139544934
 31
0.0
  0
LINE
  5
273
330
14A
100
AcDbEntity
  8
Layer0
  6
AUSGEZOGEN
 62
     9
370
    18
100
AcDbLine
 10
-144.276558916858
 20
117.24783314845
 30
0.0
 11
-146.276558916858
 21
118.402542010754
 31
0.0
  0
LINE
  5
274
330
14A
100
AcDbEntity
  8
Layer0
  6
AUSGEZOGEN
 62
     9
370
    18
100
AcDbLine
 10
-146.276558916858
 20
118.402542010754
 30
0.0
 11
-148.276558916858
 21
117.24783314845
 31
0.0
  0
LINE
  5
275
330
14A
100
AcDbEntity
  8
Layer0
  6
AUSGEZOGEN
 62
     9
370
    18
100
AcDbLine
 10
-148.276558916858
 20
117.24783314845
 30
0.0
 11
-148.276558916858
 21
114.938430682629
 31
0.0
  0
LINE
  5
276
330
14A
100
AcDbEntity
  8
Layer0
  6
AUSGEZOGEN
 62
     9
370
    18
100
AcDbLine
 10
-148.276558916858
 20
114.938430682629
 30
0.0
 11
-146.276558916858
 21
113.783737079114
 31
0.0
  0
LINE
  5
277
330
14A
100
AcDbEntity
  8
Layer0
  6
AUSGEZOGEN
 62
     9
370
    18
100
AcDbLine
 10
-146.276558916858
 20
113.783737079114
 30
0.0
 11
-144.276558916858
 21
114.938430682629
 31
0.0
  0
LINE
  5
278
330
14A
100
AcDbEntity
  8
Layer0
  6
AUSGEZOGEN
 62
     9
370
    18
100
AcDbLine
 10
-144.276558916858
 20
114.938430682629
 30
0.0
 11
-144.276558916858
 21
117.24783314845
 31
0.0
  0
LINE
  5
279
330
14A
100
AcDbEntity
  8
Layer0
  6
AUSGEZOGEN
 62
     9
370
    18
100
AcDbLine
 10
-164.276558916858
 20
110.319625750989
 30
0.0
 11
-166.276558916858
 21
111.474334613293
 31
0.0
  0
LINE
  5
27A
330
14A
100
AcDbEntity
  8
Layer0
  6
AUSGEZOGEN
 62
     9
370
    18
100
AcDbLine
 10
-164.276558916858
 20
109.164932147473
 30
0.0
 11
-164.276558916858
 21
110.319625750989
 31
0.0
  0
LINE
  5
27B
330
14A
100
AcDbEntity
  8
Stammform
  6
AUSGEZOGEN
 62
    56
370
    18
100
AcDbLine
 10
-164.276558916858
 20
110.319625750989
 30
0.0
 11
-166.276558916858
 21
109.164932147473
 31
0.0
  0
LINE
  5
27C
330
14A
100
AcDbEntity
  8
Layer0
  6
AUSGEZOGEN
 62
     9
370
    18
100
AcDbLine
 10
-156.276558916858
 20
110.319625750989
 30
0.0
 11
-158.276558916858
 21
111.474334613293
 31
0.0
  0
LINE
  5
27D
330
14A
100
AcDbEntity
  8
Layer0
  6
AUSGEZOGEN
 62
     9
370
    18
100
AcDbLine
 10
-158.276558916858
 20
111.474334613293
 30
0.0
 11
-160.276558916858
 21
110.319625750989
 31
0.0
  0
LINE
  5
27E
330
14A
100
AcDbEntity
  8
Layer0
  6
AUSGEZOGEN
 62
     9
370
    18
100
AcDbLine
 10
-160.276558916858
 20
110.319625750989
 30
0.0
 11
-160.276558916858
 21
109.164932147473
 31
0.0
  0
LINE
  5
27F
330
14A
100
AcDbEntity
  8
Layer0
  6
AUSGEZOGEN
 62
     9
370
    18
100
AcDbLine
 10
-156.276558916858
 20
109.164932147473
 30
0.0
 11
-156.276558916858
 21
110.319625750989
 31
0.0
  0
LINE
  5
280
330
14A
100
AcDbEntity
  8
Stammform
  6
AUSGEZOGEN
 62
    56
370
    18
100
AcDbLine
 10
-156.276558916858
 20
110.319625750989
 30
0.0
 11
-158.276558916858
 21
109.164932147473
 31
0.0
  0
LINE
  5
281
330
14A
100
AcDbEntity
  8
Stammform
  6
AUSGEZOGEN
 62
    56
370
    18
100
AcDbLine
 10
-158.276558916858
 20
109.164932147473
 30
0.0
 11
-160.276558916858
 21
110.319625750989
 31
0.0
  0
LINE
  5
282
330
14A
100
AcDbEntity
  8
Stammform
  6
AUSGEZOGEN
 62
    56
370
    18
100
AcDbLine
 10
-162.276558916858
 20
109.164932147473
 30
0.0
 11
-164.276558916858
 21
110.319625750989
 31
0.0
  0
LINE
  5
283
330
14A
100
AcDbEntity
  8
Stammform
  6
AUSGEZOGEN
 62
    56
370
    18
100
AcDbLine
 10
-160.276558916858
 20
110.319625750989
 30
0.0
 11
-162.276558916858
 21
109.164932147473
 31
0.0
  0
LINE
  5
284
330
14A
100
AcDbEntity
  8
Layer0
  6
AUSGEZOGEN
 62
     9
370
    18
100
AcDbLine
 10
-160.276558916858
 20
110.319625750989
 30
0.0
 11
-162.276558916858
 21
111.474334613293
 31
0.0
  0
LINE
  5
285
330
14A
100
AcDbEntity
  8
Layer0
  6
AUSGEZOGEN
 62
     9
370
    18
100
AcDbLine
 10
-162.276558916858
 20
111.474334613293
 30
0.0
 11
-164.276558916858
 21
110.319625750989
 31
0.0
  0
LINE
  5
286
330
14A
100
AcDbEntity
  8
Layer0
  6
AUSGEZOGEN
 62
     9
370
    18
100
AcDbLine
 10
-148.276558916858
 20
110.319625750989
 30
0.0
 11
-150.276558916858
 21
111.474334613293
 31
0.0
  0
LINE
  5
287
330
14A
100
AcDbEntity
  8
Layer0
  6
AUSGEZOGEN
 62
     9
370
    18
100
AcDbLine
 10
-150.276558916858
 20
111.474334613293
 30
0.0
 11
-152.276558916858
 21
110.319625750989
 31
0.0
  0
LINE
  5
288
330
14A
100
AcDbEntity
  8
Layer0
  6
AUSGEZOGEN
 62
     9
370
    18
100
AcDbLine
 10
-152.276558916858
 20
110.319625750989
 30
0.0
 11
-152.276558916858
 21
109.164932147473
 31
0.0
  0
LINE
  5
289
330
14A
100
AcDbEntity
  8
Layer0
  6
AUSGEZOGEN
 62
     9
370
    18
100
AcDbLine
 10
-148.276558916858
 20
109.164932147473
 30
0.0
 11
-148.276558916858
 21
110.319625750989
 31
0.0
  0
LINE
  5
28A
330
14A
100
AcDbEntity
  8
Stammform
  6
AUSGEZOGEN
 62
    56
370
    18
100
AcDbLine
 10
-148.276558916858
 20
110.319625750989
 30
0.0
 11
-150.276558916858
 21
109.164932147473
 31
0.0
  0
LINE
  5
28B
330
14A
100
AcDbEntity
  8
Stammform
  6
AUSGEZOGEN
 62
    56
370
    18
100
AcDbLine
 10
-150.276558916858
 20
109.164932147473
 30
0.0
 11
-152.276558916858
 21
110.319625750989
 31
0.0
  0
LINE
  5
28C
330
14A
100
AcDbEntity
  8
Stammform
  6
AUSGEZOGEN
 62
    56
370
    18
100
AcDbLine
 10
-154.276558916858
 20
109.164932147473
 30
0.0
 11
-156.276558916858
 21
110.319625750989
 31
0.0
  0
LINE
  5
28D
330
14A
100
AcDbEntity
  8
Stammform
  6
AUSGEZOGEN
 62
    56
370
    18
100
AcDbLine
 10
-152.276558916858
 20
110.319625750989
 30
0.0
 11
-154.276558916858
 21
109.164932147473
 31
0.0
  0
LINE
  5
28E
330
14A
100
AcDbEntity
  8
Layer0
  6
AUSGEZOGEN
 62
     9
370
    18
100
AcDbLine
 10
-152.276558916858
 20
110.319625750989
 30
0.0
 11
-154.276558916858
 21
111.474334613293
 31
0.0
  0
LINE
  5
28F
330
14A
100
AcDbEntity
  8
Layer0
  6
AUSGEZOGEN
 62
     9
370
    18
100
AcDbLine
 10
-154.276558916858
 20
111.474334613293
 30
0.0
 11
-156.276558916858
 21
110.319625750989
 31
0.0
  0
LINE
  5
290
330
14A
100
AcDbEntity
  8
Layer0
  6
AUSGEZOGEN
 62
     9
370
    18
100
AcDbLine
 10
-130.276558916858
 20
111.474334613293
 30
0.0
 11
-132.276558916858
 21
110.319625750989
 31
0.0
  0
LINE
  5
291
330
14A
100
AcDbEntity
  8
Layer0
  6
AUSGEZOGEN
 62
     9
370
    18
100
AcDbLine
 10
-132.276558916858
 20
110.319625750989
 30
0.0
 11
-132.276558916858
 21
109.164932147473
 31
0.0
  0
LINE
  5
292
330
14A
100
AcDbEntity
  8
Stammform
  6
AUSGEZOGEN
 62
    56
370
    18
100
AcDbLine
 10
-130.276558916858
 20
109.164932147473
 30
0.0
 11
-132.276558916858
 21
110.319625750989
 31
0.0
  0
LINE
  5
293
330
14A
100
AcDbEntity
  8
Layer0
  6
AUSGEZOGEN
 62
     9
370
    18
100
AcDbLine
 10
-136.276558916858
 20
110.319625750989
 30
0.0
 11
-138.276558916858
 21
111.474334613293
 31
0.0
  0
LINE
  5
294
330
14A
100
AcDbEntity
  8
Layer0
  6
AUSGEZOGEN
 62
     9
370
    18
100
AcDbLine
 10
-138.276558916858
 20
111.474334613293
 30
0.0
 11
-140.276558916858
 21
110.319625750989
 31
0.0
  0
LINE
  5
295
330
14A
100
AcDbEntity
  8
Layer0
  6
AUSGEZOGEN
 62
     9
370
    18
100
AcDbLine
 10
-140.276558916858
 20
110.319625750989
 30
0.0
 11
-140.276558916858
 21
109.164932147473
 31
0.0
  0
LINE
  5
296
330
14A
100
AcDbEntity
  8
Layer0
  6
AUSGEZOGEN
 62
     9
370
    18
100
AcDbLine
 10
-136.276558916858
 20
109.164932147473
 30
0.0
 11
-136.276558916858
 21
110.319625750989
 31
0.0
  0
LINE
  5
297
330
14A
100
AcDbEntity
  8
Stammform
  6
AUSGEZOGEN
 62
    56
370
    18
100
AcDbLine
 10
-136.276558916858
 20
110.319625750989
 30
0.0
 11
-138.276558916858
 21
109.164932147473
 31
0.0
  0
LINE
  5
298
330
14A
100
AcDbEntity
  8
Stammform
  6
AUSGEZOGEN
 62
    56
370
    18
100
AcDbLine
 10
-138.276558916858
 20
109.164932147473
 30
0.0
 11
-140.276558916858
 21
110.319625750989
 31
0.0
  0
LINE
  5
299
330
14A
100
AcDbEntity
  8
Stammform
  6
AUSGEZOGEN
 62
    56
370
    18
100
AcDbLine
 10
-134.276558916858
 20
109.164932147473
 30
0.0
 11
-136.276558916858
 21
110.319625750989
 31
0.0
  0
LINE
  5
29A
330
14A
100
AcDbEntity
  8
Stammform
  6
AUSGEZOGEN
 62
    56
370
    18
100
AcDbLine
 10
-132.276558916858
 20
110.319625750989
 30
0.0
 11
-134.276558916858
 21
109.164932147473
 31
0.0
  0
LINE
  5
29B
330
14A
100
AcDbEntity
  8
Layer0
  6
AUSGEZOGEN
 62
     9
370
    18
100
AcDbLine
 10
-132.276558916858
 20
110.319625750989
 30
0.0
 11
-134.276558916858
 21
111.474334613293
 31
0.0
  0
LINE
  5
29C
330
14A
100
AcDbEntity
  8
Layer0
  6
AUSGEZOGEN
 62
     9
370
    18
100
AcDbLine
 10
-134.276558916858
 20
111.474334613293
 30
0.0
 11
-136.276558916858
 21
110.319625750989
 31
0.0
  0
LINE
  5
29D
330
14A
100
AcDbEntity
  8
Layer0
  6
AUSGEZOGEN
 62
     9
370
    18
100
AcDbLine
 10
-140.276558916858
 20
110.319625750989
 30
0.0
 11
-142.276558916858
 21
111.474334613293
 31
0.0
  0
LINE
  5
29E
330
14A
100
AcDbEntity
  8
Layer0
  6
AUSGEZOGEN
 62
     9
370
    18
100
AcDbLine
 10
-142.276558916858
 20
111.474334613293
 30
0.0
 11
-144.276558916858
 21
110.319625750989
 31
0.0
  0
LINE
  5
29F
330
14A
100
AcDbEntity
  8
Layer0
  6
AUSGEZOGEN
 62
     9
370
    18
100
AcDbLine
 10
-144.276558916858
 20
110.319625750989
 30
0.0
 11
-144.276558916858
 21
109.164932147473
 31
0.0
  0
LINE
  5
2A0
330
14A
100
AcDbEntity
  8
Stammform
  6
AUSGEZOGEN
 62
    56
370
    18
100
AcDbLine
 10
-140.276558916858
 20
110.319625750989
 30
0.0
 11
-142.276558916858
 21
109.164932147473
 31
0.0
  0
LINE
  5
2A1
330
14A
100
AcDbEntity
  8
Stammform
  6
AUSGEZOGEN
 62
    56
370
    18
100
AcDbLine
 10
-142.276558916858
 20
109.164932147473
 30
0.0
 11
-144.276558916858
 21
110.319625750989
 31
0.0
  0
LINE
  5
2A2
330
14A
100
AcDbEntity
  8
Stammform
  6
AUSGEZOGEN
 62
    56
370
    18
100
AcDbLine
 10
-146.276558916858
 20
109.164932147473
 30
0.0
 11
-148.276558916858
 21
110.319625750989
 31
0.0
  0
LINE
  5
2A3
330
14A
100
AcDbEntity
  8
Stammform
  6
AUSGEZOGEN
 62
    56
370
    18
100
AcDbLine
 10
-144.276558916858
 20
110.319625750989
 30
0.0
 11
-146.276558916858
 21
109.164932147473
 31
0.0
  0
LINE
  5
2A4
330
14A
100
AcDbEntity
  8
Layer0
  6
AUSGEZOGEN
 62
     9
370
    18
100
AcDbLine
 10
-144.276558916858
 20
110.319625750989
 30
0.0
 11
-146.276558916858
 21
111.474334613293
 31
0.0
  0
LINE
  5
2A5
330
14A
100
AcDbEntity
  8
Layer0
  6
AUSGEZOGEN
 62
     9
370
    18
100
AcDbLine
 10
-146.276558916858
 20
111.474334613293
 30
0.0
 11
-148.276558916858
 21
110.319625750989
 31
0.0
  0
ENDBLK
  5
14C
330
14A
100
AcDbEntity
  8
0
100
AcDbBlockEnd
  0
BLOCK
  5
2AB
330
2AA
100
AcDbEntity
  8
0
100
AcDbBlockBegin
  2
SECHSK1_nNn01
 70
     0
 10
0.0
 20
0.0
 30
0.0
  3
SECHSK1_nNn01
  1

  0
LINE
  5
2AD
330
2AA
100
AcDbEntity
  8
Layer0
  6
AUSGEZOGEN
 62
     9
370
    18
100
AcDbLine
 10
-142.276558916858
 20
120.711929217786
 30
0.0
 11
-144.276558916858
 21
121.86663808009
 31
0.0
  0
LINE
  5
2AE
330
2AA
100
AcDbEntity
  8
Layer0
  6
AUSGEZOGEN
 62
     9
370
    18
100
AcDbLine
 10
-144.276558916858
 20
121.86663808009
 30
0.0
 11
-146.276558916858
 21
120.711929217786
 31
0.0
  0
LINE
  5
2AF
330
2AA
100
AcDbEntity
  8
Layer0
  6
AUSGEZOGEN
 62
     9
370
    18
100
AcDbLine
 10
-146.276558916858
 20
120.711929217786
 30
0.0
 11
-146.276558916858
 21
118.402542010754
 31
0.0
  0
LINE
  5
2B0
330
2AA
100
AcDbEntity
  8
Layer0
  6
AUSGEZOGEN
 62
     9
370
    18
100
AcDbLine
 10
-146.276558916858
 20
118.402542010754
 30
0.0
 11
-144.276558916858
 21
117.24783314845
 31
0.0
  0
LINE
  5
2B1
330
2AA
100
AcDbEntity
  8
Layer0
  6
AUSGEZOGEN
 62
     9
370
    18
100
AcDbLine
 10
-144.276558916858
 20
117.24783314845
 30
0.0
 11
-142.276558916858
 21
118.402542010754
 31
0.0
  0
LINE
  5
2B2
330
2AA
100
AcDbEntity
  8
Layer0
  6
AUSGEZOGEN
 62
     9
370
    18
100
AcDbLine
 10
-142.276558916858
 20
118.402542010754
 30
0.0
 11
-142.276558916858
 21
120.711929217786
 31
0.0
  0
LINE
  5
2B3
330
2AA
100
AcDbEntity
  8
Stammform
  6
AUSGEZOGEN
 62
    56
370
    18
100
AcDbLine
 10
-142.276558916858
 20
120.711929217786
 30
0.0
 11
-144.276558916858
 21
119.55723561427
 31
0.0
  0
LINE
  5
2B4
330
2AA
100
AcDbEntity
  8
Stammform
  6
AUSGEZOGEN
 62
    56
370
    18
100
AcDbLine
 10
-144.276558916858
 20
119.55723561427
 30
0.0
 11
-144.276558916858
 21
117.24783314845
 31
0.0
  0
LINE
  5
2B5
330
2AA
100
AcDbEntity
  8
Stammform
  6
AUSGEZOGEN
 62
    56
370
    18
100
AcDbLine
 10
-144.276558916858
 20
119.55723561427
 30
0.0
 11
-146.276558916858
 21
120.711929217786
 31
0.0
  0
LINE
  5
2B6
330
2AA
100
AcDbEntity
  8
Stammform
  6
AUSGEZOGEN
 62
    56
370
    18
100
AcDbLine
 10
-140.276558916858
 20
119.55723561427
 30
0.0
 11
-142.276558916858
 21
120.711929217786
 31
0.0
  0
LINE
  5
2B7
330
2AA
100
AcDbEntity
  8
Stammform
  6
AUSGEZOGEN
 62
    56
370
    18
100
AcDbLine
 10
-140.276558916858
 20
119.55723561427
 30
0.0
 11
-140.276558916858
 21
117.24783314845
 31
0.0
  0
LINE
  5
2B8
330
2AA
100
AcDbEntity
  8
Stammform
  6
AUSGEZOGEN
 62
    56
370
    18
100
AcDbLine
 10
-138.276558916858
 20
120.711929217786
 30
0.0
 11
-140.276558916858
 21
119.55723561427
 31
0.0
  0
LINE
  5
2B9
330
2AA
100
AcDbEntity
  8
Layer0
  6
AUSGEZOGEN
 62
     9
370
    18
100
AcDbLine
 10
-138.276558916858
 20
120.711929217786
 30
0.0
 11
-140.276558916858
 21
121.86663808009
 31
0.0
  0
LINE
  5
2BA
330
2AA
100
AcDbEntity
  8
Layer0
  6
AUSGEZOGEN
 62
     9
370
    18
100
AcDbLine
 10
-140.276558916858
 20
121.86663808009
 30
0.0
 11
-142.276558916858
 21
120.711929217786
 31
0.0
  0
LINE
  5
2BB
330
2AA
100
AcDbEntity
  8
Layer0
  6
AUSGEZOGEN
 62
     9
370
    18
100
AcDbLine
 10
-142.276558916858
 20
120.711929217786
 30
0.0
 11
-142.276558916858
 21
118.402542010754
 31
0.0
  0
LINE
  5
2BC
330
2AA
100
AcDbEntity
  8
Layer0
  6
AUSGEZOGEN
 62
     9
370
    18
100
AcDbLine
 10
-142.276558916858
 20
118.402542010754
 30
0.0
 11
-140.276558916858
 21
117.24783314845
 31
0.0
  0
LINE
  5
2BD
330
2AA
100
AcDbEntity
  8
Layer0
  6
AUSGEZOGEN
 62
     9
370
    18
100
AcDbLine
 10
-140.276558916858
 20
117.24783314845
 30
0.0
 11
-138.276558916858
 21
118.402542010754
 31
0.0
  0
LINE
  5
2BE
330
2AA
100
AcDbEntity
  8
Layer0
  6
AUSGEZOGEN
 62
     9
370
    18
100
AcDbLine
 10
-138.276558916858
 20
118.402542010754
 30
0.0
 11
-138.276558916858
 21
120.711929217786
 31
0.0
  0
LINE
  5
2BF
330
2AA
100
AcDbEntity
  8
Layer0
  6
AUSGEZOGEN
 62
     9
370
    18
100
AcDbLine
 10
-130.276558916858
 20
120.711929217786
 30
0.0
 11
-132.276558916858
 21
121.86663808009
 31
0.0
  0
LINE
  5
2C0
330
2AA
100
AcDbEntity
  8
Layer0
  6
AUSGEZOGEN
 62
     9
370
    18
100
AcDbLine
 10
-132.276558916858
 20
121.86663808009
 30
0.0
 11
-134.276558916858
 21
120.711929217786
 31
0.0
  0
LINE
  5
2C1
330
2AA
100
AcDbEntity
  8
Layer0
  6
AUSGEZOGEN
 62
     9
370
    18
100
AcDbLine
 10
-134.276558916858
 20
120.711929217786
 30
0.0
 11
-134.276558916858
 21
118.402542010754
 31
0.0
  0
LINE
  5
2C2
330
2AA
100
AcDbEntity
  8
Layer0
  6
AUSGEZOGEN
 62
     9
370
    18
100
AcDbLine
 10
-134.276558916858
 20
118.402542010754
 30
0.0
 11
-132.276558916858
 21
117.24783314845
 31
0.0
  0
LINE
  5
2C3
330
2AA
100
AcDbEntity
  8
Layer0
  6
AUSGEZOGEN
 62
     9
370
    18
100
AcDbLine
 10
-132.276558916858
 20
117.24783314845
 30
0.0
 11
-130.276558916858
 21
118.402542010754
 31
0.0
  0
LINE
  5
2C4
330
2AA
100
AcDbEntity
  8
Stammform
  6
AUSGEZOGEN
 62
    56
370
    18
100
AcDbLine
 10
-130.276558916858
 20
120.711929217786
 30
0.0
 11
-132.276558916858
 21
119.55723561427
 31
0.0
  0
LINE
  5
2C5
330
2AA
100
AcDbEntity
  8
Stammform
  6
AUSGEZOGEN
 62
    56
370
    18
100
AcDbLine
 10
-132.276558916858
 20
119.55723561427
 30
0.0
 11
-132.276558916858
 21
117.24783314845
 31
0.0
  0
LINE
  5
2C6
330
2AA
100
AcDbEntity
  8
Stammform
  6
AUSGEZOGEN
 62
    56
370
    18
100
AcDbLine
 10
-132.276558916858
 20
119.55723561427
 30
0.0
 11
-134.276558916858
 21
120.711929217786
 31
0.0
  0
LINE
  5
2C7
330
2AA
100
AcDbEntity
  8
Stammform
  6
AUSGEZOGEN
 62
    56
370
    18
100
AcDbLine
 10
-136.276558916858
 20
119.55723561427
 30
0.0
 11
-138.276558916858
 21
120.711929217786
 31
0.0
  0
LINE
  5
2C8
330
2AA
100
AcDbEntity
  8
Stammform
  6
AUSGEZOGEN
 62
    56
370
    18
100
AcDbLine
 10
-136.276558916858
 20
119.55723561427
 30
0.0
 11
-136.276558916858
 21
117.24783314845
 31
0.0
  0
LINE
  5
2C9
330
2AA
100
AcDbEntity
  8
Stammform
  6
AUSGEZOGEN
 62
    56
370
    18
100
AcDbLine
 10
-134.276558916858
 20
120.711929217786
 30
0.0
 11
-136.276558916858
 21
119.55723561427
 31
0.0
  0
LINE
  5
2CA
330
2AA
100
AcDbEntity
  8
Layer0
  6
AUSGEZOGEN
 62
     9
370
    18
100
AcDbLine
 10
-134.276558916858
 20
120.711929217786
 30
0.0
 11
-136.276558916858
 21
121.86663808009
 31
0.0
  0
LINE
  5
2CB
330
2AA
100
AcDbEntity
  8
Layer0
  6
AUSGEZOGEN
 62
     9
370
    18
100
AcDbLine
 10
-136.276558916858
 20
121.86663808009
 30
0.0
 11
-138.276558916858
 21
120.711929217786
 31
0.0
  0
LINE
  5
2CC
330
2AA
100
AcDbEntity
  8
Layer0
  6
AUSGEZOGEN
 62
     9
370
    18
100
AcDbLine
 10
-138.276558916858
 20
120.711929217786
 30
0.0
 11
-138.276558916858
 21
118.402542010754
 31
0.0
  0
LINE
  5
2CD
330
2AA
100
AcDbEntity
  8
Layer0
  6
AUSGEZOGEN
 62
     9
370
    18
100
AcDbLine
 10
-138.276558916858
 20
118.402542010754
 30
0.0
 11
-136.276558916858
 21
117.24783314845
 31
0.0
  0
LINE
  5
2CE
330
2AA
100
AcDbEntity
  8
Layer0
  6
AUSGEZOGEN
 62
     9
370
    18
100
AcDbLine
 10
-136.276558916858
 20
117.24783314845
 30
0.0
 11
-134.276558916858
 21
118.402542010754
 31
0.0
  0
LINE
  5
2CF
330
2AA
100
AcDbEntity
  8
Layer0
  6
AUSGEZOGEN
 62
     9
370
    18
100
AcDbLine
 10
-134.276558916858
 20
118.402542010754
 30
0.0
 11
-134.276558916858
 21
120.711929217786
 31
0.0
  0
LINE
  5
2D0
330
2AA
100
AcDbEntity
  8
Layer0
  6
AUSGEZOGEN
 62
     9
370
    18
100
AcDbLine
 10
-150.276558916858
 20
120.711929217786
 30
0.0
 11
-152.276558916858
 21
121.86663808009
 31
0.0
  0
LINE
  5
2D1
330
2AA
100
AcDbEntity
  8
Layer0
  6
AUSGEZOGEN
 62
     9
370
    18
100
AcDbLine
 10
-152.276558916858
 20
121.86663808009
 30
0.0
 11
-154.276558916858
 21
120.711929217786
 31
0.0
  0
LINE
  5
2D2
330
2AA
100
AcDbEntity
  8
Layer0
  6
AUSGEZOGEN
 62
     9
370
    18
100
AcDbLine
 10
-154.276558916858
 20
120.711929217786
 30
0.0
 11
-154.276558916858
 21
118.402542010754
 31
0.0
  0
LINE
  5
2D3
330
2AA
100
AcDbEntity
  8
Layer0
  6
AUSGEZOGEN
 62
     9
370
    18
100
AcDbLine
 10
-154.276558916858
 20
118.402542010754
 30
0.0
 11
-152.276558916858
 21
117.24783314845
 31
0.0
  0
LINE
  5
2D4
330
2AA
100
AcDbEntity
  8
Layer0
  6
AUSGEZOGEN
 62
     9
370
    18
100
AcDbLine
 10
-152.276558916858
 20
117.24783314845
 30
0.0
 11
-150.276558916858
 21
118.402542010754
 31
0.0
  0
LINE
  5
2D5
330
2AA
100
AcDbEntity
  8
Layer0
  6
AUSGEZOGEN
 62
     9
370
    18
100
AcDbLine
 10
-150.276558916858
 20
118.402542010754
 30
0.0
 11
-150.276558916858
 21
120.711929217786
 31
0.0
  0
LINE
  5
2D6
330
2AA
100
AcDbEntity
  8
Stammform
  6
AUSGEZOGEN
 62
    56
370
    18
100
AcDbLine
 10
-150.276558916858
 20
120.711929217786
 30
0.0
 11
-152.276558916858
 21
119.55723561427
 31
0.0
  0
LINE
  5
2D7
330
2AA
100
AcDbEntity
  8
Stammform
  6
AUSGEZOGEN
 62
    56
370
    18
100
AcDbLine
 10
-152.276558916858
 20
119.55723561427
 30
0.0
 11
-152.276558916858
 21
117.24783314845
 31
0.0
  0
LINE
  5
2D8
330
2AA
100
AcDbEntity
  8
Stammform
  6
AUSGEZOGEN
 62
    56
370
    18
100
AcDbLine
 10
-152.276558916858
 20
119.55723561427
 30
0.0
 11
-154.276558916858
 21
120.711929217786
 31
0.0
  0
LINE
  5
2D9
330
2AA
100
AcDbEntity
  8
Stammform
  6
AUSGEZOGEN
 62
    56
370
    18
100
AcDbLine
 10
-148.276558916858
 20
119.55723561427
 30
0.0
 11
-150.276558916858
 21
120.711929217786
 31
0.0
  0
LINE
  5
2DA
330
2AA
100
AcDbEntity
  8
Stammform
  6
AUSGEZOGEN
 62
    56
370
    18
100
AcDbLine
 10
-148.276558916858
 20
119.55723561427
 30
0.0
 11
-148.276558916858
 21
117.24783314845
 31
0.0
  0
LINE
  5
2DB
330
2AA
100
AcDbEntity
  8
Stammform
  6
AUSGEZOGEN
 62
    56
370
    18
100
AcDbLine
 10
-146.276558916858
 20
120.711929217786
 30
0.0
 11
-148.276558916858
 21
119.55723561427
 31
0.0
  0
LINE
  5
2DC
330
2AA
100
AcDbEntity
  8
Layer0
  6
AUSGEZOGEN
 62
     9
370
    18
100
AcDbLine
 10
-146.276558916858
 20
120.711929217786
 30
0.0
 11
-148.276558916858
 21
121.86663808009
 31
0.0
  0
LINE
  5
2DD
330
2AA
100
AcDbEntity
  8
Layer0
  6
AUSGEZOGEN
 62
     9
370
    18
100
AcDbLine
 10
-148.276558916858
 20
121.86663808009
 30
0.0
 11
-150.276558916858
 21
120.711929217786
 31
0.0
  0
LINE
  5
2DE
330
2AA
100
AcDbEntity
  8
Layer0
  6
AUSGEZOGEN
 62
     9
370
    18
100
AcDbLine
 10
-150.276558916858
 20
120.711929217786
 30
0.0
 11
-150.276558916858
 21
118.402542010754
 31
0.0
  0
LINE
  5
2DF
330
2AA
100
AcDbEntity
  8
Layer0
  6
AUSGEZOGEN
 62
     9
370
    18
100
AcDbLine
 10
-150.276558916858
 20
118.402542010754
 30
0.0
 11
-148.276558916858
 21
117.24783314845
 31
0.0
  0
LINE
  5
2E0
330
2AA
100
AcDbEntity
  8
Layer0
  6
AUSGEZOGEN
 62
     9
370
    18
100
AcDbLine
 10
-148.276558916858
 20
117.24783314845
 30
0.0
 11
-146.276558916858
 21
118.402542010754
 31
0.0
  0
LINE
  5
2E1
330
2AA
100
AcDbEntity
  8
Layer0
  6
AUSGEZOGEN
 62
     9
370
    18
100
AcDbLine
 10
-146.276558916858
 20
118.402542010754
 30
0.0
 11
-146.276558916858
 21
120.711929217786
 31
0.0
  0
LINE
  5
2E2
330
2AA
100
AcDbEntity
  8
Layer0
  6
AUSGEZOGEN
 62
     9
370
    18
100
AcDbLine
 10
-158.276558916858
 20
120.711929217786
 30
0.0
 11
-160.276558916858
 21
121.86663808009
 31
0.0
  0
LINE
  5
2E3
330
2AA
100
AcDbEntity
  8
Layer0
  6
AUSGEZOGEN
 62
     9
370
    18
100
AcDbLine
 10
-160.276558916858
 20
121.86663808009
 30
0.0
 11
-162.276558916858
 21
120.711929217786
 31
0.0
  0
LINE
  5
2E4
330
2AA
100
AcDbEntity
  8
Layer0
  6
AUSGEZOGEN
 62
     9
370
    18
100
AcDbLine
 10
-162.276558916858
 20
120.711929217786
 30
0.0
 11
-162.276558916858
 21
118.402542010754
 31
0.0
  0
LINE
  5
2E5
330
2AA
100
AcDbEntity
  8
Layer0
  6
AUSGEZOGEN
 62
     9
370
    18
100
AcDbLine
 10
-162.276558916858
 20
118.402542010754
 30
0.0
 11
-160.276558916858
 21
117.24783314845
 31
0.0
  0
LINE
  5
2E6
330
2AA
100
AcDbEntity
  8
Layer0
  6
AUSGEZOGEN
 62
     9
370
    18
100
AcDbLine
 10
-160.276558916858
 20
117.24783314845
 30
0.0
 11
-158.276558916858
 21
118.402542010754
 31
0.0
  0
LINE
  5
2E7
330
2AA
100
AcDbEntity
  8
Layer0
  6
AUSGEZOGEN
 62
     9
370
    18
100
AcDbLine
 10
-158.276558916858
 20
118.402542010754
 30
0.0
 11
-158.276558916858
 21
120.711929217786
 31
0.0
  0
LINE
  5
2E8
330
2AA
100
AcDbEntity
  8
Stammform
  6
AUSGEZOGEN
 62
    56
370
    18
100
AcDbLine
 10
-158.276558916858
 20
120.711929217786
 30
0.0
 11
-160.276558916858
 21
119.55723561427
 31
0.0
  0
LINE
  5
2E9
330
2AA
100
AcDbEntity
  8
Stammform
  6
AUSGEZOGEN
 62
    56
370
    18
100
AcDbLine
 10
-160.276558916858
 20
119.55723561427
 30
0.0
 11
-160.276558916858
 21
117.24783314845
 31
0.0
  0
LINE
  5
2EA
330
2AA
100
AcDbEntity
  8
Stammform
  6
AUSGEZOGEN
 62
    56
370
    18
100
AcDbLine
 10
-160.276558916858
 20
119.55723561427
 30
0.0
 11
-162.276558916858
 21
120.711929217786
 31
0.0
  0
LINE
  5
2EB
330
2AA
100
AcDbEntity
  8
Stammform
  6
AUSGEZOGEN
 62
    56
370
    18
100
AcDbLine
 10
-156.276558916858
 20
119.55723561427
 30
0.0
 11
-158.276558916858
 21
120.711929217786
 31
0.0
  0
LINE
  5
2EC
330
2AA
100
AcDbEntity
  8
Stammform
  6
AUSGEZOGEN
 62
    56
370
    18
100
AcDbLine
 10
-156.276558916858
 20
119.55723561427
 30
0.0
 11
-156.276558916858
 21
117.24783314845
 31
0.0
  0
LINE
  5
2ED
330
2AA
100
AcDbEntity
  8
Stammform
  6
AUSGEZOGEN
 62
    56
370
    18
100
AcDbLine
 10
-154.276558916858
 20
120.711929217786
 30
0.0
 11
-156.276558916858
 21
119.55723561427
 31
0.0
  0
LINE
  5
2EE
330
2AA
100
AcDbEntity
  8
Layer0
  6
AUSGEZOGEN
 62
     9
370
    18
100
AcDbLine
 10
-154.276558916858
 20
120.711929217786
 30
0.0
 11
-156.276558916858
 21
121.86663808009
 31
0.0
  0
LINE
  5
2EF
330
2AA
100
AcDbEntity
  8
Layer0
  6
AUSGEZOGEN
 62
     9
370
    18
100
AcDbLine
 10
-156.276558916858
 20
121.86663808009
 30
0.0
 11
-158.276558916858
 21
120.711929217786
 31
0.0
  0
LINE
  5
2F0
330
2AA
100
AcDbEntity
  8
Layer0
  6
AUSGEZOGEN
 62
     9
370
    18
100
AcDbLine
 10
-158.276558916858
 20
120.711929217786
 30
0.0
 11
-158.276558916858
 21
118.402542010754
 31
0.0
  0
LINE
  5
2F1
330
2AA
100
AcDbEntity
  8
Layer0
  6
AUSGEZOGEN
 62
     9
370
    18
100
AcDbLine
 10
-158.276558916858
 20
118.402542010754
 30
0.0
 11
-156.276558916858
 21
117.24783314845
 31
0.0
  0
LINE
  5
2F2
330
2AA
100
AcDbEntity
  8
Layer0
  6
AUSGEZOGEN
 62
     9
370
    18
100
AcDbLine
 10
-156.276558916858
 20
117.24783314845
 30
0.0
 11
-154.276558916858
 21
118.402542010754
 31
0.0
  0
LINE
  5
2F3
330
2AA
100
AcDbEntity
  8
Layer0
  6
AUSGEZOGEN
 62
     9
370
    18
100
AcDbLine
 10
-154.276558916858
 20
118.402542010754
 30
0.0
 11
-154.276558916858
 21
120.711929217786
 31
0.0
  0
LINE
  5
2F4
330
2AA
100
AcDbEntity
  8
Stammform
  6
AUSGEZOGEN
 62
    56
370
    18
100
AcDbLine
 10
-164.276558916858
 20
119.55723561427
 30
0.0
 11
-166.276558916858
 21
120.711929217786
 31
0.0
  0
LINE
  5
2F5
330
2AA
100
AcDbEntity
  8
Stammform
  6
AUSGEZOGEN
 62
    56
370
    18
100
AcDbLine
 10
-164.276558916858
 20
119.55723561427
 30
0.0
 11
-164.276558916858
 21
117.24783314845
 31
0.0
  0
LINE
  5
2F6
330
2AA
100
AcDbEntity
  8
Stammform
  6
AUSGEZOGEN
 62
    56
370
    18
100
AcDbLine
 10
-162.276558916858
 20
120.711929217786
 30
0.0
 11
-164.276558916858
 21
119.55723561427
 31
0.0
  0
LINE
  5
2F7
330
2AA
100
AcDbEntity
  8
Layer0
  6
AUSGEZOGEN
 62
     9
370
    18
100
AcDbLine
 10
-162.276558916858
 20
120.711929217786
 30
0.0
 11
-164.276558916858
 21
121.86663808009
 31
0.0
  0
LINE
  5
2F8
330
2AA
100
AcDbEntity
  8
Layer0
  6
AUSGEZOGEN
 62
     9
370
    18
100
AcDbLine
 10
-164.276558916858
 20
121.86663808009
 30
0.0
 11
-166.276558916858
 21
120.711929217786
 31
0.0
  0
LINE
  5
2F9
330
2AA
100
AcDbEntity
  8
Layer0
  6
AUSGEZOGEN
 62
     9
370
    18
100
AcDbLine
 10
-166.276558916858
 20
118.402542010754
 30
0.0
 11
-164.276558916858
 21
117.24783314845
 31
0.0
  0
LINE
  5
2FA
330
2AA
100
AcDbEntity
  8
Layer0
  6
AUSGEZOGEN
 62
     9
370
    18
100
AcDbLine
 10
-164.276558916858
 20
117.24783314845
 30
0.0
 11
-162.276558916858
 21
118.402542010754
 31
0.0
  0
LINE
  5
2FB
330
2AA
100
AcDbEntity
  8
Layer0
  6
AUSGEZOGEN
 62
     9
370
    18
100
AcDbLine
 10
-162.276558916858
 20
118.402542010754
 30
0.0
 11
-162.276558916858
 21
120.711929217786
 31
0.0
  0
LINE
  5
2FC
330
2AA
100
AcDbEntity
  8
Layer0
  6
AUSGEZOGEN
 62
     9
370
    18
100
AcDbLine
 10
-166.276558916858
 20
120.711929217786
 30
0.0
 11
-164.276558916858
 21
121.86663808009
 31
0.0
  0
LINE
  5
2FD
330
2AA
100
AcDbEntity
  8
Layer0
  6
AUSGEZOGEN
 62
     9
370
    18
100
AcDbLine
 10
-164.276558916858
 20
121.86663808009
 30
0.0
 11
-164.276558916858
 21
124.176040545911
 31
0.0
  0
LINE
  5
2FE
330
2AA
100
AcDbEntity
  8
Stammform
  6
AUSGEZOGEN
 62
    56
370
    18
100
AcDbLine
 10
-164.276558916858
 20
124.176040545911
 30
0.0
 11
-166.276558916858
 21
123.021331683606
 31
0.0
  0
LINE
  5
2FF
330
2AA
100
AcDbEntity
  8
Layer0
  6
AUSGEZOGEN
 62
     9
370
    18
100
AcDbLine
 10
-160.276558916858
 20
124.176040545911
 30
0.0
 11
-160.276558916858
 21
121.86663808009
 31
0.0
  0
LINE
  5
300
330
2AA
100
AcDbEntity
  8
Layer0
  6
AUSGEZOGEN
 62
     9
370
    18
100
AcDbLine
 10
-160.276558916858
 20
121.86663808009
 30
0.0
 11
-158.276558916858
 21
120.711929217786
 31
0.0
  0
LINE
  5
301
330
2AA
100
AcDbEntity
  8
Layer0
  6
AUSGEZOGEN
 62
     9
370
    18
100
AcDbLine
 10
-158.276558916858
 20
120.711929217786
 30
0.0
 11
-156.276558916858
 21
121.86663808009
 31
0.0
  0
LINE
  5
302
330
2AA
100
AcDbEntity
  8
Layer0
  6
AUSGEZOGEN
 62
     9
370
    18
100
AcDbLine
 10
-156.276558916858
 20
121.86663808009
 30
0.0
 11
-156.276558916858
 21
124.176040545911
 31
0.0
  0
LINE
  5
303
330
2AA
100
AcDbEntity
  8
Stammform
  6
AUSGEZOGEN
 62
    56
370
    18
100
AcDbLine
 10
-156.276558916858
 20
124.176040545911
 30
0.0
 11
-158.276558916858
 21
123.021331683606
 31
0.0
  0
LINE
  5
304
330
2AA
100
AcDbEntity
  8
Stammform
  6
AUSGEZOGEN
 62
    56
370
    18
100
AcDbLine
 10
-158.276558916858
 20
123.021331683606
 30
0.0
 11
-158.276558916858
 21
120.711929217786
 31
0.0
  0
LINE
  5
305
330
2AA
100
AcDbEntity
  8
Stammform
  6
AUSGEZOGEN
 62
    56
370
    18
100
AcDbLine
 10
-158.276558916858
 20
123.021331683606
 30
0.0
 11
-160.276558916858
 21
124.176040545911
 31
0.0
  0
LINE
  5
306
330
2AA
100
AcDbEntity
  8
Stammform
  6
AUSGEZOGEN
 62
    56
370
    18
100
AcDbLine
 10
-162.276558916858
 20
123.021331683606
 30
0.0
 11
-164.276558916858
 21
124.176040545911
 31
0.0
  0
LINE
  5
307
330
2AA
100
AcDbEntity
  8
Stammform
  6
AUSGEZOGEN
 62
    56
370
    18
100
AcDbLine
 10
-162.276558916858
 20
123.021331683606
 30
0.0
 11
-162.276558916858
 21
120.711929217786
 31
0.0
  0
LINE
  5
308
330
2AA
100
AcDbEntity
  8
Stammform
  6
AUSGEZOGEN
 62
    56
370
    18
100
AcDbLine
 10
-160.276558916858
 20
124.176040545911
 30
0.0
 11
-162.276558916858
 21
123.021331683606
 31
0.0
  0
LINE
  5
309
330
2AA
100
AcDbEntity
  8
Layer0
  6
AUSGEZOGEN
 62
     9
370
    18
100
AcDbLine
 10
-164.276558916858
 20
124.176040545911
 30
0.0
 11
-164.276558916858
 21
121.86663808009
 31
0.0
  0
LINE
  5
30A
330
2AA
100
AcDbEntity
  8
Layer0
  6
AUSGEZOGEN
 62
     9
370
    18
100
AcDbLine
 10
-164.276558916858
 20
121.86663808009
 30
0.0
 11
-162.276558916858
 21
120.711929217786
 31
0.0
  0
LINE
  5
30B
330
2AA
100
AcDbEntity
  8
Layer0
  6
AUSGEZOGEN
 62
     9
370
    18
100
AcDbLine
 10
-162.276558916858
 20
120.711929217786
 30
0.0
 11
-160.276558916858
 21
121.86663808009
 31
0.0
  0
LINE
  5
30C
330
2AA
100
AcDbEntity
  8
Layer0
  6
AUSGEZOGEN
 62
     9
370
    18
100
AcDbLine
 10
-160.276558916858
 20
121.86663808009
 30
0.0
 11
-160.276558916858
 21
124.176040545911
 31
0.0
  0
LINE
  5
30D
330
2AA
100
AcDbEntity
  8
Layer0
  6
AUSGEZOGEN
 62
     9
370
    18
100
AcDbLine
 10
-152.276558916858
 20
124.176040545911
 30
0.0
 11
-152.276558916858
 21
121.86663808009
 31
0.0
  0
LINE
  5
30E
330
2AA
100
AcDbEntity
  8
Layer0
  6
AUSGEZOGEN
 62
     9
370
    18
100
AcDbLine
 10
-152.276558916858
 20
121.86663808009
 30
0.0
 11
-150.276558916858
 21
120.711929217786
 31
0.0
  0
LINE
  5
30F
330
2AA
100
AcDbEntity
  8
Layer0
  6
AUSGEZOGEN
 62
     9
370
    18
100
AcDbLine
 10
-150.276558916858
 20
120.711929217786
 30
0.0
 11
-148.276558916858
 21
121.86663808009
 31
0.0
  0
LINE
  5
310
330
2AA
100
AcDbEntity
  8
Layer0
  6
AUSGEZOGEN
 62
     9
370
    18
100
AcDbLine
 10
-148.276558916858
 20
121.86663808009
 30
0.0
 11
-148.276558916858
 21
124.176040545911
 31
0.0
  0
LINE
  5
311
330
2AA
100
AcDbEntity
  8
Stammform
  6
AUSGEZOGEN
 62
    56
370
    18
100
AcDbLine
 10
-148.276558916858
 20
124.176040545911
 30
0.0
 11
-150.276558916858
 21
123.021331683606
 31
0.0
  0
LINE
  5
312
330
2AA
100
AcDbEntity
  8
Stammform
  6
AUSGEZOGEN
 62
    56
370
    18
100
AcDbLine
 10
-150.276558916858
 20
123.021331683606
 30
0.0
 11
-150.276558916858
 21
120.711929217786
 31
0.0
  0
LINE
  5
313
330
2AA
100
AcDbEntity
  8
Stammform
  6
AUSGEZOGEN
 62
    56
370
    18
100
AcDbLine
 10
-150.276558916858
 20
123.021331683606
 30
0.0
 11
-152.276558916858
 21
124.176040545911
 31
0.0
  0
LINE
  5
314
330
2AA
100
AcDbEntity
  8
Stammform
  6
AUSGEZOGEN
 62
    56
370
    18
100
AcDbLine
 10
-154.276558916858
 20
123.021331683606
 30
0.0
 11
-156.276558916858
 21
124.176040545911
 31
0.0
  0
LINE
  5
315
330
2AA
100
AcDbEntity
  8
Stammform
  6
AUSGEZOGEN
 62
    56
370
    18
100
AcDbLine
 10
-154.276558916858
 20
123.021331683606
 30
0.0
 11
-154.276558916858
 21
120.711929217786
 31
0.0
  0
LINE
  5
316
330
2AA
100
AcDbEntity
  8
Stammform
  6
AUSGEZOGEN
 62
    56
370
    18
100
AcDbLine
 10
-152.276558916858
 20
124.176040545911
 30
0.0
 11
-154.276558916858
 21
123.021331683606
 31
0.0
  0
LINE
  5
317
330
2AA
100
AcDbEntity
  8
Layer0
  6
AUSGEZOGEN
 62
     9
370
    18
100
AcDbLine
 10
-156.276558916858
 20
124.176040545911
 30
0.0
 11
-156.276558916858
 21
121.86663808009
 31
0.0
  0
LINE
  5
318
330
2AA
100
AcDbEntity
  8
Layer0
  6
AUSGEZOGEN
 62
     9
370
    18
100
AcDbLine
 10
-156.276558916858
 20
121.86663808009
 30
0.0
 11
-154.276558916858
 21
120.711929217786
 31
0.0
  0
LINE
  5
319
330
2AA
100
AcDbEntity
  8
Layer0
  6
AUSGEZOGEN
 62
     9
370
    18
100
AcDbLine
 10
-154.276558916858
 20
120.711929217786
 30
0.0
 11
-152.276558916858
 21
121.86663808009
 31
0.0
  0
LINE
  5
31A
330
2AA
100
AcDbEntity
  8
Layer0
  6
AUSGEZOGEN
 62
     9
370
    18
100
AcDbLine
 10
-152.276558916858
 20
121.86663808009
 30
0.0
 11
-152.276558916858
 21
124.176040545911
 31
0.0
  0
LINE
  5
31B
330
2AA
100
AcDbEntity
  8
Layer0
  6
AUSGEZOGEN
 62
     9
370
    18
100
AcDbLine
 10
-132.276558916858
 20
124.176040545911
 30
0.0
 11
-132.276558916858
 21
121.86663808009
 31
0.0
  0
LINE
  5
31C
330
2AA
100
AcDbEntity
  8
Layer0
  6
AUSGEZOGEN
 62
     9
370
    18
100
AcDbLine
 10
-132.276558916858
 20
121.86663808009
 30
0.0
 11
-130.276558916858
 21
120.711929217786
 31
0.0
  0
LINE
  5
31D
330
2AA
100
AcDbEntity
  8
Stammform
  6
AUSGEZOGEN
 62
    56
370
    18
100
AcDbLine
 10
-130.276558916858
 20
123.021331683606
 30
0.0
 11
-132.276558916858
 21
124.176040545911
 31
0.0
  0
LINE
  5
31E
330
2AA
100
AcDbEntity
  8
Layer0
  6
AUSGEZOGEN
 62
     9
370
    18
100
AcDbLine
 10
-140.276558916858
 20
124.176040545911
 30
0.0
 11
-140.276558916858
 21
121.86663808009
 31
0.0
  0
LINE
  5
31F
330
2AA
100
AcDbEntity
  8
Layer0
  6
AUSGEZOGEN
 62
     9
370
    18
100
AcDbLine
 10
-140.276558916858
 20
121.86663808009
 30
0.0
 11
-138.276558916858
 21
120.711929217786
 31
0.0
  0
LINE
  5
320
330
2AA
100
AcDbEntity
  8
Layer0
  6
AUSGEZOGEN
 62
     9
370
    18
100
AcDbLine
 10
-138.276558916858
 20
120.711929217786
 30
0.0
 11
-136.276558916858
 21
121.86663808009
 31
0.0
  0
LINE
  5
321
330
2AA
100
AcDbEntity
  8
Layer0
  6
AUSGEZOGEN
 62
     9
370
    18
100
AcDbLine
 10
-136.276558916858
 20
121.86663808009
 30
0.0
 11
-136.276558916858
 21
124.176040545911
 31
0.0
  0
LINE
  5
322
330
2AA
100
AcDbEntity
  8
Stammform
  6
AUSGEZOGEN
 62
    56
370
    18
100
AcDbLine
 10
-136.276558916858
 20
124.176040545911
 30
0.0
 11
-138.276558916858
 21
123.021331683606
 31
0.0
  0
LINE
  5
323
330
2AA
100
AcDbEntity
  8
Stammform
  6
AUSGEZOGEN
 62
    56
370
    18
100
AcDbLine
 10
-138.276558916858
 20
123.021331683606
 30
0.0
 11
-138.276558916858
 21
120.711929217786
 31
0.0
  0
LINE
  5
324
330
2AA
100
AcDbEntity
  8
Stammform
  6
AUSGEZOGEN
 62
    56
370
    18
100
AcDbLine
 10
-138.276558916858
 20
123.021331683606
 30
0.0
 11
-140.276558916858
 21
124.176040545911
 31
0.0
  0
LINE
  5
325
330
2AA
100
AcDbEntity
  8
Stammform
  6
AUSGEZOGEN
 62
    56
370
    18
100
AcDbLine
 10
-134.276558916858
 20
123.021331683606
 30
0.0
 11
-136.276558916858
 21
124.176040545911
 31
0.0
  0
LINE
  5
326
330
2AA
100
AcDbEntity
  8
Stammform
  6
AUSGEZOGEN
 62
    56
370
    18
100
AcDbLine
 10
-134.276558916858
 20
123.021331683606
 30
0.0
 11
-134.276558916858
 21
120.711929217786
 31
0.0
  0
LINE
  5
327
330
2AA
100
AcDbEntity
  8
Stammform
  6
AUSGEZOGEN
 62
    56
370
    18
100
AcDbLine
 10
-132.276558916858
 20
124.176040545911
 30
0.0
 11
-134.276558916858
 21
123.021331683606
 31
0.0
  0
LINE
  5
328
330
2AA
100
AcDbEntity
  8
Layer0
  6
AUSGEZOGEN
 62
     9
370
    18
100
AcDbLine
 10
-136.276558916858
 20
124.176040545911
 30
0.0
 11
-136.276558916858
 21
121.86663808009
 31
0.0
  0
LINE
  5
329
330
2AA
100
AcDbEntity
  8
Layer0
  6
AUSGEZOGEN
 62
     9
370
    18
100
AcDbLine
 10
-136.276558916858
 20
121.86663808009
 30
0.0
 11
-134.276558916858
 21
120.711929217786
 31
0.0
  0
LINE
  5
32A
330
2AA
100
AcDbEntity
  8
Layer0
  6
AUSGEZOGEN
 62
     9
370
    18
100
AcDbLine
 10
-134.276558916858
 20
120.711929217786
 30
0.0
 11
-132.276558916858
 21
121.86663808009
 31
0.0
  0
LINE
  5
32B
330
2AA
100
AcDbEntity
  8
Layer0
  6
AUSGEZOGEN
 62
     9
370
    18
100
AcDbLine
 10
-132.276558916858
 20
121.86663808009
 30
0.0
 11
-132.276558916858
 21
124.176040545911
 31
0.0
  0
LINE
  5
32C
330
2AA
100
AcDbEntity
  8
Layer0
  6
AUSGEZOGEN
 62
     9
370
    18
100
AcDbLine
 10
-144.276558916858
 20
124.176040545911
 30
0.0
 11
-144.276558916858
 21
121.86663808009
 31
0.0
  0
LINE
  5
32D
330
2AA
100
AcDbEntity
  8
Layer0
  6
AUSGEZOGEN
 62
     9
370
    18
100
AcDbLine
 10
-144.276558916858
 20
121.86663808009
 30
0.0
 11
-142.276558916858
 21
120.711929217786
 31
0.0
  0
LINE
  5
32E
330
2AA
100
AcDbEntity
  8
Layer0
  6
AUSGEZOGEN
 62
     9
370
    18
100
AcDbLine
 10
-142.276558916858
 20
120.711929217786
 30
0.0
 11
-140.276558916858
 21
121.86663808009
 31
0.0
  0
LINE
  5
32F
330
2AA
100
AcDbEntity
  8
Layer0
  6
AUSGEZOGEN
 62
     9
370
    18
100
AcDbLine
 10
-140.276558916858
 20
121.86663808009
 30
0.0
 11
-140.276558916858
 21
124.176040545911
 31
0.0
  0
LINE
  5
330
330
2AA
100
AcDbEntity
  8
Stammform
  6
AUSGEZOGEN
 62
    56
370
    18
100
AcDbLine
 10
-140.276558916858
 20
124.176040545911
 30
0.0
 11
-142.276558916858
 21
123.021331683606
 31
0.0
  0
LINE
  5
331
330
2AA
100
AcDbEntity
  8
Stammform
  6
AUSGEZOGEN
 62
    56
370
    18
100
AcDbLine
 10
-142.276558916858
 20
123.021331683606
 30
0.0
 11
-142.276558916858
 21
120.711929217786
 31
0.0
  0
LINE
  5
332
330
2AA
100
AcDbEntity
  8
Stammform
  6
AUSGEZOGEN
 62
    56
370
    18
100
AcDbLine
 10
-142.276558916858
 20
123.021331683606
 30
0.0
 11
-144.276558916858
 21
124.176040545911
 31
0.0
  0
LINE
  5
333
330
2AA
100
AcDbEntity
  8
Stammform
  6
AUSGEZOGEN
 62
    56
370
    18
100
AcDbLine
 10
-146.276558916858
 20
123.021331683606
 30
0.0
 11
-148.276558916858
 21
124.176040545911
 31
0.0
  0
LINE
  5
334
330
2AA
100
AcDbEntity
  8
Stammform
  6
AUSGEZOGEN
 62
    56
370
    18
100
AcDbLine
 10
-146.276558916858
 20
123.021331683606
 30
0.0
 11
-146.276558916858
 21
120.711929217786
 31
0.0
  0
LINE
  5
335
330
2AA
100
AcDbEntity
  8
Stammform
  6
AUSGEZOGEN
 62
    56
370
    18
100
AcDbLine
 10
-144.276558916858
 20
124.176040545911
 30
0.0
 11
-146.276558916858
 21
123.021331683606
 31
0.0
  0
LINE
  5
336
330
2AA
100
AcDbEntity
  8
Layer0
  6
AUSGEZOGEN
 62
     9
370
    18
100
AcDbLine
 10
-148.276558916858
 20
124.176040545911
 30
0.0
 11
-148.276558916858
 21
121.86663808009
 31
0.0
  0
LINE
  5
337
330
2AA
100
AcDbEntity
  8
Layer0
  6
AUSGEZOGEN
 62
     9
370
    18
100
AcDbLine
 10
-148.276558916858
 20
121.86663808009
 30
0.0
 11
-146.276558916858
 21
120.711929217786
 31
0.0
  0
LINE
  5
338
330
2AA
100
AcDbEntity
  8
Layer0
  6
AUSGEZOGEN
 62
     9
370
    18
100
AcDbLine
 10
-146.276558916858
 20
120.711929217786
 30
0.0
 11
-144.276558916858
 21
121.86663808009
 31
0.0
  0
LINE
  5
339
330
2AA
100
AcDbEntity
  8
Layer0
  6
AUSGEZOGEN
 62
     9
370
    18
100
AcDbLine
 10
-144.276558916858
 20
121.86663808009
 30
0.0
 11
-144.276558916858
 21
124.176040545911
 31
0.0
  0
LINE
  5
33A
330
2AA
100
AcDbEntity
  8
Layer0
  6
AUSGEZOGEN
 62
     9
370
    18
100
AcDbLine
 10
-142.276558916858
 20
113.783737079114
 30
0.0
 11
-144.276558916858
 21
114.938430682629
 31
0.0
  0
LINE
  5
33B
330
2AA
100
AcDbEntity
  8
Layer0
  6
AUSGEZOGEN
 62
     9
370
    18
100
AcDbLine
 10
-144.276558916858
 20
114.938430682629
 30
0.0
 11
-146.276558916858
 21
113.783737079114
 31
0.0
  0
LINE
  5
33C
330
2AA
100
AcDbEntity
  8
Layer0
  6
AUSGEZOGEN
 62
     9
370
    18
100
AcDbLine
 10
-146.276558916858
 20
113.783737079114
 30
0.0
 11
-146.276558916858
 21
111.474334613293
 31
0.0
  0
LINE
  5
33D
330
2AA
100
AcDbEntity
  8
Layer0
  6
AUSGEZOGEN
 62
     9
370
    18
100
AcDbLine
 10
-146.276558916858
 20
111.474334613293
 30
0.0
 11
-144.276558916858
 21
110.319625750989
 31
0.0
  0
LINE
  5
33E
330
2AA
100
AcDbEntity
  8
Layer0
  6
AUSGEZOGEN
 62
     9
370
    18
100
AcDbLine
 10
-144.276558916858
 20
110.319625750989
 30
0.0
 11
-142.276558916858
 21
111.474334613293
 31
0.0
  0
LINE
  5
33F
330
2AA
100
AcDbEntity
  8
Layer0
  6
AUSGEZOGEN
 62
     9
370
    18
100
AcDbLine
 10
-142.276558916858
 20
111.474334613293
 30
0.0
 11
-142.276558916858
 21
113.783737079114
 31
0.0
  0
LINE
  5
340
330
2AA
100
AcDbEntity
  8
Stammform
  6
AUSGEZOGEN
 62
    56
370
    18
100
AcDbLine
 10
-142.276558916858
 20
113.783737079114
 30
0.0
 11
-144.276558916858
 21
112.629028216809
 31
0.0
  0
LINE
  5
341
330
2AA
100
AcDbEntity
  8
Stammform
  6
AUSGEZOGEN
 62
    56
370
    18
100
AcDbLine
 10
-144.276558916858
 20
112.629028216809
 30
0.0
 11
-144.276558916858
 21
110.319625750989
 31
0.0
  0
LINE
  5
342
330
2AA
100
AcDbEntity
  8
Stammform
  6
AUSGEZOGEN
 62
    56
370
    18
100
AcDbLine
 10
-144.276558916858
 20
112.629028216809
 30
0.0
 11
-146.276558916858
 21
113.783737079114
 31
0.0
  0
LINE
  5
343
330
2AA
100
AcDbEntity
  8
Stammform
  6
AUSGEZOGEN
 62
    56
370
    18
100
AcDbLine
 10
-140.276558916858
 20
112.629028216809
 30
0.0
 11
-142.276558916858
 21
113.783737079114
 31
0.0
  0
LINE
  5
344
330
2AA
100
AcDbEntity
  8
Stammform
  6
AUSGEZOGEN
 62
    56
370
    18
100
AcDbLine
 10
-140.276558916858
 20
112.629028216809
 30
0.0
 11
-140.276558916858
 21
110.319625750989
 31
0.0
  0
LINE
  5
345
330
2AA
100
AcDbEntity
  8
Stammform
  6
AUSGEZOGEN
 62
    56
370
    18
100
AcDbLine
 10
-138.276558916858
 20
113.783737079114
 30
0.0
 11
-140.276558916858
 21
112.629028216809
 31
0.0
  0
LINE
  5
346
330
2AA
100
AcDbEntity
  8
Layer0
  6
AUSGEZOGEN
 62
     9
370
    18
100
AcDbLine
 10
-138.276558916858
 20
113.783737079114
 30
0.0
 11
-140.276558916858
 21
114.938430682629
 31
0.0
  0
LINE
  5
347
330
2AA
100
AcDbEntity
  8
Layer0
  6
AUSGEZOGEN
 62
     9
370
    18
100
AcDbLine
 10
-140.276558916858
 20
114.938430682629
 30
0.0
 11
-142.276558916858
 21
113.783737079114
 31
0.0
  0
LINE
  5
348
330
2AA
100
AcDbEntity
  8
Layer0
  6
AUSGEZOGEN
 62
     9
370
    18
100
AcDbLine
 10
-142.276558916858
 20
113.783737079114
 30
0.0
 11
-142.276558916858
 21
111.474334613293
 31
0.0
  0
LINE
  5
349
330
2AA
100
AcDbEntity
  8
Layer0
  6
AUSGEZOGEN
 62
     9
370
    18
100
AcDbLine
 10
-142.276558916858
 20
111.474334613293
 30
0.0
 11
-140.276558916858
 21
110.319625750989
 31
0.0
  0
LINE
  5
34A
330
2AA
100
AcDbEntity
  8
Layer0
  6
AUSGEZOGEN
 62
     9
370
    18
100
AcDbLine
 10
-140.276558916858
 20
110.319625750989
 30
0.0
 11
-138.276558916858
 21
111.474334613293
 31
0.0
  0
LINE
  5
34B
330
2AA
100
AcDbEntity
  8
Layer0
  6
AUSGEZOGEN
 62
     9
370
    18
100
AcDbLine
 10
-138.276558916858
 20
111.474334613293
 30
0.0
 11
-138.276558916858
 21
113.783737079114
 31
0.0
  0
LINE
  5
34C
330
2AA
100
AcDbEntity
  8
Layer0
  6
AUSGEZOGEN
 62
     9
370
    18
100
AcDbLine
 10
-130.276558916858
 20
113.783737079114
 30
0.0
 11
-132.276558916858
 21
114.938430682629
 31
0.0
  0
LINE
  5
34D
330
2AA
100
AcDbEntity
  8
Layer0
  6
AUSGEZOGEN
 62
     9
370
    18
100
AcDbLine
 10
-132.276558916858
 20
114.938430682629
 30
0.0
 11
-134.276558916858
 21
113.783737079114
 31
0.0
  0
LINE
  5
34E
330
2AA
100
AcDbEntity
  8
Layer0
  6
AUSGEZOGEN
 62
     9
370
    18
100
AcDbLine
 10
-134.276558916858
 20
113.783737079114
 30
0.0
 11
-134.276558916858
 21
111.474334613293
 31
0.0
  0
LINE
  5
34F
330
2AA
100
AcDbEntity
  8
Layer0
  6
AUSGEZOGEN
 62
     9
370
    18
100
AcDbLine
 10
-134.276558916858
 20
111.474334613293
 30
0.0
 11
-132.276558916858
 21
110.319625750989
 31
0.0
  0
LINE
  5
350
330
2AA
100
AcDbEntity
  8
Layer0
  6
AUSGEZOGEN
 62
     9
370
    18
100
AcDbLine
 10
-132.276558916858
 20
110.319625750989
 30
0.0
 11
-130.276558916858
 21
111.474334613293
 31
0.0
  0
LINE
  5
351
330
2AA
100
AcDbEntity
  8
Stammform
  6
AUSGEZOGEN
 62
    56
370
    18
100
AcDbLine
 10
-130.276558916858
 20
113.783737079114
 30
0.0
 11
-132.276558916858
 21
112.629028216809
 31
0.0
  0
LINE
  5
352
330
2AA
100
AcDbEntity
  8
Stammform
  6
AUSGEZOGEN
 62
    56
370
    18
100
AcDbLine
 10
-132.276558916858
 20
112.629028216809
 30
0.0
 11
-132.276558916858
 21
110.319625750989
 31
0.0
  0
LINE
  5
353
330
2AA
100
AcDbEntity
  8
Stammform
  6
AUSGEZOGEN
 62
    56
370
    18
100
AcDbLine
 10
-132.276558916858
 20
112.629028216809
 30
0.0
 11
-134.276558916858
 21
113.783737079114
 31
0.0
  0
LINE
  5
354
330
2AA
100
AcDbEntity
  8
Stammform
  6
AUSGEZOGEN
 62
    56
370
    18
100
AcDbLine
 10
-136.276558916858
 20
112.629028216809
 30
0.0
 11
-138.276558916858
 21
113.783737079114
 31
0.0
  0
LINE
  5
355
330
2AA
100
AcDbEntity
  8
Stammform
  6
AUSGEZOGEN
 62
    56
370
    18
100
AcDbLine
 10
-136.276558916858
 20
112.629028216809
 30
0.0
 11
-136.276558916858
 21
110.319625750989
 31
0.0
  0
LINE
  5
356
330
2AA
100
AcDbEntity
  8
Stammform
  6
AUSGEZOGEN
 62
    56
370
    18
100
AcDbLine
 10
-134.276558916858
 20
113.783737079114
 30
0.0
 11
-136.276558916858
 21
112.629028216809
 31
0.0
  0
LINE
  5
357
330
2AA
100
AcDbEntity
  8
Layer0
  6
AUSGEZOGEN
 62
     9
370
    18
100
AcDbLine
 10
-134.276558916858
 20
113.783737079114
 30
0.0
 11
-136.276558916858
 21
114.938430682629
 31
0.0
  0
LINE
  5
358
330
2AA
100
AcDbEntity
  8
Layer0
  6
AUSGEZOGEN
 62
     9
370
    18
100
AcDbLine
 10
-136.276558916858
 20
114.938430682629
 30
0.0
 11
-138.276558916858
 21
113.783737079114
 31
0.0
  0
LINE
  5
359
330
2AA
100
AcDbEntity
  8
Layer0
  6
AUSGEZOGEN
 62
     9
370
    18
100
AcDbLine
 10
-138.276558916858
 20
113.783737079114
 30
0.0
 11
-138.276558916858
 21
111.474334613293
 31
0.0
  0
LINE
  5
35A
330
2AA
100
AcDbEntity
  8
Layer0
  6
AUSGEZOGEN
 62
     9
370
    18
100
AcDbLine
 10
-138.276558916858
 20
111.474334613293
 30
0.0
 11
-136.276558916858
 21
110.319625750989
 31
0.0
  0
LINE
  5
35B
330
2AA
100
AcDbEntity
  8
Layer0
  6
AUSGEZOGEN
 62
     9
370
    18
100
AcDbLine
 10
-136.276558916858
 20
110.319625750989
 30
0.0
 11
-134.276558916858
 21
111.474334613293
 31
0.0
  0
LINE
  5
35C
330
2AA
100
AcDbEntity
  8
Layer0
  6
AUSGEZOGEN
 62
     9
370
    18
100
AcDbLine
 10
-134.276558916858
 20
111.474334613293
 30
0.0
 11
-134.276558916858
 21
113.783737079114
 31
0.0
  0
LINE
  5
35D
330
2AA
100
AcDbEntity
  8
Layer0
  6
AUSGEZOGEN
 62
     9
370
    18
100
AcDbLine
 10
-150.276558916858
 20
113.783737079114
 30
0.0
 11
-152.276558916858
 21
114.938430682629
 31
0.0
  0
LINE
  5
35E
330
2AA
100
AcDbEntity
  8
Layer0
  6
AUSGEZOGEN
 62
     9
370
    18
100
AcDbLine
 10
-152.276558916858
 20
114.938430682629
 30
0.0
 11
-154.276558916858
 21
113.783737079114
 31
0.0
  0
LINE
  5
35F
330
2AA
100
AcDbEntity
  8
Layer0
  6
AUSGEZOGEN
 62
     9
370
    18
100
AcDbLine
 10
-154.276558916858
 20
113.783737079114
 30
0.0
 11
-154.276558916858
 21
111.474334613293
 31
0.0
  0
LINE
  5
360
330
2AA
100
AcDbEntity
  8
Layer0
  6
AUSGEZOGEN
 62
     9
370
    18
100
AcDbLine
 10
-154.276558916858
 20
111.474334613293
 30
0.0
 11
-152.276558916858
 21
110.319625750989
 31
0.0
  0
LINE
  5
361
330
2AA
100
AcDbEntity
  8
Layer0
  6
AUSGEZOGEN
 62
     9
370
    18
100
AcDbLine
 10
-152.276558916858
 20
110.319625750989
 30
0.0
 11
-150.276558916858
 21
111.474334613293
 31
0.0
  0
LINE
  5
362
330
2AA
100
AcDbEntity
  8
Layer0
  6
AUSGEZOGEN
 62
     9
370
    18
100
AcDbLine
 10
-150.276558916858
 20
111.474334613293
 30
0.0
 11
-150.276558916858
 21
113.783737079114
 31
0.0
  0
LINE
  5
363
330
2AA
100
AcDbEntity
  8
Stammform
  6
AUSGEZOGEN
 62
    56
370
    18
100
AcDbLine
 10
-150.276558916858
 20
113.783737079114
 30
0.0
 11
-152.276558916858
 21
112.629028216809
 31
0.0
  0
LINE
  5
364
330
2AA
100
AcDbEntity
  8
Stammform
  6
AUSGEZOGEN
 62
    56
370
    18
100
AcDbLine
 10
-152.276558916858
 20
112.629028216809
 30
0.0
 11
-152.276558916858
 21
110.319625750989
 31
0.0
  0
LINE
  5
365
330
2AA
100
AcDbEntity
  8
Stammform
  6
AUSGEZOGEN
 62
    56
370
    18
100
AcDbLine
 10
-152.276558916858
 20
112.629028216809
 30
0.0
 11
-154.276558916858
 21
113.783737079114
 31
0.0
  0
LINE
  5
366
330
2AA
100
AcDbEntity
  8
Stammform
  6
AUSGEZOGEN
 62
    56
370
    18
100
AcDbLine
 10
-148.276558916858
 20
112.629028216809
 30
0.0
 11
-150.276558916858
 21
113.783737079114
 31
0.0
  0
LINE
  5
367
330
2AA
100
AcDbEntity
  8
Stammform
  6
AUSGEZOGEN
 62
    56
370
    18
100
AcDbLine
 10
-148.276558916858
 20
112.629028216809
 30
0.0
 11
-148.276558916858
 21
110.319625750989
 31
0.0
  0
LINE
  5
368
330
2AA
100
AcDbEntity
  8
Stammform
  6
AUSGEZOGEN
 62
    56
370
    18
100
AcDbLine
 10
-146.276558916858
 20
113.783737079114
 30
0.0
 11
-148.276558916858
 21
112.629028216809
 31
0.0
  0
LINE
  5
369
330
2AA
100
AcDbEntity
  8
Layer0
  6
AUSGEZOGEN
 62
     9
370
    18
100
AcDbLine
 10
-146.276558916858
 20
113.783737079114
 30
0.0
 11
-148.276558916858
 21
114.938430682629
 31
0.0
  0
LINE
  5
36A
330
2AA
100
AcDbEntity
  8
Layer0
  6
AUSGEZOGEN
 62
     9
370
    18
100
AcDbLine
 10
-148.276558916858
 20
114.938430682629
 30
0.0
 11
-150.276558916858
 21
113.783737079114
 31
0.0
  0
LINE
  5
36B
330
2AA
100
AcDbEntity
  8
Layer0
  6
AUSGEZOGEN
 62
     9
370
    18
100
AcDbLine
 10
-150.276558916858
 20
113.783737079114
 30
0.0
 11
-150.276558916858
 21
111.474334613293
 31
0.0
  0
LINE
  5
36C
330
2AA
100
AcDbEntity
  8
Layer0
  6
AUSGEZOGEN
 62
     9
370
    18
100
AcDbLine
 10
-150.276558916858
 20
111.474334613293
 30
0.0
 11
-148.276558916858
 21
110.319625750989
 31
0.0
  0
LINE
  5
36D
330
2AA
100
AcDbEntity
  8
Layer0
  6
AUSGEZOGEN
 62
     9
370
    18
100
AcDbLine
 10
-148.276558916858
 20
110.319625750989
 30
0.0
 11
-146.276558916858
 21
111.474334613293
 31
0.0
  0
LINE
  5
36E
330
2AA
100
AcDbEntity
  8
Layer0
  6
AUSGEZOGEN
 62
     9
370
    18
100
AcDbLine
 10
-146.276558916858
 20
111.474334613293
 30
0.0
 11
-146.276558916858
 21
113.783737079114
 31
0.0
  0
LINE
  5
36F
330
2AA
100
AcDbEntity
  8
Layer0
  6
AUSGEZOGEN
 62
     9
370
    18
100
AcDbLine
 10
-158.276558916858
 20
113.783737079114
 30
0.0
 11
-160.276558916858
 21
114.938430682629
 31
0.0
  0
LINE
  5
370
330
2AA
100
AcDbEntity
  8
Layer0
  6
AUSGEZOGEN
 62
     9
370
    18
100
AcDbLine
 10
-160.276558916858
 20
114.938430682629
 30
0.0
 11
-162.276558916858
 21
113.783737079114
 31
0.0
  0
LINE
  5
371
330
2AA
100
AcDbEntity
  8
Layer0
  6
AUSGEZOGEN
 62
     9
370
    18
100
AcDbLine
 10
-162.276558916858
 20
113.783737079114
 30
0.0
 11
-162.276558916858
 21
111.474334613293
 31
0.0
  0
LINE
  5
372
330
2AA
100
AcDbEntity
  8
Layer0
  6
AUSGEZOGEN
 62
     9
370
    18
100
AcDbLine
 10
-162.276558916858
 20
111.474334613293
 30
0.0
 11
-160.276558916858
 21
110.319625750989
 31
0.0
  0
LINE
  5
373
330
2AA
100
AcDbEntity
  8
Layer0
  6
AUSGEZOGEN
 62
     9
370
    18
100
AcDbLine
 10
-160.276558916858
 20
110.319625750989
 30
0.0
 11
-158.276558916858
 21
111.474334613293
 31
0.0
  0
LINE
  5
374
330
2AA
100
AcDbEntity
  8
Layer0
  6
AUSGEZOGEN
 62
     9
370
    18
100
AcDbLine
 10
-158.276558916858
 20
111.474334613293
 30
0.0
 11
-158.276558916858
 21
113.783737079114
 31
0.0
  0
LINE
  5
375
330
2AA
100
AcDbEntity
  8
Stammform
  6
AUSGEZOGEN
 62
    56
370
    18
100
AcDbLine
 10
-158.276558916858
 20
113.783737079114
 30
0.0
 11
-160.276558916858
 21
112.629028216809
 31
0.0
  0
LINE
  5
376
330
2AA
100
AcDbEntity
  8
Stammform
  6
AUSGEZOGEN
 62
    56
370
    18
100
AcDbLine
 10
-160.276558916858
 20
112.629028216809
 30
0.0
 11
-160.276558916858
 21
110.319625750989
 31
0.0
  0
LINE
  5
377
330
2AA
100
AcDbEntity
  8
Stammform
  6
AUSGEZOGEN
 62
    56
370
    18
100
AcDbLine
 10
-160.276558916858
 20
112.629028216809
 30
0.0
 11
-162.276558916858
 21
113.783737079114
 31
0.0
  0
LINE
  5
378
330
2AA
100
AcDbEntity
  8
Stammform
  6
AUSGEZOGEN
 62
    56
370
    18
100
AcDbLine
 10
-156.276558916858
 20
112.629028216809
 30
0.0
 11
-158.276558916858
 21
113.783737079114
 31
0.0
  0
LINE
  5
379
330
2AA
100
AcDbEntity
  8
Stammform
  6
AUSGEZOGEN
 62
    56
370
    18
100
AcDbLine
 10
-156.276558916858
 20
112.629028216809
 30
0.0
 11
-156.276558916858
 21
110.319625750989
 31
0.0
  0
LINE
  5
37A
330
2AA
100
AcDbEntity
  8
Stammform
  6
AUSGEZOGEN
 62
    56
370
    18
100
AcDbLine
 10
-154.276558916858
 20
113.783737079114
 30
0.0
 11
-156.276558916858
 21
112.629028216809
 31
0.0
  0
LINE
  5
37B
330
2AA
100
AcDbEntity
  8
Layer0
  6
AUSGEZOGEN
 62
     9
370
    18
100
AcDbLine
 10
-154.276558916858
 20
113.783737079114
 30
0.0
 11
-156.276558916858
 21
114.938430682629
 31
0.0
  0
LINE
  5
37C
330
2AA
100
AcDbEntity
  8
Layer0
  6
AUSGEZOGEN
 62
     9
370
    18
100
AcDbLine
 10
-156.276558916858
 20
114.938430682629
 30
0.0
 11
-158.276558916858
 21
113.783737079114
 31
0.0
  0
LINE
  5
37D
330
2AA
100
AcDbEntity
  8
Layer0
  6
AUSGEZOGEN
 62
     9
370
    18
100
AcDbLine
 10
-158.276558916858
 20
113.783737079114
 30
0.0
 11
-158.276558916858
 21
111.474334613293
 31
0.0
  0
LINE
  5
37E
330
2AA
100
AcDbEntity
  8
Layer0
  6
AUSGEZOGEN
 62
     9
370
    18
100
AcDbLine
 10
-158.276558916858
 20
111.474334613293
 30
0.0
 11
-156.276558916858
 21
110.319625750989
 31
0.0
  0
LINE
  5
37F
330
2AA
100
AcDbEntity
  8
Layer0
  6
AUSGEZOGEN
 62
     9
370
    18
100
AcDbLine
 10
-156.276558916858
 20
110.319625750989
 30
0.0
 11
-154.276558916858
 21
111.474334613293
 31
0.0
  0
LINE
  5
380
330
2AA
100
AcDbEntity
  8
Layer0
  6
AUSGEZOGEN
 62
     9
370
    18
100
AcDbLine
 10
-154.276558916858
 20
111.474334613293
 30
0.0
 11
-154.276558916858
 21
113.783737079114
 31
0.0
  0
LINE
  5
381
330
2AA
100
AcDbEntity
  8
Stammform
  6
AUSGEZOGEN
 62
    56
370
    18
100
AcDbLine
 10
-164.276558916858
 20
112.629028216809
 30
0.0
 11
-166.276558916858
 21
113.783737079114
 31
0.0
  0
LINE
  5
382
330
2AA
100
AcDbEntity
  8
Stammform
  6
AUSGEZOGEN
 62
    56
370
    18
100
AcDbLine
 10
-164.276558916858
 20
112.629028216809
 30
0.0
 11
-164.276558916858
 21
110.319625750989
 31
0.0
  0
LINE
  5
383
330
2AA
100
AcDbEntity
  8
Stammform
  6
AUSGEZOGEN
 62
    56
370
    18
100
AcDbLine
 10
-162.276558916858
 20
113.783737079114
 30
0.0
 11
-164.276558916858
 21
112.629028216809
 31
0.0
  0
LINE
  5
384
330
2AA
100
AcDbEntity
  8
Layer0
  6
AUSGEZOGEN
 62
     9
370
    18
100
AcDbLine
 10
-162.276558916858
 20
113.783737079114
 30
0.0
 11
-164.276558916858
 21
114.938430682629
 31
0.0
  0
LINE
  5
385
330
2AA
100
AcDbEntity
  8
Layer0
  6
AUSGEZOGEN
 62
     9
370
    18
100
AcDbLine
 10
-164.276558916858
 20
114.938430682629
 30
0.0
 11
-166.276558916858
 21
113.783737079114
 31
0.0
  0
LINE
  5
386
330
2AA
100
AcDbEntity
  8
Layer0
  6
AUSGEZOGEN
 62
     9
370
    18
100
AcDbLine
 10
-166.276558916858
 20
111.474334613293
 30
0.0
 11
-164.276558916858
 21
110.319625750989
 31
0.0
  0
LINE
  5
387
330
2AA
100
AcDbEntity
  8
Layer0
  6
AUSGEZOGEN
 62
     9
370
    18
100
AcDbLine
 10
-164.276558916858
 20
110.319625750989
 30
0.0
 11
-162.276558916858
 21
111.474334613293
 31
0.0
  0
LINE
  5
388
330
2AA
100
AcDbEntity
  8
Layer0
  6
AUSGEZOGEN
 62
     9
370
    18
100
AcDbLine
 10
-162.276558916858
 20
111.474334613293
 30
0.0
 11
-162.276558916858
 21
113.783737079114
 31
0.0
  0
LINE
  5
389
330
2AA
100
AcDbEntity
  8
Layer0
  6
AUSGEZOGEN
 62
     9
370
    18
100
AcDbLine
 10
-164.276558916858
 20
117.24783314845
 30
0.0
 11
-166.276558916858
 21
118.402542010754
 31
0.0
  0
LINE
  5
38A
330
2AA
100
AcDbEntity
  8
Layer0
  6
AUSGEZOGEN
 62
     9
370
    18
100
AcDbLine
 10
-166.276558916858
 20
113.783737079114
 30
0.0
 11
-164.276558916858
 21
114.938430682629
 31
0.0
  0
LINE
  5
38B
330
2AA
100
AcDbEntity
  8
Layer0
  6
AUSGEZOGEN
 62
     9
370
    18
100
AcDbLine
 10
-164.276558916858
 20
114.938430682629
 30
0.0
 11
-164.276558916858
 21
117.24783314845
 31
0.0
  0
LINE
  5
38C
330
2AA
100
AcDbEntity
  8
Stammform
  6
AUSGEZOGEN
 62
    56
370
    18
100
AcDbLine
 10
-164.276558916858
 20
117.24783314845
 30
0.0
 11
-166.276558916858
 21
116.093139544934
 31
0.0
  0
LINE
  5
38D
330
2AA
100
AcDbEntity
  8
Layer0
  6
AUSGEZOGEN
 62
     9
370
    18
100
AcDbLine
 10
-156.276558916858
 20
117.24783314845
 30
0.0
 11
-158.276558916858
 21
118.402542010754
 31
0.0
  0
LINE
  5
38E
330
2AA
100
AcDbEntity
  8
Layer0
  6
AUSGEZOGEN
 62
     9
370
    18
100
AcDbLine
 10
-158.276558916858
 20
118.402542010754
 30
0.0
 11
-160.276558916858
 21
117.24783314845
 31
0.0
  0
LINE
  5
38F
330
2AA
100
AcDbEntity
  8
Layer0
  6
AUSGEZOGEN
 62
     9
370
    18
100
AcDbLine
 10
-160.276558916858
 20
117.24783314845
 30
0.0
 11
-160.276558916858
 21
114.938430682629
 31
0.0
  0
LINE
  5
390
330
2AA
100
AcDbEntity
  8
Layer0
  6
AUSGEZOGEN
 62
     9
370
    18
100
AcDbLine
 10
-160.276558916858
 20
114.938430682629
 30
0.0
 11
-158.276558916858
 21
113.783737079114
 31
0.0
  0
LINE
  5
391
330
2AA
100
AcDbEntity
  8
Layer0
  6
AUSGEZOGEN
 62
     9
370
    18
100
AcDbLine
 10
-158.276558916858
 20
113.783737079114
 30
0.0
 11
-156.276558916858
 21
114.938430682629
 31
0.0
  0
LINE
  5
392
330
2AA
100
AcDbEntity
  8
Layer0
  6
AUSGEZOGEN
 62
     9
370
    18
100
AcDbLine
 10
-156.276558916858
 20
114.938430682629
 30
0.0
 11
-156.276558916858
 21
117.24783314845
 31
0.0
  0
LINE
  5
393
330
2AA
100
AcDbEntity
  8
Stammform
  6
AUSGEZOGEN
 62
    56
370
    18
100
AcDbLine
 10
-156.276558916858
 20
117.24783314845
 30
0.0
 11
-158.276558916858
 21
116.093139544934
 31
0.0
  0
LINE
  5
394
330
2AA
100
AcDbEntity
  8
Stammform
  6
AUSGEZOGEN
 62
    56
370
    18
100
AcDbLine
 10
-158.276558916858
 20
116.093139544934
 30
0.0
 11
-158.276558916858
 21
113.783737079114
 31
0.0
  0
LINE
  5
395
330
2AA
100
AcDbEntity
  8
Stammform
  6
AUSGEZOGEN
 62
    56
370
    18
100
AcDbLine
 10
-158.276558916858
 20
116.093139544934
 30
0.0
 11
-160.276558916858
 21
117.24783314845
 31
0.0
  0
LINE
  5
396
330
2AA
100
AcDbEntity
  8
Stammform
  6
AUSGEZOGEN
 62
    56
370
    18
100
AcDbLine
 10
-162.276558916858
 20
116.093139544934
 30
0.0
 11
-164.276558916858
 21
117.24783314845
 31
0.0
  0
LINE
  5
397
330
2AA
100
AcDbEntity
  8
Stammform
  6
AUSGEZOGEN
 62
    56
370
    18
100
AcDbLine
 10
-162.276558916858
 20
116.093139544934
 30
0.0
 11
-162.276558916858
 21
113.783737079114
 31
0.0
  0
LINE
  5
398
330
2AA
100
AcDbEntity
  8
Stammform
  6
AUSGEZOGEN
 62
    56
370
    18
100
AcDbLine
 10
-160.276558916858
 20
117.24783314845
 30
0.0
 11
-162.276558916858
 21
116.093139544934
 31
0.0
  0
LINE
  5
399
330
2AA
100
AcDbEntity
  8
Layer0
  6
AUSGEZOGEN
 62
     9
370
    18
100
AcDbLine
 10
-160.276558916858
 20
117.24783314845
 30
0.0
 11
-162.276558916858
 21
118.402542010754
 31
0.0
  0
LINE
  5
39A
330
2AA
100
AcDbEntity
  8
Layer0
  6
AUSGEZOGEN
 62
     9
370
    18
100
AcDbLine
 10
-162.276558916858
 20
118.402542010754
 30
0.0
 11
-164.276558916858
 21
117.24783314845
 31
0.0
  0
LINE
  5
39B
330
2AA
100
AcDbEntity
  8
Layer0
  6
AUSGEZOGEN
 62
     9
370
    18
100
AcDbLine
 10
-164.276558916858
 20
117.24783314845
 30
0.0
 11
-164.276558916858
 21
114.938430682629
 31
0.0
  0
LINE
  5
39C
330
2AA
100
AcDbEntity
  8
Layer0
  6
AUSGEZOGEN
 62
     9
370
    18
100
AcDbLine
 10
-164.276558916858
 20
114.938430682629
 30
0.0
 11
-162.276558916858
 21
113.783737079114
 31
0.0
  0
LINE
  5
39D
330
2AA
100
AcDbEntity
  8
Layer0
  6
AUSGEZOGEN
 62
     9
370
    18
100
AcDbLine
 10
-162.276558916858
 20
113.783737079114
 30
0.0
 11
-160.276558916858
 21
114.938430682629
 31
0.0
  0
LINE
  5
39E
330
2AA
100
AcDbEntity
  8
Layer0
  6
AUSGEZOGEN
 62
     9
370
    18
100
AcDbLine
 10
-160.276558916858
 20
114.938430682629
 30
0.0
 11
-160.276558916858
 21
117.24783314845
 31
0.0
  0
LINE
  5
39F
330
2AA
100
AcDbEntity
  8
Layer0
  6
AUSGEZOGEN
 62
     9
370
    18
100
AcDbLine
 10
-148.276558916858
 20
117.24783314845
 30
0.0
 11
-150.276558916858
 21
118.402542010754
 31
0.0
  0
LINE
  5
3A0
330
2AA
100
AcDbEntity
  8
Layer0
  6
AUSGEZOGEN
 62
     9
370
    18
100
AcDbLine
 10
-150.276558916858
 20
118.402542010754
 30
0.0
 11
-152.276558916858
 21
117.24783314845
 31
0.0
  0
LINE
  5
3A1
330
2AA
100
AcDbEntity
  8
Layer0
  6
AUSGEZOGEN
 62
     9
370
    18
100
AcDbLine
 10
-152.276558916858
 20
117.24783314845
 30
0.0
 11
-152.276558916858
 21
114.938430682629
 31
0.0
  0
LINE
  5
3A2
330
2AA
100
AcDbEntity
  8
Layer0
  6
AUSGEZOGEN
 62
     9
370
    18
100
AcDbLine
 10
-152.276558916858
 20
114.938430682629
 30
0.0
 11
-150.276558916858
 21
113.783737079114
 31
0.0
  0
LINE
  5
3A3
330
2AA
100
AcDbEntity
  8
Layer0
  6
AUSGEZOGEN
 62
     9
370
    18
100
AcDbLine
 10
-150.276558916858
 20
113.783737079114
 30
0.0
 11
-148.276558916858
 21
114.938430682629
 31
0.0
  0
LINE
  5
3A4
330
2AA
100
AcDbEntity
  8
Layer0
  6
AUSGEZOGEN
 62
     9
370
    18
100
AcDbLine
 10
-148.276558916858
 20
114.938430682629
 30
0.0
 11
-148.276558916858
 21
117.24783314845
 31
0.0
  0
LINE
  5
3A5
330
2AA
100
AcDbEntity
  8
Stammform
  6
AUSGEZOGEN
 62
    56
370
    18
100
AcDbLine
 10
-148.276558916858
 20
117.24783314845
 30
0.0
 11
-150.276558916858
 21
116.093139544934
 31
0.0
  0
LINE
  5
3A6
330
2AA
100
AcDbEntity
  8
Stammform
  6
AUSGEZOGEN
 62
    56
370
    18
100
AcDbLine
 10
-150.276558916858
 20
116.093139544934
 30
0.0
 11
-150.276558916858
 21
113.783737079114
 31
0.0
  0
LINE
  5
3A7
330
2AA
100
AcDbEntity
  8
Stammform
  6
AUSGEZOGEN
 62
    56
370
    18
100
AcDbLine
 10
-150.276558916858
 20
116.093139544934
 30
0.0
 11
-152.276558916858
 21
117.24783314845
 31
0.0
  0
LINE
  5
3A8
330
2AA
100
AcDbEntity
  8
Stammform
  6
AUSGEZOGEN
 62
    56
370
    18
100
AcDbLine
 10
-154.276558916858
 20
116.093139544934
 30
0.0
 11
-156.276558916858
 21
117.24783314845
 31
0.0
  0
LINE
  5
3A9
330
2AA
100
AcDbEntity
  8
Stammform
  6
AUSGEZOGEN
 62
    56
370
    18
100
AcDbLine
 10
-154.276558916858
 20
116.093139544934
 30
0.0
 11
-154.276558916858
 21
113.783737079114
 31
0.0
  0
LINE
  5
3AA
330
2AA
100
AcDbEntity
  8
Stammform
  6
AUSGEZOGEN
 62
    56
370
    18
100
AcDbLine
 10
-152.276558916858
 20
117.24783314845
 30
0.0
 11
-154.276558916858
 21
116.093139544934
 31
0.0
  0
LINE
  5
3AB
330
2AA
100
AcDbEntity
  8
Layer0
  6
AUSGEZOGEN
 62
     9
370
    18
100
AcDbLine
 10
-152.276558916858
 20
117.24783314845
 30
0.0
 11
-154.276558916858
 21
118.402542010754
 31
0.0
  0
LINE
  5
3AC
330
2AA
100
AcDbEntity
  8
Layer0
  6
AUSGEZOGEN
 62
     9
370
    18
100
AcDbLine
 10
-154.276558916858
 20
118.402542010754
 30
0.0
 11
-156.276558916858
 21
117.24783314845
 31
0.0
  0
LINE
  5
3AD
330
2AA
100
AcDbEntity
  8
Layer0
  6
AUSGEZOGEN
 62
     9
370
    18
100
AcDbLine
 10
-156.276558916858
 20
117.24783314845
 30
0.0
 11
-156.276558916858
 21
114.938430682629
 31
0.0
  0
LINE
  5
3AE
330
2AA
100
AcDbEntity
  8
Layer0
  6
AUSGEZOGEN
 62
     9
370
    18
100
AcDbLine
 10
-156.276558916858
 20
114.938430682629
 30
0.0
 11
-154.276558916858
 21
113.783737079114
 31
0.0
  0
LINE
  5
3AF
330
2AA
100
AcDbEntity
  8
Layer0
  6
AUSGEZOGEN
 62
     9
370
    18
100
AcDbLine
 10
-154.276558916858
 20
113.783737079114
 30
0.0
 11
-152.276558916858
 21
114.938430682629
 31
0.0
  0
LINE
  5
3B0
330
2AA
100
AcDbEntity
  8
Layer0
  6
AUSGEZOGEN
 62
     9
370
    18
100
AcDbLine
 10
-152.276558916858
 20
114.938430682629
 30
0.0
 11
-152.276558916858
 21
117.24783314845
 31
0.0
  0
LINE
  5
3B1
330
2AA
100
AcDbEntity
  8
Layer0
  6
AUSGEZOGEN
 62
     9
370
    18
100
AcDbLine
 10
-130.276558916858
 20
118.402542010754
 30
0.0
 11
-132.276558916858
 21
117.24783314845
 31
0.0
  0
LINE
  5
3B2
330
2AA
100
AcDbEntity
  8
Layer0
  6
AUSGEZOGEN
 62
     9
370
    18
100
AcDbLine
 10
-132.276558916858
 20
117.24783314845
 30
0.0
 11
-132.276558916858
 21
114.938430682629
 31
0.0
  0
LINE
  5
3B3
330
2AA
100
AcDbEntity
  8
Layer0
  6
AUSGEZOGEN
 62
     9
370
    18
100
AcDbLine
 10
-132.276558916858
 20
114.938430682629
 30
0.0
 11
-130.276558916858
 21
113.783737079114
 31
0.0
  0
LINE
  5
3B4
330
2AA
100
AcDbEntity
  8
Stammform
  6
AUSGEZOGEN
 62
    56
370
    18
100
AcDbLine
 10
-130.276558916858
 20
116.093139544934
 30
0.0
 11
-132.276558916858
 21
117.24783314845
 31
0.0
  0
LINE
  5
3B5
330
2AA
100
AcDbEntity
  8
Layer0
  6
AUSGEZOGEN
 62
     9
370
    18
100
AcDbLine
 10
-136.276558916858
 20
117.24783314845
 30
0.0
 11
-138.276558916858
 21
118.402542010754
 31
0.0
  0
LINE
  5
3B6
330
2AA
100
AcDbEntity
  8
Layer0
  6
AUSGEZOGEN
 62
     9
370
    18
100
AcDbLine
 10
-138.276558916858
 20
118.402542010754
 30
0.0
 11
-140.276558916858
 21
117.24783314845
 31
0.0
  0
LINE
  5
3B7
330
2AA
100
AcDbEntity
  8
Layer0
  6
AUSGEZOGEN
 62
     9
370
    18
100
AcDbLine
 10
-140.276558916858
 20
117.24783314845
 30
0.0
 11
-140.276558916858
 21
114.938430682629
 31
0.0
  0
LINE
  5
3B8
330
2AA
100
AcDbEntity
  8
Layer0
  6
AUSGEZOGEN
 62
     9
370
    18
100
AcDbLine
 10
-140.276558916858
 20
114.938430682629
 30
0.0
 11
-138.276558916858
 21
113.783737079114
 31
0.0
  0
LINE
  5
3B9
330
2AA
100
AcDbEntity
  8
Layer0
  6
AUSGEZOGEN
 62
     9
370
    18
100
AcDbLine
 10
-138.276558916858
 20
113.783737079114
 30
0.0
 11
-136.276558916858
 21
114.938430682629
 31
0.0
  0
LINE
  5
3BA
330
2AA
100
AcDbEntity
  8
Layer0
  6
AUSGEZOGEN
 62
     9
370
    18
100
AcDbLine
 10
-136.276558916858
 20
114.938430682629
 30
0.0
 11
-136.276558916858
 21
117.24783314845
 31
0.0
  0
LINE
  5
3BB
330
2AA
100
AcDbEntity
  8
Stammform
  6
AUSGEZOGEN
 62
    56
370
    18
100
AcDbLine
 10
-136.276558916858
 20
117.24783314845
 30
0.0
 11
-138.276558916858
 21
116.093139544934
 31
0.0
  0
LINE
  5
3BC
330
2AA
100
AcDbEntity
  8
Stammform
  6
AUSGEZOGEN
 62
    56
370
    18
100
AcDbLine
 10
-138.276558916858
 20
116.093139544934
 30
0.0
 11
-138.276558916858
 21
113.783737079114
 31
0.0
  0
LINE
  5
3BD
330
2AA
100
AcDbEntity
  8
Stammform
  6
AUSGEZOGEN
 62
    56
370
    18
100
AcDbLine
 10
-138.276558916858
 20
116.093139544934
 30
0.0
 11
-140.276558916858
 21
117.24783314845
 31
0.0
  0
LINE
  5
3BE
330
2AA
100
AcDbEntity
  8
Stammform
  6
AUSGEZOGEN
 62
    56
370
    18
100
AcDbLine
 10
-134.276558916858
 20
116.093139544934
 30
0.0
 11
-136.276558916858
 21
117.24783314845
 31
0.0
  0
LINE
  5
3BF
330
2AA
100
AcDbEntity
  8
Stammform
  6
AUSGEZOGEN
 62
    56
370
    18
100
AcDbLine
 10
-134.276558916858
 20
116.093139544934
 30
0.0
 11
-134.276558916858
 21
113.783737079114
 31
0.0
  0
LINE
  5
3C0
330
2AA
100
AcDbEntity
  8
Stammform
  6
AUSGEZOGEN
 62
    56
370
    18
100
AcDbLine
 10
-132.276558916858
 20
117.24783314845
 30
0.0
 11
-134.276558916858
 21
116.093139544934
 31
0.0
  0
LINE
  5
3C1
330
2AA
100
AcDbEntity
  8
Layer0
  6
AUSGEZOGEN
 62
     9
370
    18
100
AcDbLine
 10
-132.276558916858
 20
117.24783314845
 30
0.0
 11
-134.276558916858
 21
118.402542010754
 31
0.0
  0
LINE
  5
3C2
330
2AA
100
AcDbEntity
  8
Layer0
  6
AUSGEZOGEN
 62
     9
370
    18
100
AcDbLine
 10
-134.276558916858
 20
118.402542010754
 30
0.0
 11
-136.276558916858
 21
117.24783314845
 31
0.0
  0
LINE
  5
3C3
330
2AA
100
AcDbEntity
  8
Layer0
  6
AUSGEZOGEN
 62
     9
370
    18
100
AcDbLine
 10
-136.276558916858
 20
117.24783314845
 30
0.0
 11
-136.276558916858
 21
114.938430682629
 31
0.0
  0
LINE
  5
3C4
330
2AA
100
AcDbEntity
  8
Layer0
  6
AUSGEZOGEN
 62
     9
370
    18
100
AcDbLine
 10
-136.276558916858
 20
114.938430682629
 30
0.0
 11
-134.276558916858
 21
113.783737079114
 31
0.0
  0
LINE
  5
3C5
330
2AA
100
AcDbEntity
  8
Layer0
  6
AUSGEZOGEN
 62
     9
370
    18
100
AcDbLine
 10
-134.276558916858
 20
113.783737079114
 30
0.0
 11
-132.276558916858
 21
114.938430682629
 31
0.0
  0
LINE
  5
3C6
330
2AA
100
AcDbEntity
  8
Layer0
  6
AUSGEZOGEN
 62
     9
370
    18
100
AcDbLine
 10
-132.276558916858
 20
114.938430682629
 30
0.0
 11
-132.276558916858
 21
117.24783314845
 31
0.0
  0
LINE
  5
3C7
330
2AA
100
AcDbEntity
  8
Layer0
  6
AUSGEZOGEN
 62
     9
370
    18
100
AcDbLine
 10
-140.276558916858
 20
117.24783314845
 30
0.0
 11
-142.276558916858
 21
118.402542010754
 31
0.0
  0
LINE
  5
3C8
330
2AA
100
AcDbEntity
  8
Layer0
  6
AUSGEZOGEN
 62
     9
370
    18
100
AcDbLine
 10
-142.276558916858
 20
118.402542010754
 30
0.0
 11
-144.276558916858
 21
117.24783314845
 31
0.0
  0
LINE
  5
3C9
330
2AA
100
AcDbEntity
  8
Layer0
  6
AUSGEZOGEN
 62
     9
370
    18
100
AcDbLine
 10
-144.276558916858
 20
117.24783314845
 30
0.0
 11
-144.276558916858
 21
114.938430682629
 31
0.0
  0
LINE
  5
3CA
330
2AA
100
AcDbEntity
  8
Layer0
  6
AUSGEZOGEN
 62
     9
370
    18
100
AcDbLine
 10
-144.276558916858
 20
114.938430682629
 30
0.0
 11
-142.276558916858
 21
113.783737079114
 31
0.0
  0
LINE
  5
3CB
330
2AA
100
AcDbEntity
  8
Layer0
  6
AUSGEZOGEN
 62
     9
370
    18
100
AcDbLine
 10
-142.276558916858
 20
113.783737079114
 30
0.0
 11
-140.276558916858
 21
114.938430682629
 31
0.0
  0
LINE
  5
3CC
330
2AA
100
AcDbEntity
  8
Layer0
  6
AUSGEZOGEN
 62
     9
370
    18
100
AcDbLine
 10
-140.276558916858
 20
114.938430682629
 30
0.0
 11
-140.276558916858
 21
117.24783314845
 31
0.0
  0
LINE
  5
3CD
330
2AA
100
AcDbEntity
  8
Stammform
  6
AUSGEZOGEN
 62
    56
370
    18
100
AcDbLine
 10
-140.276558916858
 20
117.24783314845
 30
0.0
 11
-142.276558916858
 21
116.093139544934
 31
0.0
  0
LINE
  5
3CE
330
2AA
100
AcDbEntity
  8
Stammform
  6
AUSGEZOGEN
 62
    56
370
    18
100
AcDbLine
 10
-142.276558916858
 20
116.093139544934
 30
0.0
 11
-142.276558916858
 21
113.783737079114
 31
0.0
  0
LINE
  5
3CF
330
2AA
100
AcDbEntity
  8
Stammform
  6
AUSGEZOGEN
 62
    56
370
    18
100
AcDbLine
 10
-142.276558916858
 20
116.093139544934
 30
0.0
 11
-144.276558916858
 21
117.24783314845
 31
0.0
  0
LINE
  5
3D0
330
2AA
100
AcDbEntity
  8
Stammform
  6
AUSGEZOGEN
 62
    56
370
    18
100
AcDbLine
 10
-146.276558916858
 20
116.093139544934
 30
0.0
 11
-148.276558916858
 21
117.24783314845
 31
0.0
  0
LINE
  5
3D1
330
2AA
100
AcDbEntity
  8
Stammform
  6
AUSGEZOGEN
 62
    56
370
    18
100
AcDbLine
 10
-146.276558916858
 20
116.093139544934
 30
0.0
 11
-146.276558916858
 21
113.783737079114
 31
0.0
  0
LINE
  5
3D2
330
2AA
100
AcDbEntity
  8
Stammform
  6
AUSGEZOGEN
 62
    56
370
    18
100
AcDbLine
 10
-144.276558916858
 20
117.24783314845
 30
0.0
 11
-146.276558916858
 21
116.093139544934
 31
0.0
  0
LINE
  5
3D3
330
2AA
100
AcDbEntity
  8
Layer0
  6
AUSGEZOGEN
 62
     9
370
    18
100
AcDbLine
 10
-144.276558916858
 20
117.24783314845
 30
0.0
 11
-146.276558916858
 21
118.402542010754
 31
0.0
  0
LINE
  5
3D4
330
2AA
100
AcDbEntity
  8
Layer0
  6
AUSGEZOGEN
 62
     9
370
    18
100
AcDbLine
 10
-146.276558916858
 20
118.402542010754
 30
0.0
 11
-148.276558916858
 21
117.24783314845
 31
0.0
  0
LINE
  5
3D5
330
2AA
100
AcDbEntity
  8
Layer0
  6
AUSGEZOGEN
 62
     9
370
    18
100
AcDbLine
 10
-148.276558916858
 20
117.24783314845
 30
0.0
 11
-148.276558916858
 21
114.938430682629
 31
0.0
  0
LINE
  5
3D6
330
2AA
100
AcDbEntity
  8
Layer0
  6
AUSGEZOGEN
 62
     9
370
    18
100
AcDbLine
 10
-148.276558916858
 20
114.938430682629
 30
0.0
 11
-146.276558916858
 21
113.783737079114
 31
0.0
  0
LINE
  5
3D7
330
2AA
100
AcDbEntity
  8
Layer0
  6
AUSGEZOGEN
 62
     9
370
    18
100
AcDbLine
 10
-146.276558916858
 20
113.783737079114
 30
0.0
 11
-144.276558916858
 21
114.938430682629
 31
0.0
  0
LINE
  5
3D8
330
2AA
100
AcDbEntity
  8
Layer0
  6
AUSGEZOGEN
 62
     9
370
    18
100
AcDbLine
 10
-144.276558916858
 20
114.938430682629
 30
0.0
 11
-144.276558916858
 21
117.24783314845
 31
0.0
  0
LINE
  5
3D9
330
2AA
100
AcDbEntity
  8
Layer0
  6
AUSGEZOGEN
 62
     9
370
    18
100
AcDbLine
 10
-142.276558916858
 20
106.855529681653
 30
0.0
 11
-144.276558916858
 21
108.010223285168
 31
0.0
  0
LINE
  5
3DA
330
2AA
100
AcDbEntity
  8
Layer0
  6
AUSGEZOGEN
 62
     9
370
    18
100
AcDbLine
 10
-144.276558916858
 20
108.010223285168
 30
0.0
 11
-146.276558916858
 21
106.855529681653
 31
0.0
  0
LINE
  5
3DB
330
2AA
100
AcDbEntity
  8
Layer0
  6
AUSGEZOGEN
 62
     9
370
    18
100
AcDbLine
 10
-146.276558916858
 20
106.855529681653
 30
0.0
 11
-146.276558916858
 21
105.700836078137
 31
0.0
  0
LINE
  5
3DC
330
2AA
100
AcDbEntity
  8
Layer0
  6
AUSGEZOGEN
 62
     9
370
    18
100
AcDbLine
 10
-142.276558916858
 20
105.700836078137
 30
0.0
 11
-142.276558916858
 21
106.855529681653
 31
0.0
  0
LINE
  5
3DD
330
2AA
100
AcDbEntity
  8
Stammform
  6
AUSGEZOGEN
 62
    56
370
    18
100
AcDbLine
 10
-142.276558916858
 20
106.855529681653
 30
0.0
 11
-144.276558916858
 21
105.700836078137
 31
0.0
  0
LINE
  5
3DE
330
2AA
100
AcDbEntity
  8
Stammform
  6
AUSGEZOGEN
 62
    56
370
    18
100
AcDbLine
 10
-144.276558916858
 20
105.700836078137
 30
0.0
 11
-146.276558916858
 21
106.855529681653
 31
0.0
  0
LINE
  5
3DF
330
2AA
100
AcDbEntity
  8
Stammform
  6
AUSGEZOGEN
 62
    56
370
    18
100
AcDbLine
 10
-140.276558916858
 20
105.700836078137
 30
0.0
 11
-142.276558916858
 21
106.855529681653
 31
0.0
  0
LINE
  5
3E0
330
2AA
100
AcDbEntity
  8
Stammform
  6
AUSGEZOGEN
 62
    56
370
    18
100
AcDbLine
 10
-138.276558916858
 20
106.855529681653
 30
0.0
 11
-140.276558916858
 21
105.700836078137
 31
0.0
  0
LINE
  5
3E1
330
2AA
100
AcDbEntity
  8
Layer0
  6
AUSGEZOGEN
 62
     9
370
    18
100
AcDbLine
 10
-138.276558916858
 20
106.855529681653
 30
0.0
 11
-140.276558916858
 21
108.010223285168
 31
0.0
  0
LINE
  5
3E2
330
2AA
100
AcDbEntity
  8
Layer0
  6
AUSGEZOGEN
 62
     9
370
    18
100
AcDbLine
 10
-140.276558916858
 20
108.010223285168
 30
0.0
 11
-142.276558916858
 21
106.855529681653
 31
0.0
  0
LINE
  5
3E3
330
2AA
100
AcDbEntity
  8
Layer0
  6
AUSGEZOGEN
 62
     9
370
    18
100
AcDbLine
 10
-138.276558916858
 20
105.700836078137
 30
0.0
 11
-138.276558916858
 21
106.855529681653
 31
0.0
  0
LINE
  5
3E4
330
2AA
100
AcDbEntity
  8
Layer0
  6
AUSGEZOGEN
 62
     9
370
    18
100
AcDbLine
 10
-130.276558916858
 20
106.855529681653
 30
0.0
 11
-132.276558916858
 21
108.010223285168
 31
0.0
  0
LINE
  5
3E5
330
2AA
100
AcDbEntity
  8
Layer0
  6
AUSGEZOGEN
 62
     9
370
    18
100
AcDbLine
 10
-132.276558916858
 20
108.010223285168
 30
0.0
 11
-134.276558916858
 21
106.855529681653
 31
0.0
  0
LINE
  5
3E6
330
2AA
100
AcDbEntity
  8
Layer0
  6
AUSGEZOGEN
 62
     9
370
    18
100
AcDbLine
 10
-134.276558916858
 20
106.855529681653
 30
0.0
 11
-134.276558916858
 21
105.700836078137
 31
0.0
  0
LINE
  5
3E7
330
2AA
100
AcDbEntity
  8
Stammform
  6
AUSGEZOGEN
 62
    56
370
    18
100
AcDbLine
 10
-130.276558916858
 20
106.855529681653
 30
0.0
 11
-132.276558916858
 21
105.700836078137
 31
0.0
  0
LINE
  5
3E8
330
2AA
100
AcDbEntity
  8
Stammform
  6
AUSGEZOGEN
 62
    56
370
    18
100
AcDbLine
 10
-132.276558916858
 20
105.700836078137
 30
0.0
 11
-134.276558916858
 21
106.855529681653
 31
0.0
  0
LINE
  5
3E9
330
2AA
100
AcDbEntity
  8
Stammform
  6
AUSGEZOGEN
 62
    56
370
    18
100
AcDbLine
 10
-136.276558916858
 20
105.700836078137
 30
0.0
 11
-138.276558916858
 21
106.855529681653
 31
0.0
  0
LINE
  5
3EA
330
2AA
100
AcDbEntity
  8
Stammform
  6
AUSGEZOGEN
 62
    56
370
    18
100
AcDbLine
 10
-134.276558916858
 20
106.855529681653
 30
0.0
 11
-136.276558916858
 21
105.700836078137
 31
0.0
  0
LINE
  5
3EB
330
2AA
100
AcDbEntity
  8
Layer0
  6
AUSGEZOGEN
 62
     9
370
    18
100
AcDbLine
 10
-134.276558916858
 20
106.855529681653
 30
0.0
 11
-136.276558916858
 21
108.010223285168
 31
0.0
  0
LINE
  5
3EC
330
2AA
100
AcDbEntity
  8
Layer0
  6
AUSGEZOGEN
 62
     9
370
    18
100
AcDbLine
 10
-136.276558916858
 20
108.010223285168
 30
0.0
 11
-138.276558916858
 21
106.855529681653
 31
0.0
  0
LINE
  5
3ED
330
2AA
100
AcDbEntity
  8
Layer0
  6
AUSGEZOGEN
 62
     9
370
    18
100
AcDbLine
 10
-150.276558916858
 20
106.855529681653
 30
0.0
 11
-152.276558916858
 21
108.010223285168
 31
0.0
  0
LINE
  5
3EE
330
2AA
100
AcDbEntity
  8
Layer0
  6
AUSGEZOGEN
 62
     9
370
    18
100
AcDbLine
 10
-152.276558916858
 20
108.010223285168
 30
0.0
 11
-154.276558916858
 21
106.855529681653
 31
0.0
  0
LINE
  5
3EF
330
2AA
100
AcDbEntity
  8
Layer0
  6
AUSGEZOGEN
 62
     9
370
    18
100
AcDbLine
 10
-154.276558916858
 20
106.855529681653
 30
0.0
 11
-154.276558916858
 21
105.700836078137
 31
0.0
  0
LINE
  5
3F0
330
2AA
100
AcDbEntity
  8
Layer0
  6
AUSGEZOGEN
 62
     9
370
    18
100
AcDbLine
 10
-150.276558916858
 20
105.700836078137
 30
0.0
 11
-150.276558916858
 21
106.855529681653
 31
0.0
  0
LINE
  5
3F1
330
2AA
100
AcDbEntity
  8
Stammform
  6
AUSGEZOGEN
 62
    56
370
    18
100
AcDbLine
 10
-150.276558916858
 20
106.855529681653
 30
0.0
 11
-152.276558916858
 21
105.700836078137
 31
0.0
  0
LINE
  5
3F2
330
2AA
100
AcDbEntity
  8
Stammform
  6
AUSGEZOGEN
 62
    56
370
    18
100
AcDbLine
 10
-152.276558916858
 20
105.700836078137
 30
0.0
 11
-154.276558916858
 21
106.855529681653
 31
0.0
  0
LINE
  5
3F3
330
2AA
100
AcDbEntity
  8
Stammform
  6
AUSGEZOGEN
 62
    56
370
    18
100
AcDbLine
 10
-148.276558916858
 20
105.700836078137
 30
0.0
 11
-150.276558916858
 21
106.855529681653
 31
0.0
  0
LINE
  5
3F4
330
2AA
100
AcDbEntity
  8
Stammform
  6
AUSGEZOGEN
 62
    56
370
    18
100
AcDbLine
 10
-146.276558916858
 20
106.855529681653
 30
0.0
 11
-148.276558916858
 21
105.700836078137
 31
0.0
  0
LINE
  5
3F5
330
2AA
100
AcDbEntity
  8
Layer0
  6
AUSGEZOGEN
 62
     9
370
    18
100
AcDbLine
 10
-146.276558916858
 20
106.855529681653
 30
0.0
 11
-148.276558916858
 21
108.010223285168
 31
0.0
  0
LINE
  5
3F6
330
2AA
100
AcDbEntity
  8
Layer0
  6
AUSGEZOGEN
 62
     9
370
    18
100
AcDbLine
 10
-148.276558916858
 20
108.010223285168
 30
0.0
 11
-150.276558916858
 21
106.855529681653
 31
0.0
  0
LINE
  5
3F7
330
2AA
100
AcDbEntity
  8
Layer0
  6
AUSGEZOGEN
 62
     9
370
    18
100
AcDbLine
 10
-158.276558916858
 20
106.855529681653
 30
0.0
 11
-160.276558916858
 21
108.010223285168
 31
0.0
  0
LINE
  5
3F8
330
2AA
100
AcDbEntity
  8
Layer0
  6
AUSGEZOGEN
 62
     9
370
    18
100
AcDbLine
 10
-160.276558916858
 20
108.010223285168
 30
0.0
 11
-162.276558916858
 21
106.855529681653
 31
0.0
  0
LINE
  5
3F9
330
2AA
100
AcDbEntity
  8
Layer0
  6
AUSGEZOGEN
 62
     9
370
    18
100
AcDbLine
 10
-162.276558916858
 20
106.855529681653
 30
0.0
 11
-162.276558916858
 21
105.700836078137
 31
0.0
  0
LINE
  5
3FA
330
2AA
100
AcDbEntity
  8
Layer0
  6
AUSGEZOGEN
 62
     9
370
    18
100
AcDbLine
 10
-158.276558916858
 20
105.700836078137
 30
0.0
 11
-158.276558916858
 21
106.855529681653
 31
0.0
  0
LINE
  5
3FB
330
2AA
100
AcDbEntity
  8
Stammform
  6
AUSGEZOGEN
 62
    56
370
    18
100
AcDbLine
 10
-158.276558916858
 20
106.855529681653
 30
0.0
 11
-160.276558916858
 21
105.700836078137
 31
0.0
  0
LINE
  5
3FC
330
2AA
100
AcDbEntity
  8
Stammform
  6
AUSGEZOGEN
 62
    56
370
    18
100
AcDbLine
 10
-160.276558916858
 20
105.700836078137
 30
0.0
 11
-162.276558916858
 21
106.855529681653
 31
0.0
  0
LINE
  5
3FD
330
2AA
100
AcDbEntity
  8
Stammform
  6
AUSGEZOGEN
 62
    56
370
    18
100
AcDbLine
 10
-156.276558916858
 20
105.700836078137
 30
0.0
 11
-158.276558916858
 21
106.855529681653
 31
0.0
  0
LINE
  5
3FE
330
2AA
100
AcDbEntity
  8
Stammform
  6
AUSGEZOGEN
 62
    56
370
    18
100
AcDbLine
 10
-154.276558916858
 20
106.855529681653
 30
0.0
 11
-156.276558916858
 21
105.700836078137
 31
0.0
  0
LINE
  5
3FF
330
2AA
100
AcDbEntity
  8
Layer0
  6
AUSGEZOGEN
 62
     9
370
    18
100
AcDbLine
 10
-154.276558916858
 20
106.855529681653
 30
0.0
 11
-156.276558916858
 21
108.010223285168
 31
0.0
  0
LINE
  5
400
330
2AA
100
AcDbEntity
  8
Layer0
  6
AUSGEZOGEN
 62
     9
370
    18
100
AcDbLine
 10
-156.276558916858
 20
108.010223285168
 30
0.0
 11
-158.276558916858
 21
106.855529681653
 31
0.0
  0
LINE
  5
401
330
2AA
100
AcDbEntity
  8
Stammform
  6
AUSGEZOGEN
 62
    56
370
    18
100
AcDbLine
 10
-164.276558916858
 20
105.700836078137
 30
0.0
 11
-166.276558916858
 21
106.855529681653
 31
0.0
  0
LINE
  5
402
330
2AA
100
AcDbEntity
  8
Stammform
  6
AUSGEZOGEN
 62
    56
370
    18
100
AcDbLine
 10
-162.276558916858
 20
106.855529681653
 30
0.0
 11
-164.276558916858
 21
105.700836078137
 31
0.0
  0
LINE
  5
403
330
2AA
100
AcDbEntity
  8
Layer0
  6
AUSGEZOGEN
 62
     9
370
    18
100
AcDbLine
 10
-162.276558916858
 20
106.855529681653
 30
0.0
 11
-164.276558916858
 21
108.010223285168
 31
0.0
  0
LINE
  5
404
330
2AA
100
AcDbEntity
  8
Layer0
  6
AUSGEZOGEN
 62
     9
370
    18
100
AcDbLine
 10
-164.276558916858
 20
108.010223285168
 30
0.0
 11
-166.276558916858
 21
106.855529681653
 31
0.0
  0
LINE
  5
405
330
2AA
100
AcDbEntity
  8
Layer0
  6
AUSGEZOGEN
 62
     9
370
    18
100
AcDbLine
 10
-164.276558916858
 20
110.319625750989
 30
0.0
 11
-166.276558916858
 21
111.474334613293
 31
0.0
  0
LINE
  5
406
330
2AA
100
AcDbEntity
  8
Layer0
  6
AUSGEZOGEN
 62
     9
370
    18
100
AcDbLine
 10
-166.276558916858
 20
106.855529681653
 30
0.0
 11
-164.276558916858
 21
108.010223285168
 31
0.0
  0
LINE
  5
407
330
2AA
100
AcDbEntity
  8
Layer0
  6
AUSGEZOGEN
 62
     9
370
    18
100
AcDbLine
 10
-164.276558916858
 20
108.010223285168
 30
0.0
 11
-164.276558916858
 21
110.319625750989
 31
0.0
  0
LINE
  5
408
330
2AA
100
AcDbEntity
  8
Stammform
  6
AUSGEZOGEN
 62
    56
370
    18
100
AcDbLine
 10
-164.276558916858
 20
110.319625750989
 30
0.0
 11
-166.276558916858
 21
109.164932147473
 31
0.0
  0
LINE
  5
409
330
2AA
100
AcDbEntity
  8
Layer0
  6
AUSGEZOGEN
 62
     9
370
    18
100
AcDbLine
 10
-156.276558916858
 20
110.319625750989
 30
0.0
 11
-158.276558916858
 21
111.474334613293
 31
0.0
  0
LINE
  5
40A
330
2AA
100
AcDbEntity
  8
Layer0
  6
AUSGEZOGEN
 62
     9
370
    18
100
AcDbLine
 10
-158.276558916858
 20
111.474334613293
 30
0.0
 11
-160.276558916858
 21
110.319625750989
 31
0.0
  0
LINE
  5
40B
330
2AA
100
AcDbEntity
  8
Layer0
  6
AUSGEZOGEN
 62
     9
370
    18
100
AcDbLine
 10
-160.276558916858
 20
110.319625750989
 30
0.0
 11
-160.276558916858
 21
108.010223285168
 31
0.0
  0
LINE
  5
40C
330
2AA
100
AcDbEntity
  8
Layer0
  6
AUSGEZOGEN
 62
     9
370
    18
100
AcDbLine
 10
-160.276558916858
 20
108.010223285168
 30
0.0
 11
-158.276558916858
 21
106.855529681653
 31
0.0
  0
LINE
  5
40D
330
2AA
100
AcDbEntity
  8
Layer0
  6
AUSGEZOGEN
 62
     9
370
    18
100
AcDbLine
 10
-158.276558916858
 20
106.855529681653
 30
0.0
 11
-156.276558916858
 21
108.010223285168
 31
0.0
  0
LINE
  5
40E
330
2AA
100
AcDbEntity
  8
Layer0
  6
AUSGEZOGEN
 62
     9
370
    18
100
AcDbLine
 10
-156.276558916858
 20
108.010223285168
 30
0.0
 11
-156.276558916858
 21
110.319625750989
 31
0.0
  0
LINE
  5
40F
330
2AA
100
AcDbEntity
  8
Stammform
  6
AUSGEZOGEN
 62
    56
370
    18
100
AcDbLine
 10
-156.276558916858
 20
110.319625750989
 30
0.0
 11
-158.276558916858
 21
109.164932147473
 31
0.0
  0
LINE
  5
410
330
2AA
100
AcDbEntity
  8
Stammform
  6
AUSGEZOGEN
 62
    56
370
    18
100
AcDbLine
 10
-158.276558916858
 20
109.164932147473
 30
0.0
 11
-158.276558916858
 21
106.855529681653
 31
0.0
  0
LINE
  5
411
330
2AA
100
AcDbEntity
  8
Stammform
  6
AUSGEZOGEN
 62
    56
370
    18
100
AcDbLine
 10
-158.276558916858
 20
109.164932147473
 30
0.0
 11
-160.276558916858
 21
110.319625750989
 31
0.0
  0
LINE
  5
412
330
2AA
100
AcDbEntity
  8
Stammform
  6
AUSGEZOGEN
 62
    56
370
    18
100
AcDbLine
 10
-162.276558916858
 20
109.164932147473
 30
0.0
 11
-164.276558916858
 21
110.319625750989
 31
0.0
  0
LINE
  5
413
330
2AA
100
AcDbEntity
  8
Stammform
  6
AUSGEZOGEN
 62
    56
370
    18
100
AcDbLine
 10
-162.276558916858
 20
109.164932147473
 30
0.0
 11
-162.276558916858
 21
106.855529681653
 31
0.0
  0
LINE
  5
414
330
2AA
100
AcDbEntity
  8
Stammform
  6
AUSGEZOGEN
 62
    56
370
    18
100
AcDbLine
 10
-160.276558916858
 20
110.319625750989
 30
0.0
 11
-162.276558916858
 21
109.164932147473
 31
0.0
  0
LINE
  5
415
330
2AA
100
AcDbEntity
  8
Layer0
  6
AUSGEZOGEN
 62
     9
370
    18
100
AcDbLine
 10
-160.276558916858
 20
110.319625750989
 30
0.0
 11
-162.276558916858
 21
111.474334613293
 31
0.0
  0
LINE
  5
416
330
2AA
100
AcDbEntity
  8
Layer0
  6
AUSGEZOGEN
 62
     9
370
    18
100
AcDbLine
 10
-162.276558916858
 20
111.474334613293
 30
0.0
 11
-164.276558916858
 21
110.319625750989
 31
0.0
  0
LINE
  5
417
330
2AA
100
AcDbEntity
  8
Layer0
  6
AUSGEZOGEN
 62
     9
370
    18
100
AcDbLine
 10
-164.276558916858
 20
110.319625750989
 30
0.0
 11
-164.276558916858
 21
108.010223285168
 31
0.0
  0
LINE
  5
418
330
2AA
100
AcDbEntity
  8
Layer0
  6
AUSGEZOGEN
 62
     9
370
    18
100
AcDbLine
 10
-164.276558916858
 20
108.010223285168
 30
0.0
 11
-162.276558916858
 21
106.855529681653
 31
0.0
  0
LINE
  5
419
330
2AA
100
AcDbEntity
  8
Layer0
  6
AUSGEZOGEN
 62
     9
370
    18
100
AcDbLine
 10
-162.276558916858
 20
106.855529681653
 30
0.0
 11
-160.276558916858
 21
108.010223285168
 31
0.0
  0
LINE
  5
41A
330
2AA
100
AcDbEntity
  8
Layer0
  6
AUSGEZOGEN
 62
     9
370
    18
100
AcDbLine
 10
-160.276558916858
 20
108.010223285168
 30
0.0
 11
-160.276558916858
 21
110.319625750989
 31
0.0
  0
LINE
  5
41B
330
2AA
100
AcDbEntity
  8
Layer0
  6
AUSGEZOGEN
 62
     9
370
    18
100
AcDbLine
 10
-148.276558916858
 20
110.319625750989
 30
0.0
 11
-150.276558916858
 21
111.474334613293
 31
0.0
  0
LINE
  5
41C
330
2AA
100
AcDbEntity
  8
Layer0
  6
AUSGEZOGEN
 62
     9
370
    18
100
AcDbLine
 10
-150.276558916858
 20
111.474334613293
 30
0.0
 11
-152.276558916858
 21
110.319625750989
 31
0.0
  0
LINE
  5
41D
330
2AA
100
AcDbEntity
  8
Layer0
  6
AUSGEZOGEN
 62
     9
370
    18
100
AcDbLine
 10
-152.276558916858
 20
110.319625750989
 30
0.0
 11
-152.276558916858
 21
108.010223285168
 31
0.0
  0
LINE
  5
41E
330
2AA
100
AcDbEntity
  8
Layer0
  6
AUSGEZOGEN
 62
     9
370
    18
100
AcDbLine
 10
-152.276558916858
 20
108.010223285168
 30
0.0
 11
-150.276558916858
 21
106.855529681653
 31
0.0
  0
LINE
  5
41F
330
2AA
100
AcDbEntity
  8
Layer0
  6
AUSGEZOGEN
 62
     9
370
    18
100
AcDbLine
 10
-150.276558916858
 20
106.855529681653
 30
0.0
 11
-148.276558916858
 21
108.010223285168
 31
0.0
  0
LINE
  5
420
330
2AA
100
AcDbEntity
  8
Layer0
  6
AUSGEZOGEN
 62
     9
370
    18
100
AcDbLine
 10
-148.276558916858
 20
108.010223285168
 30
0.0
 11
-148.276558916858
 21
110.319625750989
 31
0.0
  0
LINE
  5
421
330
2AA
100
AcDbEntity
  8
Stammform
  6
AUSGEZOGEN
 62
    56
370
    18
100
AcDbLine
 10
-148.276558916858
 20
110.319625750989
 30
0.0
 11
-150.276558916858
 21
109.164932147473
 31
0.0
  0
LINE
  5
422
330
2AA
100
AcDbEntity
  8
Stammform
  6
AUSGEZOGEN
 62
    56
370
    18
100
AcDbLine
 10
-150.276558916858
 20
109.164932147473
 30
0.0
 11
-150.276558916858
 21
106.855529681653
 31
0.0
  0
LINE
  5
423
330
2AA
100
AcDbEntity
  8
Stammform
  6
AUSGEZOGEN
 62
    56
370
    18
100
AcDbLine
 10
-150.276558916858
 20
109.164932147473
 30
0.0
 11
-152.276558916858
 21
110.319625750989
 31
0.0
  0
LINE
  5
424
330
2AA
100
AcDbEntity
  8
Stammform
  6
AUSGEZOGEN
 62
    56
370
    18
100
AcDbLine
 10
-154.276558916858
 20
109.164932147473
 30
0.0
 11
-156.276558916858
 21
110.319625750989
 31
0.0
  0
LINE
  5
425
330
2AA
100
AcDbEntity
  8
Stammform
  6
AUSGEZOGEN
 62
    56
370
    18
100
AcDbLine
 10
-154.276558916858
 20
109.164932147473
 30
0.0
 11
-154.276558916858
 21
106.855529681653
 31
0.0
  0
LINE
  5
426
330
2AA
100
AcDbEntity
  8
Stammform
  6
AUSGEZOGEN
 62
    56
370
    18
100
AcDbLine
 10
-152.276558916858
 20
110.319625750989
 30
0.0
 11
-154.276558916858
 21
109.164932147473
 31
0.0
  0
LINE
  5
427
330
2AA
100
AcDbEntity
  8
Layer0
  6
AUSGEZOGEN
 62
     9
370
    18
100
AcDbLine
 10
-152.276558916858
 20
110.319625750989
 30
0.0
 11
-154.276558916858
 21
111.474334613293
 31
0.0
  0
LINE
  5
428
330
2AA
100
AcDbEntity
  8
Layer0
  6
AUSGEZOGEN
 62
     9
370
    18
100
AcDbLine
 10
-154.276558916858
 20
111.474334613293
 30
0.0
 11
-156.276558916858
 21
110.319625750989
 31
0.0
  0
LINE
  5
429
330
2AA
100
AcDbEntity
  8
Layer0
  6
AUSGEZOGEN
 62
     9
370
    18
100
AcDbLine
 10
-156.276558916858
 20
110.319625750989
 30
0.0
 11
-156.276558916858
 21
108.010223285168
 31
0.0
  0
LINE
  5
42A
330
2AA
100
AcDbEntity
  8
Layer0
  6
AUSGEZOGEN
 62
     9
370
    18
100
AcDbLine
 10
-156.276558916858
 20
108.010223285168
 30
0.0
 11
-154.276558916858
 21
106.855529681653
 31
0.0
  0
LINE
  5
42B
330
2AA
100
AcDbEntity
  8
Layer0
  6
AUSGEZOGEN
 62
     9
370
    18
100
AcDbLine
 10
-154.276558916858
 20
106.855529681653
 30
0.0
 11
-152.276558916858
 21
108.010223285168
 31
0.0
  0
LINE
  5
42C
330
2AA
100
AcDbEntity
  8
Layer0
  6
AUSGEZOGEN
 62
     9
370
    18
100
AcDbLine
 10
-152.276558916858
 20
108.010223285168
 30
0.0
 11
-152.276558916858
 21
110.319625750989
 31
0.0
  0
LINE
  5
42D
330
2AA
100
AcDbEntity
  8
Layer0
  6
AUSGEZOGEN
 62
     9
370
    18
100
AcDbLine
 10
-130.276558916858
 20
111.474334613293
 30
0.0
 11
-132.276558916858
 21
110.319625750989
 31
0.0
  0
LINE
  5
42E
330
2AA
100
AcDbEntity
  8
Layer0
  6
AUSGEZOGEN
 62
     9
370
    18
100
AcDbLine
 10
-132.276558916858
 20
110.319625750989
 30
0.0
 11
-132.276558916858
 21
108.010223285168
 31
0.0
  0
LINE
  5
42F
330
2AA
100
AcDbEntity
  8
Layer0
  6
AUSGEZOGEN
 62
     9
370
    18
100
AcDbLine
 10
-132.276558916858
 20
108.010223285168
 30
0.0
 11
-130.276558916858
 21
106.855529681653
 31
0.0
  0
LINE
  5
430
330
2AA
100
AcDbEntity
  8
Stammform
  6
AUSGEZOGEN
 62
    56
370
    18
100
AcDbLine
 10
-130.276558916858
 20
109.164932147473
 30
0.0
 11
-132.276558916858
 21
110.319625750989
 31
0.0
  0
LINE
  5
431
330
2AA
100
AcDbEntity
  8
Layer0
  6
AUSGEZOGEN
 62
     9
370
    18
100
AcDbLine
 10
-136.276558916858
 20
110.319625750989
 30
0.0
 11
-138.276558916858
 21
111.474334613293
 31
0.0
  0
LINE
  5
432
330
2AA
100
AcDbEntity
  8
Layer0
  6
AUSGEZOGEN
 62
     9
370
    18
100
AcDbLine
 10
-138.276558916858
 20
111.474334613293
 30
0.0
 11
-140.276558916858
 21
110.319625750989
 31
0.0
  0
LINE
  5
433
330
2AA
100
AcDbEntity
  8
Layer0
  6
AUSGEZOGEN
 62
     9
370
    18
100
AcDbLine
 10
-140.276558916858
 20
110.319625750989
 30
0.0
 11
-140.276558916858
 21
108.010223285168
 31
0.0
  0
LINE
  5
434
330
2AA
100
AcDbEntity
  8
Layer0
  6
AUSGEZOGEN
 62
     9
370
    18
100
AcDbLine
 10
-140.276558916858
 20
108.010223285168
 30
0.0
 11
-138.276558916858
 21
106.855529681653
 31
0.0
  0
LINE
  5
435
330
2AA
100
AcDbEntity
  8
Layer0
  6
AUSGEZOGEN
 62
     9
370
    18
100
AcDbLine
 10
-138.276558916858
 20
106.855529681653
 30
0.0
 11
-136.276558916858
 21
108.010223285168
 31
0.0
  0
LINE
  5
436
330
2AA
100
AcDbEntity
  8
Layer0
  6
AUSGEZOGEN
 62
     9
370
    18
100
AcDbLine
 10
-136.276558916858
 20
108.010223285168
 30
0.0
 11
-136.276558916858
 21
110.319625750989
 31
0.0
  0
LINE
  5
437
330
2AA
100
AcDbEntity
  8
Stammform
  6
AUSGEZOGEN
 62
    56
370
    18
100
AcDbLine
 10
-136.276558916858
 20
110.319625750989
 30
0.0
 11
-138.276558916858
 21
109.164932147473
 31
0.0
  0
LINE
  5
438
330
2AA
100
AcDbEntity
  8
Stammform
  6
AUSGEZOGEN
 62
    56
370
    18
100
AcDbLine
 10
-138.276558916858
 20
109.164932147473
 30
0.0
 11
-138.276558916858
 21
106.855529681653
 31
0.0
  0
LINE
  5
439
330
2AA
100
AcDbEntity
  8
Stammform
  6
AUSGEZOGEN
 62
    56
370
    18
100
AcDbLine
 10
-138.276558916858
 20
109.164932147473
 30
0.0
 11
-140.276558916858
 21
110.319625750989
 31
0.0
  0
LINE
  5
43A
330
2AA
100
AcDbEntity
  8
Stammform
  6
AUSGEZOGEN
 62
    56
370
    18
100
AcDbLine
 10
-134.276558916858
 20
109.164932147473
 30
0.0
 11
-136.276558916858
 21
110.319625750989
 31
0.0
  0
LINE
  5
43B
330
2AA
100
AcDbEntity
  8
Stammform
  6
AUSGEZOGEN
 62
    56
370
    18
100
AcDbLine
 10
-134.276558916858
 20
109.164932147473
 30
0.0
 11
-134.276558916858
 21
106.855529681653
 31
0.0
  0
LINE
  5
43C
330
2AA
100
AcDbEntity
  8
Stammform
  6
AUSGEZOGEN
 62
    56
370
    18
100
AcDbLine
 10
-132.276558916858
 20
110.319625750989
 30
0.0
 11
-134.276558916858
 21
109.164932147473
 31
0.0
  0
LINE
  5
43D
330
2AA
100
AcDbEntity
  8
Layer0
  6
AUSGEZOGEN
 62
     9
370
    18
100
AcDbLine
 10
-132.276558916858
 20
110.319625750989
 30
0.0
 11
-134.276558916858
 21
111.474334613293
 31
0.0
  0
LINE
  5
43E
330
2AA
100
AcDbEntity
  8
Layer0
  6
AUSGEZOGEN
 62
     9
370
    18
100
AcDbLine
 10
-134.276558916858
 20
111.474334613293
 30
0.0
 11
-136.276558916858
 21
110.319625750989
 31
0.0
  0
LINE
  5
43F
330
2AA
100
AcDbEntity
  8
Layer0
  6
AUSGEZOGEN
 62
     9
370
    18
100
AcDbLine
 10
-136.276558916858
 20
110.319625750989
 30
0.0
 11
-136.276558916858
 21
108.010223285168
 31
0.0
  0
LINE
  5
440
330
2AA
100
AcDbEntity
  8
Layer0
  6
AUSGEZOGEN
 62
     9
370
    18
100
AcDbLine
 10
-136.276558916858
 20
108.010223285168
 30
0.0
 11
-134.276558916858
 21
106.855529681653
 31
0.0
  0
LINE
  5
441
330
2AA
100
AcDbEntity
  8
Layer0
  6
AUSGEZOGEN
 62
     9
370
    18
100
AcDbLine
 10
-134.276558916858
 20
106.855529681653
 30
0.0
 11
-132.276558916858
 21
108.010223285168
 31
0.0
  0
LINE
  5
442
330
2AA
100
AcDbEntity
  8
Layer0
  6
AUSGEZOGEN
 62
     9
370
    18
100
AcDbLine
 10
-132.276558916858
 20
108.010223285168
 30
0.0
 11
-132.276558916858
 21
110.319625750989
 31
0.0
  0
LINE
  5
443
330
2AA
100
AcDbEntity
  8
Layer0
  6
AUSGEZOGEN
 62
     9
370
    18
100
AcDbLine
 10
-140.276558916858
 20
110.319625750989
 30
0.0
 11
-142.276558916858
 21
111.474334613293
 31
0.0
  0
LINE
  5
444
330
2AA
100
AcDbEntity
  8
Layer0
  6
AUSGEZOGEN
 62
     9
370
    18
100
AcDbLine
 10
-142.276558916858
 20
111.474334613293
 30
0.0
 11
-144.276558916858
 21
110.319625750989
 31
0.0
  0
LINE
  5
445
330
2AA
100
AcDbEntity
  8
Layer0
  6
AUSGEZOGEN
 62
     9
370
    18
100
AcDbLine
 10
-144.276558916858
 20
110.319625750989
 30
0.0
 11
-144.276558916858
 21
108.010223285168
 31
0.0
  0
LINE
  5
446
330
2AA
100
AcDbEntity
  8
Layer0
  6
AUSGEZOGEN
 62
     9
370
    18
100
AcDbLine
 10
-144.276558916858
 20
108.010223285168
 30
0.0
 11
-142.276558916858
 21
106.855529681653
 31
0.0
  0
LINE
  5
447
330
2AA
100
AcDbEntity
  8
Layer0
  6
AUSGEZOGEN
 62
     9
370
    18
100
AcDbLine
 10
-142.276558916858
 20
106.855529681653
 30
0.0
 11
-140.276558916858
 21
108.010223285168
 31
0.0
  0
LINE
  5
448
330
2AA
100
AcDbEntity
  8
Layer0
  6
AUSGEZOGEN
 62
     9
370
    18
100
AcDbLine
 10
-140.276558916858
 20
108.010223285168
 30
0.0
 11
-140.276558916858
 21
110.319625750989
 31
0.0
  0
LINE
  5
449
330
2AA
100
AcDbEntity
  8
Stammform
  6
AUSGEZOGEN
 62
    56
370
    18
100
AcDbLine
 10
-140.276558916858
 20
110.319625750989
 30
0.0
 11
-142.276558916858
 21
109.164932147473
 31
0.0
  0
LINE
  5
44A
330
2AA
100
AcDbEntity
  8
Stammform
  6
AUSGEZOGEN
 62
    56
370
    18
100
AcDbLine
 10
-142.276558916858
 20
109.164932147473
 30
0.0
 11
-142.276558916858
 21
106.855529681653
 31
0.0
  0
LINE
  5
44B
330
2AA
100
AcDbEntity
  8
Stammform
  6
AUSGEZOGEN
 62
    56
370
    18
100
AcDbLine
 10
-142.276558916858
 20
109.164932147473
 30
0.0
 11
-144.276558916858
 21
110.319625750989
 31
0.0
  0
LINE
  5
44C
330
2AA
100
AcDbEntity
  8
Stammform
  6
AUSGEZOGEN
 62
    56
370
    18
100
AcDbLine
 10
-146.276558916858
 20
109.164932147473
 30
0.0
 11
-148.276558916858
 21
110.319625750989
 31
0.0
  0
LINE
  5
44D
330
2AA
100
AcDbEntity
  8
Stammform
  6
AUSGEZOGEN
 62
    56
370
    18
100
AcDbLine
 10
-146.276558916858
 20
109.164932147473
 30
0.0
 11
-146.276558916858
 21
106.855529681653
 31
0.0
  0
LINE
  5
44E
330
2AA
100
AcDbEntity
  8
Stammform
  6
AUSGEZOGEN
 62
    56
370
    18
100
AcDbLine
 10
-144.276558916858
 20
110.319625750989
 30
0.0
 11
-146.276558916858
 21
109.164932147473
 31
0.0
  0
LINE
  5
44F
330
2AA
100
AcDbEntity
  8
Layer0
  6
AUSGEZOGEN
 62
     9
370
    18
100
AcDbLine
 10
-144.276558916858
 20
110.319625750989
 30
0.0
 11
-146.276558916858
 21
111.474334613293
 31
0.0
  0
LINE
  5
450
330
2AA
100
AcDbEntity
  8
Layer0
  6
AUSGEZOGEN
 62
     9
370
    18
100
AcDbLine
 10
-146.276558916858
 20
111.474334613293
 30
0.0
 11
-148.276558916858
 21
110.319625750989
 31
0.0
  0
LINE
  5
451
330
2AA
100
AcDbEntity
  8
Layer0
  6
AUSGEZOGEN
 62
     9
370
    18
100
AcDbLine
 10
-148.276558916858
 20
110.319625750989
 30
0.0
 11
-148.276558916858
 21
108.010223285168
 31
0.0
  0
LINE
  5
452
330
2AA
100
AcDbEntity
  8
Layer0
  6
AUSGEZOGEN
 62
     9
370
    18
100
AcDbLine
 10
-148.276558916858
 20
108.010223285168
 30
0.0
 11
-146.276558916858
 21
106.855529681653
 31
0.0
  0
LINE
  5
453
330
2AA
100
AcDbEntity
  8
Layer0
  6
AUSGEZOGEN
 62
     9
370
    18
100
AcDbLine
 10
-146.276558916858
 20
106.855529681653
 30
0.0
 11
-144.276558916858
 21
108.010223285168
 31
0.0
  0
LINE
  5
454
330
2AA
100
AcDbEntity
  8
Layer0
  6
AUSGEZOGEN
 62
     9
370
    18
100
AcDbLine
 10
-144.276558916858
 20
108.010223285168
 30
0.0
 11
-144.276558916858
 21
110.319625750989
 31
0.0
  0
ENDBLK
  5
2AC
330
2AA
100
AcDbEntity
  8
0
100
AcDbBlockEnd
  0
BLOCK
  5
47C
330
47B
100
AcDbEntity
  8
0
100
AcDbBlockBegin
  2
A4_nNn02
 70
     0
 10
0.0
 20
0.0
 30
0.0
  3
A4_nNn02
  1

  0
LINE
  5
47E
330
47B
100
AcDbEntity
  8
Layer99
  6
AUSGEZOGEN
 62
     9
370
    18
100
AcDbLine
 10
-190.192511503955
 20
37.501101214577
 30
0.0
 11
-96.192511503955
 21
37.501101214577
 31
0.0
  0
LINE
  5
47F
330
47B
100
AcDbEntity
  8
Layer99
  6
AUSGEZOGEN
 62
     9
370
    18
100
AcDbLine
 10
-96.192511503955
 20
37.501101214577
 30
0.0
 11
-96.192511503955
 21
172.391101214577
 31
0.0
  0
LINE
  5
480
330
47B
100
AcDbEntity
  8
Layer0
  6
AUSGEZOGEN
 62
     9
370
    18
100
AcDbLine
 10
-190.192511503955
 20
37.501101214577
 30
0.0
 11
-190.192511503955
 21
172.391101214577
 31
0.0
  0
LINE
  5
481
330
47B
100
AcDbEntity
  8
Layer0
  6
AUSGEZOGEN
 62
     9
370
    18
100
AcDbLine
 10
-190.192511503955
 20
172.391101214577
 30
0.0
 11
-96.192511503955
 21
172.391101214577
 31
0.0
  0
LINE
  5
482
330
47B
100
AcDbEntity
  8
Layer0
  6
AUSGEZOGEN
 62
    56
370
    18
100
AcDbLine
 10
-192.542511503955
 20
174.741101214577
 30
0.0
 11
-93.842511503955
 21
174.741101214577
 31
0.0
  0
LINE
  5
483
330
47B
100
AcDbEntity
  8
Layer0
  6
AUSGEZOGEN
 62
    56
370
    18
100
AcDbLine
 10
-192.542511503955
 20
35.151101214577
 30
0.0
 11
-192.542511503955
 21
174.741101214577
 31
0.0
  0
LINE
  5
484
330
47B
100
AcDbEntity
  8
Layer0
  6
AUSGEZOGEN
 62
    56
370
    18
100
AcDbLine
 10
-192.542511503955
 20
35.151101214577
 30
0.0
 11
-93.842511503955
 21
35.151101214577
 31
0.0
  0
LINE
  5
485
330
47B
100
AcDbEntity
  8
Layer0
  6
AUSGEZOGEN
 62
    56
370
    18
100
AcDbLine
 10
-93.842511503955
 20
35.151101214577
 30
0.0
 11
-93.842511503955
 21
174.741101214577
 31
0.0
  0
INSERT
  5
4D1
330
47B
100
AcDbEntity
  8
0
100
AcDbBlockReference
  2
Schriftfeld_nNn03
 10
0.0
 20
0.0
 30
0.0
  0
ENDBLK
  5
47D
330
47B
100
AcDbEntity
  8
0
100
AcDbBlockEnd
  0
BLOCK
  5
487
330
486
100
AcDbEntity
  8
0
100
AcDbBlockBegin
  2
Schriftfeld_nNn03
 70
     0
 10
0.0
 20
0.0
 30
0.0
  3
Schriftfeld_nNn03
  1

  0
LINE
  5
489
330
486
100
AcDbEntity
  8
Layer99
  6
AUSGEZOGEN
 62
    56
370
    18
100
AcDbLine
 10
-152.592511503955
 20
55.478601214577
 30
0.0
 11
-152.592511503955
 21
47.488601214577
 31
0.0
  0
LINE
  5
48A
330
486
100
AcDbEntity
  8
Layer99
  6
AUSGEZOGEN
 62
    56
370
    18
100
AcDbLine
 10
-179.476488554737
 20
55.478601214577
 30
0.0
 11
-179.476488554737
 21
37.501101214577
 31
0.0
  0
LINE
  5
48B
330
486
100
AcDbEntity
  8
Layer99
  6
AUSGEZOGEN
 62
     9
370
    18
100
AcDbLine
 10
-102.302511503955
 20
45.491101214577
 30
0.0
 11
-102.302511503955
 21
39.780602290321
 31
0.0
  0
LINE
  5
48C
330
486
100
AcDbEntity
  8
Layer99
  6
AUSGEZOGEN
 62
    56
370
    18
100
AcDbLine
 10
-157.480522978565
 20
39.498601214577
 30
0.0
 11
-183.142511503955
 21
39.498601214577
 31
0.0
  0
LINE
  5
48D
330
486
100
AcDbEntity
  8
Layer99
  6
AUSGEZOGEN
 62
    56
370
    18
100
AcDbLine
 10
-157.480522978565
 20
41.496101214577
 30
0.0
 11
-183.142511503955
 21
41.496101214577
 31
0.0
  0
LINE
  5
48E
330
486
100
AcDbEntity
  8
Layer99
  6
AUSGEZOGEN
 62
    56
370
    18
100
AcDbLine
 10
-157.480522978565
 20
43.493601214577
 30
0.0
 11
-183.142511503955
 21
43.493601214577
 31
0.0
  0
LINE
  5
48F
330
486
100
AcDbEntity
  8
Layer99
  6
AUSGEZOGEN
 62
    56
370
    18
100
AcDbLine
 10
-157.480522978565
 20
45.491101214577
 30
0.0
 11
-183.142511503955
 21
45.491101214577
 31
0.0
  0
LINE
  5
490
330
486
100
AcDbEntity
  8
Layer99
  6
AUSGEZOGEN
 62
     9
370
    18
100
AcDbLine
 10
-96.192511503955
 20
45.491101214577
 30
0.0
 11
-157.480522978565
 21
45.491101214577
 31
0.0
  0
LINE
  5
491
330
486
100
AcDbEntity
  8
Layer99
  6
AUSGEZOGEN
 62
    56
370
    18
100
AcDbLine
 10
-136.706488554737
 20
47.488601214577
 30
0.0
 11
-183.142511503955
 21
47.488601214577
 31
0.0
  0
LINE
  5
492
330
486
100
AcDbEntity
  8
Layer99
  6
AUSGEZOGEN
 62
    56
370
    18
100
AcDbLine
 10
-136.706488554737
 20
49.486101214577
 30
0.0
 11
-183.142511503955
 21
49.486101214577
 31
0.0
  0
LINE
  5
493
330
486
100
AcDbEntity
  8
Layer99
  6
AUSGEZOGEN
 62
    56
370
    18
100
AcDbLine
 10
-136.706488554737
 20
51.483601214577
 30
0.0
 11
-183.142511503955
 21
51.483601214577
 31
0.0
  0
LINE
  5
494
330
486
100
AcDbEntity
  8
Layer99
  6
AUSGEZOGEN
 62
    56
370
    18
100
AcDbLine
 10
-136.706488554737
 20
53.481101214577
 30
0.0
 11
-183.142511503955
 21
53.481101214577
 31
0.0
  0
LINE
  5
495
330
486
100
AcDbEntity
  8
Layer99
  6
AUSGEZOGEN
 62
     9
370
    18
100
AcDbLine
 10
-96.192511503955
 20
55.478601214577
 30
0.0
 11
-183.142511503955
 21
55.478601214577
 31
0.0
  0
LINE
  5
496
330
486
100
AcDbEntity
  8
Layer99
  6
AUSGEZOGEN
 62
    56
370
    18
100
AcDbLine
 10
-157.480522978565
 20
60.472351214577
 30
0.0
 11
-183.142511503955
 21
60.472351214577
 31
0.0
  0
LINE
  5
497
330
486
100
AcDbEntity
  8
Layer99
  6
AUSGEZOGEN
 62
    56
370
    18
100
AcDbLine
 10
-96.192511503955
 20
60.472351214577
 30
0.0
 11
-136.706488554737
 21
60.472351214577
 31
0.0
  0
LINE
  5
498
330
486
100
AcDbEntity
  8
Layer99
  6
AUSGEZOGEN
 62
    56
370
    18
100
AcDbLine
 10
-113.300522978565
 20
63.468601214577
 30
0.0
 11
-113.300522978565
 21
60.472351214577
 31
0.0
  0
LINE
  5
499
330
486
100
AcDbEntity
  8
Layer99
  6
AUSGEZOGEN
 62
     9
370
    18
100
AcDbLine
 10
-136.706488554737
 20
63.468601214577
 30
0.0
 11
-136.706488554737
 21
39.780602290321
 31
0.0
  0
LINE
  5
49A
330
486
100
AcDbEntity
  8
Layer99
  6
AUSGEZOGEN
 62
    56
370
    18
100
AcDbLine
 10
-145.260522978565
 20
55.478601214577
 30
0.0
 11
-145.260522978565
 21
45.491101214577
 31
0.0
  0
LINE
  5
49B
330
486
100
AcDbEntity
  8
Layer99
  6
AUSGEZOGEN
 62
     9
370
    18
100
AcDbLine
 10
-157.480522978565
 20
63.468601214577
 30
0.0
 11
-157.480522978565
 21
37.501101214577
 31
0.0
  0
LINE
  5
49C
330
486
100
AcDbEntity
  8
Layer99
  6
AUSGEZOGEN
 62
     9
370
    18
100
AcDbLine
 10
-183.142511503955
 20
63.468601214577
 30
0.0
 11
-183.142511503955
 21
37.501101214577
 31
0.0
  0
LINE
  5
49D
330
486
100
AcDbEntity
  8
Layer99
  6
AUSGEZOGEN
 62
     9
370
    18
100
AcDbLine
 10
-96.192511503955
 20
63.468601214577
 30
0.0
 11
-183.142511503955
 21
63.468601214577
 31
0.0
  0
TEXT
  5
49E
330
486
100
AcDbEntity
  8
Layer99
  6
AUSGEZOGEN
 62
    56
370
    18
100
AcDbText
 10
-157.152808134815
 20
51.930256480385
 30
0.0
 40
0.94
  1
Bearb. 09.07.12   MS
 41
1.267237127053
  7
Arial
 72
     5
 11
-141.440841891333
 21
51.930256480385
 31
0.0
100
AcDbText
  0
TEXT
  5
49F
330
486
100
AcDbEntity
  8
Layer99
  6
AUSGEZOGEN
 62
    56
370
    18
100
AcDbText
 10
-157.044086210987
 20
49.972114390541
 30
0.0
 40
0.94
  1
Gepr.
 41
1.215533862924
  7
Arial
 72
     5
 11
-153.055263218447
 21
49.972114390541
 31
0.0
100
AcDbText
  0
TEXT
  5
4A0
330
486
100
AcDbEntity
  8
Layer99
  6
AUSGEZOGEN
 62
    56
370
    18
100
AcDbText
 10
-157.044086210987
 20
47.905193003822
 30
0.0
 40
0.94
  1
Norm
 41
1.171328125812
  7
Arial
 72
     5
 11
-153.287308939632
 21
47.905193003822
 31
0.0
100
AcDbText
  0
TEXT
  5
4A1
330
486
100
AcDbEntity
  8
Layer99
  6
AUSGEZOGEN
 62
    56
370
    18
100
AcDbText
 10
-101.390739043018
 20
43.963891665627
 30
0.0
 40
1.175
  1
Blatt
 41
1.26499927539
  7
Arial
 72
     5
 11
-97.239296046024
 21
43.963891665627
 31
0.0
100
AcDbText
  0
TEXT
  5
4A2
330
486
100
AcDbEntity
  8
Layer0
  6
AUSGEZOGEN
 62
   136
370
    18
100
AcDbText
 10
-156.051991484424
 20
61.35204497068
 30
0.0
 40
1.175
  1
Allgemeintoleranzen
 41
1.263559891189
  7
Arial
 72
     5
 11
-137.27817656613
 21
61.35204497068
 31
0.0
100
AcDbText
  0
TEXT
  5
4A3
330
486
100
AcDbEntity
  8
Layer0
  6
AUSGEZOGEN
 62
   136
370
    18
100
AcDbText
 10
-156.378730986377
 20
59.173174426247
 30
0.0
 40
1.175
  1
Nach: TG5
 41
1.223038375192
  7
Arial
 72
     5
 11
-146.679944943225
 21
59.173174426247
 31
0.0
100
AcDbText
  0
TEXT
  5
4A4
330
486
100
AcDbEntity
  8
Layer0
  6
AUSGEZOGEN
 62
   136
370
    18
100
AcDbText
 10
-156.299670927783
 20
56.994296710182
 30
0.0
 40
1.175
  1
DIN: 16742
 41
1.239741037486
  7
Arial
 72
     5
 11
-146.015399151316
 21
56.994296710182
 31
0.0
100
AcDbText
  0
TEXT
  5
4A5
330
486
100
AcDbEntity
  8
Layer0
  6
AUSGEZOGEN
 62
    56
370
    18
100
AcDbText
 10
-112.542625029346
 20
61.460989215065
 30
0.0
 40
1.175
  1
Gewicht:
 41
1.240831402125
  7
Arial
 72
     5
 11
-104.625810475936
 21
61.460989215065
 31
0.0
100
AcDbText
  0
TEXT
  5
4A6
330
486
100
AcDbEntity
  8
Layer0
  6
AUSGEZOGEN
 62
    56
370
    18
100
AcDbText
 10
-136.089211943408
 20
61.470950610329
 30
0.0
 40
1.175
  1
Maßstab: 2:1
 41
1.251587148984
  7
Arial
 72
     5
 11
-124.109582967555
 21
61.470950610329
 31
0.0
100
AcDbText
  0
TEXT
  5
4A7
330
486
100
AcDbEntity
  8
Layer0
  6
AUSGEZOGEN
 62
    56
370
    18
100
AcDbText
 10
-182.578477080127
 20
61.471101214577
 30
0.0
 40
1.175
  1
Schwindung:
 41
1.234746274162
  7
Arial
 72
     5
 11
-170.984919544851
 21
61.471101214577
 31
0.0
100
AcDbText
  0
TEXT
  5
4A8
330
486
100
AcDbEntity
  8
Layer0
  6
AUSGEZOGEN
 62
    56
370
    18
100
AcDbText
 10
-182.521792509815
 20
58.53078993528
 30
0.0
 40
1.175
  1
Diese Zeichnung darf nur
 41
1.271210741346
  7
Arial
 72
     5
 11
-159.114448864853
 21
58.53078993528
 31
0.0
100
AcDbText
  0
TEXT
  5
4A9
330
486
100
AcDbEntity
  8
Layer0
  6
AUSGEZOGEN
 62
    56
370
    18
100
AcDbText
 10
-182.521792509815
 20
56.650789907266
 30
0.0
 40
1.175
  1
mit CAD geändert werden
 41
1.255342283876
  7
Arial
 72
     5
 11
-158.835805996304
 21
56.650789907266
 31
0.0
100
AcDbText
  0
LINE
  5
4AA
330
486
100
AcDbEntity
  8
Layer99
  6
AUSGEZOGEN
 62
    56
370
    18
100
AcDbLine
 10
-96.192511503955
 20
39.780602290321
 30
0.0
 11
-136.706488554737
 21
39.780602290321
 31
0.0
  0
LINE
  5
4AB
330
486
100
AcDbEntity
  8
Layer99
  6
AUSGEZOGEN
 62
    56
370
    18
100
AcDbLine
 10
-96.192511503955
 20
41.778102290321
 30
0.0
 11
-102.302511503955
 21
41.778102290321
 31
0.0
  0
TEXT
  5
4AC
330
486
100
AcDbEntity
  8
Layer99
  6
AUSGEZOGEN
 62
    56
370
    18
100
AcDbText
 10
-98.834482939502
 20
40.227624385048
 30
0.0
 40
1.175
  1
Bl.
 41
1.229150265254
  7
Arial
 72
     5
 11
-96.481797145536
 21
40.227624385048
 31
0.0
100
AcDbText
  0
LINE
  5
4AD
330
486
100
AcDbEntity
  8
Layer99
  6
AUSGEZOGEN
 62
    56
370
    18
100
AcDbLine
 10
-136.706488554737
 20
39.780602290321
 30
0.0
 11
-157.480522978565
 21
39.780602290321
 31
0.0
  0
LINE
  5
4AE
330
486
100
AcDbEntity
  8
Layer99
  6
AUSGEZOGEN
 62
    56
370
    18
100
AcDbLine
 10
-165.32961477544
 20
55.478601214577
 30
0.0
 11
-165.32961477544
 21
37.501101214577
 31
0.0
  0
TEXT
  5
4AF
330
486
100
AcDbEntity
  8
Layer50
  6
AUSGEZOGEN
 62
   136
370
    18
100
AcDbText
 10
-181.105223295948
 20
39.88041725843
 30
0.0
 40
0.775
  1
--
 41
1.129032258065
  7
Arial
 72
     5
 11
-180.291473295948
 21
39.88041725843
 31
0.0
100
AcDbText
  0
TEXT
  5
4B0
330
486
100
AcDbEntity
  8
Layer50
  6
AUSGEZOGEN
 62
   136
370
    18
100
AcDbText
 10
-165.219401152393
 20
39.988069445778
 30
0.0
 40
0.75
  1
--
 41
1.048387096774
  7
Arial
 72
     5
 11
-164.488151152393
 21
39.988069445778
 31
0.0
100
AcDbText
  0
TEXT
  5
4B1
330
486
100
AcDbEntity
  8
Layer0
  6
AUSGEZOGEN
 62
    56
370
    18
100
AcDbText
 10
-156.89549001958
 20
38.015808489014
 30
0.0
 40
1.175
  1
Schutzvermerk nach DIN 34 beachten .        Copyright reserved
 41
1.286227457357
  7
Arial
 72
     5
 11
-97.568730884274
 21
38.015808489014
 31
0.0
100
AcDbText
  0
INSERT
  5
4CA
330
486
100
AcDbEntity
  8
0
100
AcDbBlockReference
  2
ULTRAREFLEX_nNn04
 10
0.0
 20
0.0
 30
0.0
  0
TEXT
  5
4CB
330
486
100
AcDbEntity
  8
Layer50
  6
AUSGEZOGEN
 62
   136
370
    18
100
AcDbText
 10
-135.6947973554
 20
46.099394656877
 30
0.0
 40
0.94
  1
-----
 41
1.308755804134
  7
Arial
 72
     5
 11
-132.834511545466
 21
46.099394656877
 31
0.0
100
AcDbText
  0
TEXT
  5
4CC
330
486
100
AcDbEntity
  8
Layer99
  6
AUSGEZOGEN
 62
    56
370
    18
100
AcDbText
 10
-165.077573733211
 20
37.967951783009
 30
0.0
 40
0.94
  1
Dat./Nam.
 41
1.239717192527
  7
Arial
 72
     5
 11
-157.755779199803
 21
37.967951783009
 31
0.0
100
AcDbText
  0
TEXT
  5
4CD
330
486
100
AcDbEntity
  8
Layer99
  6
AUSGEZOGEN
 62
    56
370
    18
100
AcDbText
 10
-183.049993723948
 20
37.965820685608
 30
0.0
 40
0.94
  1
Zust.
 41
1.239906123597
  7
Arial
 72
     5
 11
-179.43341074452
 21
37.965820685608
 31
0.0
100
AcDbText
  0
TEXT
  5
4CE
330
486
100
AcDbEntity
  8
Layer0
  6
AUSGEZOGEN
 62
    56
370
    18
100
AcDbText
 10
-151.816206764316
 20
53.884297473122
 30
0.0
 40
1.175
  1
Datum
 41
1.188171149402
  7
Arial
 72
     5
 11
-146.076835139965
 21
53.884297473122
 31
0.0
100
AcDbText
  0
TEXT
  5
4CF
330
486
100
AcDbEntity
  8
Layer0
  6
AUSGEZOGEN
 62
    56
370
    18
100
AcDbText
 10
-143.513567565759
 20
53.888225129141
 30
0.0
 40
1.175
  1
Name
 41
1.15958716227
  7
Arial
 72
     5
 11
-138.440924534728
 21
53.888225129141
 31
0.0
100
AcDbText
  0
TEXT
  5
4D0
330
486
100
AcDbEntity
  8
Layer99
  6
AUSGEZOGEN
 62
    56
370
    18
100
AcDbText
 10
-178.80623161572
 20
37.965932516486
 30
0.0
 40
0.94
  1
Änderung
 41
1.218204176926
  7
Arial
 72
     5
 11
-171.876014237687
 21
37.965932516486
 31
0.0
100
AcDbText
  0
ENDBLK
  5
488
330
486
100
AcDbEntity
  8
0
100
AcDbBlockEnd
  0
BLOCK
  5
4B3
330
4B2
100
AcDbEntity
  8
0
100
AcDbBlockBegin
  2
ULTRAREFLEX_nNn04
 70
     0
 10
0.0
 20
0.0
 30
0.0
  3
ULTRAREFLEX_nNn04
  1

  0
LINE
  5
4B5
330
4B2
100
AcDbEntity
  8
Layer0
  6
AUSGEZOGEN
 62
    30
370
    18
100
AcDbLine
 10
-138.205520120866
 20
44.007557259285
 30
0.0
 11
-139.635559002621
 21
44.007557259285
 31
0.0
  0
LINE
  5
4B6
330
4B2
100
AcDbEntity
  8
Layer0
  6
AUSGEZOGEN
 62
    30
370
    18
100
AcDbLine
 10
-139.773949862146
 20
43.927657259285
 30
0.0
 11
-140.488969303024
 21
42.689207259285
 31
0.0
  0
LINE
  5
4B7
330
4B2
100
AcDbEntity
  8
Layer0
  6
AUSGEZOGEN
 62
    30
370
    18
100
AcDbLine
 10
-140.488969303024
 20
42.529407259285
 30
0.0
 11
-139.773949862146
 21
41.290957259285
 31
0.0
  0
LINE
  5
4B8
330
4B2
100
AcDbEntity
  8
Layer0
  6
AUSGEZOGEN
 62
    30
370
    18
100
AcDbLine
 10
-139.635559002621
 20
41.211057259285
 30
0.0
 11
-138.205520120866
 21
41.211057259285
 31
0.0
  0
LINE
  5
4B9
330
4B2
100
AcDbEntity
  8
Layer0
  6
AUSGEZOGEN
 62
    30
370
    18
100
AcDbLine
 10
-138.067129261341
 20
41.290957259285
 30
0.0
 11
-137.352109820463
 21
42.529407259285
 31
0.0
  0
LINE
  5
4BA
330
4B2
100
AcDbEntity
  8
Layer0
  6
AUSGEZOGEN
 62
    30
370
    18
100
AcDbLine
 10
-137.352109820463
 20
42.689207259285
 30
0.0
 11
-138.067129261341
 21
43.927657259285
 31
0.0
  0
LINE
  5
4BB
330
4B2
100
AcDbEntity
  8
Layer0
  6
AUSGEZOGEN
 62
    30
370
    18
100
AcDbLine
 10
-138.782148702219
 20
42.689207259285
 30
0.0
 11
-137.352109820463
 21
42.689207259285
 31
0.0
  0
LINE
  5
4BC
330
4B2
100
AcDbEntity
  8
Layer0
  6
AUSGEZOGEN
 62
    30
370
    18
100
AcDbLine
 10
-140.488969303024
 20
42.689207259285
 30
0.0
 11
-139.058930421268
 21
42.689207259285
 31
0.0
  0
LINE
  5
4BD
330
4B2
100
AcDbEntity
  8
Layer0
  6
AUSGEZOGEN
 62
    30
370
    18
100
AcDbLine
 10
-138.782148702219
 20
42.529407259285
 30
0.0
 11
-137.352109820463
 21
42.529407259285
 31
0.0
  0
LINE
  5
4BE
330
4B2
100
AcDbEntity
  8
Layer0
  6
AUSGEZOGEN
 62
    30
370
    18
100
AcDbLine
 10
-140.488969303024
 20
42.529407259285
 30
0.0
 11
-139.058930421268
 21
42.529407259285
 31
0.0
  0
LINE
  5
4BF
330
4B2
100
AcDbEntity
  8
Layer0
  6
AUSGEZOGEN
 62
    30
370
    18
100
AcDbLine
 10
-138.782148702219
 20
42.529407259285
 30
0.0
 11
-138.067129261341
 21
41.290957259285
 31
0.0
  0
LINE
  5
4C0
330
4B2
100
AcDbEntity
  8
Layer0
  6
AUSGEZOGEN
 62
    30
370
    18
100
AcDbLine
 10
-139.635559002621
 20
44.007557259285
 30
0.0
 11
-138.920539561744
 21
42.769107259285
 31
0.0
  0
LINE
  5
4C1
330
4B2
100
AcDbEntity
  8
Layer0
  6
AUSGEZOGEN
 62
    30
370
    18
100
AcDbLine
 10
-138.920539561744
 20
42.449507259285
 30
0.0
 11
-138.205520120866
 21
41.211057259285
 31
0.0
  0
LINE
  5
4C2
330
4B2
100
AcDbEntity
  8
Layer0
  6
AUSGEZOGEN
 62
    30
370
    18
100
AcDbLine
 10
-139.773949862146
 20
43.927657259285
 30
0.0
 11
-139.058930421268
 21
42.689207259285
 31
0.0
  0
LINE
  5
4C3
330
4B2
100
AcDbEntity
  8
Layer0
  6
AUSGEZOGEN
 62
    30
370
    18
100
AcDbLine
 10
-138.920539561744
 20
42.449507259285
 30
0.0
 11
-139.635559002621
 21
41.211057259285
 31
0.0
  0
LINE
  5
4C4
330
4B2
100
AcDbEntity
  8
Layer0
  6
AUSGEZOGEN
 62
    30
370
    18
100
AcDbLine
 10
-138.067129261341
 20
43.927657259285
 30
0.0
 11
-138.782148702219
 21
42.689207259285
 31
0.0
  0
LINE
  5
4C5
330
4B2
100
AcDbEntity
  8
Layer0
  6
AUSGEZOGEN
 62
    30
370
    18
100
AcDbLine
 10
-139.058930421268
 20
42.529407259285
 30
0.0
 11
-139.773949862146
 21
41.290957259285
 31
0.0
  0
LINE
  5
4C6
330
4B2
100
AcDbEntity
  8
Layer0
  6
AUSGEZOGEN
 62
    30
370
    18
100
AcDbLine
 10
-138.205520120866
 20
44.007557259285
 30
0.0
 11
-138.920539561744
 21
42.769107259285
 31
0.0
  0
HATCH
  5
4C7
330
4B2
100
AcDbEntity
  8
Layer0
  6
AUSGEZOGEN
 62
    30
370
    18
100
AcDbHatch
 10
0.0
 20
0.0
 30
0.0
210
0.0
220
0.0
230
1.0
  2
SOLID
 70
     1
 71
     0
 91
        6
 92
        2
 72
     0
 73
     1
 93
        3
 10
-139.0589304212683
 20
42.52940725928525
 10
-140.4889693030241
 20
42.52940725928525
 10
-139.7739498621462
 20
41.29095725928526
 97
        0
 92
        2
 72
     0
 73
     1
 93
        3
 10
-139.0589304212683
 20
42.68920725928525
 10
-139.7739498621462
 20
43.92765725928525
 10
-140.4889693030241
 20
42.68920725928525
 97
        0
 92
        2
 72
     0
 73
     1
 93
        3
 10
-138.9205395617435
 20
42.76910725928525
 10
-138.2055201208657
 20
44.00755725928525
 10
-139.6355590026214
 20
44.00755725928525
 97
        0
 92
        2
 72
     0
 73
     1
 93
        3
 10
-138.7821487022188
 20
42.68920725928525
 10
-137.352109820463
 20
42.68920725928525
 10
-138.0671292613409
 20
43.92765725928524
 97
        0
 92
        2
 72
     0
 73
     1
 93
        3
 10
-138.0671292613409
 20
41.29095725928525
 10
-137.352109820463
 20
42.52940725928525
 10
-138.7821487022188
 20
42.52940725928525
 97
        0
 92
        2
 72
     0
 73
     1
 93
        3
 10
-138.9205395617435
 20
42.44950725928526
 10
-139.6355590026214
 20
41.21105725928525
 10
-138.2055201208657
 20
41.21105725928525
 97
        0
 75
     0
 76
     1
 98
        0
  0
TEXT
  5
4C8
330
4B2
100
AcDbEntity
  8
Layer0
  6
AUSGEZOGEN
 62
     7
370
    18
100
AcDbText
 10
-149.029384201214
 20
41.709190144028
 30
0.0
 40
1.8377
  1
REFLEX
 41
0.705366510959
  7
Arial Black
 72
     5
 11
-141.179209201214
 21
41.709190144028
 31
0.0
100
AcDbText
  0
TEXT
  5
4C9
330
4B2
100
AcDbEntity
  8
Layer0
  6
AUSGEZOGEN
 62
     7
370
    18
100
AcDbText
 10
-156.778890220264
 20
41.795882762457
 30
0.0
 40
1.39825
  1
ULTRA
 41
1.159777722278
  7
Arial
 72
     5
 11
-149.358177720264
 21
41.795882762457
 31
0.0
100
AcDbText
  0
ENDBLK
  5
4B4
330
4B2
100
AcDbEntity
  8
0
100
AcDbBlockEnd
  0
BLOCK
  5
4D6
330
4D5
100
AcDbEntity
  8
0
100
AcDbBlockBegin
  2
L1_nNn05
 70
     0
 10
0.0
 20
0.0
 30
0.0
  3
L1_nNn05
  1

  0
TEXT
  5
4D8
330
4D5
100
AcDbEntity
  8
Layer0
  6
AUSGEZOGEN
 62
   136
370
    18
100
AcDbText
 10
-183.203988304754
 20
74.0061197049
 30
0.0
 40
1.25
  1
Teil frei von Rissen, Grat, Blasen, Einfallstellen,
 41
1.134961395871
  7
Arial
 72
     5
 11
-141.492738304754
 21
74.0061197049
 31
0.0
100
AcDbText
  0
TEXT
  5
4D9
330
4D5
100
AcDbEntity
  8
Layer0
  6
AUSGEZOGEN
 62
   136
370
    18
100
AcDbText
 10
-183.203988304754
 20
72.006119675097
 30
0.0
 40
1.25
  1
Fliesslinien, Einschlüssen, Formbelag, Kratzer, Schlieren
 41
1.134732239196
  7
Arial
 72
     5
 11
-133.250238304754
 21
72.006119675097
 31
0.0
100
AcDbText
  0
TEXT
  5
4DA
330
4D5
100
AcDbEntity
  8
Layer0
  6
AUSGEZOGEN
 62
   136
370
    18
100
AcDbText
 10
-183.203988304754
 20
70.006119645295
 30
0.0
 40
1.25
  1
Grenzwertmuster werden gesondert vereinbart
 41
1.135456372583
  7
Arial
 72
     5
 11
-142.245238304754
 21
70.006119645295
 31
0.0
100
AcDbText
  0
TEXT
  5
4DB
330
4D5
100
AcDbEntity
  8
Layer0
  6
AUSGEZOGEN
 62
   136
370
    18
100
AcDbText
 10
-183.106615151814
 20
65.186967692454
 30
0.0
 40
1.25
  1
Reflexionswert: Min.              Max.
 41
1.136089045331
  7
Arial
 72
     5
 11
-153.251615151814
 21
65.186967692454
 31
0.0
100
AcDbText
  0
ENDBLK
  5
4D7
330
4D5
100
AcDbEntity
  8
0
100
AcDbBlockEnd
  0
BLOCK
  5
4E9
330
4E8
100
AcDbEntity
  8
0
100
AcDbBlockBegin
  2
*D7
 70
     1
 10
0.0
 20
0.0
 30
0.0
  3
*D7
  1

  0
LINE
  5
4EB
330
4E8
100
AcDbEntity
  8
Layer0
  6
AUSGEZOGEN
 62
   136
370
    18
100
AcDbLine
 10
-129.976558916858
 20
99.438438312024
 30
0.0
 11
-129.976558916858
 21
98.938438312024
 31
0.0
  0
LINE
  5
4EC
330
4E8
100
AcDbEntity
  8
Layer0
  6
AUSGEZOGEN
 62
   136
370
    18
100
AcDbLine
 10
-129.976558916858
 20
99.438438312024
 30
0.0
 11
-128.726558916858
 21
99.188438312024
 31
0.0
  0
LINE
  5
4ED
330
4E8
100
AcDbEntity
  8
Layer0
  6
AUSGEZOGEN
 62
   136
370
    18
100
AcDbLine
 10
-128.726558916858
 20
99.188438312024
 30
0.0
 11
-129.976558916858
 21
98.938438312024
 31
0.0
  0
LINE
  5
4EE
330
4E8
100
AcDbEntity
  8
Layer0
  6
AUSGEZOGEN
 62
   136
370
    18
100
AcDbLine
 10
-166.676558916858
 20
98.938438312024
 30
0.0
 11
-166.676558916858
 21
99.438438312024
 31
0.0
  0
LINE
  5
4EF
330
4E8
100
AcDbEntity
  8
Layer0
  6
AUSGEZOGEN
 62
   136
370
    18
100
AcDbLine
 10
-166.676558916858
 20
98.938438312024
 30
0.0
 11
-167.926558916858
 21
99.188438312024
 31
0.0
  0
LINE
  5
4F0
330
4E8
100
AcDbEntity
  8
Layer0
  6
AUSGEZOGEN
 62
   136
370
    18
100
AcDbLine
 10
-167.926558916858
 20
99.188438312024
 30
0.0
 11
-166.676558916858
 21
99.438438312024
 31
0.0
  0
LINE
  5
4F1
330
4E8
100
AcDbEntity
  8
Layer0
  6
AUSGEZOGEN
 62
   136
370
    18
100
AcDbLine
 10
-167.926558916858
 20
99.188438312024
 30
0.0
 11
-128.726558916858
 21
99.188438312024
 31
0.0
  0
LINE
  5
4F2
330
4E8
100
AcDbEntity
  8
Layer0
  6
AUSGEZOGEN
 62
   136
370
    18
100
AcDbLine
 10
-167.926558916858
 20
103.688438312024
 30
0.0
 11
-167.926558916858
 21
98.474152597738
 31
0.0
  0
LINE
  5
4F3
330
4E8
100
AcDbEntity
  8
Layer0
  6
AUSGEZOGEN
 62
   136
370
    18
100
AcDbLine
 10
-128.726558916858
 20
103.688438312024
 30
0.0
 11
-128.726558916858
 21
98.474152597738
 31
0.0
  0
TEXT
  5
4F4
330
4E8
100
AcDbEntity
  8
Layer0
  6
AUSGEZOGEN
 62
   136
370
    18
100
AcDbText
 10
-148.926558916858
 20
99.688438312024
 30
0.0
 40
1.25
  1
39.2
 41
1.136597938144
  7
Arial
 72
     5
 11
-145.067808916858
 21
99.688438312024
 31
0.0
100
AcDbText
  0
ENDBLK
  5
4EA
330
4E8
100
AcDbEntity
  8
0
100
AcDbBlockEnd
  0
BLOCK
  5
4F7
330
4F6
100
AcDbEntity
  8
0
100
AcDbBlockBegin
  2
_CLOSED
 70
     0
 10
0.0
 20
0.0
 30
0.0
  3
_CLOSED
  1

  0
LINE
  5
4F9
330
4F6
100
AcDbEntity
  8
0
  6
ByBlock
 62
     0
370
    -2
100
AcDbLine
 10
-1.0
 20
0.166667
 30
0.0
 11
0.0
 21
0.0
 31
0.0
  0
LINE
  5
4FA
330
4F6
100
AcDbEntity
  8
0
  6
ByBlock
 62
     0
370
    -2
100
AcDbLine
 10
0.0
 20
0.0
 30
0.0
 11
-1.0
 21
-0.166667
 31
0.0
  0
LINE
  5
4FB
330
4F6
100
AcDbEntity
  8
0
  6
ByBlock
 62
     0
370
    -2
100
AcDbLine
 10
-1.0
 20
0.166667
 30
0.0
 11
-1.0
 21
-0.166667
 31
0.0
  0
LINE
  5
4FC
330
4F6
100
AcDbEntity
  8
0
  6
ByBlock
 62
     0
370
    -2
100
AcDbLine
 10
0.0
 20
0.0
 30
0.0
 11
-1.0
 21
0.0
 31
0.0
  0
ENDBLK
  5
4F8
330
4F6
100
AcDbEntity
  8
0
100
AcDbBlockEnd
  0
BLOCK
  5
4FE
330
4FD
100
AcDbEntity
  8
0
100
AcDbBlockBegin
  2
*D9
 70
     1
 10
0.0
 20
0.0
 30
0.0
  3
*D9
  1

  0
LINE
  5
500
330
4FD
100
AcDbEntity
  8
Layer0
  6
AUSGEZOGEN
 62
   136
370
    18
100
AcDbLine
 10
-126.076558916858
 20
96.438438312024
 30
0.0
 11
-126.076558916858
 21
95.938438312024
 31
0.0
  0
LINE
  5
501
330
4FD
100
AcDbEntity
  8
Layer0
  6
AUSGEZOGEN
 62
   136
370
    18
100
AcDbLine
 10
-126.076558916858
 20
96.438438312024
 30
0.0
 11
-124.826558916858
 21
96.188438312024
 31
0.0
  0
LINE
  5
502
330
4FD
100
AcDbEntity
  8
Layer0
  6
AUSGEZOGEN
 62
   136
370
    18
100
AcDbLine
 10
-124.826558916858
 20
96.188438312024
 30
0.0
 11
-126.076558916858
 21
95.938438312024
 31
0.0
  0
LINE
  5
503
330
4FD
100
AcDbEntity
  8
Layer0
  6
AUSGEZOGEN
 62
   136
370
    18
100
AcDbLine
 10
-166.676558916858
 20
95.938438312024
 30
0.0
 11
-166.676558916858
 21
96.438438312024
 31
0.0
  0
LINE
  5
504
330
4FD
100
AcDbEntity
  8
Layer0
  6
AUSGEZOGEN
 62
   136
370
    18
100
AcDbLine
 10
-166.676558916858
 20
95.938438312024
 30
0.0
 11
-167.926558916858
 21
96.188438312024
 31
0.0
  0
LINE
  5
505
330
4FD
100
AcDbEntity
  8
Layer0
  6
AUSGEZOGEN
 62
   136
370
    18
100
AcDbLine
 10
-167.926558916858
 20
96.188438312024
 30
0.0
 11
-166.676558916858
 21
96.438438312024
 31
0.0
  0
LINE
  5
506
330
4FD
100
AcDbEntity
  8
Layer0
  6
AUSGEZOGEN
 62
   136
370
    18
100
AcDbLine
 10
-167.926558916858
 20
96.188438312024
 30
0.0
 11
-124.826558916858
 21
96.188438312024
 31
0.0
  0
LINE
  5
507
330
4FD
100
AcDbEntity
  8
Layer0
  6
AUSGEZOGEN
 62
   136
370
    18
100
AcDbLine
 10
-167.926558916858
 20
103.688438312024
 30
0.0
 11
-167.926558916858
 21
99.688438312024
 31
0.0
  0
LINE
  5
508
330
4FD
100
AcDbEntity
  8
Layer0
  6
AUSGEZOGEN
 62
   136
370
    18
100
AcDbLine
 10
-167.926558916858
 20
98.688438312024
 30
0.0
 11
-167.926558916858
 21
95.474152597738
 31
0.0
  0
LINE
  5
509
330
4FD
100
AcDbEntity
  8
Layer0
  6
AUSGEZOGEN
 62
   136
370
    18
100
AcDbLine
 10
-124.826558916858
 20
103.344777090713
 30
0.0
 11
-124.826558916858
 21
95.474152597738
 31
0.0
  0
TEXT
  5
50A
330
4FD
100
AcDbEntity
  8
Layer0
  6
AUSGEZOGEN
 62
   136
370
    18
100
AcDbText
 10
-146.926558916858
 20
96.688438312024
 30
0.0
 40
1.25
  1
43.1
 41
1.136597938144
  7
Arial
 72
     5
 11
-143.067808916858
 21
96.688438312024
 31
0.0
100
AcDbText
  0
ENDBLK
  5
4FF
330
4FD
100
AcDbEntity
  8
0
100
AcDbBlockEnd
  0
BLOCK
  5
50D
330
50C
100
AcDbEntity
  8
0
100
AcDbBlockBegin
  2
*D10
 70
     1
 10
0.0
 20
0.0
 30
0.0
  3
*D10
  1

  0
LINE
  5
50F
330
50C
100
AcDbEntity
  8
Layer0
  6
AUSGEZOGEN
 62
   136
370
    18
100
AcDbLine
 10
-122.176558916858
 20
93.438438312024
 30
0.0
 11
-122.176558916858
 21
92.938438312024
 31
0.0
  0
LINE
  5
510
330
50C
100
AcDbEntity
  8
Layer0
  6
AUSGEZOGEN
 62
   136
370
    18
100
AcDbLine
 10
-122.176558916858
 20
93.438438312024
 30
0.0
 11
-120.926558916858
 21
93.188438312024
 31
0.0
  0
LINE
  5
511
330
50C
100
AcDbEntity
  8
Layer0
  6
AUSGEZOGEN
 62
   136
370
    18
100
AcDbLine
 10
-120.926558916858
 20
93.188438312024
 30
0.0
 11
-122.176558916858
 21
92.938438312024
 31
0.0
  0
LINE
  5
512
330
50C
100
AcDbEntity
  8
Layer0
  6
AUSGEZOGEN
 62
   136
370
    18
100
AcDbLine
 10
-166.676558916858
 20
92.938438312024
 30
0.0
 11
-166.676558916858
 21
93.438438312024
 31
0.0
  0
LINE
  5
513
330
50C
100
AcDbEntity
  8
Layer0
  6
AUSGEZOGEN
 62
   136
370
    18
100
AcDbLine
 10
-166.676558916858
 20
92.938438312024
 30
0.0
 11
-167.926558916858
 21
93.188438312024
 31
0.0
  0
LINE
  5
514
330
50C
100
AcDbEntity
  8
Layer0
  6
AUSGEZOGEN
 62
   136
370
    18
100
AcDbLine
 10
-167.926558916858
 20
93.188438312024
 30
0.0
 11
-166.676558916858
 21
93.438438312024
 31
0.0
  0
LINE
  5
515
330
50C
100
AcDbEntity
  8
Layer0
  6
AUSGEZOGEN
 62
   136
370
    18
100
AcDbLine
 10
-167.926558916858
 20
93.188438312024
 30
0.0
 11
-120.926558916858
 21
93.188438312024
 31
0.0
  0
LINE
  5
516
330
50C
100
AcDbEntity
  8
Layer0
  6
AUSGEZOGEN
 62
   136
370
    18
100
AcDbLine
 10
-167.926558916858
 20
103.688438312024
 30
0.0
 11
-167.926558916858
 21
99.688438312024
 31
0.0
  0
LINE
  5
517
330
50C
100
AcDbEntity
  8
Layer0
  6
AUSGEZOGEN
 62
   136
370
    18
100
AcDbLine
 10
-167.926558916858
 20
98.688438312024
 30
0.0
 11
-167.926558916858
 21
96.688438312024
 31
0.0
  0
LINE
  5
518
330
50C
100
AcDbEntity
  8
Layer0
  6
AUSGEZOGEN
 62
   136
370
    18
100
AcDbLine
 10
-167.926558916858
 20
95.688438312024
 30
0.0
 11
-167.926558916858
 21
92.474152597738
 31
0.0
  0
LINE
  5
519
330
50C
100
AcDbEntity
  8
Layer0
  6
AUSGEZOGEN
 62
   136
370
    18
100
AcDbLine
 10
-120.926558916858
 20
106.188438312024
 30
0.0
 11
-120.926558916858
 21
92.474152597738
 31
0.0
  0
TEXT
  5
51A
330
50C
100
AcDbEntity
  8
Layer0
  6
AUSGEZOGEN
 62
   136
370
    18
100
AcDbText
 10
-142.926558916858
 20
93.688438312024
 30
0.0
 40
1.25
  1
47
 41
1.136597938144
  7
Arial
 72
     5
 11
-140.721558916858
 21
93.688438312024
 31
0.0
100
AcDbText
  0
ENDBLK
  5
50E
330
50C
100
AcDbEntity
  8
0
100
AcDbBlockEnd
  0
BLOCK
  5
51D
330
51C
100
AcDbEntity
  8
0
100
AcDbBlockBegin
  2
*D11
 70
     1
 10
0.0
 20
0.0
 30
0.0
  3
*D11
  1

  0
LINE
  5
51F
330
51C
100
AcDbEntity
  8
Layer0
  6
AUSGEZOGEN
 62
   136
370
    18
100
AcDbLine
 10
-110.25
 20
124.938438312024
 30
0.0
 11
-109.75
 21
124.938438312024
 31
0.0
  0
LINE
  5
520
330
51C
100
AcDbEntity
  8
Layer0
  6
AUSGEZOGEN
 62
   136
370
    18
100
AcDbLine
 10
-110.25
 20
124.938438312024
 30
0.0
 11
-110.0
 21
126.188438312024
 31
0.0
  0
LINE
  5
521
330
51C
100
AcDbEntity
  8
Layer0
  6
AUSGEZOGEN
 62
   136
370
    18
100
AcDbLine
 10
-110.0
 20
126.188438312024
 30
0.0
 11
-109.75
 21
124.938438312024
 31
0.0
  0
LINE
  5
522
330
51C
100
AcDbEntity
  8
Layer0
  6
AUSGEZOGEN
 62
   136
370
    18
100
AcDbLine
 10
-109.75
 20
104.938438312024
 30
0.0
 11
-110.25
 21
104.938438312024
 31
0.0
  0
LINE
  5
523
330
51C
100
AcDbEntity
  8
Layer0
  6
AUSGEZOGEN
 62
   136
370
    18
100
AcDbLine
 10
-109.75
 20
104.938438312024
 30
0.0
 11
-110.0
 21
103.688438312024
 31
0.0
  0
LINE
  5
524
330
51C
100
AcDbEntity
  8
Layer0
  6
AUSGEZOGEN
 62
   136
370
    18
100
AcDbLine
 10
-110.0
 20
103.688438312024
 30
0.0
 11
-110.25
 21
104.938438312024
 31
0.0
  0
LINE
  5
525
330
51C
100
AcDbEntity
  8
Layer0
  6
AUSGEZOGEN
 62
   136
370
    18
100
AcDbLine
 10
-110.0
 20
103.688438312024
 30
0.0
 11
-110.0
 21
126.188438312024
 31
0.0
  0
LINE
  5
526
330
51C
100
AcDbEntity
  8
Layer0
  6
AUSGEZOGEN
 62
   136
370
    18
100
AcDbLine
 10
-123.426558916858
 20
103.688438312024
 30
0.0
 11
-109.285714285714
 21
103.688438312024
 31
0.0
  0
LINE
  5
527
330
51C
100
AcDbEntity
  8
Layer0
  6
AUSGEZOGEN
 62
   136
370
    18
100
AcDbLine
 10
-123.426558916858
 20
126.188438312024
 30
0.0
 11
-109.285714285714
 21
126.188438312024
 31
0.0
  0
TEXT
  5
528
330
51C
100
AcDbEntity
  8
Layer0
  6
AUSGEZOGEN
 62
   136
370
    18
100
AcDbText
 10
-110.5
 20
112.188438312024
 30
0.0
 40
1.25
  1
22.5
 50
90.0
 41
1.136597938144
  7
Arial
 72
     5
 11
-110.5
 21
116.047188312024
 31
0.0
100
AcDbText
  0
ENDBLK
  5
51E
330
51C
100
AcDbEntity
  8
0
100
AcDbBlockEnd
  0
BLOCK
  5
52B
330
52A
100
AcDbEntity
  8
0
100
AcDbBlockBegin
  2
*D12
 70
     1
 10
0.0
 20
0.0
 30
0.0
  3
*D12
  1

  0
LINE
  5
52D
330
52A
100
AcDbEntity
  8
Layer0
  6
AUSGEZOGEN
 62
   136
370
    18
100
AcDbLine
 10
-172.176558916858
 20
145.439346655135
 30
0.0
 11
-171.676558916858
 21
145.439346655135
 31
0.0
  0
LINE
  5
52E
330
52A
100
AcDbEntity
  8
Layer0
  6
AUSGEZOGEN
 62
   136
370
    18
100
AcDbLine
 10
-172.176558916858
 20
145.439346655135
 30
0.0
 11
-171.926558916858
 21
146.689346655135
 31
0.0
  0
LINE
  5
52F
330
52A
100
AcDbEntity
  8
Layer0
  6
AUSGEZOGEN
 62
   136
370
    18
100
AcDbLine
 10
-171.926558916858
 20
146.689346655135
 30
0.0
 11
-171.676558916858
 21
145.439346655135
 31
0.0
  0
LINE
  5
530
330
52A
100
AcDbEntity
  8
Layer0
  6
AUSGEZOGEN
 62
   136
370
    18
100
AcDbLine
 10
-171.676558916858
 20
140.039346655135
 30
0.0
 11
-172.176558916858
 21
140.039346655135
 31
0.0
  0
LINE
  5
531
330
52A
100
AcDbEntity
  8
Layer0
  6
AUSGEZOGEN
 62
   136
370
    18
100
AcDbLine
 10
-171.676558916858
 20
140.039346655135
 30
0.0
 11
-171.926558916858
 21
138.789346655135
 31
0.0
  0
LINE
  5
532
330
52A
100
AcDbEntity
  8
Layer0
  6
AUSGEZOGEN
 62
   136
370
    18
100
AcDbLine
 10
-171.926558916858
 20
138.789346655135
 30
0.0
 11
-172.176558916858
 21
140.039346655135
 31
0.0
  0
LINE
  5
533
330
52A
100
AcDbEntity
  8
Layer0
  6
AUSGEZOGEN
 62
   136
370
    18
100
AcDbLine
 10
-171.926558916858
 20
138.789346655135
 30
0.0
 11
-171.926558916858
 21
146.689346655135
 31
0.0
  0
LINE
  5
534
330
52A
100
AcDbEntity
  8
Layer0
  6
AUSGEZOGEN
 62
   136
370
    18
100
AcDbLine
 10
-167.926558916858
 20
138.789346655135
 30
0.0
 11
-172.640844631143
 21
138.789346655135
 31
0.0
  0
LINE
  5
535
330
52A
100
AcDbEntity
  8
Layer0
  6
AUSGEZOGEN
 62
   136
370
    18
100
AcDbLine
 10
-167.676558916858
 20
146.689346655135
 30
0.0
 11
-172.640844631143
 21
146.689346655135
 31
0.0
  0
TEXT
  5
536
330
52A
100
AcDbEntity
  8
Layer0
  6
AUSGEZOGEN
 62
   136
370
    18
100
AcDbText
 10
-172.426558916858
 20
141.188438312024
 30
0.0
 40
1.25
  1
7.9
 50
90.0
 41
1.136597938144
  7
Arial
 72
     5
 11
-172.426558916858
 21
143.944688312024
 31
0.0
100
AcDbText
  0
TEXT
  5
537
330
52A
100
AcDbEntity
  8
Layer0
  6
AUSGEZOGEN
 62
   136
370
    18
100
AcDbText
 10
-172.614058916858
 20
143.944688312024
 30
0.0
 40
0.875
  1
%%p0,3
 50
90.0
 41
1.135624538064
  7
Arial
 72
     5
 11
-172.614058916858
 21
146.633563312024
 31
0.0
100
AcDbText
  0
ENDBLK
  5
52C
330
52A
100
AcDbEntity
  8
0
100
AcDbBlockEnd
  0
BLOCK
  5
53A
330
539
100
AcDbEntity
  8
0
100
AcDbBlockBegin
  2
*D13
 70
     1
 10
0.0
 20
0.0
 30
0.0
  3
*D13
  1

  0
LINE
  5
53C
330
539
100
AcDbEntity
  8
Layer0
  6
AUSGEZOGEN
 62
   136
370
    18
100
AcDbLine
 10
-117.176558916858
 20
141.839346655135
 30
0.0
 11
-116.676558916858
 21
141.839346655135
 31
0.0
  0
LINE
  5
53D
330
539
100
AcDbEntity
  8
Layer0
  6
AUSGEZOGEN
 62
   136
370
    18
100
AcDbLine
 10
-117.176558916858
 20
141.839346655135
 30
0.0
 11
-116.926558916858
 21
143.089346655135
 31
0.0
  0
LINE
  5
53E
330
539
100
AcDbEntity
  8
Layer0
  6
AUSGEZOGEN
 62
   136
370
    18
100
AcDbLine
 10
-116.926558916858
 20
143.089346655135
 30
0.0
 11
-116.676558916858
 21
141.839346655135
 31
0.0
  0
LINE
  5
53F
330
539
100
AcDbEntity
  8
Layer0
  6
AUSGEZOGEN
 62
   136
370
    18
100
AcDbLine
 10
-116.676558916858
 20
147.539346655135
 30
0.0
 11
-117.176558916858
 21
147.539346655135
 31
0.0
  0
LINE
  5
540
330
539
100
AcDbEntity
  8
Layer0
  6
AUSGEZOGEN
 62
   136
370
    18
100
AcDbLine
 10
-116.676558916858
 20
147.539346655135
 30
0.0
 11
-116.926558916858
 21
146.289346655135
 31
0.0
  0
LINE
  5
541
330
539
100
AcDbEntity
  8
Layer0
  6
AUSGEZOGEN
 62
   136
370
    18
100
AcDbLine
 10
-116.926558916858
 20
146.289346655135
 30
0.0
 11
-117.176558916858
 21
147.539346655135
 31
0.0
  0
LINE
  5
542
330
539
100
AcDbEntity
  8
Layer0
  6
AUSGEZOGEN
 62
   136
370
    18
100
AcDbLine
 10
-116.926558916858
 20
146.289346655135
 30
0.0
 11
-116.926558916858
 21
143.089346655135
 31
0.0
  0
LINE
  5
543
330
539
100
AcDbEntity
  8
Layer0
  6
AUSGEZOGEN
 62
   136
370
    18
100
AcDbLine
 10
-116.926558916858
 20
143.089346655135
 30
0.0
 11
-116.926558916858
 21
140.589346655135
 31
0.0
  0
LINE
  5
544
330
539
100
AcDbEntity
  8
Layer0
  6
AUSGEZOGEN
 62
   136
370
    18
100
AcDbLine
 10
-116.926558916858
 20
146.289346655135
 30
0.0
 11
-116.926558916858
 21
148.789346655135
 31
0.0
  0
LINE
  5
545
330
539
100
AcDbEntity
  8
Layer0
  6
AUSGEZOGEN
 62
   136
370
    18
100
AcDbLine
 10
-116.926558916858
 20
146.289346655135
 30
0.0
 11
-116.926558916858
 21
149.571303188692
 31
0.0
  0
LINE
  5
546
330
539
100
AcDbEntity
  8
Layer0
  6
AUSGEZOGEN
 62
   136
370
    18
100
AcDbLine
 10
-121.188464688046
 20
146.289346655135
 30
0.0
 11
-116.212273202572
 21
146.289346655135
 31
0.0
  0
LINE
  5
547
330
539
100
AcDbEntity
  8
Layer0
  6
AUSGEZOGEN
 62
   136
370
    18
100
AcDbLine
 10
-121.576558916858
 20
143.089346655135
 30
0.0
 11
-116.212273202572
 21
143.089346655135
 31
0.0
  0
TEXT
  5
548
330
539
100
AcDbEntity
  8
Layer0
  6
AUSGEZOGEN
 62
   136
370
    18
100
AcDbText
 10
-117.426558916858
 20
146.815053188692
 30
0.0
 40
1.25
  1
3.2
 50
90.0
 41
1.136597938144
  7
Arial
 72
     5
 11
-117.426558916858
 21
149.571303188692
 31
0.0
100
AcDbText
  0
ENDBLK
  5
53B
330
539
100
AcDbEntity
  8
0
100
AcDbBlockEnd
  0
BLOCK
  5
54B
330
54A
100
AcDbEntity
  8
0
100
AcDbBlockBegin
  2
*D14
 70
     1
 10
0.0
 20
0.0
 30
0.0
  3
*D14
  1

  0
LINE
  5
54D
330
54A
100
AcDbEntity
  8
Layer0
  6
AUSGEZOGEN
 62
   136
370
    18
100
AcDbLine
 10
-122.826558916858
 20
150.438438312024
 30
0.0
 11
-122.826558916858
 21
149.938438312024
 31
0.0
  0
LINE
  5
54E
330
54A
100
AcDbEntity
  8
Layer0
  6
AUSGEZOGEN
 62
   136
370
    18
100
AcDbLine
 10
-122.826558916858
 20
150.438438312024
 30
0.0
 11
-121.576558916858
 21
150.188438312024
 31
0.0
  0
LINE
  5
54F
330
54A
100
AcDbEntity
  8
Layer0
  6
AUSGEZOGEN
 62
   136
370
    18
100
AcDbLine
 10
-121.576558916858
 20
150.188438312024
 30
0.0
 11
-122.826558916858
 21
149.938438312024
 31
0.0
  0
LINE
  5
550
330
54A
100
AcDbEntity
  8
Layer0
  6
AUSGEZOGEN
 62
   136
370
    18
100
AcDbLine
 10
-126.826558916858
 20
149.938438312024
 30
0.0
 11
-126.826558916858
 21
150.438438312024
 31
0.0
  0
LINE
  5
551
330
54A
100
AcDbEntity
  8
Layer0
  6
AUSGEZOGEN
 62
   136
370
    18
100
AcDbLine
 10
-126.826558916858
 20
149.938438312024
 30
0.0
 11
-128.076558916858
 21
150.188438312024
 31
0.0
  0
LINE
  5
552
330
54A
100
AcDbEntity
  8
Layer0
  6
AUSGEZOGEN
 62
   136
370
    18
100
AcDbLine
 10
-128.076558916858
 20
150.188438312024
 30
0.0
 11
-126.826558916858
 21
150.438438312024
 31
0.0
  0
LINE
  5
553
330
54A
100
AcDbEntity
  8
Layer0
  6
AUSGEZOGEN
 62
   136
370
    18
100
AcDbLine
 10
-128.076558916858
 20
150.188438312024
 30
0.0
 11
-121.576558916858
 21
150.188438312024
 31
0.0
  0
LINE
  5
554
330
54A
100
AcDbEntity
  8
Layer0
  6
AUSGEZOGEN
 62
   136
370
    18
100
AcDbLine
 10
-128.076558916858
 20
146.289346655135
 30
0.0
 11
-128.076558916858
 21
150.90272402631
 31
0.0
  0
LINE
  5
555
330
54A
100
AcDbEntity
  8
Layer0
  6
AUSGEZOGEN
 62
   136
370
    18
100
AcDbLine
 10
-121.576558916858
 20
146.289346655135
 30
0.0
 11
-121.576558916858
 21
150.90272402631
 31
0.0
  0
TEXT
  5
556
330
54A
100
AcDbEntity
  8
Layer0
  6
AUSGEZOGEN
 62
   136
370
    18
100
AcDbText
 10
-125.926558916858
 20
150.688438312024
 30
0.0
 40
1.25
  1
6.5
 41
1.136597938144
  7
Arial
 72
     5
 11
-123.170308916858
 21
150.688438312024
 31
0.0
100
AcDbText
  0
ENDBLK
  5
54C
330
54A
100
AcDbEntity
  8
0
100
AcDbBlockEnd
  0
BLOCK
  5
559
330
558
100
AcDbEntity
  8
0
100
AcDbBlockBegin
  2
*D15
 70
     1
 10
0.0
 20
0.0
 30
0.0
  3
*D15
  1

  0
LINE
  5
55B
330
558
100
AcDbEntity
  8
Layer0
  6
AUSGEZOGEN
 62
   136
370
    18
100
AcDbLine
 10
-121.826558916858
 20
133.938438312024
 30
0.0
 11
-121.826558916858
 21
134.438438312024
 31
0.0
  0
LINE
  5
55C
330
558
100
AcDbEntity
  8
Layer0
  6
AUSGEZOGEN
 62
   136
370
    18
100
AcDbLine
 10
-121.826558916858
 20
133.938438312024
 30
0.0
 11
-123.076558916858
 21
134.188438312024
 31
0.0
  0
LINE
  5
55D
330
558
100
AcDbEntity
  8
Layer0
  6
AUSGEZOGEN
 62
   136
370
    18
100
AcDbLine
 10
-123.076558916858
 20
134.188438312024
 30
0.0
 11
-121.826558916858
 21
134.438438312024
 31
0.0
  0
LINE
  5
55E
330
558
100
AcDbEntity
  8
Layer0
  6
AUSGEZOGEN
 62
   136
370
    18
100
AcDbLine
 10
-127.826558916858
 20
134.438438312024
 30
0.0
 11
-127.826558916858
 21
133.938438312024
 31
0.0
  0
LINE
  5
55F
330
558
100
AcDbEntity
  8
Layer0
  6
AUSGEZOGEN
 62
   136
370
    18
100
AcDbLine
 10
-127.826558916858
 20
134.438438312024
 30
0.0
 11
-126.576558916858
 21
134.188438312024
 31
0.0
  0
LINE
  5
560
330
558
100
AcDbEntity
  8
Layer0
  6
AUSGEZOGEN
 62
   136
370
    18
100
AcDbLine
 10
-126.576558916858
 20
134.188438312024
 30
0.0
 11
-127.826558916858
 21
133.938438312024
 31
0.0
  0
LINE
  5
561
330
558
100
AcDbEntity
  8
Layer0
  6
AUSGEZOGEN
 62
   136
370
    18
100
AcDbLine
 10
-126.576558916858
 20
134.188438312024
 30
0.0
 11
-123.076558916858
 21
134.188438312024
 31
0.0
  0
LINE
  5
562
330
558
100
AcDbEntity
  8
Layer0
  6
AUSGEZOGEN
 62
   136
370
    18
100
AcDbLine
 10
-123.076558916858
 20
134.188438312024
 30
0.0
 11
-120.576558916858
 21
134.188438312024
 31
0.0
  0
LINE
  5
563
330
558
100
AcDbEntity
  8
Layer0
  6
AUSGEZOGEN
 62
   136
370
    18
100
AcDbLine
 10
-126.576558916858
 20
134.188438312024
 30
0.0
 11
-129.076558916858
 21
134.188438312024
 31
0.0
  0
LINE
  5
564
330
558
100
AcDbEntity
  8
Layer0
  6
AUSGEZOGEN
 62
   136
370
    18
100
AcDbLine
 10
-123.076558916858
 20
134.188438312024
 30
0.0
 11
-119.170308916858
 21
134.188438312024
 31
0.0
  0
LINE
  5
565
330
558
100
AcDbEntity
  8
Layer0
  6
AUSGEZOGEN
 62
   136
370
    18
100
AcDbLine
 10
-126.576558916858
 20
138.789346655135
 30
0.0
 11
-126.576558916858
 21
133.474152597738
 31
0.0
  0
LINE
  5
566
330
558
100
AcDbEntity
  8
Layer0
  6
AUSGEZOGEN
 62
   136
370
    18
100
AcDbLine
 10
-123.076558916858
 20
138.789346655135
 30
0.0
 11
-123.076558916858
 21
133.474152597738
 31
0.0
  0
TEXT
  5
567
330
558
100
AcDbEntity
  8
Layer0
  6
AUSGEZOGEN
 62
   136
370
    18
100
AcDbText
 10
-121.926558916858
 20
134.688438312024
 30
0.0
 40
1.25
  1
3.5
 41
1.136597938144
  7
Arial
 72
     5
 11
-119.170308916858
 21
134.688438312024
 31
0.0
100
AcDbText
  0
ENDBLK
  5
55A
330
558
100
AcDbEntity
  8
0
100
AcDbBlockEnd
  0
BLOCK
  5
56E
330
56D
100
AcDbEntity
  8
0
100
AcDbBlockBegin
  2
*D16
 70
     1
 10
0.0
 20
0.0
 30
0.0
  3
*D16
  1

  0
LINE
  5
570
330
56D
100
AcDbEntity
  8
Layer0
  6
AUSGEZOGEN
 62
   136
370
    18
100
AcDbLine
 10
-117.25
 20
118.438438312024
 30
0.0
 11
-116.75
 21
118.438438312024
 31
0.0
  0
LINE
  5
571
330
56D
100
AcDbEntity
  8
Layer0
  6
AUSGEZOGEN
 62
   136
370
    18
100
AcDbLine
 10
-117.25
 20
118.438438312024
 30
0.0
 11
-117.0
 21
119.688438312024
 31
0.0
  0
LINE
  5
572
330
56D
100
AcDbEntity
  8
Layer0
  6
AUSGEZOGEN
 62
   136
370
    18
100
AcDbLine
 10
-117.0
 20
119.688438312024
 30
0.0
 11
-116.75
 21
118.438438312024
 31
0.0
  0
LINE
  5
573
330
56D
100
AcDbEntity
  8
Layer0
  6
AUSGEZOGEN
 62
   136
370
    18
100
AcDbLine
 10
-116.75
 20
111.438438312024
 30
0.0
 11
-117.25
 21
111.438438312024
 31
0.0
  0
LINE
  5
574
330
56D
100
AcDbEntity
  8
Layer0
  6
AUSGEZOGEN
 62
   136
370
    18
100
AcDbLine
 10
-116.75
 20
111.438438312024
 30
0.0
 11
-117.0
 21
110.188438312024
 31
0.0
  0
LINE
  5
575
330
56D
100
AcDbEntity
  8
Layer0
  6
AUSGEZOGEN
 62
   136
370
    18
100
AcDbLine
 10
-117.0
 20
110.188438312024
 30
0.0
 11
-117.25
 21
111.438438312024
 31
0.0
  0
LINE
  5
576
330
56D
100
AcDbEntity
  8
Layer0
  6
AUSGEZOGEN
 62
   136
370
    18
100
AcDbLine
 10
-117.0
 20
110.188438312024
 30
0.0
 11
-117.0
 21
119.688438312024
 31
0.0
  0
LINE
  5
577
330
56D
100
AcDbEntity
  8
Layer0
  6
AUSGEZOGEN
 62
   136
370
    18
100
AcDbLine
 10
-123.907313050903
 20
110.188438312024
 30
0.0
 11
-123.576558916858
 21
110.188438312024
 31
0.0
  0
LINE
  5
578
330
56D
100
AcDbEntity
  8
Layer0
  6
AUSGEZOGEN
 62
   136
370
    18
100
AcDbLine
 10
-122.576558916858
 20
110.188438312024
 30
0.0
 11
-122.076558916858
 21
110.188438312024
 31
0.0
  0
LINE
  5
579
330
56D
100
AcDbEntity
  8
Layer0
  6
AUSGEZOGEN
 62
   136
370
    18
100
AcDbLine
 10
-120.426558916858
 20
110.188438312024
 30
0.0
 11
-116.285714285714
 21
110.188438312024
 31
0.0
  0
LINE
  5
57A
330
56D
100
AcDbEntity
  8
Layer0
  6
AUSGEZOGEN
 62
   136
370
    18
100
AcDbLine
 10
-124.103657822598
 20
119.688438312024
 30
0.0
 11
-123.576558916858
 21
119.688438312024
 31
0.0
  0
LINE
  5
57B
330
56D
100
AcDbEntity
  8
Layer0
  6
AUSGEZOGEN
 62
   136
370
    18
100
AcDbLine
 10
-122.576558916858
 20
119.688438312024
 30
0.0
 11
-122.076558916858
 21
119.688438312024
 31
0.0
  0
LINE
  5
57C
330
56D
100
AcDbEntity
  8
Layer0
  6
AUSGEZOGEN
 62
   136
370
    18
100
AcDbLine
 10
-120.426558916858
 20
119.688438312024
 30
0.0
 11
-116.285714285714
 21
119.688438312024
 31
0.0
  0
WIPEOUT
  5
57D
330
56D
100
AcDbEntity
  8
Layer0
  6
AUSGEZOGEN
 62
   136
370
    18
 92
      152
310
98000000040000000C0000000E000000120000000C00000016000000000000C20C00000014000000010000006C00000007000000040000000000000000485DC00000000000405C4000000000000000000000000000485DC06666666666F05C4000000000000000000000000000C85DC06666666666F05C4000000000000000
310
000000000000C85DC00000000000405C400000000000000000
100
AcDbWipeout
 90
        0
 10
-119.125
 20
113.0
 30
0.0
 11
2.756249999999994
 21
0.0
 31
0.0
 12
0.0
 22
2.756249999999994
 32
0.0
 13
1.0
 23
1.0
340
0
 70
     7
280
     1
281
    50
282
    50
283
     0
360
0
 71
     2
 91
        5
 14
0.225623582766
 24
0.5
 14
0.225623582766
 24
-0.5
 14
-0.5
 24
-0.5
 14
-0.5
 24
0.5
 14
0.225623582766
 24
0.5
  0
TEXT
  5
57E
330
56D
100
AcDbEntity
  8
Layer0
  6
AUSGEZOGEN
 62
   136
370
    18
100
AcDbText
 10
-117.5
 20
113.0
 30
0.0
 40
1.25
  1
9.5
 50
90.0
 41
1.136597938144
  7
Arial
 72
     5
 11
-117.5
 21
115.75625
 31
0.0
100
AcDbText
  0
ENDBLK
  5
56F
330
56D
100
AcDbEntity
  8
0
100
AcDbBlockEnd
  0
BLOCK
  5
581
330
580
100
AcDbEntity
  8
0
100
AcDbBlockBegin
  2
*D17
 70
     1
 10
0.0
 20
0.0
 30
0.0
  3
*D17
  1

  0
LINE
  5
583
330
580
100
AcDbEntity
  8
Layer0
  6
AUSGEZOGEN
 62
   136
370
    18
100
AcDbLine
 10
-114.25
 20
120.438438312024
 30
0.0
 11
-113.75
 21
120.438438312024
 31
0.0
  0
LINE
  5
584
330
580
100
AcDbEntity
  8
Layer0
  6
AUSGEZOGEN
 62
   136
370
    18
100
AcDbLine
 10
-114.25
 20
120.438438312024
 30
0.0
 11
-114.0
 21
121.688438312024
 31
0.0
  0
LINE
  5
585
330
580
100
AcDbEntity
  8
Layer0
  6
AUSGEZOGEN
 62
   136
370
    18
100
AcDbLine
 10
-114.0
 20
121.688438312024
 30
0.0
 11
-113.75
 21
120.438438312024
 31
0.0
  0
LINE
  5
586
330
580
100
AcDbEntity
  8
Layer0
  6
AUSGEZOGEN
 62
   136
370
    18
100
AcDbLine
 10
-113.75
 20
109.438438312024
 30
0.0
 11
-114.25
 21
109.438438312024
 31
0.0
  0
LINE
  5
587
330
580
100
AcDbEntity
  8
Layer0
  6
AUSGEZOGEN
 62
   136
370
    18
100
AcDbLine
 10
-113.75
 20
109.438438312024
 30
0.0
 11
-114.0
 21
108.188438312024
 31
0.0
  0
LINE
  5
588
330
580
100
AcDbEntity
  8
Layer0
  6
AUSGEZOGEN
 62
   136
370
    18
100
AcDbLine
 10
-114.0
 20
108.188438312024
 30
0.0
 11
-114.25
 21
109.438438312024
 31
0.0
  0
LINE
  5
589
330
580
100
AcDbEntity
  8
Layer0
  6
AUSGEZOGEN
 62
   136
370
    18
100
AcDbLine
 10
-114.0
 20
108.188438312024
 30
0.0
 11
-114.0
 21
121.688438312024
 31
0.0
  0
LINE
  5
58A
330
580
100
AcDbEntity
  8
Layer0
  6
AUSGEZOGEN
 62
   136
370
    18
100
AcDbLine
 10
-124.02511991392
 20
108.188438312024
 30
0.0
 11
-123.576558916858
 21
108.188438312024
 31
0.0
  0
LINE
  5
58B
330
580
100
AcDbEntity
  8
Layer0
  6
AUSGEZOGEN
 62
   136
370
    18
100
AcDbLine
 10
-122.576558916858
 20
108.188438312024
 30
0.0
 11
-122.076558916858
 21
108.188438312024
 31
0.0
  0
LINE
  5
58C
330
580
100
AcDbEntity
  8
Layer0
  6
AUSGEZOGEN
 62
   136
370
    18
100
AcDbLine
 10
-120.426558916858
 20
108.188438312024
 30
0.0
 11
-113.285714285714
 21
108.188438312024
 31
0.0
  0
LINE
  5
58D
330
580
100
AcDbEntity
  8
Layer0
  6
AUSGEZOGEN
 62
   136
370
    18
100
AcDbLine
 10
-123.946582005242
 20
121.688438312024
 30
0.0
 11
-123.576558916858
 21
121.688438312024
 31
0.0
  0
LINE
  5
58E
330
580
100
AcDbEntity
  8
Layer0
  6
AUSGEZOGEN
 62
   136
370
    18
100
AcDbLine
 10
-122.576558916858
 20
121.688438312024
 30
0.0
 11
-122.076558916858
 21
121.688438312024
 31
0.0
  0
LINE
  5
58F
330
580
100
AcDbEntity
  8
Layer0
  6
AUSGEZOGEN
 62
   136
370
    18
100
AcDbLine
 10
-120.426558916858
 20
121.688438312024
 30
0.0
 11
-113.285714285714
 21
121.688438312024
 31
0.0
  0
WIPEOUT
  5
590
330
580
100
AcDbEntity
  8
Layer0
  6
AUSGEZOGEN
 62
   136
370
    18
 92
      152
310
98000000040000000C0000000E000000120000000C00000016000000000000C20C00000014000000010000006C00000007000000040000000000000000885CC032DD905F0F0C5C4000000000000000000000000000885CC05A39202205035D4000000000000000000000000000085DC05A39202205035D4000000000000000
310
000000000000085DC032DD905F0F0C5C400000000000000000
100
AcDbWipeout
 90
        0
 10
-116.125
 20
112.188438312024
 30
0.0
 11
3.858750000000001
 21
0.0
 31
0.0
 12
0.0
 22
3.858750000000001
 32
0.0
 13
1.0
 23
1.0
340
0
 70
     7
280
     1
281
    50
282
    50
283
     0
360
0
 71
     2
 91
        5
 14
0.018302559119
 24
0.5
 14
0.018302559119
 24
-0.5
 14
-0.5
 24
-0.5
 14
-0.5
 24
0.5
 14
0.018302559119
 24
0.5
  0
TEXT
  5
591
330
580
100
AcDbEntity
  8
Layer0
  6
AUSGEZOGEN
 62
   136
370
    18
100
AcDbText
 10
-114.5
 20
112.188438312024
 30
0.0
 40
1.25
  1
13.5
 50
90.0
 41
1.136597938144
  7
Arial
 72
     5
 11
-114.5
 21
116.047188312024
 31
0.0
100
AcDbText
  0
ENDBLK
  5
582
330
580
100
AcDbEntity
  8
0
100
AcDbBlockEnd
  0
ENDSEC
  0
SECTION
  2
ENTITIES
  0
LINE
  5
145
330
1F
100
AcDbEntity
  8
Layer0
  6
AUSGEZOGEN
 62
     9
370
    18
100
AcDbLine
 10
-167.926558916858
 20
103.688438312024
 30
0.0
 11
-167.926558916858
 21
126.188438312024
 31
0.0
  0
LINE
  5
146
330
1F
100
AcDbEntity
  8
Layer0
  6
AUSGEZOGEN
 62
     9
370
    18
100
AcDbLine
 10
-167.926558916858
 20
126.188438312024
 30
0.0
 11
-123.426558916858
 21
126.188438312024
 31
0.0
  0
LINE
  5
147
330
1F
100
AcDbEntity
  8
Layer0
  6
AUSGEZOGEN
 62
     9
370
    18
100
AcDbLine
 10
-120.926558916858
 20
106.188438312024
 30
0.0
 11
-120.926558916858
 21
123.688438312024
 31
0.0
  0
ARC
  5
148
330
1F
100
AcDbEntity
  8
Layer0
  6
AUSGEZOGEN
 62
     9
370
    18
100
AcDbCircle
 10
-123.426558916858
 20
123.688438312024
 30
0.0
 40
2.5
100
AcDbArc
 50
0.0
 51
90.0
  0
LINE
  5
149
330
1F
100
AcDbEntity
  8
Layer0
  6
DASHDOT
 62
    56
370
    18
100
AcDbLine
 10
-124.826558916858
 20
103.344777090713
 30
0.0
 11
-124.826558916858
 21
127.101536693205
 31
0.0
  0
INSERT
  5
2A6
330
1F
100
AcDbEntity
  8
0
100
AcDbBlockReference
  2
SECHSK1_nNn00
 10
0.0
 20
0.0
 30
0.0
  0
LINE
  5
2A7
330
1F
100
AcDbEntity
  8
Layer0
  6
AUSGEZOGEN
 62
     9
370
    18
100
AcDbLine
 10
-130.276558916858
 20
109.164932147473
 30
0.0
 11
-130.276558916858
 21
124.176040545911
 31
0.0
  0
LINE
  5
2A8
330
1F
100
AcDbEntity
  8
Layer0
  6
AUSGEZOGEN
 62
     9
370
    18
100
AcDbLine
 10
-167.676558916858
 20
125.938438312024
 30
0.0
 11
-128.876558916858
 21
125.938438312024
 31
0.0
  0
LINE
  5
2A9
330
1F
100
AcDbEntity
  8
Layer0
  6
AUSGEZOGEN
 62
     9
370
    18
100
AcDbLine
 10
-167.676558916858
 20
103.938438312024
 30
0.0
 11
-128.876558916858
 21
103.938438312024
 31
0.0
  0
INSERT
  5
455
330
1F
100
AcDbEntity
  8
0
100
AcDbBlockReference
  2
SECHSK1_nNn01
 10
0.0
 20
0.0
 30
0.0
  0
LINE
  5
456
330
1F
100
AcDbEntity
  8
Layer0
  6
AUSGEZOGEN
 62
   136
370
    18
100
AcDbLine
 10
-166.276558916858
 20
105.700836078137
 30
0.0
 11
-130.276558916858
 21
105.700836078137
 31
0.0
  0
LINE
  5
457
330
1F
100
AcDbEntity
  8
Layer0
  6
AUSGEZOGEN
 62
   136
370
    18
100
AcDbLine
 10
-166.276558916858
 20
124.176040545911
 30
0.0
 11
-130.276558916858
 21
124.176040545911
 31
0.0
  0
LINE
  5
458
330
1F
100
AcDbEntity
  8
Layer0
  6
AUSGEZOGEN
 62
   136
370
    18
100
AcDbLine
 10
-130.276558916858
 20
105.700836078137
 30
0.0
 11
-130.276558916858
 21
124.176040545911
 31
0.0
  0
LINE
  5
459
330
1F
100
AcDbEntity
  8
Layer0
  6
AUSGEZOGEN
 62
   136
370
    18
100
AcDbLine
 10
-166.276558916858
 20
105.700836078137
 30
0.0
 11
-166.276558916858
 21
124.176040545911
 31
0.0
  0
LINE
  5
45A
330
1F
100
AcDbEntity
  8
Layer0
  6
AUSGEZOGEN
 62
     9
370
    18
100
AcDbLine
 10
-128.876558916858
 20
103.938438312024
 30
0.0
 11
-128.876558916858
 21
125.938438312024
 31
0.0
  0
LINE
  5
45B
330
1F
100
AcDbEntity
  8
Layer0
  6
AUSGEZOGEN
 62
     9
370
    18
100
AcDbLine
 10
-167.676558916858
 20
103.938438312024
 30
0.0
 11
-167.676558916858
 21
125.938438312024
 31
0.0
  0
LINE
  5
45C
330
1F
100
AcDbEntity
  8
Layer0
  6
AUSGEZOGEN
 62
     9
370
    18
100
AcDbLine
 10
-167.926558916858
 20
103.688438312024
 30
0.0
 11
-123.426558916858
 21
103.688438312024
 31
0.0
  0
ARC
  5
45D
330
1F
100
AcDbEntity
  8
Layer0
  6
AUSGEZOGEN
 62
     9
370
    18
100
AcDbCircle
 10
-123.426558916858
 20
106.188438312024
 30
0.0
 40
2.5
100
AcDbArc
 50
270.0
 51
0.0
  0
LINE
  5
45E
330
1F
100
AcDbEntity
  8
Layer0
  6
AUSGEZOGEN
 62
     9
370
    18
100
AcDbLine
 10
-128.726558916858
 20
103.688438312024
 30
0.0
 11
-128.726558916858
 21
126.188438312024
 31
0.0
  0
LINE
  5
45F
330
1F
100
AcDbEntity
  8
Layer0
  6
DASHDOT
 62
    56
370
    18
100
AcDbLine
 10
-128.726558916858
 20
109.188438312024
 30
0.0
 11
-120.926558916858
 21
109.188438312024
 31
0.0
  0
ARC
  5
460
330
1F
100
AcDbEntity
  8
Layer0
  6
AUSGEZOGEN
 62
     9
370
    18
100
AcDbCircle
 10
-124.826558916858
 20
108.188438312024
 30
0.0
 40
1.75
100
AcDbArc
 50
180.0
 51
0.0
  0
ARC
  5
461
330
1F
100
AcDbEntity
  8
Layer0
  6
AUSGEZOGEN
 62
     9
370
    18
100
AcDbCircle
 10
-124.826558916858
 20
108.188438312024
 30
0.0
 40
3.25
100
AcDbArc
 50
180.0
 51
0.0
  0
ARC
  5
462
330
1F
100
AcDbEntity
  8
Layer0
  6
AUSGEZOGEN
 62
     9
370
    18
100
AcDbCircle
 10
-124.826558916858
 20
110.188438312024
 30
0.0
 40
1.75
100
AcDbArc
 50
0.0
 51
180.0
  0
ARC
  5
463
330
1F
100
AcDbEntity
  8
Layer0
  6
AUSGEZOGEN
 62
     9
370
    18
100
AcDbCircle
 10
-124.826558916858
 20
110.188438312024
 30
0.0
 40
3.25
100
AcDbArc
 50
0.0
 51
180.0
  0
LINE
  5
464
330
1F
100
AcDbEntity
  8
Layer0
  6
AUSGEZOGEN
 62
     9
370
    18
100
AcDbLine
 10
-128.076558916858
 20
110.188438312024
 30
0.0
 11
-128.076558916858
 21
108.188438312024
 31
0.0
  0
LINE
  5
465
330
1F
100
AcDbEntity
  8
Layer0
  6
AUSGEZOGEN
 62
     9
370
    18
100
AcDbLine
 10
-126.576558916858
 20
110.188438312024
 30
0.0
 11
-126.576558916858
 21
108.188438312024
 31
0.0
  0
LINE
  5
466
330
1F
100
AcDbEntity
  8
Layer0
  6
AUSGEZOGEN
 62
     9
370
    18
100
AcDbLine
 10
-123.076558916858
 20
110.188438312024
 30
0.0
 11
-123.076558916858
 21
108.188438312024
 31
0.0
  0
LINE
  5
467
330
1F
100
AcDbEntity
  8
Layer0
  6
AUSGEZOGEN
 62
     9
370
    18
100
AcDbLine
 10
-121.576558916858
 20
110.188438312024
 30
0.0
 11
-121.576558916858
 21
108.188438312024
 31
0.0
  0
LINE
  5
468
330
1F
100
AcDbEntity
  8
Layer0
  6
DASHDOT
 62
    56
370
    18
100
AcDbLine
 10
-169.441084293888
 20
114.938438312024
 30
0.0
 11
-119.303440416168
 21
114.938438312024
 31
0.0
  0
LINE
  5
469
330
1F
100
AcDbEntity
  8
Layer0
  6
DASHDOT
 62
    56
370
    18
100
AcDbLine
 10
-128.726558916858
 20
120.688438312024
 30
0.0
 11
-120.926558916858
 21
120.688438312024
 31
0.0
  0
ARC
  5
46A
330
1F
100
AcDbEntity
  8
Layer0
  6
AUSGEZOGEN
 62
     9
370
    18
100
AcDbCircle
 10
-124.826558916858
 20
121.688438312024
 30
0.0
 40
1.75
100
AcDbArc
 50
0.0
 51
180.0
  0
ARC
  5
46B
330
1F
100
AcDbEntity
  8
Layer0
  6
AUSGEZOGEN
 62
     9
370
    18
100
AcDbCircle
 10
-124.826558916858
 20
121.688438312024
 30
0.0
 40
3.25
100
AcDbArc
 50
0.0
 51
180.0
  0
ARC
  5
46C
330
1F
100
AcDbEntity
  8
Layer0
  6
AUSGEZOGEN
 62
     9
370
    18
100
AcDbCircle
 10
-124.826558916858
 20
119.688438312024
 30
0.0
 40
1.75
100
AcDbArc
 50
180.0
 51
0.0
  0
ARC
  5
46D
330
1F
100
AcDbEntity
  8
Layer0
  6
AUSGEZOGEN
 62
     9
370
    18
100
AcDbCircle
 10
-124.826558916858
 20
119.688438312024
 30
0.0
 40
3.25
100
AcDbArc
 50
180.0
 51
0.0
  0
LINE
  5
46E
330
1F
100
AcDbEntity
  8
Layer0
  6
AUSGEZOGEN
 62
     9
370
    18
100
AcDbLine
 10
-128.076558916858
 20
119.688438312024
 30
0.0
 11
-128.076558916858
 21
121.688438312024
 31
0.0
  0
LINE
  5
46F
330
1F
100
AcDbEntity
  8
Layer0
  6
AUSGEZOGEN
 62
     9
370
    18
100
AcDbLine
 10
-126.576558916858
 20
119.688438312024
 30
0.0
 11
-126.576558916858
 21
121.688438312024
 31
0.0
  0
LINE
  5
470
330
1F
100
AcDbEntity
  8
Layer0
  6
AUSGEZOGEN
 62
     9
370
    18
100
AcDbLine
 10
-123.076558916858
 20
119.688438312024
 30
0.0
 11
-123.076558916858
 21
121.688438312024
 31
0.0
  0
LINE
  5
471
330
1F
100
AcDbEntity
  8
Layer0
  6
AUSGEZOGEN
 62
     9
370
    18
100
AcDbLine
 10
-121.576558916858
 20
119.688438312024
 30
0.0
 11
-121.576558916858
 21
121.688438312024
 31
0.0
  0
LINE
  5
472
330
1F
100
AcDbEntity
  8
Layer0
  6
AUSGEZOGEN
 62
     9
370
    18
100
AcDbLine
 10
-167.926558916858
 20
138.789346655135
 30
0.0
 11
-120.926558916858
 21
138.789346655135
 31
0.0
  0
LINE
  5
473
330
1F
100
AcDbEntity
  8
Layer0
  6
AUSGEZOGEN
 62
     9
370
    18
100
AcDbLine
 10
-167.926558916858
 20
138.789346655135
 30
0.0
 11
-167.741478838551
 21
144.089346655135
 31
0.0
  0
LINE
  5
474
330
1F
100
AcDbEntity
  8
Layer0
  6
AUSGEZOGEN
 62
     9
370
    18
100
AcDbLine
 10
-120.926558916858
 20
138.789346655135
 30
0.0
 11
-121.188464688046
 21
146.289346655135
 31
0.0
  0
LINE
  5
475
330
1F
100
AcDbEntity
  8
Layer0
  6
AUSGEZOGEN
 62
     9
370
    18
100
AcDbLine
 10
-167.676558916858
 20
144.089346655135
 30
0.0
 11
-167.676558916858
 21
146.689346655135
 31
0.0
  0
LINE
  5
476
330
1F
100
AcDbEntity
  8
Layer0
  6
AUSGEZOGEN
 62
     9
370
    18
100
AcDbLine
 10
-128.876558916858
 20
144.089346655135
 30
0.0
 11
-128.876558916858
 21
146.689346655135
 31
0.0
  0
LINE
  5
477
330
1F
100
AcDbEntity
  8
Layer0
  6
AUSGEZOGEN
 62
     9
370
    18
100
AcDbLine
 10
-167.741478838551
 20
144.089346655135
 30
0.0
 11
-128.726558916858
 21
144.089346655135
 31
0.0
  0
LINE
  5
478
330
1F
100
AcDbEntity
  8
Layer0
  6
AUSGEZOGEN
 62
     9
370
    18
100
AcDbLine
 10
-128.726558916858
 20
144.089346655135
 30
0.0
 11
-128.649733223976
 21
146.289346655135
 31
0.0
  0
LINE
  5
479
330
1F
100
AcDbEntity
  8
Layer0
  6
AUSGEZOGEN
 62
     9
370
    18
100
AcDbLine
 10
-167.676558916858
 20
146.689346655135
 30
0.0
 11
-128.876558916858
 21
146.689346655135
 31
0.0
  0
LINE
  5
47A
330
1F
100
AcDbEntity
  8
Layer0
  6
AUSGEZOGEN
 62
     9
370
    18
100
AcDbLine
 10
-128.649733223976
 20
146.289346655135
 30
0.0
 11
-121.188464688046
 21
146.289346655135
 31
0.0
  0
INSERT
  5
4D2
330
1F
100
AcDbEntity
  8
0
100
AcDbBlockReference
  2
A4_nNn02
 10
0.0
 20
0.0
 30
0.0
  0
TEXT
  5
4D3
330
1F
100
AcDbEntity
  8
Layer50
  6
AUSGEZOGEN
 62
     9
370
    18
100
AcDbText
 10
-127.451991836744
 20
41.421371924568
 30
0.0
 40
2.35
  1
05554500k
 41
1.218898721598
  7
Arial
 72
     5
 11
-107.670362594055
 21
41.421371924568
 31
0.0
100
AcDbText
  0
TEXT
  5
4D4
330
1F
100
AcDbEntity
  8
Layer50
  6
AUSGEZOGEN
 62
     9
370
    18
100
AcDbText
 10
-134.474478215889
 20
51.326015095295
 30
0.0
 40
1.75
  1
Reflektor 22x40 LHE
 41
1.259734240582
  7
Arial
 72
     5
 11
-106.084477503017
 21
51.326015095295
 31
0.0
100
AcDbText
  0
INSERT
  5
4DC
330
1F
100
AcDbEntity
  8
0
100
AcDbBlockReference
  2
L1_nNn05
 10
0.0
 20
0.0
 30
0.0
  0
TEXT
  5
4DD
330
1F
100
AcDbEntity
  8
Layer0
  6
AUSGEZOGEN
 62
   136
370
    18
100
AcDbText
 10
-183.145927704952
 20
67.968754909737
 30
0.0
 40
1.25
  1
Form und Lagetoleranzen nach DIN ISO 2768-K
 41
1.135926880712
  7
Arial
 72
     5
 11
-140.734677704952
 21
67.968754909737
 31
0.0
100
AcDbText
  0
TEXT
  5
4DE
330
1F
100
AcDbEntity
  8
Layer0
  6
AUSGEZOGEN
 62
    56
370
    18
100
AcDbText
 10
-136.087557680474
 20
58.480590387454
 30
0.0
 40
1.0
  1
Werkstoff/Farbe: PMMA glasklar
 41
1.266813667067
  7
Arial
 72
     5
 11
-110.637271109091
 21
58.480590387454
 31
0.0
100
AcDbText
  0
TEXT
  5
4DF
330
1F
100
AcDbEntity
  8
Layer0
  6
AUSGEZOGEN
 62
    56
370
    18
100
AcDbText
 10
-136.087557680474
 20
56.880590363613
 30
0.0
 40
1.0
  1
                        Halterung PMMA zk weiss
 41
1.328184769273
  7
Arial
 72
     5
 11
-102.084699402319
 21
56.880590363613
 31
0.0
100
AcDbText
  0
LINE
  5
4E0
330
1F
100
AcDbEntity
  8
Stammform
  6
DASHDOT
 62
    56
370
    18
100
AcDbLine
 10
-124.826558916858
 20
137.679531643248
 30
0.0
 11
-124.826558916858
 21
147.486394936292
 31
0.0
  0
LINE
  5
4E1
330
1F
100
AcDbEntity
  8
Stammform
  6
AUSGEZOGEN
 62
     9
370
    18
100
AcDbLine
 10
-126.576558916858
 20
138.789346655135
 30
0.0
 11
-126.576558916858
 21
143.089346655135
 31
0.0
  0
LINE
  5
4E2
330
1F
100
AcDbEntity
  8
Stammform
  6
AUSGEZOGEN
 62
     9
370
    18
100
AcDbLine
 10
-123.076558916858
 20
138.789346655135
 30
0.0
 11
-123.076558916858
 21
143.089346655135
 31
0.0
  0
LINE
  5
4E3
330
1F
100
AcDbEntity
  8
Stammform
  6
AUSGEZOGEN
 62
     9
370
    18
100
AcDbLine
 10
-128.076558916858
 20
143.089346655135
 30
0.0
 11
-128.076558916858
 21
146.289346655135
 31
0.0
  0
LINE
  5
4E4
330
1F
100
AcDbEntity
  8
Stammform
  6
AUSGEZOGEN
 62
     9
370
    18
100
AcDbLine
 10
-121.576558916858
 20
143.089346655135
 30
0.0
 11
-121.576558916858
 21
146.289346655135
 31
0.0
  0
LINE
  5
4E5
330
1F
100
AcDbEntity
  8
Stammform
  6
AUSGEZOGEN
 62
     9
370
    18
100
AcDbLine
 10
-128.076558916858
 20
143.089346655135
 30
0.0
 11
-121.576558916858
 21
143.089346655135
 31
0.0
  0
LWPOLYLINE
  5
4E6
330
1F
100
AcDbEntity
  8
Stammform
  6
AUSGEZOGEN
 62
   136
370
    18
100
AcDbPolyline
 90
       21
 70
     0
 43
0.0
 10
-128.476929066809
 20
146.289346655135
 10
-128.435016812534
 20
145.963640759891
 10
-128.401825490216
 20
145.638857602738
 10
-128.386076031811
 20
145.315919921769
 10
-128.396489369276
 20
144.995750455074
 10
-128.454953755748
 20
144.592921552408
 10
-128.549631513971
 20
144.192881763022
 10
-128.66024385201
 20
143.792442918001
 10
-128.766511977929
 20
143.388416848432
 10
-128.852407937482
 20
142.960872600841
 10
-128.898054637328
 20
142.529412340169
 10
-128.889995962104
 20
142.097492593851
 10
-128.814775796449
 20
141.668569889325
 10
-128.625689869822
 20
141.141664615323
 10
-128.400922253279
 20
140.623799890449
 10
-128.230245983008
 20
140.113973410888
 10
-128.203434095196
 20
139.611182872824
 10
-128.252856566355
 20
139.404818938068
 10
-128.332312647158
 20
139.199230615027
 10
-128.43179113439
 20
138.994159366462
 10
-128.541280824836
 20
138.789346655135
  0
HATCH
  5
4E7
330
1F
100
AcDbEntity
  8
Layer0
  6
AUSGEZOGEN
 62
    56
370
    18
100
AcDbHatch
 10
0.0
 20
0.0
 30
0.0
210
0.0
220
0.0
230
1.0
  2
MegaCAD_TYP1
 70
     0
 71
     0
 91
        2
 92
        2
 72
     1
 73
     1
 93
       25
 10
-128.0765589168576
 20
146.2893466551348
 42
0.0
 10
-128.4769290668091
 20
146.2893466551348
 42
0.0
 10
-128.4300531106263
 20
145.9201567145365
 42
-0.0122993218753663
 10
-128.4018254902163
 20
145.6388576027381
 42
-0.0164744192766169
 10
-128.3854595837006
 20
145.2537307026699
 42
-0.0261318316209329
 10
-128.3964893692757
 20
144.9957504550737
 42
-0.0236140004152393
 10
-128.4436650555611
 20
144.6662322064976
 42
-0.0154087203707502
 10
-128.5496315139711
 20
144.1928817630217
 42
-0.0087463515830826
 10
-128.6745959942477
 20
143.738775677461
 42
0.0147344975755513
 10
-128.7665119779292
 20
143.3884168484319
 42
0.0191561989298797
 10
-128.8642409927194
 20
142.8769263206769
 42
0.0267502655618756
 10
-128.8980546373276
 20
142.5294123401688
 42
0.0396467611971077
 10
-128.8790753985004
 20
141.9986554955843
 42
0.0387152535125163
 10
-128.8147757964493
 20
141.6685698893251
 42
0.0386971172526728
 10
-128.6677443044568
 20
141.2621642603926
 42
-0.0142924353943873
 10
-128.4009222532792
 20
140.6237998904492
 42
-0.0506440660697486
 10
-128.2288388245006
 20
139.9925065744532
 42
-0.0492383502700205
 10
-128.2034340951957
 20
139.6111828728236
 42
-0.0718048291143321
 10
-128.2280078899141
 20
139.4723891952228
 42
-0.0230839014320217
 10
-128.3323126471583
 20
139.1992306150268
 42
-0.0185854785468902
 10
-128.4151235340714
 20
139.0269580255704
 42
0.0
 10
-128.5412808248358
 20
138.7893466551348
 42
0.0
 10
-126.5765589168576
 20
138.7893466551348
 42
0.0
 10
-126.5765589168576
 20
143.0893466551348
 42
0.0
 10
-128.0765589168576
 20
143.0893466551348
 42
0.0
 97
        0
 92
        2
 72
     0
 73
     1
 93
        6
 10
-121.5765589168576
 20
143.0893466551348
 10
-123.0765589168576
 20
143.0893466551348
 10
-123.0765589168576
 20
138.7893466551348
 10
-120.9265589168576
 20
138.7893466551348
 10
-121.1884646880458
 20
146.2893466551348
 10
-121.5765589168576
 20
146.2893466551348
 97
        0
 75
     0
 76
     1
 52
0.0
 41
0.25
 77
     0
 78
     1
 53
45.0
 43
0.0
 44
0.0
 45
-0.5303300858899106
 46
0.5303300858899107
 79
     0
 98
        0
  0
DIMENSION
  5
4F5
330
1F
100
AcDbEntity
  8
Layer0
  6
AUSGEZOGEN
 62
   136
370
    18
100
AcDbDimension
  2
*D7
 10
-128.726558916858
 20
99.188438312024
 30
0.0
 11
-146.997183916858
 21
100.313438312024
 31
0.0
 70
   160
 71
     5
 42
-1.0
  3
ISO-25
100
AcDbAlignedDimension
 13
-167.926558916858
 23
103.688438312024
 33
0.0
 14
-128.726558916858
 24
103.688438312024
 34
0.0
100
AcDbRotatedDimension
1001
ACAD
1000
DSTYLE
1002
{
1070
     3
1000
<>
1070
    44
1040
0.892857142857
1070
   280
1070
     0
1070
    77
1070
     1
1070
    78
1070
     8
1070
   179
1070
     2
1070
   271
1070
     2
1070
   344
1005
4F6
1070
   343
1005
4F6
1070
   173
1070
     1
1070
    41
1040
1.25
1070
   147
1040
0.178571428571
1070
   140
1040
1.25
1070
   178
1070
   136
1070
   177
1070
   136
1070
   176
1070
   136
1002
}
  0
DIMENSION
  5
50B
330
1F
100
AcDbEntity
  8
Layer0
  6
AUSGEZOGEN
 62
   136
370
    18
100
AcDbDimension
  2
*D9
 10
-124.826558916858
 20
96.188438312024
 30
0.0
 11
-144.997183916858
 21
97.313438312024
 31
0.0
 70
   160
 71
     5
 42
-1.0
  3
ISO-25
100
AcDbAlignedDimension
 13
-167.926558916858
 23
103.688438312024
 33
0.0
 14
-124.826558916858
 24
103.344777090713
 34
0.0
100
AcDbRotatedDimension
1001
ACAD
1000
DSTYLE
1002
{
1070
     3
1000
<>
1070
    44
1040
0.892857142857
1070
   280
1070
     0
1070
    77
1070
     1
1070
    78
1070
     8
1070
   179
1070
     2
1070
   271
1070
     2
1070
   344
1005
4F6
1070
   343
1005
4F6
1070
   173
1070
     1
1070
    41
1040
1.25
1070
   147
1040
0.178571428571
1070
   140
1040
1.25
1070
   178
1070
   136
1070
   177
1070
   136
1070
   176
1070
   136
1002
}
  0
DIMENSION
  5
51B
330
1F
100
AcDbEntity
  8
Layer0
  6
AUSGEZOGEN
 62
   136
370
    18
100
AcDbDimension
  2
*D10
 10
-120.926558916858
 20
93.188438312024
 30
0.0
 11
-141.824058916858
 21
94.313438312024
 31
0.0
 70
   160
 71
     5
 42
-1.0
  3
ISO-25
100
AcDbAlignedDimension
 13
-167.926558916858
 23
103.688438312024
 33
0.0
 14
-120.926558916858
 24
106.188438312024
 34
0.0
100
AcDbRotatedDimension
1001
ACAD
1000
DSTYLE
1002
{
1070
     3
1000
<>
1070
    44
1040
0.892857142857
1070
   280
1070
     0
1070
    77
1070
     1
1070
    78
1070
     8
1070
   179
1070
     2
1070
   271
1070
     2
1070
   344
1005
4F6
1070
   343
1005
4F6
1070
   173
1070
     1
1070
    41
1040
1.25
1070
   147
1040
0.178571428571
1070
   140
1040
1.25
1070
   178
1070
   136
1070
   177
1070
   136
1070
   176
1070
   136
1002
}
  0
DIMENSION
  5
529
330
1F
100
AcDbEntity
  8
Layer0
  6
AUSGEZOGEN
 62
   136
370
    18
100
AcDbDimension
  2
*D11
 10
-110.0
 20
126.188438312024
 30
0.0
 11
-111.125
 21
114.117813312024
 31
0.0
 70
   160
 71
     5
 42
-1.0
 53
90.0
  3
ISO-25
100
AcDbAlignedDimension
 13
-123.426558916858
 23
103.688438312024
 33
0.0
 14
-123.426558916858
 24
126.188438312024
 34
0.0
 50
90.0
100
AcDbRotatedDimension
1001
ACAD
1000
DSTYLE
1002
{
1070
     3
1000
<>
1070
    44
1040
0.892857142857
1070
   280
1070
     0
1070
    77
1070
     1
1070
    78
1070
     8
1070
   179
1070
     2
1070
   271
1070
     2
1070
   344
1005
4F6
1070
   343
1005
4F6
1070
   173
1070
     1
1070
    41
1040
1.25
1070
   147
1040
0.178571428571
1070
   140
1040
1.25
1070
   178
1070
   136
1070
   177
1070
   136
1070
   176
1070
   136
1002
}
  0
DIMENSION
  5
538
330
1F
100
AcDbEntity
  8
Layer0
  6
AUSGEZOGEN
 62
   136
370
    18
100
AcDbDimension
  2
*D12
 10
-171.926558916858
 20
146.689346655135
 30
0.0
 11
-173.051558916858
 21
143.911000812024
 31
0.0
 70
   160
 71
     5
 42
-1.0
 53
90.0
  3
ISO-25
100
AcDbAlignedDimension
 13
-167.926558916858
 23
138.789346655135
 33
0.0
 14
-167.676558916858
 24
146.689346655135
 34
0.0
 50
90.0
100
AcDbRotatedDimension
1001
ACAD
1000
DSTYLE
1002
{
1070
     3
1000
<>\S%%p0,3
1070
    44
1040
0.892857142857
1070
   280
1070
     0
1070
    77
1070
     1
1070
    78
1070
     8
1070
   179
1070
     2
1070
   271
1070
     2
1070
   344
1005
4F6
1070
   343
1005
4F6
1070
   173
1070
     1
1070
    41
1040
1.25
1070
   147
1040
0.178571428571
1070
   140
1040
1.25
1070
   178
1070
   136
1070
   177
1070
   136
1070
   176
1070
   136
1002
}
  0
DIMENSION
  5
549
330
1F
100
AcDbEntity
  8
Layer0
  6
AUSGEZOGEN
 62
   136
370
    18
100
AcDbDimension
  2
*D13
 10
-116.926558916858
 20
143.089346655135
 30
0.0
 11
-118.051558916858
 21
148.193178188692
 31
0.0
 70
   160
 71
     5
 42
-1.0
 53
90.0
  3
ISO-25
100
AcDbAlignedDimension
 13
-121.188464688046
 23
146.289346655135
 33
0.0
 14
-121.576558916858
 24
143.089346655135
 34
0.0
 50
-90.0
100
AcDbRotatedDimension
1001
ACAD
1000
DSTYLE
1002
{
1070
     3
1000
<>
1070
    44
1040
0.892857142857
1070
   280
1070
     0
1070
    77
1070
     1
1070
    78
1070
     8
1070
   179
1070
     2
1070
   271
1070
     2
1070
   344
1005
4F6
1070
   343
1005
4F6
1070
   173
1070
     1
1070
    41
1040
1.25
1070
   147
1040
0.178571428571
1070
   140
1040
1.25
1070
   178
1070
   136
1070
   177
1070
   136
1070
   176
1070
   136
1002
}
  0
DIMENSION
  5
557
330
1F
100
AcDbEntity
  8
Layer0
  6
AUSGEZOGEN
 62
   136
370
    18
100
AcDbDimension
  2
*D14
 10
-121.576558916858
 20
150.188438312024
 30
0.0
 11
-124.548433916858
 21
151.313438312024
 31
0.0
 70
   160
 71
     5
 42
-1.0
  3
ISO-25
100
AcDbAlignedDimension
 13
-128.076558916858
 23
146.289346655135
 33
0.0
 14
-121.576558916858
 24
146.289346655135
 34
0.0
100
AcDbRotatedDimension
1001
ACAD
1000
DSTYLE
1002
{
1070
     3
1000
<>
1070
    44
1040
0.892857142857
1070
   280
1070
     0
1070
    77
1070
     1
1070
    78
1070
     8
1070
   179
1070
     2
1070
   271
1070
     2
1070
   344
1005
4F6
1070
   343
1005
4F6
1070
   173
1070
     1
1070
    41
1040
1.25
1070
   147
1040
0.178571428571
1070
   140
1040
1.25
1070
   178
1070
   136
1070
   177
1070
   136
1070
   176
1070
   136
1002
}
  0
DIMENSION
  5
568
330
1F
100
AcDbEntity
  8
Layer0
  6
AUSGEZOGEN
 62
   136
370
    18
100
AcDbDimension
  2
*D15
 10
-123.076558916858
 20
134.188438312024
 30
0.0
 11
-120.548433916858
 21
135.313438312024
 31
0.0
 70
   160
 71
     5
 42
-1.0
  3
ISO-25
100
AcDbAlignedDimension
 13
-126.576558916858
 23
138.789346655135
 33
0.0
 14
-123.076558916858
 24
138.789346655135
 34
0.0
100
AcDbRotatedDimension
1001
ACAD
1000
DSTYLE
1002
{
1070
     3
1000
<>
1070
    44
1040
0.892857142857
1070
   280
1070
     0
1070
    77
1070
     1
1070
    78
1070
     8
1070
   179
1070
     2
1070
   271
1070
     2
1070
   344
1005
4F6
1070
   343
1005
4F6
1070
   173
1070
     1
1070
    41
1040
1.25
1070
   147
1040
0.178571428571
1070
   140
1040
1.25
1070
   178
1070
   136
1070
   177
1070
   136
1070
   176
1070
   136
1002
}
  0
LINE
  5
569
330
1F
100
AcDbEntity
  8
Stammform
  6
DASHDOT
 62
    56
370
    18
100
AcDbLine
 10
-125.674415996158
 20
119.688438312024
 30
0.0
 11
-124.103657822598
 21
119.688438312024
 31
0.0
  0
LINE
  5
56A
330
1F
100
AcDbEntity
  8
Stammform
  6
DASHDOT
 62
    56
370
    18
100
AcDbLine
 10
-125.674415996158
 20
121.688438312024
 30
0.0
 11
-123.946582005242
 21
121.688438312024
 31
0.0
  0
LINE
  5
56B
330
1F
100
AcDbEntity
  8
Stammform
  6
DASHDOT
 62
    56
370
    18
100
AcDbLine
 10
-125.635147041819
 20
110.188438312024
 30
0.0
 11
-123.907313050903
 21
110.188438312024
 31
0.0
  0
LINE
  5
56C
330
1F
100
AcDbEntity
  8
Stammform
  6
DASHDOT
 62
    56
370
    18
100
AcDbLine
 10
-125.674415996158
 20
108.188438312024
 30
0.0
 11
-124.02511991392
 21
108.188438312024
 31
0.0
  0
DIMENSION
  5
57F
330
1F
100
AcDbEntity
  8
Layer0
  6
AUSGEZOGEN
 62
   136
370
    18
100
AcDbDimension
  2
*D16
 10
-117.0
 20
119.688438312024
 30
0.0
 11
-118.125
 21
114.378125
 31
0.0
 70
   160
 71
     5
 42
-1.0
 53
90.0
  3
ISO-25
100
AcDbAlignedDimension
 13
-123.907313050903
 23
110.188438312024
 33
0.0
 14
-124.103657822598
 24
119.688438312024
 34
0.0
 50
90.0
100
AcDbRotatedDimension
1001
ACAD
1000
DSTYLE
1002
{
1070
     3
1000
<>
1070
    44
1040
0.892857142857
1070
   280
1070
     0
1070
    77
1070
     1
1070
    78
1070
     8
1070
   179
1070
     2
1070
   271
1070
     2
1070
   344
1005
4F6
1070
   343
1005
4F6
1070
   173
1070
     1
1070
    41
1040
1.25
1070
   147
1040
0.178571428571
1070
   140
1040
1.25
1070
   178
1070
   136
1070
   177
1070
   136
1070
   176
1070
   136
1002
}
  0
DIMENSION
  5
592
330
1F
100
AcDbEntity
  8
Layer0
  6
AUSGEZOGEN
 62
   136
370
    18
100
AcDbDimension
  2
*D17
 10
-114.0
 20
121.688438312024
 30
0.0
 11
-115.125
 21
114.117813312024
 31
0.0
 70
   160
 71
     5
 42
-1.0
 53
90.0
  3
ISO-25
100
AcDbAlignedDimension
 13
-124.02511991392
 23
108.188438312024
 33
0.0
 14
-123.946582005242
 24
121.688438312024
 34
0.0
 50
90.0
100
AcDbRotatedDimension
1001
ACAD
1000
DSTYLE
1002
{
1070
     3
1000
<>
1070
    44
1040
0.892857142857
1070
   280
1070
     0
1070
    77
1070
     1
1070
    78
1070
     8
1070
   179
1070
     2
1070
   271
1070
     2
1070
   344
1005
4F6
1070
   343
1005
4F6
1070
   173
1070
     1
1070
    41
1040
1.25
1070
   147
1040
0.178571428571
1070
   140
1040
1.25
1070
   178
1070
   136
1070
   177
1070
   136
1070
   176
1070
   136
1002
}
  0
ENDSEC
  0
SECTION
  2
OBJECTS
  0
DICTIONARY
  5
C
330
0
100
AcDbDictionary
281
     1
  3
ACAD_GROUP
350
D
  3
ACAD_LAYOUT
350
1A
  3
ACAD_MATERIAL
350
3B
  3
ACAD_MLEADERSTYLE
350
5BA
  3
ACAD_MLINESTYLE
350
17
  3
ACAD_PLOTSETTINGS
350
19
  3
ACAD_PLOTSTYLENAME
350
E
  3
ACAD_TABLESTYLE
350
5B9
  3
ACAD_VISUALSTYLE
350
2A
  3
ACAD_WIPEOUT_VARS
350
3F
  0
DICTIONARY
  5
D
102
{ACAD_REACTORS
330
C
102
}
330
C
100
AcDbDictionary
281
     1
  0
DICTIONARY
  5
1A
102
{ACAD_REACTORS
330
C
102
}
330
C
100
AcDbDictionary
281
     1
  3
Layout1
350
1E
  3
Layout2
350
26
  3
Model
350
22
  0
DICTIONARY
  5
3B
102
{ACAD_REACTORS
330
C
102
}
330
C
100
AcDbDictionary
281
     1
  3
ByBlock
350
3D
  3
ByLayer
350
3C
  3
Global
350
3E
  0
DICTIONARY
  5
5BA
102
{ACAD_REACTORS
330
C
102
}
330
C
100
AcDbDictionary
281
     1
  0
DICTIONARY
  5
17
102
{ACAD_REACTORS
330
C
102
}
330
C
100
AcDbDictionary
281
     1
  3
Standard
350
18
  0
DICTIONARY
  5
19
102
{ACAD_REACTORS
330
C
102
}
330
C
100
AcDbDictionary
281
     1
  0
ACDBDICTIONARYWDFLT
  5
E
102
{ACAD_REACTORS
330
C
102
}
330
C
100
AcDbDictionary
281
     1
  3
Normal
350
F
100
AcDbDictionaryWithDefault
340
F
  0
DICTIONARY
  5
5B9
102
{ACAD_REACTORS
330
C
102
}
330
C
100
AcDbDictionary
281
     1
  0
DICTIONARY
  5
2A
102
{ACAD_REACTORS
330
C
102
}
330
C
100
AcDbDictionary
281
     1
  3
2dWireframe
350
2F
  3
3D Hidden
350
31
  3
3dWireframe
350
30
  3
Basic
350
32
  3
Brighten
350
36
  3
ColorChange
350
3A
  3
Conceptual
350
34
  3
Dim
350
35
  3
Facepattern
350
39
  3
Flat
350
2B
  3
FlatWithEdges
350
2C
  3
Gouraud
350
2D
  3
GouraudWithEdges
350
2E
  3
Linepattern
350
38
  3
Realistic
350
33
  3
Thicken
350
37
  0
WIPEOUTVARIABLES
  5
3F
102
{ACAD_REACTORS
330
C
102
}
330
C
100
AcDbWipeoutVariables
 70
     0
  0
LAYOUT
  5
1E
102
{ACAD_REACTORS
330
1A
102
}
330
1A
100
AcDbPlotSettings
  1

  2
none_device
  4

  6

 40
0.0
 41
0.0
 42
0.0
 43
0.0
 44
0.0
 45
0.0
 46
0.0
 47
0.0
 48
0.0
 49
0.0
140
0.0
141
0.0
142
1.0
143
1.0
 70
   688
 72
     0
 73
     0
 74
     5
  7

 75
    16
 76
     0
 77
     2
 78
   300
147
1.0
148
0.0
149
0.0
100
AcDbLayout
  1
Layout1
 70
     1
 71
     1
 10
0.0
 20
0.0
 11
420.0
 21
297.0
 12
0.0
 22
0.0
 32
0.0
 14
1.000000000000E+20
 24
1.000000000000E+20
 34
1.000000000000E+20
 15
-1.000000000000E+20
 25
-1.000000000000E+20
 35
-1.000000000000E+20
146
0.0
 13
0.0
 23
0.0
 33
0.0
 16
1.0
 26
0.0
 36
0.0
 17
0.0
 27
1.0
 37
0.0
 76
     0
330
1B
  0
LAYOUT
  5
26
102
{ACAD_REACTORS
330
1A
102
}
330
1A
100
AcDbPlotSettings
  1

  2
none_device
  4

  6

 40
0.0
 41
0.0
 42
0.0
 43
0.0
 44
0.0
 45
0.0
 46
0.0
 47
0.0
 48
0.0
 49
0.0
140
0.0
141
0.0
142
1.0
143
1.0
 70
   688
 72
     0
 73
     0
 74
     5
  7

 75
    16
 76
     0
 77
     2
 78
   300
147
1.0
148
0.0
149
0.0
100
AcDbLayout
  1
Layout2
 70
     1
 71
     2
 10
0.0
 20
0.0
 11
0.0
 21
0.0
 12
0.0
 22
0.0
 32
0.0
 14
0.0
 24
0.0
 34
0.0
 15
0.0
 25
0.0
 35
0.0
146
0.0
 13
0.0
 23
0.0
 33
0.0
 16
1.0
 26
0.0
 36
0.0
 17
0.0
 27
1.0
 37
0.0
 76
     0
330
23
  0
LAYOUT
  5
22
102
{ACAD_REACTORS
330
1A
102
}
330
1A
100
AcDbPlotSettings
  1

  2
none_device
  4

  6

 40
0.0
 41
0.0
 42
0.0
 43
0.0
 44
0.0
 45
0.0
 46
0.0
 47
0.0
 48
0.0
 49
0.0
140
0.0
141
0.0
142
1.0
143
1.0
 70
  1712
 72
     0
 73
     0
 74
     0
  7

 75
     0
 76
     0
 77
     2
 78
   300
147
1.0
148
0.0
149
0.0
100
AcDbLayout
  1
Model
 70
     1
 71
     0
 10
0.0
 20
0.0
 11
420.0
 21
297.0
 12
0.0
 22
0.0
 32
0.0
 14
-355.052322930985
 24
28.171601214577
 34
0.0
 15
68.667299923074
 25
181.720601214577
 35
0.0
146
0.0
 13
0.0
 23
0.0
 33
0.0
 16
1.0
 26
0.0
 36
0.0
 17
0.0
 27
1.0
 37
0.0
 76
     0
330
1F
331
29
  0
MATERIAL
  5
3D
102
{ACAD_REACTORS
330
3B
102
}
102
{ACAD_XDICTIONARY
360
5B5
102
}
330
3B
100
AcDbMaterial
  1
ByBlock
  0
MATERIAL
  5
3C
102
{ACAD_REACTORS
330
3B
102
}
102
{ACAD_XDICTIONARY
360
5B3
102
}
330
3B
100
AcDbMaterial
  1
ByLayer
  0
MATERIAL
  5
3E
102
{ACAD_REACTORS
330
3B
102
}
102
{ACAD_XDICTIONARY
360
5B7
102
}
330
3B
100
AcDbMaterial
  1
Global
  0
MLINESTYLE
  5
18
102
{ACAD_REACTORS
330
17
102
}
330
17
100
AcDbMlineStyle
  2
Standard
 70
     0
  3

 62
   256
 51
90.0
 52
90.0
 71
     2
 49
0.5
 62
   256
  6
BYLAYER
 49
-0.5
 62
   256
  6
BYLAYER
  0
ACDBPLACEHOLDER
  5
F
102
{ACAD_REACTORS
330
E
102
}
330
E
  0
VISUALSTYLE
  5
2F
102
{ACAD_REACTORS
330
2A
102
}
102
{ACAD_XDICTIONARY
360
59B
102
}
330
2A
100
AcDbVisualStyle
  2
2dWireframe
 70
     4
 71
     0
 72
     2
 73
     0
 90
        0
 40
-0.6
 41
-30.0
 62
     5
 63
     7
421
 16777215
 74
     1
 91
        4
 64
     7
 65
   257
 75
     1
175
     1
 42
1.0
 92
        0
 66
   257
 43
1.0
 76
     1
 77
     6
 78
     2
 67
     7
 79
     5
170
     0
171
     0
290
     0
174
     0
 93
        1
 44
0.0
173
     0
291
     0
 45
0.0
1001
ACAD
1000
AcDbSavedByObjectVersion
1070
     0
  0
VISUALSTYLE
  5
31
102
{ACAD_REACTORS
330
2A
102
}
102
{ACAD_XDICTIONARY
360
59F
102
}
330
2A
100
AcDbVisualStyle
  2
3D Hidden
 70
     6
 71
     1
 72
     2
 73
     2
 90
        0
 40
-0.6
 41
-30.0
 62
     5
 63
     7
421
 16777215
 74
     2
 91
        2
 64
     7
 65
   257
 75
     2
175
     1
 42
40.0
 92
        0
 66
   257
 43
1.0
 76
     1
 77
     6
 78
     2
 67
     7
 79
     3
170
     0
171
     0
290
     0
174
     0
 93
        1
 44
0.0
173
     0
291
     0
 45
0.0
1001
ACAD
1000
AcDbSavedByObjectVersion
1070
     0
  0
VISUALSTYLE
  5
30
102
{ACAD_REACTORS
330
2A
102
}
102
{ACAD_XDICTIONARY
360
59D
102
}
330
2A
100
AcDbVisualStyle
  2
3dWireframe
 70
     5
 71
     0
 72
     2
 73
     0
 90
        0
 40
-0.6
 41
-30.0
 62
     5
 63
     7
421
 16777215
 74
     1
 91
        4
 64
     7
 65
   257
 75
     1
175
     1
 42
1.0
 92
        0
 66
   257
 43
1.0
 76
     1
 77
     6
 78
     2
 67
     7
 79
     5
170
     0
171
     0
290
     0
174
     0
 93
        1
 44
0.0
173
     0
291
     0
 45
0.0
1001
ACAD
1000
AcDbSavedByObjectVersion
1070
     0
  0
VISUALSTYLE
  5
32
102
{ACAD_REACTORS
330
2A
102
}
102
{ACAD_XDICTIONARY
360
5A1
102
}
330
2A
100
AcDbVisualStyle
  2
Basic
 70
     7
 71
     1
 72
     0
 73
     1
 90
        0
 40
-0.6
 41
-30.0
 62
     5
 63
     7
421
 16777215
 74
     0
 91
        4
 64
     7
 65
   257
 75
     1
175
     1
 42
1.0
 92
        8
 66
     7
 43
1.0
 76
     1
 77
     6
 78
     2
 67
     7
 79
     5
170
     0
171
     0
290
     0
174
     0
 93
        1
 44
0.0
173
     0
291
     1
 45
0.0
1001
ACAD
1000
AcDbSavedByObjectVersion
1070
     0
  0
VISUALSTYLE
  5
36
102
{ACAD_REACTORS
330
2A
102
}
102
{ACAD_XDICTIONARY
360
5A9
102
}
330
2A
100
AcDbVisualStyle
  2
Brighten
 70
    12
 71
     2
 72
     2
 73
     0
 90
        0
 40
-0.6
 41
-30.0
 62
     5
 63
     7
421
 16777215
 74
     1
 91
        4
 64
     7
 65
   257
 75
     1
175
     1
 42
1.0
 92
        8
 66
     7
 43
1.0
 76
     1
 77
     6
 78
     2
 67
     7
 79
     5
170
     0
171
     0
290
     0
174
     0
 93
        1
 44
50.0
173
     0
291
     1
 45
0.0
1001
ACAD
1000
AcDbSavedByObjectVersion
1070
     0
  0
VISUALSTYLE
  5
3A
102
{ACAD_REACTORS
330
2A
102
}
102
{ACAD_XDICTIONARY
360
5B1
102
}
330
2A
100
AcDbVisualStyle
  2
ColorChange
 70
    16
 71
     2
 72
     2
 73
     3
 90
        0
 40
-0.6
 41
-30.0
 62
     5
 63
     8
421
  8421504
 74
     1
 91
        4
 64
     7
 65
   257
 75
     1
175
     1
 42
1.0
 92
        8
 66
     8
424
  8421504
 43
1.0
 76
     1
 77
     6
 78
     2
 67
     7
 79
     5
170
     0
171
     0
290
     0
174
     0
 93
        1
 44
0.0
173
     0
291
     1
 45
0.0
1001
ACAD
1000
AcDbSavedByObjectVersion
1070
     0
  0
VISUALSTYLE
  5
34
102
{ACAD_REACTORS
330
2A
102
}
102
{ACAD_XDICTIONARY
360
5A5
102
}
330
2A
100
AcDbVisualStyle
  2
Conceptual
 70
     9
 71
     3
 72
     2
 73
     0
 90
        0
 40
-0.6
 41
-30.0
 62
     5
 63
     7
421
 16777215
 74
     2
 91
        2
 64
     7
 65
   257
 75
     1
175
     1
 42
40.0
 92
        8
 66
     7
 43
1.0
 76
     1
 77
     6
 78
     2
 67
     7
 79
     3
170
     0
171
     0
290
     0
174
     0
 93
        1
 44
0.0
173
     0
291
     0
 45
0.0
1001
ACAD
1000
AcDbSavedByObjectVersion
1070
     0
  0
VISUALSTYLE
  5
35
102
{ACAD_REACTORS
330
2A
102
}
102
{ACAD_XDICTIONARY
360
5A7
102
}
330
2A
100
AcDbVisualStyle
  2
Dim
 70
    11
 71
     2
 72
     2
 73
     0
 90
        0
 40
-0.6
 41
-30.0
 62
     5
 63
     7
421
 16777215
 74
     1
 91
        4
 64
     7
 65
   257
 75
     1
175
     1
 42
1.0
 92
        8
 66
     7
 43
1.0
 76
     1
 77
     6
 78
     2
 67
     7
 79
     5
170
     0
171
     0
290
     0
174
     0
 93
        1
 44
-50.0
173
     0
291
     1
 45
0.0
1001
ACAD
1000
AcDbSavedByObjectVersion
1070
     0
  0
VISUALSTYLE
  5
39
102
{ACAD_REACTORS
330
2A
102
}
102
{ACAD_XDICTIONARY
360
5AF
102
}
330
2A
100
AcDbVisualStyle
  2
Facepattern
 70
    15
 71
     2
 72
     2
 73
     0
 90
        0
 40
-0.6
 41
-30.0
 62
     5
 63
     7
421
 16777215
 74
     1
 91
        4
 64
     7
 65
   257
 75
     1
175
     1
 42
1.0
 92
        8
 66
     7
 43
1.0
 76
     1
 77
     6
 78
     2
 67
     7
 79
     5
170
     0
171
     0
290
     0
174
     0
 93
        1
 44
0.0
173
     0
291
     1
 45
0.0
1001
ACAD
1000
AcDbSavedByObjectVersion
1070
     0
  0
VISUALSTYLE
  5
2B
102
{ACAD_REACTORS
330
2A
102
}
102
{ACAD_XDICTIONARY
360
593
102
}
330
2A
100
AcDbVisualStyle
  2
Flat
 70
     0
 71
     2
 72
     1
 73
     1
 90
        2
 40
-0.6
 41
30.0
 62
     5
 63
     7
421
 16777215
 74
     0
 91
        4
 64
     7
 65
   257
 75
     1
175
     1
 42
1.0
 92
        8
 66
     7
 43
1.0
 76
     1
 77
     6
 78
     2
 67
     7
 79
     5
170
     0
171
     0
290
     0
174
     0
 93
       13
 44
0.0
173
     0
291
     1
 45
0.0
1001
ACAD
1000
AcDbSavedByObjectVersion
1070
     0
  0
VISUALSTYLE
  5
2C
102
{ACAD_REACTORS
330
2A
102
}
102
{ACAD_XDICTIONARY
360
595
102
}
330
2A
100
AcDbVisualStyle
  2
FlatWithEdges
 70
     1
 71
     2
 72
     1
 73
     1
 90
        2
 40
-0.6
 41
30.0
 62
     5
 63
     7
421
 16777215
 74
     1
 91
        4
 64
     7
 65
   257
 75
     1
175
     1
 42
1.0
 92
        0
 66
   257
 43
1.0
 76
     1
 77
     6
 78
     2
 67
     7
 79
     5
170
     0
171
     0
290
     0
174
     0
 93
       13
 44
0.0
173
     0
291
     1
 45
0.0
1001
ACAD
1000
AcDbSavedByObjectVersion
1070
     0
  0
VISUALSTYLE
  5
2D
102
{ACAD_REACTORS
330
2A
102
}
102
{ACAD_XDICTIONARY
360
597
102
}
330
2A
100
AcDbVisualStyle
  2
Gouraud
 70
     2
 71
     2
 72
     2
 73
     1
 90
        2
 40
-0.6
 41
30.0
 62
     5
 63
     7
421
 16777215
 74
     0
 91
        4
 64
     7
 65
   257
 75
     1
175
     1
 42
1.0
 92
        0
 66
     7
 43
1.0
 76
     1
 77
     6
 78
     2
 67
     7
 79
     5
170
     0
171
     0
290
     0
174
     0
 93
       13
 44
0.0
173
     0
291
     1
 45
0.0
1001
ACAD
1000
AcDbSavedByObjectVersion
1070
     0
  0
VISUALSTYLE
  5
2E
102
{ACAD_REACTORS
330
2A
102
}
102
{ACAD_XDICTIONARY
360
599
102
}
330
2A
100
AcDbVisualStyle
  2
GouraudWithEdges
 70
     3
 71
     2
 72
     2
 73
     1
 90
        2
 40
-0.6
 41
30.0
 62
     5
 63
     7
421
 16777215
 74
     1
 91
        4
 64
     7
 65
   257
 75
     1
175
     1
 42
1.0
 92
        0
 66
   257
 43
1.0
 76
     1
 77
     6
 78
     2
 67
     7
 79
     5
170
     0
171
     0
290
     0
174
     0
 93
       13
 44
0.0
173
     0
291
     1
 45
0.0
1001
ACAD
1000
AcDbSavedByObjectVersion
1070
     0
  0
VISUALSTYLE
  5
38
102
{ACAD_REACTORS
330
2A
102
}
102
{ACAD_XDICTIONARY
360
5AD
102
}
330
2A
100
AcDbVisualStyle
  2
Linepattern
 70
    14
 71
     2
 72
     2
 73
     0
 90
        0
 40
-0.6
 41
-30.0
 62
     5
 63
     7
421
 16777215
 74
     1
 91
        4
 64
     7
 65
   257
 75
     7
175
     7
 42
1.0
 92
        8
 66
     7
 43
1.0
 76
     1
 77
     6
 78
     2
 67
     7
 79
     5
170
     0
171
     0
290
     0
174
     0
 93
        1
 44
0.0
173
     0
291
     1
 45
0.0
1001
ACAD
1000
AcDbSavedByObjectVersion
1070
     0
  0
VISUALSTYLE
  5
33
102
{ACAD_REACTORS
330
2A
102
}
102
{ACAD_XDICTIONARY
360
5A3
102
}
330
2A
100
AcDbVisualStyle
  2
Realistic
 70
     8
 71
     2
 72
     2
 73
     0
 90
        0
 40
-0.6
 41
-30.0
 62
     5
 63
     7
421
 16777215
 74
     1
 91
        0
 64
     7
 65
   257
 75
     1
175
     1
 42
1.0
 92
        8
 66
     8
424
  7895160
 43
1.0
 76
     1
 77
     6
 78
     2
 67
     7
 79
     5
170
     0
171
     0
290
     0
174
     0
 93
       13
 44
0.0
173
     0
291
     0
 45
0.0
1001
ACAD
1000
AcDbSavedByObjectVersion
1070
     0
  0
VISUALSTYLE
  5
37
102
{ACAD_REACTORS
330
2A
102
}
102
{ACAD_XDICTIONARY
360
5AB
102
}
330
2A
100
AcDbVisualStyle
  2
Thicken
 70
    13
 71
     2
 72
     2
 73
     0
 90
        0
 40
-0.6
 41
-30.0
 62
     5
 63
     7
421
 16777215
 74
     1
 91
        4
 64
     7
 65
   257
 75
     1
175
     1
 42
1.0
 92
       12
 66
     7
 43
1.0
 76
     1
 77
     6
 78
     2
 67
     7
 79
     5
170
     0
171
     0
290
     0
174
     0
 93
        1
 44
0.0
173
     0
291
     1
 45
0.0
1001
ACAD
1000
AcDbSavedByObjectVersion
1070
     0
  0
DICTIONARY
  5
5B5
330
3D
100
AcDbDictionary
280
     1
281
     1
  3
ACAD_XREC_ROUNDTRIP
360
5B6
  0
DICTIONARY
  5
5B3
330
3C
100
AcDbDictionary
280
     1
281
     1
  3
ACAD_XREC_ROUNDTRIP
360
5B4
  0
DICTIONARY
  5
5B7
330
3E
100
AcDbDictionary
280
     1
281
     1
  3
ACAD_XREC_ROUNDTRIP
360
5B8
  0
DICTIONARY
  5
59B
330
2F
100
AcDbDictionary
280
     1
281
     1
  3
ACAD_XREC_ROUNDTRIP
360
59C
  0
DICTIONARY
  5
59F
330
31
100
AcDbDictionary
280
     1
281
     1
  3
ACAD_XREC_ROUNDTRIP
360
5A0
  0
DICTIONARY
  5
59D
330
30
100
AcDbDictionary
280
     1
281
     1
  3
ACAD_XREC_ROUNDTRIP
360
59E
  0
DICTIONARY
  5
5A1
330
32
100
AcDbDictionary
280
     1
281
     1
  3
ACAD_XREC_ROUNDTRIP
360
5A2
  0
DICTIONARY
  5
5A9
330
36
100
AcDbDictionary
280
     1
281
     1
  3
ACAD_XREC_ROUNDTRIP
360
5AA
  0
DICTIONARY
  5
5B1
330
3A
100
AcDbDictionary
280
     1
281
     1
  3
ACAD_XREC_ROUNDTRIP
360
5B2
  0
DICTIONARY
  5
5A5
330
34
100
AcDbDictionary
280
     1
281
     1
  3
ACAD_XREC_ROUNDTRIP
360
5A6
  0
DICTIONARY
  5
5A7
330
35
100
AcDbDictionary
280
     1
281
     1
  3
ACAD_XREC_ROUNDTRIP
360
5A8
  0
DICTIONARY
  5
5AF
330
39
100
AcDbDictionary
280
     1
281
     1
  3
ACAD_XREC_ROUNDTRIP
360
5B0
  0
DICTIONARY
  5
593
330
2B
100
AcDbDictionary
280
     1
281
     1
  3
ACAD_XREC_ROUNDTRIP
360
594
  0
DICTIONARY
  5
595
330
2C
100
AcDbDictionary
280
     1
281
     1
  3
ACAD_XREC_ROUNDTRIP
360
596
  0
DICTIONARY
  5
597
330
2D
100
AcDbDictionary
280
     1
281
     1
  3
ACAD_XREC_ROUNDTRIP
360
598
  0
DICTIONARY
  5
599
330
2E
100
AcDbDictionary
280
     1
281
     1
  3
ACAD_XREC_ROUNDTRIP
360
59A
  0
DICTIONARY
  5
5AD
330
38
100
AcDbDictionary
280
     1
281
     1
  3
ACAD_XREC_ROUNDTRIP
360
5AE
  0
DICTIONARY
  5
5A3
330
33
100
AcDbDictionary
280
     1
281
     1
  3
ACAD_XREC_ROUNDTRIP
360
5A4
  0
DICTIONARY
  5
5AB
330
37
100
AcDbDictionary
280
     1
281
     1
  3
ACAD_XREC_ROUNDTRIP
360
5AC
  0
XRECORD
  5
5B6
102
{ACAD_REACTORS
330
5B5
102
}
330
5B5
100
AcDbXrecord
280
     1
102
MATERIAL
148
0.0
149
0.0
149
0.0
 93
        0
 94
      127
282
     0
 72
     1
 77
     1
171
     1
175
     1
179
     1
273
     0
  0
XRECORD
  5
5B4
102
{ACAD_REACTORS
330
5B3
102
}
330
5B3
100
AcDbXrecord
280
     1
102
MATERIAL
148
0.0
149
0.0
149
0.0
 93
        0
 94
      127
282
     0
 72
     1
 77
     1
171
     1
175
     1
179
     1
273
     0
  0
XRECORD
  5
5B8
102
{ACAD_REACTORS
330
5B7
102
}
330
5B7
100
AcDbXrecord
280
     1
102
MATERIAL
148
0.0
149
0.0
149
0.0
 93
        0
 94
      127
282
     0
 72
     1
 77
     1
171
     1
175
     1
179
     1
273
     0
  0
XRECORD
  5
59C
102
{ACAD_REACTORS
330
59B
102
}
330
59B
100
AcDbXrecord
280
     1
102
RTVSPropertyOp0
 70
     1
102
RTVSPropertyOp1
 70
     1
102
RTVSPropertyOp2
 70
     1
102
RTVSPropertyOp3
 70
     1
102
RTVSPropertyOp4
 70
     1
102
RTVSPropertyOp5
 70
     1
102
RTVSPropertyOp6
 70
     1
102
RTVSPropertyOp7
 70
     1
102
RTVSPropertyOp8
 70
     1
102
RTVSPropertyOp9
 70
     1
102
RTVSPropertyOp10
 70
     1
102
RTVSPropertyOp11
 70
     1
102
RTVSPropertyOp12
 70
     1
102
RTVSPropertyOp13
 70
     1
102
RTVSPropertyOp14
 70
     1
102
RTVSPropertyOp15
 70
     1
102
RTVSPropertyOp16
 70
     1
102
RTVSPropertyOp17
 70
     1
102
RTVSPropertyOp18
 70
     1
102
RTVSPropertyOp19
 70
     1
102
RTVSPropertyOp20
 70
     1
102
RTVSPropertyOp21
 70
     1
102
RTVSPropertyOp22
 70
     1
102
RTVSPropertyOp23
 70
     1
102
RTVSPropertyOp24
 70
     1
102
RTVSPropertyOp25
 70
     1
102
RTVSPropertyOp26
 70
     1
102
RTVSPropertyOp27
 70
     1
102
RTVSPropertyOp28
 70
     1
102
RTVSPropertyOp29
 70
     1
102
RTVSPropertyOp30
 70
     1
102
RTVSPropertyOp31
 70
     1
102
RTVSPropertyOp32
 70
     1
  0
XRECORD
  5
5A0
102
{ACAD_REACTORS
330
59F
102
}
330
59F
100
AcDbXrecord
280
     1
102
RTVSPropertyOp0
 70
     1
102
RTVSPropertyOp1
 70
     1
102
RTVSPropertyOp2
 70
     1
102
RTVSPropertyOp3
 70
     1
102
RTVSPropertyOp4
 70
     1
102
RTVSPropertyOp5
 70
     1
102
RTVSPropertyOp6
 70
     1
102
RTVSPropertyOp7
 70
     1
102
RTVSPropertyOp8
 70
     1
102
RTVSPropertyOp9
 70
     1
102
RTVSPropertyOp10
 70
     1
102
RTVSPropertyOp11
 70
     1
102
RTVSPropertyOp12
 70
     1
102
RTVSPropertyOp13
 70
     1
102
RTVSPropertyOp14
 70
     1
102
RTVSPropertyOp15
 70
     1
102
RTVSPropertyOp16
 70
     1
102
RTVSPropertyOp17
 70
     1
102
RTVSPropertyOp18
 70
     1
102
RTVSPropertyOp19
 70
     1
102
RTVSPropertyOp20
 70
     1
102
RTVSPropertyOp21
 70
     1
102
RTVSPropertyOp22
 70
     1
102
RTVSPropertyOp23
 70
     1
102
RTVSPropertyOp24
 70
     1
102
RTVSPropertyOp25
 70
     1
102
RTVSPropertyOp26
 70
     1
102
RTVSPropertyOp27
 70
     1
102
RTVSPropertyOp28
 70
     1
102
RTVSPropertyOp29
 70
     1
102
RTVSPropertyOp30
 70
     1
102
RTVSPropertyOp31
 70
     1
102
RTVSPropertyOp32
 70
     1
  0
XRECORD
  5
59E
102
{ACAD_REACTORS
330
59D
102
}
330
59D
100
AcDbXrecord
280
     1
102
RTVSPropertyOp0
 70
     1
102
RTVSPropertyOp1
 70
     1
102
RTVSPropertyOp2
 70
     1
102
RTVSPropertyOp3
 70
     1
102
RTVSPropertyOp4
 70
     1
102
RTVSPropertyOp5
 70
     1
102
RTVSPropertyOp6
 70
     1
102
RTVSPropertyOp7
 70
     1
102
RTVSPropertyOp8
 70
     1
102
RTVSPropertyOp9
 70
     1
102
RTVSPropertyOp10
 70
     1
102
RTVSPropertyOp11
 70
     1
102
RTVSPropertyOp12
 70
     1
102
RTVSPropertyOp13
 70
     1
102
RTVSPropertyOp14
 70
     1
102
RTVSPropertyOp15
 70
     1
102
RTVSPropertyOp16
 70
     1
102
RTVSPropertyOp17
 70
     1
102
RTVSPropertyOp18
 70
     1
102
RTVSPropertyOp19
 70
     1
102
RTVSPropertyOp20
 70
     1
102
RTVSPropertyOp21
 70
     1
102
RTVSPropertyOp22
 70
     1
102
RTVSPropertyOp23
 70
     1
102
RTVSPropertyOp24
 70
     1
102
RTVSPropertyOp25
 70
     1
102
RTVSPropertyOp26
 70
     1
102
RTVSPropertyOp27
 70
     1
102
RTVSPropertyOp28
 70
     1
102
RTVSPropertyOp29
 70
     1
102
RTVSPropertyOp30
 70
     1
102
RTVSPropertyOp31
 70
     1
102
RTVSPropertyOp32
 70
     1
  0
XRECORD
  5
5A2
102
{ACAD_REACTORS
330
5A1
102
}
330
5A1
100
AcDbXrecord
280
     1
102
RTVSPropertyOp0
 70
     1
102
RTVSPropertyOp1
 70
     1
102
RTVSPropertyOp2
 70
     1
102
RTVSPropertyOp3
 70
     1
102
RTVSPropertyOp4
 70
     1
102
RTVSPropertyOp5
 70
     1
102
RTVSPropertyOp6
 70
     1
102
RTVSPropertyOp7
 70
     1
102
RTVSPropertyOp8
 70
     1
102
RTVSPropertyOp9
 70
     1
102
RTVSPropertyOp10
 70
     1
102
RTVSPropertyOp11
 70
     1
102
RTVSPropertyOp12
 70
     1
102
RTVSPropertyOp13
 70
     1
102
RTVSPropertyOp14
 70
     1
102
RTVSPropertyOp15
 70
     1
102
RTVSPropertyOp16
 70
     1
102
RTVSPropertyOp17
 70
     1
102
RTVSPropertyOp18
 70
     1
102
RTVSPropertyOp19
 70
     1
102
RTVSPropertyOp20
 70
     1
102
RTVSPropertyOp21
 70
     1
102
RTVSPropertyOp22
 70
     1
102
RTVSPropertyOp23
 70
     1
102
RTVSPropertyOp24
 70
     1
102
RTVSPropertyOp25
 70
     1
102
RTVSPropertyOp26
 70
     1
102
RTVSPropertyOp27
 70
     1
102
RTVSPropertyOp28
 70
     1
102
RTVSPropertyOp29
 70
     1
102
RTVSPropertyOp30
 70
     1
102
RTVSPropertyOp31
 70
     1
102
RTVSPropertyOp32
 70
     1
  0
XRECORD
  5
5AA
102
{ACAD_REACTORS
330
5A9
102
}
330
5A9
100
AcDbXrecord
280
     1
102
RTVSPropertyOp0
 70
     1
102
RTVSPropertyOp1
 70
     1
102
RTVSPropertyOp2
 70
     1
102
RTVSPropertyOp3
 70
     1
102
RTVSPropertyOp4
 70
     1
102
RTVSPropertyOp5
 70
     1
102
RTVSPropertyOp6
 70
     1
102
RTVSPropertyOp7
 70
     1
102
RTVSPropertyOp8
 70
     1
102
RTVSPropertyOp9
 70
     1
102
RTVSPropertyOp10
 70
     1
102
RTVSPropertyOp11
 70
     1
102
RTVSPropertyOp12
 70
     1
102
RTVSPropertyOp13
 70
     1
102
RTVSPropertyOp14
 70
     1
102
RTVSPropertyOp15
 70
     1
102
RTVSPropertyOp16
 70
     1
102
RTVSPropertyOp17
 70
     1
102
RTVSPropertyOp18
 70
     1
102
RTVSPropertyOp19
 70
     1
102
RTVSPropertyOp20
 70
     1
102
RTVSPropertyOp21
 70
     1
102
RTVSPropertyOp22
 70
     1
102
RTVSPropertyOp23
 70
     1
102
RTVSPropertyOp24
 70
     1
102
RTVSPropertyOp25
 70
     1
102
RTVSPropertyOp26
 70
     1
102
RTVSPropertyOp27
 70
     1
102
RTVSPropertyOp28
 70
     1
102
RTVSPropertyOp29
 70
     1
102
RTVSPropertyOp30
 70
     1
102
RTVSPropertyOp31
 70
     1
102
RTVSPropertyOp32
 70
     1
  0
XRECORD
  5
5B2
102
{ACAD_REACTORS
330
5B1
102
}
330
5B1
100
AcDbXrecord
280
     1
102
RTVSPropertyOp0
 70
     1
102
RTVSPropertyOp1
 70
     1
102
RTVSPropertyOp2
 70
     1
102
RTVSPropertyOp3
 70
     1
102
RTVSPropertyOp4
 70
     1
102
RTVSPropertyOp5
 70
     1
102
RTVSPropertyOp6
 70
     1
102
RTVSPropertyOp7
 70
     1
102
RTVSPropertyOp8
 70
     1
102
RTVSPropertyOp9
 70
     1
102
RTVSPropertyOp10
 70
     1
102
RTVSPropertyOp11
 70
     1
102
RTVSPropertyOp12
 70
     1
102
RTVSPropertyOp13
 70
     1
102
RTVSPropertyOp14
 70
     1
102
RTVSPropertyOp15
 70
     1
102
RTVSPropertyOp16
 70
     1
102
RTVSPropertyOp17
 70
     1
102
RTVSPropertyOp18
 70
     1
102
RTVSPropertyOp19
 70
     1
102
RTVSPropertyOp20
 70
     1
102
RTVSPropertyOp21
 70
     1
102
RTVSPropertyOp22
 70
     1
102
RTVSPropertyOp23
 70
     1
102
RTVSPropertyOp24
 70
     1
102
RTVSPropertyOp25
 70
     1
102
RTVSPropertyOp26
 70
     1
102
RTVSPropertyOp27
 70
     1
102
RTVSPropertyOp28
 70
     1
102
RTVSPropertyOp29
 70
     1
102
RTVSPropertyOp30
 70
     1
102
RTVSPropertyOp31
 70
     1
102
RTVSPropertyOp32
 70
     1
  0
XRECORD
  5
5A6
102
{ACAD_REACTORS
330
5A5
102
}
330
5A5
100
AcDbXrecord
280
     1
102
RTVSPropertyOp0
 70
     1
102
RTVSPropertyOp1
 70
     1
102
RTVSPropertyOp2
 70
     1
102
RTVSPropertyOp3
 70
     1
102
RTVSPropertyOp4
 70
     1
102
RTVSPropertyOp5
 70
     1
102
RTVSPropertyOp6
 70
     1
102
RTVSPropertyOp7
 70
     1
102
RTVSPropertyOp8
 70
     1
102
RTVSPropertyOp9
 70
     1
102
RTVSPropertyOp10
 70
     1
102
RTVSPropertyOp11
 70
     1
102
RTVSPropertyOp12
 70
     1
102
RTVSPropertyOp13
 70
     1
102
RTVSPropertyOp14
 70
     1
102
RTVSPropertyOp15
 70
     1
102
RTVSPropertyOp16
 70
     1
102
RTVSPropertyOp17
 70
     1
102
RTVSPropertyOp18
 70
     1
102
RTVSPropertyOp19
 70
     1
102
RTVSPropertyOp20
 70
     1
102
RTVSPropertyOp21
 70
     1
102
RTVSPropertyOp22
 70
     1
102
RTVSPropertyOp23
 70
     1
102
RTVSPropertyOp24
 70
     1
102
RTVSPropertyOp25
 70
     1
102
RTVSPropertyOp26
 70
     1
102
RTVSPropertyOp27
 70
     1
102
RTVSPropertyOp28
 70
     1
102
RTVSPropertyOp29
 70
     1
102
RTVSPropertyOp30
 70
     1
102
RTVSPropertyOp31
 70
     1
102
RTVSPropertyOp32
 70
     1
  0
XRECORD
  5
5A8
102
{ACAD_REACTORS
330
5A7
102
}
330
5A7
100
AcDbXrecord
280
     1
102
RTVSPropertyOp0
 70
     1
102
RTVSPropertyOp1
 70
     1
102
RTVSPropertyOp2
 70
     1
102
RTVSPropertyOp3
 70
     1
102
RTVSPropertyOp4
 70
     1
102
RTVSPropertyOp5
 70
     1
102
RTVSPropertyOp6
 70
     1
102
RTVSPropertyOp7
 70
     1
102
RTVSPropertyOp8
 70
     1
102
RTVSPropertyOp9
 70
     1
102
RTVSPropertyOp10
 70
     1
102
RTVSPropertyOp11
 70
     1
102
RTVSPropertyOp12
 70
     1
102
RTVSPropertyOp13
 70
     1
102
RTVSPropertyOp14
 70
     1
102
RTVSPropertyOp15
 70
     1
102
RTVSPropertyOp16
 70
     1
102
RTVSPropertyOp17
 70
     1
102
RTVSPropertyOp18
 70
     1
102
RTVSPropertyOp19
 70
     1
102
RTVSPropertyOp20
 70
     1
102
RTVSPropertyOp21
 70
     1
102
RTVSPropertyOp22
 70
     1
102
RTVSPropertyOp23
 70
     1
102
RTVSPropertyOp24
 70
     1
102
RTVSPropertyOp25
 70
     1
102
RTVSPropertyOp26
 70
     1
102
RTVSPropertyOp27
 70
     1
102
RTVSPropertyOp28
 70
     1
102
RTVSPropertyOp29
 70
     1
102
RTVSPropertyOp30
 70
     1
102
RTVSPropertyOp31
 70
     1
102
RTVSPropertyOp32
 70
     1
  0
XRECORD
  5
5B0
102
{ACAD_REACTORS
330
5AF
102
}
330
5AF
100
AcDbXrecord
280
     1
102
RTVSPropertyOp0
 70
     1
102
RTVSPropertyOp1
 70
     1
102
RTVSPropertyOp2
 70
     1
102
RTVSPropertyOp3
 70
     1
102
RTVSPropertyOp4
 70
     1
102
RTVSPropertyOp5
 70
     1
102
RTVSPropertyOp6
 70
     1
102
RTVSPropertyOp7
 70
     1
102
RTVSPropertyOp8
 70
     1
102
RTVSPropertyOp9
 70
     1
102
RTVSPropertyOp10
 70
     1
102
RTVSPropertyOp11
 70
     1
102
RTVSPropertyOp12
 70
     1
102
RTVSPropertyOp13
 70
     1
102
RTVSPropertyOp14
 70
     1
102
RTVSPropertyOp15
 70
     1
102
RTVSPropertyOp16
 70
     1
102
RTVSPropertyOp17
 70
     1
102
RTVSPropertyOp18
 70
     1
102
RTVSPropertyOp19
 70
     1
102
RTVSPropertyOp20
 70
     1
102
RTVSPropertyOp21
 70
     1
102
RTVSPropertyOp22
 70
     1
102
RTVSPropertyOp23
 70
     1
102
RTVSPropertyOp24
 70
     1
102
RTVSPropertyOp25
 70
     1
102
RTVSPropertyOp26
 70
     1
102
RTVSPropertyOp27
 70
     1
102
RTVSPropertyOp28
 70
     1
102
RTVSPropertyOp29
 70
     1
102
RTVSPropertyOp30
 70
     1
102
RTVSPropertyOp31
 70
     1
102
RTVSPropertyOp32
 70
     1
  0
XRECORD
  5
594
102
{ACAD_REACTORS
330
593
102
}
330
593
100
AcDbXrecord
280
     1
102
RTVSPropertyOp0
 70
     1
102
RTVSPropertyOp1
 70
     1
102
RTVSPropertyOp2
 70
     1
102
RTVSPropertyOp3
 70
     1
102
RTVSPropertyOp4
 70
     1
102
RTVSPropertyOp5
 70
     1
102
RTVSPropertyOp6
 70
     1
102
RTVSPropertyOp7
 70
     1
102
RTVSPropertyOp8
 70
     1
102
RTVSPropertyOp9
 70
     1
102
RTVSPropertyOp10
 70
     1
102
RTVSPropertyOp11
 70
     1
102
RTVSPropertyOp12
 70
     1
102
RTVSPropertyOp13
 70
     1
102
RTVSPropertyOp14
 70
     1
102
RTVSPropertyOp15
 70
     1
102
RTVSPropertyOp16
 70
     1
102
RTVSPropertyOp17
 70
     1
102
RTVSPropertyOp18
 70
     1
102
RTVSPropertyOp19
 70
     1
102
RTVSPropertyOp20
 70
     1
102
RTVSPropertyOp21
 70
     1
102
RTVSPropertyOp22
 70
     1
102
RTVSPropertyOp23
 70
     1
102
RTVSPropertyOp24
 70
     1
102
RTVSPropertyOp25
 70
     1
102
RTVSPropertyOp26
 70
     1
102
RTVSPropertyOp27
 70
     1
102
RTVSPropertyOp28
 70
     1
102
RTVSPropertyOp29
 70
     1
102
RTVSPropertyOp30
 70
     1
102
RTVSPropertyOp31
 70
     1
102
RTVSPropertyOp32
 70
     1
  0
XRECORD
  5
596
102
{ACAD_REACTORS
330
595
102
}
330
595
100
AcDbXrecord
280
     1
102
RTVSPropertyOp0
 70
     1
102
RTVSPropertyOp1
 70
     1
102
RTVSPropertyOp2
 70
     1
102
RTVSPropertyOp3
 70
     1
102
RTVSPropertyOp4
 70
     1
102
RTVSPropertyOp5
 70
     1
102
RTVSPropertyOp6
 70
     1
102
RTVSPropertyOp7
 70
     1
102
RTVSPropertyOp8
 70
     1
102
RTVSPropertyOp9
 70
     1
102
RTVSPropertyOp10
 70
     1
102
RTVSPropertyOp11
 70
     1
102
RTVSPropertyOp12
 70
     1
102
RTVSPropertyOp13
 70
     1
102
RTVSPropertyOp14
 70
     1
102
RTVSPropertyOp15
 70
     1
102
RTVSPropertyOp16
 70
     1
102
RTVSPropertyOp17
 70
     1
102
RTVSPropertyOp18
 70
     1
102
RTVSPropertyOp19
 70
     1
102
RTVSPropertyOp20
 70
     1
102
RTVSPropertyOp21
 70
     1
102
RTVSPropertyOp22
 70
     1
102
RTVSPropertyOp23
 70
     1
102
RTVSPropertyOp24
 70
     1
102
RTVSPropertyOp25
 70
     1
102
RTVSPropertyOp26
 70
     1
102
RTVSPropertyOp27
 70
     1
102
RTVSPropertyOp28
 70
     1
102
RTVSPropertyOp29
 70
     1
102
RTVSPropertyOp30
 70
     1
102
RTVSPropertyOp31
 70
     1
102
RTVSPropertyOp32
 70
     1
  0
XRECORD
  5
598
102
{ACAD_REACTORS
330
597
102
}
330
597
100
AcDbXrecord
280
     1
102
RTVSPropertyOp0
 70
     1
102
RTVSPropertyOp1
 70
     1
102
RTVSPropertyOp2
 70
     1
102
RTVSPropertyOp3
 70
     1
102
RTVSPropertyOp4
 70
     1
102
RTVSPropertyOp5
 70
     1
102
RTVSPropertyOp6
 70
     1
102
RTVSPropertyOp7
 70
     1
102
RTVSPropertyOp8
 70
     1
102
RTVSPropertyOp9
 70
     1
102
RTVSPropertyOp10
 70
     1
102
RTVSPropertyOp11
 70
     1
102
RTVSPropertyOp12
 70
     1
102
RTVSPropertyOp13
 70
     1
102
RTVSPropertyOp14
 70
     1
102
RTVSPropertyOp15
 70
     1
102
RTVSPropertyOp16
 70
     1
102
RTVSPropertyOp17
 70
     1
102
RTVSPropertyOp18
 70
     1
102
RTVSPropertyOp19
 70
     1
102
RTVSPropertyOp20
 70
     1
102
RTVSPropertyOp21
 70
     1
102
RTVSPropertyOp22
 70
     1
102
RTVSPropertyOp23
 70
     1
102
RTVSPropertyOp24
 70
     1
102
RTVSPropertyOp25
 70
     1
102
RTVSPropertyOp26
 70
     1
102
RTVSPropertyOp27
 70
     1
102
RTVSPropertyOp28
 70
     1
102
RTVSPropertyOp29
 70
     1
102
RTVSPropertyOp30
 70
     1
102
RTVSPropertyOp31
 70
     1
102
RTVSPropertyOp32
 70
     1
  0
XRECORD
  5
59A
102
{ACAD_REACTORS
330
599
102
}
330
599
100
AcDbXrecord
280
     1
102
RTVSPropertyOp0
 70
     1
102
RTVSPropertyOp1
 70
     1
102
RTVSPropertyOp2
 70
     1
102
RTVSPropertyOp3
 70
     1
102
RTVSPropertyOp4
 70
     1
102
RTVSPropertyOp5
 70
     1
102
RTVSPropertyOp6
 70
     1
102
RTVSPropertyOp7
 70
     1
102
RTVSPropertyOp8
 70
     1
102
RTVSPropertyOp9
 70
     1
102
RTVSPropertyOp10
 70
     1
102
RTVSPropertyOp11
 70
     1
102
RTVSPropertyOp12
 70
     1
102
RTVSPropertyOp13
 70
     1
102
RTVSPropertyOp14
 70
     1
102
RTVSPropertyOp15
 70
     1
102
RTVSPropertyOp16
 70
     1
102
RTVSPropertyOp17
 70
     1
102
RTVSPropertyOp18
 70
     1
102
RTVSPropertyOp19
 70
     1
102
RTVSPropertyOp20
 70
     1
102
RTVSPropertyOp21
 70
     1
102
RTVSPropertyOp22
 70
     1
102
RTVSPropertyOp23
 70
     1
102
RTVSPropertyOp24
 70
     1
102
RTVSPropertyOp25
 70
     1
102
RTVSPropertyOp26
 70
     1
102
RTVSPropertyOp27
 70
     1
102
RTVSPropertyOp28
 70
     1
102
RTVSPropertyOp29
 70
     1
102
RTVSPropertyOp30
 70
     1
102
RTVSPropertyOp31
 70
     1
102
RTVSPropertyOp32
 70
     1
  0
XRECORD
  5
5AE
102
{ACAD_REACTORS
330
5AD
102
}
330
5AD
100
AcDbXrecord
280
     1
102
RTVSPropertyOp0
 70
     1
102
RTVSPropertyOp1
 70
     1
102
RTVSPropertyOp2
 70
     1
102
RTVSPropertyOp3
 70
     1
102
RTVSPropertyOp4
 70
     1
102
RTVSPropertyOp5
 70
     1
102
RTVSPropertyOp6
 70
     1
102
RTVSPropertyOp7
 70
     1
102
RTVSPropertyOp8
 70
     1
102
RTVSPropertyOp9
 70
     1
102
RTVSPropertyOp10
 70
     1
102
RTVSPropertyOp11
 70
     1
102
RTVSPropertyOp12
 70
     1
102
RTVSPropertyOp13
 70
     1
102
RTVSPropertyOp14
 70
     1
102
RTVSPropertyOp15
 70
     1
102
RTVSPropertyOp16
 70
     1
102
RTVSPropertyOp17
 70
     1
102
RTVSPropertyOp18
 70
     1
102
RTVSPropertyOp19
 70
     1
102
RTVSPropertyOp20
 70
     1
102
RTVSPropertyOp21
 70
     1
102
RTVSPropertyOp22
 70
     1
102
RTVSPropertyOp23
 70
     1
102
RTVSPropertyOp24
 70
     1
102
RTVSPropertyOp25
 70
     1
102
RTVSPropertyOp26
 70
     1
102
RTVSPropertyOp27
 70
     1
102
RTVSPropertyOp28
 70
     1
102
RTVSPropertyOp29
 70
     1
102
RTVSPropertyOp30
 70
     1
102
RTVSPropertyOp31
 70
     1
102
RTVSPropertyOp32
 70
     1
  0
XRECORD
  5
5A4
102
{ACAD_REACTORS
330
5A3
102
}
330
5A3
100
AcDbXrecord
280
     1
102
RTVSPropertyOp0
 70
     1
102
RTVSPropertyOp1
 70
     1
102
RTVSPropertyOp2
 70
     1
102
RTVSPropertyOp3
 70
     1
102
RTVSPropertyOp4
 70
     1
102
RTVSPropertyOp5
 70
     1
102
RTVSPropertyOp6
 70
     1
102
RTVSPropertyOp7
 70
     1
102
RTVSPropertyOp8
 70
     1
102
RTVSPropertyOp9
 70
     1
102
RTVSPropertyOp10
 70
     1
102
RTVSPropertyOp11
 70
     1
102
RTVSPropertyOp12
 70
     1
102
RTVSPropertyOp13
 70
     1
102
RTVSPropertyOp14
 70
     1
102
RTVSPropertyOp15
 70
     1
102
RTVSPropertyOp16
 70
     1
102
RTVSPropertyOp17
 70
     1
102
RTVSPropertyOp18
 70
     1
102
RTVSPropertyOp19
 70
     1
102
RTVSPropertyOp20
 70
     1
102
RTVSPropertyOp21
 70
     1
102
RTVSPropertyOp22
 70
     1
102
RTVSPropertyOp23
 70
     1
102
RTVSPropertyOp24
 70
     1
102
RTVSPropertyOp25
 70
     1
102
RTVSPropertyOp26
 70
     1
102
RTVSPropertyOp27
 70
     1
102
RTVSPropertyOp28
 70
     1
102
RTVSPropertyOp29
 70
     1
102
RTVSPropertyOp30
 70
     1
102
RTVSPropertyOp31
 70
     1
102
RTVSPropertyOp32
 70
     1
  0
XRECORD
  5
5AC
102
{ACAD_REACTORS
330
5AB
102
}
330
5AB
100
AcDbXrecord
280
     1
102
RTVSPropertyOp0
 70
     1
102
RTVSPropertyOp1
 70
     1
102
RTVSPropertyOp2
 70
     1
102
RTVSPropertyOp3
 70
     1
102
RTVSPropertyOp4
 70
     1
102
RTVSPropertyOp5
 70
     1
102
RTVSPropertyOp6
 70
     1
102
RTVSPropertyOp7
 70
     1
102
RTVSPropertyOp8
 70
     1
102
RTVSPropertyOp9
 70
     1
102
RTVSPropertyOp10
 70
     1
102
RTVSPropertyOp11
 70
     1
102
RTVSPropertyOp12
 70
     1
102
RTVSPropertyOp13
 70
     1
102
RTVSPropertyOp14
 70
     1
102
RTVSPropertyOp15
 70
     1
102
RTVSPropertyOp16
 70
     1
102
RTVSPropertyOp17
 70
     1
102
RTVSPropertyOp18
 70
     1
102
RTVSPropertyOp19
 70
     1
102
RTVSPropertyOp20
 70
     1
102
RTVSPropertyOp21
 70
     1
102
RTVSPropertyOp22
 70
     1
102
RTVSPropertyOp23
 70
     1
102
RTVSPropertyOp24
 70
     1
102
RTVSPropertyOp25
 70
     1
102
RTVSPropertyOp26
 70
     1
102
RTVSPropertyOp27
 70
     1
102
RTVSPropertyOp28
 70
     1
102
RTVSPropertyOp29
 70
     1
102
RTVSPropertyOp30
 70
     1
102
RTVSPropertyOp31
 70
     1
102
RTVSPropertyOp32
 70
     1
  0
ENDSEC
  0
EOF
