  0
SECTION
  2
HEADER
  9
$ACADVER
  1
AC1018
  9
$ACADMAINTVER
 70
     0
  9
$DWGCODEPAGE
  3
ANSI_1252
  9
$INSBASE
 10
0.0
 20
0.0
 30
0.0
  9
$EXTMIN
 10
-16.743605552869
 20
11.633041762673
 30
0.0
  9
$EXTMAX
 10
406.97601730119
 20
165.182041762673
 30
0.0
  9
$LIMMIN
 10
0.0
 20
0.0
  9
$LIMMAX
 10
420.0
 20
297.0
  9
$ORTHOMODE
 70
     0
  9
$REGENMODE
 70
     1
  9
$FILLMODE
 70
     1
  9
$QTEXTMODE
 70
     0
  9
$MIRRTEXT
 70
     1
  9
$LTSCALE
 40
5.0
  9
$ATTMODE
 70
     1
  9
$TEXTSIZE
 40
2.5
  9
$TRACEWID
 40
1.0
  9
$TEXTSTYLE
  7
Standard
  9
$CLAYER
  8
0
  9
$CELTYPE
  6
ByLayer
  9
$CECOLOR
 62
   256
  9
$CELTSCALE
 40
1.0
  9
$DISPSILH
 70
     0
  9
$DIMSCALE
 40
1.0
  9
$DIMASZ
 40
2.5
  9
$DIMEXO
 40
0.625
  9
$DIMDLI
 40
3.75
  9
$DIMRND
 40
0.0
  9
$DIMDLE
 40
0.0
  9
$DIMEXE
 40
1.25
  9
$DIMTP
 40
0.0
  9
$DIMTM
 40
0.0
  9
$DIMTXT
 40
2.5
  9
$DIMCEN
 40
2.5
  9
$DIMTSZ
 40
0.0
  9
$DIMTOL
 70
     0
  9
$DIMLIM
 70
     0
  9
$DIMTIH
 70
     0
  9
$DIMTOH
 70
     0
  9
$DIMSE1
 70
     0
  9
$DIMSE2
 70
     0
  9
$DIMTAD
 70
     1
  9
$DIMZIN
 70
     8
  9
$DIMBLK
  1

  9
$DIMASO
 70
     1
  9
$DIMSHO
 70
     1
  9
$DIMPOST
  1

  9
$DIMAPOST
  1

  9
$DIMALT
 70
     0
  9
$DIMALTD
 70
     3
  9
$DIMALTF
 40
0.03937007874
  9
$DIMLFAC
 40
1.0
  9
$DIMTOFL
 70
     1
  9
$DIMTVP
 40
0.0
  9
$DIMTIX
 70
     0
  9
$DIMSOXD
 70
     0
  9
$DIMSAH
 70
     0
  9
$DIMBLK1
  1

  9
$DIMBLK2
  1

  9
$DIMSTYLE
  2
ISO-25
  9
$DIMCLRD
 70
     0
  9
$DIMCLRE
 70
     0
  9
$DIMCLRT
 70
     0
  9
$DIMTFAC
 40
1.0
  9
$DIMGAP
 40
0.625
  9
$DIMJUST
 70
     0
  9
$DIMSD1
 70
     0
  9
$DIMSD2
 70
     0
  9
$DIMTOLJ
 70
     0
  9
$DIMTZIN
 70
     8
  9
$DIMALTZ
 70
     0
  9
$DIMALTTZ
 70
     0
  9
$DIMUPT
 70
     0
  9
$DIMDEC
 70
     2
  9
$DIMTDEC
 70
     2
  9
$DIMALTU
 70
     2
  9
$DIMALTTD
 70
     3
  9
$DIMTXSTY
  7
Standard
  9
$DIMAUNIT
 70
     0
  9
$DIMADEC
 70
     0
  9
$DIMALTRND
 40
0.0
  9
$DIMAZIN
 70
     0
  9
$DIMDSEP
 70
    44
  9
$DIMATFIT
 70
     3
  9
$DIMFRAC
 70
     0
  9
$DIMLDRBLK
  1

  9
$DIMLUNIT
 70
     2
  9
$DIMLWD
 70
    -2
  9
$DIMLWE
 70
    -2
  9
$DIMTMOVE
 70
     0
  9
$LUNITS
 70
     2
  9
$LUPREC
 70
     4
  9
$SKETCHINC
 40
1.0
  9
$FILLETRAD
 40
10.0
  9
$AUNITS
 70
     0
  9
$AUPREC
 70
     0
  9
$MENU
  1
.
  9
$ELEVATION
 40
0.0
  9
$PELEVATION
 40
0.0
  9
$THICKNESS
 40
0.0
  9
$LIMCHECK
 70
     0
  9
$CHAMFERA
 40
10.0
  9
$CHAMFERB
 40
10.0
  9
$CHAMFERC
 40
20.0
  9
$CHAMFERD
 40
0.0
  9
$SKPOLY
 70
     0
  9
$TDCREATE
 40
2458718.407842824
  9
$TDUCREATE
 40
2458718.324509491
  9
$TDUPDATE
 40
2458718.407854641
  9
$TDUUPDATE
 40
2458718.324521308
  9
$TDINDWG
 40
0.0000000116
  9
$TDUSRTIMER
 40
0.0000000116
  9
$USRTIMER
 70
     1
  9
$ANGBASE
 50
0.0
  9
$ANGDIR
 70
     0
  9
$PDMODE
 70
     2
  9
$PDSIZE
 40
1.0
  9
$PLINEWID
 40
0.0
  9
$SPLFRAME
 70
     0
  9
$SPLINETYPE
 70
     6
  9
$SPLINESEGS
 70
     8
  9
$HANDSEED
  5
596
  9
$SURFTAB1
 70
     6
  9
$SURFTAB2
 70
     6
  9
$SURFTYPE
 70
     6
  9
$SURFU
 70
     6
  9
$SURFV
 70
     6
  9
$UCSBASE
  2

  9
$UCSNAME
  2

  9
$UCSORG
 10
0.0
 20
0.0
 30
0.0
  9
$UCSXDIR
 10
1.0
 20
0.0
 30
0.0
  9
$UCSYDIR
 10
0.0
 20
1.0
 30
0.0
  9
$UCSORTHOREF
  2

  9
$UCSORTHOVIEW
 70
     0
  9
$UCSORGTOP
 10
0.0
 20
0.0
 30
0.0
  9
$UCSORGBOTTOM
 10
0.0
 20
0.0
 30
0.0
  9
$UCSORGLEFT
 10
0.0
 20
0.0
 30
0.0
  9
$UCSORGRIGHT
 10
0.0
 20
0.0
 30
0.0
  9
$UCSORGFRONT
 10
0.0
 20
0.0
 30
0.0
  9
$UCSORGBACK
 10
0.0
 20
0.0
 30
0.0
  9
$PUCSBASE
  2

  9
$PUCSNAME
  2

  9
$PUCSORG
 10
0.0
 20
0.0
 30
0.0
  9
$PUCSXDIR
 10
1.0
 20
0.0
 30
0.0
  9
$PUCSYDIR
 10
0.0
 20
1.0
 30
0.0
  9
$PUCSORTHOREF
  2

  9
$PUCSORTHOVIEW
 70
     0
  9
$PUCSORGTOP
 10
0.0
 20
0.0
 30
0.0
  9
$PUCSORGBOTTOM
 10
0.0
 20
0.0
 30
0.0
  9
$PUCSORGLEFT
 10
0.0
 20
0.0
 30
0.0
  9
$PUCSORGRIGHT
 10
0.0
 20
0.0
 30
0.0
  9
$PUCSORGFRONT
 10
0.0
 20
0.0
 30
0.0
  9
$PUCSORGBACK
 10
0.0
 20
0.0
 30
0.0
  9
$USERI1
 70
     0
  9
$USERI2
 70
     0
  9
$USERI3
 70
     0
  9
$USERI4
 70
     0
  9
$USERI5
 70
     0
  9
$USERR1
 40
0.0
  9
$USERR2
 40
0.0
  9
$USERR3
 40
0.0
  9
$USERR4
 40
0.0
  9
$USERR5
 40
0.0
  9
$WORLDVIEW
 70
     1
  9
$SHADEDGE
 70
     3
  9
$SHADEDIF
 70
    70
  9
$TILEMODE
 70
     1
  9
$MAXACTVP
 70
    64
  9
$PINSBASE
 10
0.0
 20
0.0
 30
0.0
  9
$PLIMCHECK
 70
     0
  9
$PEXTMIN
 10
1.000000000000E+20
 20
1.000000000000E+20
 30
1.000000000000E+20
  9
$PEXTMAX
 10
-1.000000000000E+20
 20
-1.000000000000E+20
 30
-1.000000000000E+20
  9
$PLIMMIN
 10
0.0
 20
0.0
  9
$PLIMMAX
 10
420.0
 20
297.0
  9
$UNITMODE
 70
     0
  9
$VISRETAIN
 70
     1
  9
$PLINEGEN
 70
     0
  9
$PSLTSCALE
 70
     1
  9
$TREEDEPTH
 70
  3020
  9
$CMLSTYLE
  2
Standard
  9
$CMLJUST
 70
     0
  9
$CMLSCALE
 40
20.0
  9
$PROXYGRAPHICS
 70
     1
  9
$MEASUREMENT
 70
     1
  9
$CELWEIGHT
370
    -1
  9
$ENDCAPS
280
     0
  9
$JOINSTYLE
280
     0
  9
$LWDISPLAY
290
     0
  9
$INSUNITS
 70
     4
  9
$HYPERLINKBASE
  1

  9
$STYLESHEET
  1

  9
$XEDIT
290
     1
  9
$CEPSNTYPE
380
     0
  9
$PSTYLEMODE
290
     1
  9
$FINGERPRINTGUID
  2
{75014A0E-6C22-4CFB-96F2-06C62189F339}
  9
$VERSIONGUID
  2
{FAEB1C32-E019-11D5-929B-00C0DF256EC4}
  9
$EXTNAMES
290
     1
  9
$PSVPSCALE
 40
0.0
  9
$OLESTARTUP
290
     0
  9
$SORTENTS
280
   127
  9
$INDEXCTL
280
     0
  9
$HIDETEXT
280
     1
  9
$XCLIPFRAME
290
     0
  9
$HALOGAP
280
     0
  9
$OBSCOLOR
 70
   257
  9
$OBSLTYPE
280
     0
  9
$INTERSECTIONDISPLAY
280
     0
  9
$INTERSECTIONCOLOR
 70
   257
  9
$DIMASSOC
280
     2
  9
$PROJECTNAME
  1

  0
ENDSEC
  0
SECTION
  2
CLASSES
  0
CLASS
  1
ACDBDICTIONARYWDFLT
  2
AcDbDictionaryWithDefault
  3
ObjectDBX Classes
 90
        0
 91
        4
280
     0
281
     0
  0
CLASS
  1
VISUALSTYLE
  2
AcDbVisualStyle
  3
ObjectDBX Classes
 90
     4095
 91
        4
280
     0
281
     0
  0
CLASS
  1
MATERIAL
  2
AcDbMaterial
  3
ObjectDBX Classes
 90
     1153
 91
        4
280
     0
281
     0
  0
CLASS
  1
WIPEOUTVARIABLES
  2
AcDbWipeoutVariables
  3
WipeOut|AutoCAD Express Tool|expresstools@autodesk.com
 90
        0
 91
        4
280
     0
281
     0
  0
CLASS
  1
WIPEOUT
  2
AcDbWipeout
  3
WipeOut|AutoCAD Express Tool|expresstools@autodesk.com
 90
      127
 91
        4
280
     0
281
     1
  0
ENDSEC
  0
SECTION
  2
TABLES
  0
TABLE
  2
VPORT
  5
8
330
0
100
AcDbSymbolTable
 70
     1
  0
VPORT
  5
29
330
8
100
AcDbSymbolTableRecord
100
AcDbViewportTableRecord
  2
*Active
 70
     0
 10
0.0
 20
0.0
 11
1.0
 21
1.0
 12
195.116205874161
 22
88.407541762673
 13
0.0
 23
0.0
 14
10.0
 24
10.0
 15
10.0
 25
10.0
 16
0.0
 26
0.0
 36
1.0
 17
0.0
 27
0.0
 37
0.0
 40
153.549
 41
2.75950753736
 42
50.0
 43
0.0
 44
0.0
 50
0.0
 51
0.0
 71
     0
 72
   100
 73
     1
 74
     3
 75
     0
 76
     0
 77
     0
 78
     0
281
     0
 65
     1
110
0.0
120
0.0
130
0.0
111
1.0
121
0.0
131
0.0
112
0.0
122
1.0
132
0.0
 79
     0
146
0.0
  0
ENDTAB
  0
TABLE
  2
LTYPE
  5
5
330
0
100
AcDbSymbolTable
 70
     3
  0
LTYPE
  5
14
330
5
100
AcDbSymbolTableRecord
100
AcDbLinetypeTableRecord
  2
ByBlock
 70
     0
  3

 72
    65
 73
     0
 40
0.0
  0
LTYPE
  5
15
330
5
100
AcDbSymbolTableRecord
100
AcDbLinetypeTableRecord
  2
ByLayer
 70
     0
  3

 72
    65
 73
     0
 40
0.0
  0
LTYPE
  5
16
330
5
100
AcDbSymbolTableRecord
100
AcDbLinetypeTableRecord
  2
Continuous
 70
     0
  3
Solid line
 72
    65
 73
     0
 40
0.0
  0
LTYPE
  5
40
330
5
100
AcDbSymbolTableRecord
100
AcDbLinetypeTableRecord
  2
AUSGEZOGEN
 70
     0
  3

 72
    65
 73
     0
 40
0.0
  0
LTYPE
  5
43
330
5
100
AcDbSymbolTableRecord
100
AcDbLinetypeTableRecord
  2
DASHDOT
 70
     0
  3

 72
    65
 73
     4
 40
1.0
 49
0.5
 74
     0
 49
-0.25
 74
     0
 49
0.0
 74
     0
 49
-0.25
 74
     0
  0
ENDTAB
  0
TABLE
  2
LAYER
  5
2
330
0
100
AcDbSymbolTable
 70
   257
  0
LAYER
  5
10
330
2
100
AcDbSymbolTableRecord
100
AcDbLayerTableRecord
  2
0
 70
     0
 62
     7
  6
Continuous
370
    -3
390
F
  0
LAYER
  5
45
330
2
100
AcDbSymbolTableRecord
100
AcDbLayerTableRecord
  2
Layer0
 70
     0
 62
     7
  6
Continuous
370
    -3
390
F
  0
LAYER
  5
46
330
2
100
AcDbSymbolTableRecord
100
AcDbLayerTableRecord
  2
Stammform
 70
     0
 62
     7
  6
Continuous
370
    -3
390
F
  0
LAYER
  5
47
330
2
100
AcDbSymbolTableRecord
100
AcDbLayerTableRecord
  2
Layer2
 70
     0
 62
     7
  6
Continuous
370
    -3
390
F
  0
LAYER
  5
48
330
2
100
AcDbSymbolTableRecord
100
AcDbLayerTableRecord
  2
Layer3
 70
     0
 62
     7
  6
Continuous
370
    -3
390
F
  0
LAYER
  5
49
330
2
100
AcDbSymbolTableRecord
100
AcDbLayerTableRecord
  2
Layer4
 70
     0
 62
     7
  6
Continuous
370
    -3
390
F
  0
LAYER
  5
4A
330
2
100
AcDbSymbolTableRecord
100
AcDbLayerTableRecord
  2
Layer5
 70
     0
 62
     7
  6
Continuous
370
    -3
390
F
  0
LAYER
  5
4B
330
2
100
AcDbSymbolTableRecord
100
AcDbLayerTableRecord
  2
Layer6
 70
     0
 62
     7
  6
Continuous
370
    -3
390
F
  0
LAYER
  5
4C
330
2
100
AcDbSymbolTableRecord
100
AcDbLayerTableRecord
  2
Layer7
 70
     0
 62
     7
  6
Continuous
370
    -3
390
F
  0
LAYER
  5
4D
330
2
100
AcDbSymbolTableRecord
100
AcDbLayerTableRecord
  2
Layer8
 70
     0
 62
     7
  6
Continuous
370
    -3
390
F
  0
LAYER
  5
4E
330
2
100
AcDbSymbolTableRecord
100
AcDbLayerTableRecord
  2
Layer9
 70
     0
 62
     7
  6
Continuous
370
    -3
390
F
  0
LAYER
  5
4F
330
2
100
AcDbSymbolTableRecord
100
AcDbLayerTableRecord
  2
Formtei
 70
     0
 62
     7
  6
Continuous
370
    -3
390
F
  0
LAYER
  5
50
330
2
100
AcDbSymbolTableRecord
100
AcDbLayerTableRecord
  2
Layer11
 70
     0
 62
     7
  6
Continuous
370
    -3
390
F
  0
LAYER
  5
51
330
2
100
AcDbSymbolTableRecord
100
AcDbLayerTableRecord
  2
Layer12
 70
     0
 62
     7
  6
Continuous
370
    -3
390
F
  0
LAYER
  5
52
330
2
100
AcDbSymbolTableRecord
100
AcDbLayerTableRecord
  2
Layer13
 70
     0
 62
     7
  6
Continuous
370
    -3
390
F
  0
LAYER
  5
53
330
2
100
AcDbSymbolTableRecord
100
AcDbLayerTableRecord
  2
Layer14
 70
     0
 62
     7
  6
Continuous
370
    -3
390
F
  0
LAYER
  5
54
330
2
100
AcDbSymbolTableRecord
100
AcDbLayerTableRecord
  2
Layer15
 70
     0
 62
     7
  6
Continuous
370
    -3
390
F
  0
LAYER
  5
55
330
2
100
AcDbSymbolTableRecord
100
AcDbLayerTableRecord
  2
Layer16
 70
     0
 62
     7
  6
Continuous
370
    -3
390
F
  0
LAYER
  5
56
330
2
100
AcDbSymbolTableRecord
100
AcDbLayerTableRecord
  2
Layer17
 70
     0
 62
     7
  6
Continuous
370
    -3
390
F
  0
LAYER
  5
57
330
2
100
AcDbSymbolTableRecord
100
AcDbLayerTableRecord
  2
Layer18
 70
     0
 62
     7
  6
Continuous
370
    -3
390
F
  0
LAYER
  5
58
330
2
100
AcDbSymbolTableRecord
100
AcDbLayerTableRecord
  2
Layer19
 70
     0
 62
     7
  6
Continuous
370
    -3
390
F
  0
LAYER
  5
59
330
2
100
AcDbSymbolTableRecord
100
AcDbLayerTableRecord
  2
Kühlung
 70
     0
 62
     7
  6
Continuous
370
    -3
390
F
  0
LAYER
  5
5A
330
2
100
AcDbSymbolTableRecord
100
AcDbLayerTableRecord
  2
Layer21
 70
     0
 62
     7
  6
Continuous
370
    -3
390
F
  0
LAYER
  5
5B
330
2
100
AcDbSymbolTableRecord
100
AcDbLayerTableRecord
  2
Layer22
 70
     0
 62
     7
  6
Continuous
370
    -3
390
F
  0
LAYER
  5
5C
330
2
100
AcDbSymbolTableRecord
100
AcDbLayerTableRecord
  2
Layer23
 70
     0
 62
     7
  6
Continuous
370
    -3
390
F
  0
LAYER
  5
5D
330
2
100
AcDbSymbolTableRecord
100
AcDbLayerTableRecord
  2
Layer24
 70
     0
 62
     7
  6
Continuous
370
    -3
390
F
  0
LAYER
  5
5E
330
2
100
AcDbSymbolTableRecord
100
AcDbLayerTableRecord
  2
Layer25
 70
     0
 62
     7
  6
Continuous
370
    -3
390
F
  0
LAYER
  5
5F
330
2
100
AcDbSymbolTableRecord
100
AcDbLayerTableRecord
  2
Layer26
 70
     0
 62
     7
  6
Continuous
370
    -3
390
F
  0
LAYER
  5
60
330
2
100
AcDbSymbolTableRecord
100
AcDbLayerTableRecord
  2
Layer27
 70
     0
 62
     7
  6
Continuous
370
    -3
390
F
  0
LAYER
  5
61
330
2
100
AcDbSymbolTableRecord
100
AcDbLayerTableRecord
  2
Layer28
 70
     0
 62
     7
  6
Continuous
370
    -3
390
F
  0
LAYER
  5
62
330
2
100
AcDbSymbolTableRecord
100
AcDbLayerTableRecord
  2
Layer29
 70
     0
 62
     7
  6
Continuous
370
    -3
390
F
  0
LAYER
  5
63
330
2
100
AcDbSymbolTableRecord
100
AcDbLayerTableRecord
  2
Auswerfer
 70
     0
 62
     7
  6
Continuous
370
    -3
390
F
  0
LAYER
  5
64
330
2
100
AcDbSymbolTableRecord
100
AcDbLayerTableRecord
  2
Layer31
 70
     0
 62
     7
  6
Continuous
370
    -3
390
F
  0
LAYER
  5
65
330
2
100
AcDbSymbolTableRecord
100
AcDbLayerTableRecord
  2
Layer32
 70
     0
 62
     7
  6
Continuous
370
    -3
390
F
  0
LAYER
  5
66
330
2
100
AcDbSymbolTableRecord
100
AcDbLayerTableRecord
  2
Layer33
 70
     0
 62
     7
  6
Continuous
370
    -3
390
F
  0
LAYER
  5
67
330
2
100
AcDbSymbolTableRecord
100
AcDbLayerTableRecord
  2
Layer34
 70
     0
 62
     7
  6
Continuous
370
    -3
390
F
  0
LAYER
  5
68
330
2
100
AcDbSymbolTableRecord
100
AcDbLayerTableRecord
  2
Layer35
 70
     0
 62
     7
  6
Continuous
370
    -3
390
F
  0
LAYER
  5
69
330
2
100
AcDbSymbolTableRecord
100
AcDbLayerTableRecord
  2
Layer36
 70
     0
 62
     7
  6
Continuous
370
    -3
390
F
  0
LAYER
  5
6A
330
2
100
AcDbSymbolTableRecord
100
AcDbLayerTableRecord
  2
Layer37
 70
     0
 62
     7
  6
Continuous
370
    -3
390
F
  0
LAYER
  5
6B
330
2
100
AcDbSymbolTableRecord
100
AcDbLayerTableRecord
  2
Layer38
 70
     0
 62
     7
  6
Continuous
370
    -3
390
F
  0
LAYER
  5
6C
330
2
100
AcDbSymbolTableRecord
100
AcDbLayerTableRecord
  2
Layer39
 70
     0
 62
     7
  6
Continuous
370
    -3
390
F
  0
LAYER
  5
6D
330
2
100
AcDbSymbolTableRecord
100
AcDbLayerTableRecord
  2
Einsatz
 70
     0
 62
     7
  6
Continuous
370
    -3
390
F
  0
LAYER
  5
6E
330
2
100
AcDbSymbolTableRecord
100
AcDbLayerTableRecord
  2
Layer41
 70
     0
 62
     7
  6
Continuous
370
    -3
390
F
  0
LAYER
  5
6F
330
2
100
AcDbSymbolTableRecord
100
AcDbLayerTableRecord
  2
Layer42
 70
     0
 62
     7
  6
Continuous
370
    -3
390
F
  0
LAYER
  5
70
330
2
100
AcDbSymbolTableRecord
100
AcDbLayerTableRecord
  2
Layer43
 70
     0
 62
     7
  6
Continuous
370
    -3
390
F
  0
LAYER
  5
71
330
2
100
AcDbSymbolTableRecord
100
AcDbLayerTableRecord
  2
Layer44
 70
     0
 62
     7
  6
Continuous
370
    -3
390
F
  0
LAYER
  5
72
330
2
100
AcDbSymbolTableRecord
100
AcDbLayerTableRecord
  2
Layer45
 70
     0
 62
     7
  6
Continuous
370
    -3
390
F
  0
LAYER
  5
73
330
2
100
AcDbSymbolTableRecord
100
AcDbLayerTableRecord
  2
Layer46
 70
     0
 62
     7
  6
Continuous
370
    -3
390
F
  0
LAYER
  5
74
330
2
100
AcDbSymbolTableRecord
100
AcDbLayerTableRecord
  2
Layer47
 70
     0
 62
     7
  6
Continuous
370
    -3
390
F
  0
LAYER
  5
75
330
2
100
AcDbSymbolTableRecord
100
AcDbLayerTableRecord
  2
Layer48
 70
     0
 62
     7
  6
Continuous
370
    -3
390
F
  0
LAYER
  5
76
330
2
100
AcDbSymbolTableRecord
100
AcDbLayerTableRecord
  2
Layer49
 70
     0
 62
     7
  6
Continuous
370
    -3
390
F
  0
LAYER
  5
77
330
2
100
AcDbSymbolTableRecord
100
AcDbLayerTableRecord
  2
Text
 70
     0
 62
     7
  6
Continuous
370
    -3
390
F
  0
LAYER
  5
78
330
2
100
AcDbSymbolTableRecord
100
AcDbLayerTableRecord
  2
Layer51
 70
     0
 62
     7
  6
Continuous
370
    -3
390
F
  0
LAYER
  5
79
330
2
100
AcDbSymbolTableRecord
100
AcDbLayerTableRecord
  2
Layer52
 70
     0
 62
     7
  6
Continuous
370
    -3
390
F
  0
LAYER
  5
7A
330
2
100
AcDbSymbolTableRecord
100
AcDbLayerTableRecord
  2
Layer53
 70
     0
 62
     7
  6
Continuous
370
    -3
390
F
  0
LAYER
  5
7B
330
2
100
AcDbSymbolTableRecord
100
AcDbLayerTableRecord
  2
Layer54
 70
     0
 62
     7
  6
Continuous
370
    -3
390
F
  0
LAYER
  5
7C
330
2
100
AcDbSymbolTableRecord
100
AcDbLayerTableRecord
  2
Layer55
 70
     0
 62
     7
  6
Continuous
370
    -3
390
F
  0
LAYER
  5
7D
330
2
100
AcDbSymbolTableRecord
100
AcDbLayerTableRecord
  2
Layer56
 70
     0
 62
     7
  6
Continuous
370
    -3
390
F
  0
LAYER
  5
7E
330
2
100
AcDbSymbolTableRecord
100
AcDbLayerTableRecord
  2
Layer57
 70
     0
 62
     7
  6
Continuous
370
    -3
390
F
  0
LAYER
  5
7F
330
2
100
AcDbSymbolTableRecord
100
AcDbLayerTableRecord
  2
Layer58
 70
     0
 62
     7
  6
Continuous
370
    -3
390
F
  0
LAYER
  5
80
330
2
100
AcDbSymbolTableRecord
100
AcDbLayerTableRecord
  2
Layer59
 70
     0
 62
     7
  6
Continuous
370
    -3
390
F
  0
LAYER
  5
81
330
2
100
AcDbSymbolTableRecord
100
AcDbLayerTableRecord
  2
Schraffur
 70
     0
 62
     7
  6
Continuous
370
    -3
390
F
  0
LAYER
  5
82
330
2
100
AcDbSymbolTableRecord
100
AcDbLayerTableRecord
  2
Layer61
 70
     0
 62
     7
  6
Continuous
370
    -3
390
F
  0
LAYER
  5
83
330
2
100
AcDbSymbolTableRecord
100
AcDbLayerTableRecord
  2
Layer62
 70
     0
 62
     7
  6
Continuous
370
    -3
390
F
  0
LAYER
  5
84
330
2
100
AcDbSymbolTableRecord
100
AcDbLayerTableRecord
  2
Layer63
 70
     0
 62
     7
  6
Continuous
370
    -3
390
F
  0
LAYER
  5
85
330
2
100
AcDbSymbolTableRecord
100
AcDbLayerTableRecord
  2
Layer64
 70
     0
 62
     7
  6
Continuous
370
    -3
390
F
  0
LAYER
  5
86
330
2
100
AcDbSymbolTableRecord
100
AcDbLayerTableRecord
  2
Layer65
 70
     0
 62
     7
  6
Continuous
370
    -3
390
F
  0
LAYER
  5
87
330
2
100
AcDbSymbolTableRecord
100
AcDbLayerTableRecord
  2
Layer66
 70
     0
 62
     7
  6
Continuous
370
    -3
390
F
  0
LAYER
  5
88
330
2
100
AcDbSymbolTableRecord
100
AcDbLayerTableRecord
  2
Layer67
 70
     0
 62
     7
  6
Continuous
370
    -3
390
F
  0
LAYER
  5
89
330
2
100
AcDbSymbolTableRecord
100
AcDbLayerTableRecord
  2
Layer68
 70
     0
 62
     7
  6
Continuous
370
    -3
390
F
  0
LAYER
  5
8A
330
2
100
AcDbSymbolTableRecord
100
AcDbLayerTableRecord
  2
Layer69
 70
     0
 62
     7
  6
Continuous
370
    -3
390
F
  0
LAYER
  5
8B
330
2
100
AcDbSymbolTableRecord
100
AcDbLayerTableRecord
  2
Bemassung
 70
     0
 62
     7
  6
Continuous
370
    -3
390
F
  0
LAYER
  5
8C
330
2
100
AcDbSymbolTableRecord
100
AcDbLayerTableRecord
  2
Layer71
 70
     0
 62
     7
  6
Continuous
370
    -3
390
F
  0
LAYER
  5
8D
330
2
100
AcDbSymbolTableRecord
100
AcDbLayerTableRecord
  2
Layer72
 70
     0
 62
     7
  6
Continuous
370
    -3
390
F
  0
LAYER
  5
8E
330
2
100
AcDbSymbolTableRecord
100
AcDbLayerTableRecord
  2
Layer73
 70
     0
 62
     7
  6
Continuous
370
    -3
390
F
  0
LAYER
  5
8F
330
2
100
AcDbSymbolTableRecord
100
AcDbLayerTableRecord
  2
Layer74
 70
     0
 62
     7
  6
Continuous
370
    -3
390
F
  0
LAYER
  5
90
330
2
100
AcDbSymbolTableRecord
100
AcDbLayerTableRecord
  2
Layer75
 70
     0
 62
     7
  6
Continuous
370
    -3
390
F
  0
LAYER
  5
91
330
2
100
AcDbSymbolTableRecord
100
AcDbLayerTableRecord
  2
Layer76
 70
     0
 62
     7
  6
Continuous
370
    -3
390
F
  0
LAYER
  5
92
330
2
100
AcDbSymbolTableRecord
100
AcDbLayerTableRecord
  2
Layer77
 70
     0
 62
     7
  6
Continuous
370
    -3
390
F
  0
LAYER
  5
93
330
2
100
AcDbSymbolTableRecord
100
AcDbLayerTableRecord
  2
Layer78
 70
     0
 62
     7
  6
Continuous
370
    -3
390
F
  0
LAYER
  5
94
330
2
100
AcDbSymbolTableRecord
100
AcDbLayerTableRecord
  2
Layer79
 70
     0
 62
     7
  6
Continuous
370
    -3
390
F
  0
LAYER
  5
95
330
2
100
AcDbSymbolTableRecord
100
AcDbLayerTableRecord
  2
Heisskanal
 70
     0
 62
     7
  6
Continuous
370
    -3
390
F
  0
LAYER
  5
96
330
2
100
AcDbSymbolTableRecord
100
AcDbLayerTableRecord
  2
Layer81
 70
     0
 62
     7
  6
Continuous
370
    -3
390
F
  0
LAYER
  5
97
330
2
100
AcDbSymbolTableRecord
100
AcDbLayerTableRecord
  2
Layer82
 70
     0
 62
     7
  6
Continuous
370
    -3
390
F
  0
LAYER
  5
98
330
2
100
AcDbSymbolTableRecord
100
AcDbLayerTableRecord
  2
Layer83
 70
     0
 62
     7
  6
Continuous
370
    -3
390
F
  0
LAYER
  5
99
330
2
100
AcDbSymbolTableRecord
100
AcDbLayerTableRecord
  2
Layer84
 70
     0
 62
     7
  6
Continuous
370
    -3
390
F
  0
LAYER
  5
9A
330
2
100
AcDbSymbolTableRecord
100
AcDbLayerTableRecord
  2
Layer85
 70
     0
 62
     7
  6
Continuous
370
    -3
390
F
  0
LAYER
  5
9B
330
2
100
AcDbSymbolTableRecord
100
AcDbLayerTableRecord
  2
Layer86
 70
     0
 62
     7
  6
Continuous
370
    -3
390
F
  0
LAYER
  5
9C
330
2
100
AcDbSymbolTableRecord
100
AcDbLayerTableRecord
  2
Layer87
 70
     0
 62
     7
  6
Continuous
370
    -3
390
F
  0
LAYER
  5
9D
330
2
100
AcDbSymbolTableRecord
100
AcDbLayerTableRecord
  2
Layer88
 70
     0
 62
     7
  6
Continuous
370
    -3
390
F
  0
LAYER
  5
9E
330
2
100
AcDbSymbolTableRecord
100
AcDbLayerTableRecord
  2
Layer89
 70
     0
 62
     7
  6
Continuous
370
    -3
390
F
  0
LAYER
  5
9F
330
2
100
AcDbSymbolTableRecord
100
AcDbLayerTableRecord
  2
Layer90
 70
     0
 62
     7
  6
Continuous
370
    -3
390
F
  0
LAYER
  5
A0
330
2
100
AcDbSymbolTableRecord
100
AcDbLayerTableRecord
  2
Layer91
 70
     0
 62
     7
  6
Continuous
370
    -3
390
F
  0
LAYER
  5
A1
330
2
100
AcDbSymbolTableRecord
100
AcDbLayerTableRecord
  2
Layer92
 70
     0
 62
     7
  6
Continuous
370
    -3
390
F
  0
LAYER
  5
A2
330
2
100
AcDbSymbolTableRecord
100
AcDbLayerTableRecord
  2
Layer93
 70
     0
 62
     7
  6
Continuous
370
    -3
390
F
  0
LAYER
  5
A3
330
2
100
AcDbSymbolTableRecord
100
AcDbLayerTableRecord
  2
Layer94
 70
     0
 62
     7
  6
Continuous
370
    -3
390
F
  0
LAYER
  5
A4
330
2
100
AcDbSymbolTableRecord
100
AcDbLayerTableRecord
  2
Layer95
 70
     0
 62
     7
  6
Continuous
370
    -3
390
F
  0
LAYER
  5
A5
330
2
100
AcDbSymbolTableRecord
100
AcDbLayerTableRecord
  2
Layer96
 70
     0
 62
     7
  6
Continuous
370
    -3
390
F
  0
LAYER
  5
A6
330
2
100
AcDbSymbolTableRecord
100
AcDbLayerTableRecord
  2
Layer97
 70
     0
 62
     7
  6
Continuous
370
    -3
390
F
  0
LAYER
  5
A7
330
2
100
AcDbSymbolTableRecord
100
AcDbLayerTableRecord
  2
Layer98
 70
     0
 62
     7
  6
Continuous
370
    -3
390
F
  0
LAYER
  5
A8
330
2
100
AcDbSymbolTableRecord
100
AcDbLayerTableRecord
  2
Layer99
 70
     0
 62
     7
  6
Continuous
370
    -3
390
F
  0
LAYER
  5
A9
330
2
100
AcDbSymbolTableRecord
100
AcDbLayerTableRecord
  2
Layer100
 70
     0
 62
     7
  6
Continuous
370
    -3
390
F
  0
LAYER
  5
AA
330
2
100
AcDbSymbolTableRecord
100
AcDbLayerTableRecord
  2
Layer101
 70
     0
 62
     7
  6
Continuous
370
    -3
390
F
  0
LAYER
  5
AB
330
2
100
AcDbSymbolTableRecord
100
AcDbLayerTableRecord
  2
Layer102
 70
     0
 62
     7
  6
Continuous
370
    -3
390
F
  0
LAYER
  5
AC
330
2
100
AcDbSymbolTableRecord
100
AcDbLayerTableRecord
  2
Layer103
 70
     0
 62
     7
  6
Continuous
370
    -3
390
F
  0
LAYER
  5
AD
330
2
100
AcDbSymbolTableRecord
100
AcDbLayerTableRecord
  2
Layer104
 70
     0
 62
     7
  6
Continuous
370
    -3
390
F
  0
LAYER
  5
AE
330
2
100
AcDbSymbolTableRecord
100
AcDbLayerTableRecord
  2
Layer105
 70
     0
 62
     7
  6
Continuous
370
    -3
390
F
  0
LAYER
  5
AF
330
2
100
AcDbSymbolTableRecord
100
AcDbLayerTableRecord
  2
Layer106
 70
     0
 62
     7
  6
Continuous
370
    -3
390
F
  0
LAYER
  5
B0
330
2
100
AcDbSymbolTableRecord
100
AcDbLayerTableRecord
  2
Layer107
 70
     0
 62
     7
  6
Continuous
370
    -3
390
F
  0
LAYER
  5
B1
330
2
100
AcDbSymbolTableRecord
100
AcDbLayerTableRecord
  2
Layer108
 70
     0
 62
     7
  6
Continuous
370
    -3
390
F
  0
LAYER
  5
B2
330
2
100
AcDbSymbolTableRecord
100
AcDbLayerTableRecord
  2
Layer109
 70
     0
 62
     7
  6
Continuous
370
    -3
390
F
  0
LAYER
  5
B3
330
2
100
AcDbSymbolTableRecord
100
AcDbLayerTableRecord
  2
Layer110
 70
     0
 62
     7
  6
Continuous
370
    -3
390
F
  0
LAYER
  5
B4
330
2
100
AcDbSymbolTableRecord
100
AcDbLayerTableRecord
  2
Layer111
 70
     0
 62
     7
  6
Continuous
370
    -3
390
F
  0
LAYER
  5
B5
330
2
100
AcDbSymbolTableRecord
100
AcDbLayerTableRecord
  2
Layer112
 70
     0
 62
     7
  6
Continuous
370
    -3
390
F
  0
LAYER
  5
B6
330
2
100
AcDbSymbolTableRecord
100
AcDbLayerTableRecord
  2
Layer113
 70
     0
 62
     7
  6
Continuous
370
    -3
390
F
  0
LAYER
  5
B7
330
2
100
AcDbSymbolTableRecord
100
AcDbLayerTableRecord
  2
Layer114
 70
     0
 62
     7
  6
Continuous
370
    -3
390
F
  0
LAYER
  5
B8
330
2
100
AcDbSymbolTableRecord
100
AcDbLayerTableRecord
  2
Layer115
 70
     0
 62
     7
  6
Continuous
370
    -3
390
F
  0
LAYER
  5
B9
330
2
100
AcDbSymbolTableRecord
100
AcDbLayerTableRecord
  2
Layer116
 70
     0
 62
     7
  6
Continuous
370
    -3
390
F
  0
LAYER
  5
BA
330
2
100
AcDbSymbolTableRecord
100
AcDbLayerTableRecord
  2
Layer117
 70
     0
 62
     7
  6
Continuous
370
    -3
390
F
  0
LAYER
  5
BB
330
2
100
AcDbSymbolTableRecord
100
AcDbLayerTableRecord
  2
Layer118
 70
     0
 62
     7
  6
Continuous
370
    -3
390
F
  0
LAYER
  5
BC
330
2
100
AcDbSymbolTableRecord
100
AcDbLayerTableRecord
  2
Layer119
 70
     0
 62
     7
  6
Continuous
370
    -3
390
F
  0
LAYER
  5
BD
330
2
100
AcDbSymbolTableRecord
100
AcDbLayerTableRecord
  2
Layer120
 70
     0
 62
     7
  6
Continuous
370
    -3
390
F
  0
LAYER
  5
BE
330
2
100
AcDbSymbolTableRecord
100
AcDbLayerTableRecord
  2
Layer121
 70
     0
 62
     7
  6
Continuous
370
    -3
390
F
  0
LAYER
  5
BF
330
2
100
AcDbSymbolTableRecord
100
AcDbLayerTableRecord
  2
Layer122
 70
     0
 62
     7
  6
Continuous
370
    -3
390
F
  0
LAYER
  5
C0
330
2
100
AcDbSymbolTableRecord
100
AcDbLayerTableRecord
  2
Layer123
 70
     0
 62
     7
  6
Continuous
370
    -3
390
F
  0
LAYER
  5
C1
330
2
100
AcDbSymbolTableRecord
100
AcDbLayerTableRecord
  2
Layer124
 70
     0
 62
     7
  6
Continuous
370
    -3
390
F
  0
LAYER
  5
C2
330
2
100
AcDbSymbolTableRecord
100
AcDbLayerTableRecord
  2
Layer125
 70
     0
 62
     7
  6
Continuous
370
    -3
390
F
  0
LAYER
  5
C3
330
2
100
AcDbSymbolTableRecord
100
AcDbLayerTableRecord
  2
Layer126
 70
     0
 62
     7
  6
Continuous
370
    -3
390
F
  0
LAYER
  5
C4
330
2
100
AcDbSymbolTableRecord
100
AcDbLayerTableRecord
  2
Layer127
 70
     0
 62
     7
  6
Continuous
370
    -3
390
F
  0
LAYER
  5
C5
330
2
100
AcDbSymbolTableRecord
100
AcDbLayerTableRecord
  2
Layer128
 70
     0
 62
     7
  6
Continuous
370
    -3
390
F
  0
LAYER
  5
C6
330
2
100
AcDbSymbolTableRecord
100
AcDbLayerTableRecord
  2
Layer129
 70
     0
 62
     7
  6
Continuous
370
    -3
390
F
  0
LAYER
  5
C7
330
2
100
AcDbSymbolTableRecord
100
AcDbLayerTableRecord
  2
Layer130
 70
     0
 62
     7
  6
Continuous
370
    -3
390
F
  0
LAYER
  5
C8
330
2
100
AcDbSymbolTableRecord
100
AcDbLayerTableRecord
  2
Layer131
 70
     0
 62
     7
  6
Continuous
370
    -3
390
F
  0
LAYER
  5
C9
330
2
100
AcDbSymbolTableRecord
100
AcDbLayerTableRecord
  2
Layer132
 70
     0
 62
     7
  6
Continuous
370
    -3
390
F
  0
LAYER
  5
CA
330
2
100
AcDbSymbolTableRecord
100
AcDbLayerTableRecord
  2
Layer133
 70
     0
 62
     7
  6
Continuous
370
    -3
390
F
  0
LAYER
  5
CB
330
2
100
AcDbSymbolTableRecord
100
AcDbLayerTableRecord
  2
Layer134
 70
     0
 62
     7
  6
Continuous
370
    -3
390
F
  0
LAYER
  5
CC
330
2
100
AcDbSymbolTableRecord
100
AcDbLayerTableRecord
  2
Layer135
 70
     0
 62
     7
  6
Continuous
370
    -3
390
F
  0
LAYER
  5
CD
330
2
100
AcDbSymbolTableRecord
100
AcDbLayerTableRecord
  2
Layer136
 70
     0
 62
     7
  6
Continuous
370
    -3
390
F
  0
LAYER
  5
CE
330
2
100
AcDbSymbolTableRecord
100
AcDbLayerTableRecord
  2
Layer137
 70
     0
 62
     7
  6
Continuous
370
    -3
390
F
  0
LAYER
  5
CF
330
2
100
AcDbSymbolTableRecord
100
AcDbLayerTableRecord
  2
Layer138
 70
     0
 62
     7
  6
Continuous
370
    -3
390
F
  0
LAYER
  5
D0
330
2
100
AcDbSymbolTableRecord
100
AcDbLayerTableRecord
  2
Layer139
 70
     0
 62
     7
  6
Continuous
370
    -3
390
F
  0
LAYER
  5
D1
330
2
100
AcDbSymbolTableRecord
100
AcDbLayerTableRecord
  2
Layer140
 70
     0
 62
     7
  6
Continuous
370
    -3
390
F
  0
LAYER
  5
D2
330
2
100
AcDbSymbolTableRecord
100
AcDbLayerTableRecord
  2
Layer141
 70
     0
 62
     7
  6
Continuous
370
    -3
390
F
  0
LAYER
  5
D3
330
2
100
AcDbSymbolTableRecord
100
AcDbLayerTableRecord
  2
Layer142
 70
     0
 62
     7
  6
Continuous
370
    -3
390
F
  0
LAYER
  5
D4
330
2
100
AcDbSymbolTableRecord
100
AcDbLayerTableRecord
  2
Layer143
 70
     0
 62
     7
  6
Continuous
370
    -3
390
F
  0
LAYER
  5
D5
330
2
100
AcDbSymbolTableRecord
100
AcDbLayerTableRecord
  2
Layer144
 70
     0
 62
     7
  6
Continuous
370
    -3
390
F
  0
LAYER
  5
D6
330
2
100
AcDbSymbolTableRecord
100
AcDbLayerTableRecord
  2
Layer145
 70
     0
 62
     7
  6
Continuous
370
    -3
390
F
  0
LAYER
  5
D7
330
2
100
AcDbSymbolTableRecord
100
AcDbLayerTableRecord
  2
Layer146
 70
     0
 62
     7
  6
Continuous
370
    -3
390
F
  0
LAYER
  5
D8
330
2
100
AcDbSymbolTableRecord
100
AcDbLayerTableRecord
  2
Layer147
 70
     0
 62
     7
  6
Continuous
370
    -3
390
F
  0
LAYER
  5
D9
330
2
100
AcDbSymbolTableRecord
100
AcDbLayerTableRecord
  2
Layer148
 70
     0
 62
     7
  6
Continuous
370
    -3
390
F
  0
LAYER
  5
DA
330
2
100
AcDbSymbolTableRecord
100
AcDbLayerTableRecord
  2
Layer149
 70
     0
 62
     7
  6
Continuous
370
    -3
390
F
  0
LAYER
  5
DB
330
2
100
AcDbSymbolTableRecord
100
AcDbLayerTableRecord
  2
Layer150
 70
     0
 62
     7
  6
Continuous
370
    -3
390
F
  0
LAYER
  5
DC
330
2
100
AcDbSymbolTableRecord
100
AcDbLayerTableRecord
  2
Layer151
 70
     0
 62
     7
  6
Continuous
370
    -3
390
F
  0
LAYER
  5
DD
330
2
100
AcDbSymbolTableRecord
100
AcDbLayerTableRecord
  2
Layer152
 70
     0
 62
     7
  6
Continuous
370
    -3
390
F
  0
LAYER
  5
DE
330
2
100
AcDbSymbolTableRecord
100
AcDbLayerTableRecord
  2
Layer153
 70
     0
 62
     7
  6
Continuous
370
    -3
390
F
  0
LAYER
  5
DF
330
2
100
AcDbSymbolTableRecord
100
AcDbLayerTableRecord
  2
Layer154
 70
     0
 62
     7
  6
Continuous
370
    -3
390
F
  0
LAYER
  5
E0
330
2
100
AcDbSymbolTableRecord
100
AcDbLayerTableRecord
  2
Layer155
 70
     0
 62
     7
  6
Continuous
370
    -3
390
F
  0
LAYER
  5
E1
330
2
100
AcDbSymbolTableRecord
100
AcDbLayerTableRecord
  2
Layer156
 70
     0
 62
     7
  6
Continuous
370
    -3
390
F
  0
LAYER
  5
E2
330
2
100
AcDbSymbolTableRecord
100
AcDbLayerTableRecord
  2
Layer157
 70
     0
 62
     7
  6
Continuous
370
    -3
390
F
  0
LAYER
  5
E3
330
2
100
AcDbSymbolTableRecord
100
AcDbLayerTableRecord
  2
Layer158
 70
     0
 62
     7
  6
Continuous
370
    -3
390
F
  0
LAYER
  5
E4
330
2
100
AcDbSymbolTableRecord
100
AcDbLayerTableRecord
  2
Layer159
 70
     0
 62
     7
  6
Continuous
370
    -3
390
F
  0
LAYER
  5
E5
330
2
100
AcDbSymbolTableRecord
100
AcDbLayerTableRecord
  2
Layer160
 70
     0
 62
     7
  6
Continuous
370
    -3
390
F
  0
LAYER
  5
E6
330
2
100
AcDbSymbolTableRecord
100
AcDbLayerTableRecord
  2
Layer161
 70
     0
 62
     7
  6
Continuous
370
    -3
390
F
  0
LAYER
  5
E7
330
2
100
AcDbSymbolTableRecord
100
AcDbLayerTableRecord
  2
Layer162
 70
     0
 62
     7
  6
Continuous
370
    -3
390
F
  0
LAYER
  5
E8
330
2
100
AcDbSymbolTableRecord
100
AcDbLayerTableRecord
  2
Layer163
 70
     0
 62
     7
  6
Continuous
370
    -3
390
F
  0
LAYER
  5
E9
330
2
100
AcDbSymbolTableRecord
100
AcDbLayerTableRecord
  2
Layer164
 70
     0
 62
     7
  6
Continuous
370
    -3
390
F
  0
LAYER
  5
EA
330
2
100
AcDbSymbolTableRecord
100
AcDbLayerTableRecord
  2
Layer165
 70
     0
 62
     7
  6
Continuous
370
    -3
390
F
  0
LAYER
  5
EB
330
2
100
AcDbSymbolTableRecord
100
AcDbLayerTableRecord
  2
Layer166
 70
     0
 62
     7
  6
Continuous
370
    -3
390
F
  0
LAYER
  5
EC
330
2
100
AcDbSymbolTableRecord
100
AcDbLayerTableRecord
  2
Layer167
 70
     0
 62
     7
  6
Continuous
370
    -3
390
F
  0
LAYER
  5
ED
330
2
100
AcDbSymbolTableRecord
100
AcDbLayerTableRecord
  2
Layer168
 70
     0
 62
     7
  6
Continuous
370
    -3
390
F
  0
LAYER
  5
EE
330
2
100
AcDbSymbolTableRecord
100
AcDbLayerTableRecord
  2
Layer169
 70
     0
 62
     7
  6
Continuous
370
    -3
390
F
  0
LAYER
  5
EF
330
2
100
AcDbSymbolTableRecord
100
AcDbLayerTableRecord
  2
Layer170
 70
     0
 62
     7
  6
Continuous
370
    -3
390
F
  0
LAYER
  5
F0
330
2
100
AcDbSymbolTableRecord
100
AcDbLayerTableRecord
  2
Layer171
 70
     0
 62
     7
  6
Continuous
370
    -3
390
F
  0
LAYER
  5
F1
330
2
100
AcDbSymbolTableRecord
100
AcDbLayerTableRecord
  2
Layer172
 70
     0
 62
     7
  6
Continuous
370
    -3
390
F
  0
LAYER
  5
F2
330
2
100
AcDbSymbolTableRecord
100
AcDbLayerTableRecord
  2
Layer173
 70
     0
 62
     7
  6
Continuous
370
    -3
390
F
  0
LAYER
  5
F3
330
2
100
AcDbSymbolTableRecord
100
AcDbLayerTableRecord
  2
Layer174
 70
     0
 62
     7
  6
Continuous
370
    -3
390
F
  0
LAYER
  5
F4
330
2
100
AcDbSymbolTableRecord
100
AcDbLayerTableRecord
  2
Layer175
 70
     0
 62
     7
  6
Continuous
370
    -3
390
F
  0
LAYER
  5
F5
330
2
100
AcDbSymbolTableRecord
100
AcDbLayerTableRecord
  2
Layer176
 70
     0
 62
     7
  6
Continuous
370
    -3
390
F
  0
LAYER
  5
F6
330
2
100
AcDbSymbolTableRecord
100
AcDbLayerTableRecord
  2
Layer177
 70
     0
 62
     7
  6
Continuous
370
    -3
390
F
  0
LAYER
  5
F7
330
2
100
AcDbSymbolTableRecord
100
AcDbLayerTableRecord
  2
Layer178
 70
     0
 62
     7
  6
Continuous
370
    -3
390
F
  0
LAYER
  5
F8
330
2
100
AcDbSymbolTableRecord
100
AcDbLayerTableRecord
  2
Layer179
 70
     0
 62
     7
  6
Continuous
370
    -3
390
F
  0
LAYER
  5
F9
330
2
100
AcDbSymbolTableRecord
100
AcDbLayerTableRecord
  2
Layer180
 70
     0
 62
     7
  6
Continuous
370
    -3
390
F
  0
LAYER
  5
FA
330
2
100
AcDbSymbolTableRecord
100
AcDbLayerTableRecord
  2
Layer181
 70
     0
 62
     7
  6
Continuous
370
    -3
390
F
  0
LAYER
  5
FB
330
2
100
AcDbSymbolTableRecord
100
AcDbLayerTableRecord
  2
Layer182
 70
     0
 62
     7
  6
Continuous
370
    -3
390
F
  0
LAYER
  5
FC
330
2
100
AcDbSymbolTableRecord
100
AcDbLayerTableRecord
  2
Layer183
 70
     0
 62
     7
  6
Continuous
370
    -3
390
F
  0
LAYER
  5
FD
330
2
100
AcDbSymbolTableRecord
100
AcDbLayerTableRecord
  2
Layer184
 70
     0
 62
     7
  6
Continuous
370
    -3
390
F
  0
LAYER
  5
FE
330
2
100
AcDbSymbolTableRecord
100
AcDbLayerTableRecord
  2
Layer185
 70
     0
 62
     7
  6
Continuous
370
    -3
390
F
  0
LAYER
  5
FF
330
2
100
AcDbSymbolTableRecord
100
AcDbLayerTableRecord
  2
Layer186
 70
     0
 62
     7
  6
Continuous
370
    -3
390
F
  0
LAYER
  5
100
330
2
100
AcDbSymbolTableRecord
100
AcDbLayerTableRecord
  2
Layer187
 70
     0
 62
     7
  6
Continuous
370
    -3
390
F
  0
LAYER
  5
101
330
2
100
AcDbSymbolTableRecord
100
AcDbLayerTableRecord
  2
Layer188
 70
     0
 62
     7
  6
Continuous
370
    -3
390
F
  0
LAYER
  5
102
330
2
100
AcDbSymbolTableRecord
100
AcDbLayerTableRecord
  2
Layer189
 70
     0
 62
     7
  6
Continuous
370
    -3
390
F
  0
LAYER
  5
103
330
2
100
AcDbSymbolTableRecord
100
AcDbLayerTableRecord
  2
Layer190
 70
     0
 62
     7
  6
Continuous
370
    -3
390
F
  0
LAYER
  5
104
330
2
100
AcDbSymbolTableRecord
100
AcDbLayerTableRecord
  2
Layer191
 70
     0
 62
     7
  6
Continuous
370
    -3
390
F
  0
LAYER
  5
105
330
2
100
AcDbSymbolTableRecord
100
AcDbLayerTableRecord
  2
Layer192
 70
     0
 62
     7
  6
Continuous
370
    -3
390
F
  0
LAYER
  5
106
330
2
100
AcDbSymbolTableRecord
100
AcDbLayerTableRecord
  2
Layer193
 70
     0
 62
     7
  6
Continuous
370
    -3
390
F
  0
LAYER
  5
107
330
2
100
AcDbSymbolTableRecord
100
AcDbLayerTableRecord
  2
Layer194
 70
     0
 62
     7
  6
Continuous
370
    -3
390
F
  0
LAYER
  5
108
330
2
100
AcDbSymbolTableRecord
100
AcDbLayerTableRecord
  2
Layer195
 70
     0
 62
     7
  6
Continuous
370
    -3
390
F
  0
LAYER
  5
109
330
2
100
AcDbSymbolTableRecord
100
AcDbLayerTableRecord
  2
Layer196
 70
     0
 62
     7
  6
Continuous
370
    -3
390
F
  0
LAYER
  5
10A
330
2
100
AcDbSymbolTableRecord
100
AcDbLayerTableRecord
  2
Layer197
 70
     0
 62
     7
  6
Continuous
370
    -3
390
F
  0
LAYER
  5
10B
330
2
100
AcDbSymbolTableRecord
100
AcDbLayerTableRecord
  2
Layer198
 70
     0
 62
     7
  6
Continuous
370
    -3
390
F
  0
LAYER
  5
10C
330
2
100
AcDbSymbolTableRecord
100
AcDbLayerTableRecord
  2
Layer199
 70
     0
 62
     7
  6
Continuous
370
    -3
390
F
  0
LAYER
  5
10D
330
2
100
AcDbSymbolTableRecord
100
AcDbLayerTableRecord
  2
Layer200
 70
     0
 62
    -7
  6
Continuous
370
    -3
390
F
  0
LAYER
  5
10E
330
2
100
AcDbSymbolTableRecord
100
AcDbLayerTableRecord
  2
Layer201
 70
     0
 62
     7
  6
Continuous
370
    -3
390
F
  0
LAYER
  5
10F
330
2
100
AcDbSymbolTableRecord
100
AcDbLayerTableRecord
  2
Layer202
 70
     0
 62
     7
  6
Continuous
370
    -3
390
F
  0
LAYER
  5
110
330
2
100
AcDbSymbolTableRecord
100
AcDbLayerTableRecord
  2
Layer203
 70
     0
 62
     7
  6
Continuous
370
    -3
390
F
  0
LAYER
  5
111
330
2
100
AcDbSymbolTableRecord
100
AcDbLayerTableRecord
  2
Layer204
 70
     0
 62
     7
  6
Continuous
370
    -3
390
F
  0
LAYER
  5
112
330
2
100
AcDbSymbolTableRecord
100
AcDbLayerTableRecord
  2
Layer205
 70
     0
 62
     7
  6
Continuous
370
    -3
390
F
  0
LAYER
  5
113
330
2
100
AcDbSymbolTableRecord
100
AcDbLayerTableRecord
  2
Layer206
 70
     0
 62
     7
  6
Continuous
370
    -3
390
F
  0
LAYER
  5
114
330
2
100
AcDbSymbolTableRecord
100
AcDbLayerTableRecord
  2
Layer207
 70
     0
 62
     7
  6
Continuous
370
    -3
390
F
  0
LAYER
  5
115
330
2
100
AcDbSymbolTableRecord
100
AcDbLayerTableRecord
  2
Layer208
 70
     0
 62
     7
  6
Continuous
370
    -3
390
F
  0
LAYER
  5
116
330
2
100
AcDbSymbolTableRecord
100
AcDbLayerTableRecord
  2
Layer209
 70
     0
 62
     7
  6
Continuous
370
    -3
390
F
  0
LAYER
  5
117
330
2
100
AcDbSymbolTableRecord
100
AcDbLayerTableRecord
  2
Layer210
 70
     0
 62
     7
  6
Continuous
370
    -3
390
F
  0
LAYER
  5
118
330
2
100
AcDbSymbolTableRecord
100
AcDbLayerTableRecord
  2
Layer211
 70
     0
 62
     7
  6
Continuous
370
    -3
390
F
  0
LAYER
  5
119
330
2
100
AcDbSymbolTableRecord
100
AcDbLayerTableRecord
  2
Layer212
 70
     0
 62
     7
  6
Continuous
370
    -3
390
F
  0
LAYER
  5
11A
330
2
100
AcDbSymbolTableRecord
100
AcDbLayerTableRecord
  2
Layer213
 70
     0
 62
     7
  6
Continuous
370
    -3
390
F
  0
LAYER
  5
11B
330
2
100
AcDbSymbolTableRecord
100
AcDbLayerTableRecord
  2
Layer214
 70
     0
 62
     7
  6
Continuous
370
    -3
390
F
  0
LAYER
  5
11C
330
2
100
AcDbSymbolTableRecord
100
AcDbLayerTableRecord
  2
Layer215
 70
     0
 62
     7
  6
Continuous
370
    -3
390
F
  0
LAYER
  5
11D
330
2
100
AcDbSymbolTableRecord
100
AcDbLayerTableRecord
  2
Layer216
 70
     0
 62
     7
  6
Continuous
370
    -3
390
F
  0
LAYER
  5
11E
330
2
100
AcDbSymbolTableRecord
100
AcDbLayerTableRecord
  2
Layer217
 70
     0
 62
     7
  6
Continuous
370
    -3
390
F
  0
LAYER
  5
11F
330
2
100
AcDbSymbolTableRecord
100
AcDbLayerTableRecord
  2
Layer218
 70
     0
 62
     7
  6
Continuous
370
    -3
390
F
  0
LAYER
  5
120
330
2
100
AcDbSymbolTableRecord
100
AcDbLayerTableRecord
  2
Layer219
 70
     0
 62
     7
  6
Continuous
370
    -3
390
F
  0
LAYER
  5
121
330
2
100
AcDbSymbolTableRecord
100
AcDbLayerTableRecord
  2
Layer220
 70
     0
 62
     7
  6
Continuous
370
    -3
390
F
  0
LAYER
  5
122
330
2
100
AcDbSymbolTableRecord
100
AcDbLayerTableRecord
  2
Layer221
 70
     0
 62
     7
  6
Continuous
370
    -3
390
F
  0
LAYER
  5
123
330
2
100
AcDbSymbolTableRecord
100
AcDbLayerTableRecord
  2
Layer222
 70
     0
 62
     7
  6
Continuous
370
    -3
390
F
  0
LAYER
  5
124
330
2
100
AcDbSymbolTableRecord
100
AcDbLayerTableRecord
  2
Layer223
 70
     0
 62
     7
  6
Continuous
370
    -3
390
F
  0
LAYER
  5
125
330
2
100
AcDbSymbolTableRecord
100
AcDbLayerTableRecord
  2
Layer224
 70
     0
 62
     7
  6
Continuous
370
    -3
390
F
  0
LAYER
  5
126
330
2
100
AcDbSymbolTableRecord
100
AcDbLayerTableRecord
  2
Layer225
 70
     0
 62
     7
  6
Continuous
370
    -3
390
F
  0
LAYER
  5
127
330
2
100
AcDbSymbolTableRecord
100
AcDbLayerTableRecord
  2
Layer226
 70
     0
 62
     7
  6
Continuous
370
    -3
390
F
  0
LAYER
  5
128
330
2
100
AcDbSymbolTableRecord
100
AcDbLayerTableRecord
  2
Layer227
 70
     0
 62
     7
  6
Continuous
370
    -3
390
F
  0
LAYER
  5
129
330
2
100
AcDbSymbolTableRecord
100
AcDbLayerTableRecord
  2
Layer228
 70
     0
 62
     7
  6
Continuous
370
    -3
390
F
  0
LAYER
  5
12A
330
2
100
AcDbSymbolTableRecord
100
AcDbLayerTableRecord
  2
Layer229
 70
     0
 62
     7
  6
Continuous
370
    -3
390
F
  0
LAYER
  5
12B
330
2
100
AcDbSymbolTableRecord
100
AcDbLayerTableRecord
  2
Layer230
 70
     0
 62
     7
  6
Continuous
370
    -3
390
F
  0
LAYER
  5
12C
330
2
100
AcDbSymbolTableRecord
100
AcDbLayerTableRecord
  2
Layer231
 70
     0
 62
     7
  6
Continuous
370
    -3
390
F
  0
LAYER
  5
12D
330
2
100
AcDbSymbolTableRecord
100
AcDbLayerTableRecord
  2
Layer232
 70
     0
 62
     7
  6
Continuous
370
    -3
390
F
  0
LAYER
  5
12E
330
2
100
AcDbSymbolTableRecord
100
AcDbLayerTableRecord
  2
Layer233
 70
     0
 62
     7
  6
Continuous
370
    -3
390
F
  0
LAYER
  5
12F
330
2
100
AcDbSymbolTableRecord
100
AcDbLayerTableRecord
  2
Layer234
 70
     0
 62
     7
  6
Continuous
370
    -3
390
F
  0
LAYER
  5
130
330
2
100
AcDbSymbolTableRecord
100
AcDbLayerTableRecord
  2
Layer235
 70
     0
 62
     7
  6
Continuous
370
    -3
390
F
  0
LAYER
  5
131
330
2
100
AcDbSymbolTableRecord
100
AcDbLayerTableRecord
  2
Layer236
 70
     0
 62
     7
  6
Continuous
370
    -3
390
F
  0
LAYER
  5
132
330
2
100
AcDbSymbolTableRecord
100
AcDbLayerTableRecord
  2
Layer237
 70
     0
 62
     7
  6
Continuous
370
    -3
390
F
  0
LAYER
  5
133
330
2
100
AcDbSymbolTableRecord
100
AcDbLayerTableRecord
  2
Layer238
 70
     0
 62
     7
  6
Continuous
370
    -3
390
F
  0
LAYER
  5
134
330
2
100
AcDbSymbolTableRecord
100
AcDbLayerTableRecord
  2
Layer239
 70
     0
 62
     7
  6
Continuous
370
    -3
390
F
  0
LAYER
  5
135
330
2
100
AcDbSymbolTableRecord
100
AcDbLayerTableRecord
  2
Layer240
 70
     0
 62
     7
  6
Continuous
370
    -3
390
F
  0
LAYER
  5
136
330
2
100
AcDbSymbolTableRecord
100
AcDbLayerTableRecord
  2
Layer241
 70
     0
 62
     7
  6
Continuous
370
    -3
390
F
  0
LAYER
  5
137
330
2
100
AcDbSymbolTableRecord
100
AcDbLayerTableRecord
  2
Layer242
 70
     0
 62
     7
  6
Continuous
370
    -3
390
F
  0
LAYER
  5
138
330
2
100
AcDbSymbolTableRecord
100
AcDbLayerTableRecord
  2
Layer243
 70
     0
 62
     7
  6
Continuous
370
    -3
390
F
  0
LAYER
  5
139
330
2
100
AcDbSymbolTableRecord
100
AcDbLayerTableRecord
  2
Layer244
 70
     0
 62
     7
  6
Continuous
370
    -3
390
F
  0
LAYER
  5
13A
330
2
100
AcDbSymbolTableRecord
100
AcDbLayerTableRecord
  2
Layer245
 70
     0
 62
     7
  6
Continuous
370
    -3
390
F
  0
LAYER
  5
13B
330
2
100
AcDbSymbolTableRecord
100
AcDbLayerTableRecord
  2
Layer246
 70
     0
 62
     7
  6
Continuous
370
    -3
390
F
  0
LAYER
  5
13C
330
2
100
AcDbSymbolTableRecord
100
AcDbLayerTableRecord
  2
Layer247
 70
     0
 62
     7
  6
Continuous
370
    -3
390
F
  0
LAYER
  5
13D
330
2
100
AcDbSymbolTableRecord
100
AcDbLayerTableRecord
  2
Layer248
 70
     0
 62
     7
  6
Continuous
370
    -3
390
F
  0
LAYER
  5
13E
330
2
100
AcDbSymbolTableRecord
100
AcDbLayerTableRecord
  2
Layer249
 70
     0
 62
     7
  6
Continuous
370
    -3
390
F
  0
LAYER
  5
13F
330
2
100
AcDbSymbolTableRecord
100
AcDbLayerTableRecord
  2
Layer250
 70
     0
 62
     7
  6
Continuous
370
    -3
390
F
  0
LAYER
  5
140
330
2
100
AcDbSymbolTableRecord
100
AcDbLayerTableRecord
  2
Layer251
 70
     0
 62
     7
  6
Continuous
370
    -3
390
F
  0
LAYER
  5
141
330
2
100
AcDbSymbolTableRecord
100
AcDbLayerTableRecord
  2
Layer252
 70
     0
 62
     7
  6
Continuous
370
    -3
390
F
  0
LAYER
  5
142
330
2
100
AcDbSymbolTableRecord
100
AcDbLayerTableRecord
  2
Layer253
 70
     0
 62
     7
  6
Continuous
370
    -3
390
F
  0
LAYER
  5
143
330
2
100
AcDbSymbolTableRecord
100
AcDbLayerTableRecord
  2
Layer254
 70
     0
 62
     7
  6
Continuous
370
    -3
390
F
  0
LAYER
  5
144
330
2
100
AcDbSymbolTableRecord
100
AcDbLayerTableRecord
  2
Layer255
 70
     0
 62
     7
  6
Continuous
370
    -3
390
F
  0
ENDTAB
  0
TABLE
  2
STYLE
  5
3
330
0
100
AcDbSymbolTable
 70
     4
  0
STYLE
  5
11
330
3
100
AcDbSymbolTableRecord
100
AcDbTextStyleTableRecord
  2
Standard
 70
     0
 40
0.0
 41
1.0
 50
0.0
 71
     0
 42
2.5
  3
txt
  4

  0
STYLE
  5
41
330
3
100
AcDbSymbolTableRecord
100
AcDbTextStyleTableRecord
  2
Arial
 70
     0
 40
0.0
 41
1.0
 50
0.0
 71
     0
 42
0.2
  3
arial.ttf
  4

1001
ACAD
1000
Arial
1071
       34
  0
STYLE
  5
42
330
3
100
AcDbSymbolTableRecord
100
AcDbTextStyleTableRecord
  2
Arial Black
 70
     0
 40
0.0
 41
1.0
 50
0.0
 71
     0
 42
0.2
  3
ariblk.ttf
  4

1001
ACAD
1000
Arial Black
1071
       34
  0
STYLE
  5
44
330
3
100
AcDbSymbolTableRecord
100
AcDbTextStyleTableRecord
  2
Toleranzfont
 70
     0
 40
0.0
 41
1.0
 50
0.0
 71
     0
 42
0.2
  3
IGES1003.SHX
  4

  0
ENDTAB
  0
TABLE
  2
VIEW
  5
6
330
0
100
AcDbSymbolTable
 70
     0
  0
ENDTAB
  0
TABLE
  2
UCS
  5
7
330
0
100
AcDbSymbolTable
 70
     0
  0
ENDTAB
  0
TABLE
  2
APPID
  5
9
330
0
100
AcDbSymbolTable
 70
     1
  0
APPID
  5
12
330
9
100
AcDbSymbolTableRecord
100
AcDbRegAppTableRecord
  2
ACAD
 70
     0
  0
ENDTAB
  0
TABLE
  2
DIMSTYLE
  5
A
330
0
100
AcDbSymbolTable
 70
     1
100
AcDbDimStyleTable
  0
DIMSTYLE
105
27
102
{ACAD_REACTORS
330
4FE
330
515
330
52E
330
56D
102
}
330
A
100
AcDbSymbolTableRecord
100
AcDbDimStyleTableRecord
  2
ISO-25
 70
     0
 41
2.5
 42
0.625
 43
3.75
 44
1.25
 73
     0
 74
     0
 77
     1
 78
     8
140
2.5
141
2.5
143
0.03937007874
147
0.625
171
     3
172
     1
178
     0
271
     2
272
     2
274
     3
278
    44
283
     0
284
     8
340
11
  0
ENDTAB
  0
TABLE
  2
BLOCK_RECORD
  5
1
330
0
100
AcDbSymbolTable
 70
    11
  0
BLOCK_RECORD
  5
1F
330
1
100
AcDbSymbolTableRecord
100
AcDbBlockTableRecord
  2
*Model_Space
340
22
  0
BLOCK_RECORD
  5
1B
330
1
100
AcDbSymbolTableRecord
100
AcDbBlockTableRecord
  2
*Paper_Space
340
1E
  0
BLOCK_RECORD
  5
23
330
1
100
AcDbSymbolTableRecord
100
AcDbBlockTableRecord
  2
*Paper_Space0
340
26
  0
BLOCK_RECORD
  5
145
330
1
100
AcDbSymbolTableRecord
100
AcDbBlockTableRecord
  2
L1_nNn00
340
0
102
{BLKREFS
331
1A5
102
}
  0
BLOCK_RECORD
  5
14A
330
1
100
AcDbSymbolTableRecord
100
AcDbBlockTableRecord
  2
Schriftfeld_nNn01
340
0
102
{BLKREFS
331
196
102
}
  0
BLOCK_RECORD
  5
177
330
1
100
AcDbSymbolTableRecord
100
AcDbBlockTableRecord
  2
ULTRAREFLEX_nNn02
340
0
102
{BLKREFS
331
18F
102
}
  0
BLOCK_RECORD
  5
19B
330
1
100
AcDbSymbolTableRecord
100
AcDbBlockTableRecord
  2
A4_nNn03
340
0
102
{BLKREFS
331
1A4
102
}
  0
BLOCK_RECORD
  5
1AF
330
1
100
AcDbSymbolTableRecord
100
AcDbBlockTableRecord
  2
SECHSK1_nNn04
340
0
102
{BLKREFS
331
4EE
102
}
  0
BLOCK_RECORD
  5
4F1
330
1
100
AcDbSymbolTableRecord
100
AcDbBlockTableRecord
  2
*D6
340
0
  0
BLOCK_RECORD
  5
4FF
330
1
100
AcDbSymbolTableRecord
100
AcDbBlockTableRecord
  2
_CLOSED
340
0
  0
BLOCK_RECORD
  5
507
330
1
100
AcDbSymbolTableRecord
100
AcDbBlockTableRecord
  2
*D8
340
0
  0
BLOCK_RECORD
  5
51F
330
1
100
AcDbSymbolTableRecord
100
AcDbBlockTableRecord
  2
*D9
340
0
  0
BLOCK_RECORD
  5
55C
330
1
100
AcDbSymbolTableRecord
100
AcDbBlockTableRecord
  2
*D10
340
0
  0
ENDTAB
  0
ENDSEC
  0
SECTION
  2
BLOCKS
  0
BLOCK
  5
20
330
1F
100
AcDbEntity
  8
0
100
AcDbBlockBegin
  2
*Model_Space
 70
     0
 10
0.0
 20
0.0
 30
0.0
  3
*Model_Space
  1

  0
ENDBLK
  5
21
330
1F
100
AcDbEntity
  8
0
100
AcDbBlockEnd
  0
BLOCK
  5
1C
330
1B
100
AcDbEntity
 67
     1
  8
0
100
AcDbBlockBegin
  2
*Paper_Space
 70
     0
 10
0.0
 20
0.0
 30
0.0
  3
*Paper_Space
  1

  0
ENDBLK
  5
1D
330
1B
100
AcDbEntity
 67
     1
  8
0
100
AcDbBlockEnd
  0
BLOCK
  5
24
330
23
100
AcDbEntity
  8
0
100
AcDbBlockBegin
  2
*Paper_Space0
 70
     0
 10
0.0
 20
0.0
 30
0.0
  3
*Paper_Space0
  1

  0
ENDBLK
  5
25
330
23
100
AcDbEntity
  8
0
100
AcDbBlockEnd
  0
BLOCK
  5
146
330
145
100
AcDbEntity
  8
0
100
AcDbBlockBegin
  2
L1_nNn00
 70
     0
 10
0.0
 20
0.0
 30
0.0
  3
L1_nNn00
  1

  0
LINE
  5
148
330
145
100
AcDbEntity
  8
Layer99
  6
AUSGEZOGEN
 62
     9
370
    18
100
AcDbLine
 10
148.116205874161
 20
20.962541762673
 30
0.0
 11
242.116205874161
 21
20.962541762673
 31
0.0
  0
LINE
  5
149
330
145
100
AcDbEntity
  8
Layer0
  6
AUSGEZOGEN
 62
    56
370
    18
100
AcDbLine
 10
145.766205874161
 20
18.612541762673
 30
0.0
 11
244.466205874161
 21
18.612541762673
 31
0.0
  0
INSERT
  5
196
330
145
100
AcDbEntity
  8
0
100
AcDbBlockReference
  2
Schriftfeld_nNn01
 10
0.0
 20
0.0
 30
0.0
  0
TEXT
  5
197
330
145
100
AcDbEntity
  8
Layer0
  6
AUSGEZOGEN
 62
   136
370
    18
100
AcDbText
 10
155.015354512
 20
48.185860515133
 30
0.0
 40
1.25
  1
Reflexionswerte werden gesondert vereinbart
 41
1.135633657373
  7
Arial
 72
     5
 11
194.880354512
 21
48.185860515133
 31
0.0
100
AcDbText
  0
TEXT
  5
198
330
145
100
AcDbEntity
  8
Layer0
  6
AUSGEZOGEN
 62
   136
370
    18
100
AcDbText
 10
154.813503975993
 20
55.563796995095
 30
0.0
 40
1.25
  1
Teil frei von Rissen, Grat, Blasen, Einfallstellen,
 41
1.134961395871
  7
Arial
 72
     5
 11
196.524753975993
 21
55.563796995095
 31
0.0
100
AcDbText
  0
TEXT
  5
199
330
145
100
AcDbEntity
  8
Layer0
  6
AUSGEZOGEN
 62
   136
370
    18
100
AcDbText
 10
154.813503975993
 20
53.563796965293
 30
0.0
 40
1.25
  1
Fliesslinien, Einschlüssen, Formbelag, Kratzer, Schlieren
 41
1.134732239196
  7
Arial
 72
     5
 11
204.767253975993
 21
53.563796965293
 31
0.0
100
AcDbText
  0
TEXT
  5
19A
330
145
100
AcDbEntity
  8
Layer0
  6
AUSGEZOGEN
 62
   136
370
    18
100
AcDbText
 10
154.813503975993
 20
51.563796935491
 30
0.0
 40
1.25
  1
Grenzwertmuster werden gesondert vereinbart
 41
1.135456372583
  7
Arial
 72
     5
 11
195.772253975993
 21
51.563796935491
 31
0.0
100
AcDbText
  0
INSERT
  5
1A4
330
145
100
AcDbEntity
  8
0
100
AcDbBlockReference
  2
A4_nNn03
 10
0.0
 20
0.0
 30
0.0
  0
ENDBLK
  5
147
330
145
100
AcDbEntity
  8
0
100
AcDbBlockEnd
  0
BLOCK
  5
14B
330
14A
100
AcDbEntity
  8
0
100
AcDbBlockBegin
  2
Schriftfeld_nNn01
 70
     0
 10
0.0
 20
0.0
 30
0.0
  3
Schriftfeld_nNn01
  1

  0
LINE
  5
14D
330
14A
100
AcDbEntity
  8
Layer99
  6
AUSGEZOGEN
 62
    56
370
    18
100
AcDbLine
 10
185.716205874161
 20
38.940041762673
 30
0.0
 11
185.716205874161
 21
30.950041762673
 31
0.0
  0
LINE
  5
14E
330
14A
100
AcDbEntity
  8
Layer99
  6
AUSGEZOGEN
 62
    56
370
    18
100
AcDbLine
 10
158.832228823379
 20
38.940041762673
 30
0.0
 11
158.832228823379
 21
20.962541762673
 31
0.0
  0
LINE
  5
14F
330
14A
100
AcDbEntity
  8
Layer99
  6
AUSGEZOGEN
 62
     9
370
    18
100
AcDbLine
 10
236.006205874161
 20
28.952541762673
 30
0.0
 11
236.006205874161
 21
23.242042838417
 31
0.0
  0
LINE
  5
150
330
14A
100
AcDbEntity
  8
Layer99
  6
AUSGEZOGEN
 62
    56
370
    18
100
AcDbLine
 10
180.828194399551
 20
22.960041762673
 30
0.0
 11
155.166205874161
 21
22.960041762673
 31
0.0
  0
LINE
  5
151
330
14A
100
AcDbEntity
  8
Layer99
  6
AUSGEZOGEN
 62
    56
370
    18
100
AcDbLine
 10
180.828194399551
 20
24.957541762673
 30
0.0
 11
155.166205874161
 21
24.957541762673
 31
0.0
  0
LINE
  5
152
330
14A
100
AcDbEntity
  8
Layer99
  6
AUSGEZOGEN
 62
    56
370
    18
100
AcDbLine
 10
180.828194399551
 20
26.955041762673
 30
0.0
 11
155.166205874161
 21
26.955041762673
 31
0.0
  0
LINE
  5
153
330
14A
100
AcDbEntity
  8
Layer99
  6
AUSGEZOGEN
 62
    56
370
    18
100
AcDbLine
 10
180.828194399551
 20
28.952541762673
 30
0.0
 11
155.166205874161
 21
28.952541762673
 31
0.0
  0
LINE
  5
154
330
14A
100
AcDbEntity
  8
Layer99
  6
AUSGEZOGEN
 62
     9
370
    18
100
AcDbLine
 10
242.116205874161
 20
28.952541762673
 30
0.0
 11
180.828194399551
 21
28.952541762673
 31
0.0
  0
LINE
  5
155
330
14A
100
AcDbEntity
  8
Layer99
  6
AUSGEZOGEN
 62
    56
370
    18
100
AcDbLine
 10
201.602228823379
 20
30.950041762673
 30
0.0
 11
155.166205874161
 21
30.950041762673
 31
0.0
  0
LINE
  5
156
330
14A
100
AcDbEntity
  8
Layer99
  6
AUSGEZOGEN
 62
    56
370
    18
100
AcDbLine
 10
201.602228823379
 20
32.947541762673
 30
0.0
 11
155.166205874161
 21
32.947541762673
 31
0.0
  0
LINE
  5
157
330
14A
100
AcDbEntity
  8
Layer99
  6
AUSGEZOGEN
 62
    56
370
    18
100
AcDbLine
 10
201.602228823379
 20
34.945041762673
 30
0.0
 11
155.166205874161
 21
34.945041762673
 31
0.0
  0
LINE
  5
158
330
14A
100
AcDbEntity
  8
Layer99
  6
AUSGEZOGEN
 62
    56
370
    18
100
AcDbLine
 10
201.602228823379
 20
36.942541762673
 30
0.0
 11
155.166205874161
 21
36.942541762673
 31
0.0
  0
LINE
  5
159
330
14A
100
AcDbEntity
  8
Layer99
  6
AUSGEZOGEN
 62
     9
370
    18
100
AcDbLine
 10
242.116205874161
 20
38.940041762673
 30
0.0
 11
155.166205874161
 21
38.940041762673
 31
0.0
  0
LINE
  5
15A
330
14A
100
AcDbEntity
  8
Layer99
  6
AUSGEZOGEN
 62
    56
370
    18
100
AcDbLine
 10
180.828194399551
 20
43.933791762673
 30
0.0
 11
155.166205874161
 21
43.933791762673
 31
0.0
  0
LINE
  5
15B
330
14A
100
AcDbEntity
  8
Layer99
  6
AUSGEZOGEN
 62
    56
370
    18
100
AcDbLine
 10
242.116205874161
 20
43.933791762673
 30
0.0
 11
201.602228823379
 21
43.933791762673
 31
0.0
  0
LINE
  5
15C
330
14A
100
AcDbEntity
  8
Layer99
  6
AUSGEZOGEN
 62
    56
370
    18
100
AcDbLine
 10
225.008194399551
 20
46.930041762673
 30
0.0
 11
225.008194399551
 21
43.933791762673
 31
0.0
  0
LINE
  5
15D
330
14A
100
AcDbEntity
  8
Layer99
  6
AUSGEZOGEN
 62
     9
370
    18
100
AcDbLine
 10
201.602228823379
 20
46.930041762673
 30
0.0
 11
201.602228823379
 21
23.242042838417
 31
0.0
  0
LINE
  5
15E
330
14A
100
AcDbEntity
  8
Layer99
  6
AUSGEZOGEN
 62
    56
370
    18
100
AcDbLine
 10
193.048194399551
 20
38.940041762673
 30
0.0
 11
193.048194399551
 21
28.952541762673
 31
0.0
  0
LINE
  5
15F
330
14A
100
AcDbEntity
  8
Layer99
  6
AUSGEZOGEN
 62
     9
370
    18
100
AcDbLine
 10
180.828194399551
 20
46.930041762673
 30
0.0
 11
180.828194399551
 21
20.962541762673
 31
0.0
  0
LINE
  5
160
330
14A
100
AcDbEntity
  8
Layer99
  6
AUSGEZOGEN
 62
     9
370
    18
100
AcDbLine
 10
155.166205874161
 20
46.930041762673
 30
0.0
 11
155.166205874161
 21
20.962541762673
 31
0.0
  0
LINE
  5
161
330
14A
100
AcDbEntity
  8
Layer99
  6
AUSGEZOGEN
 62
     9
370
    18
100
AcDbLine
 10
242.116205874161
 20
46.930041762673
 30
0.0
 11
155.166205874161
 21
46.930041762673
 31
0.0
  0
TEXT
  5
162
330
14A
100
AcDbEntity
  8
Layer99
  6
AUSGEZOGEN
 62
    56
370
    18
100
AcDbText
 10
181.155909243301
 20
35.391697028481
 30
0.0
 40
0.94
  1
Bearb. 31.01.13 Ms
 41
1.259432179168
  7
Arial
 72
     5
 11
195.576584015278
 21
35.391697028481
 31
0.0
100
AcDbText
  0
TEXT
  5
163
330
14A
100
AcDbEntity
  8
Layer99
  6
AUSGEZOGEN
 62
    56
370
    18
100
AcDbText
 10
181.264631167129
 20
33.433554938637
 30
0.0
 40
0.94
  1
Gepr.
 41
1.215533862924
  7
Arial
 72
     5
 11
185.253454159669
 21
33.433554938637
 31
0.0
100
AcDbText
  0
TEXT
  5
164
330
14A
100
AcDbEntity
  8
Layer99
  6
AUSGEZOGEN
 62
    56
370
    18
100
AcDbText
 10
181.264631167129
 20
31.366633551918
 30
0.0
 40
0.94
  1
Norm
 41
1.171328125812
  7
Arial
 72
     5
 11
185.021408438483
 21
31.366633551918
 31
0.0
100
AcDbText
  0
TEXT
  5
165
330
14A
100
AcDbEntity
  8
Layer99
  6
AUSGEZOGEN
 62
    56
370
    18
100
AcDbText
 10
236.917978335098
 20
27.425332213723
 30
0.0
 40
1.175
  1
Blatt
 41
1.26499927539
  7
Arial
 72
     5
 11
241.069421332092
 21
27.425332213723
 31
0.0
100
AcDbText
  0
TEXT
  5
166
330
14A
100
AcDbEntity
  8
Layer0
  6
AUSGEZOGEN
 62
   136
370
    18
100
AcDbText
 10
182.256725893692
 20
44.813485518776
 30
0.0
 40
1.175
  1
Allgemeintoleranzen
 41
1.263559891189
  7
Arial
 72
     5
 11
201.030540811986
 21
44.813485518776
 31
0.0
100
AcDbText
  0
TEXT
  5
167
330
14A
100
AcDbEntity
  8
Layer0
  6
AUSGEZOGEN
 62
   136
370
    18
100
AcDbText
 10
181.929986391739
 20
42.634614974343
 30
0.0
 40
1.175
  1
Nach: TG5
 41
1.223038375192
  7
Arial
 72
     5
 11
191.628772434891
 21
42.634614974343
 31
0.0
100
AcDbText
  0
TEXT
  5
168
330
14A
100
AcDbEntity
  8
Layer0
  6
AUSGEZOGEN
 62
   136
370
    18
100
AcDbText
 10
182.009046450332
 20
40.455737258278
 30
0.0
 40
1.175
  1
DIN: 16742
 41
1.239741037486
  7
Arial
 72
     5
 11
192.2933182268
 21
40.455737258278
 31
0.0
100
AcDbText
  0
TEXT
  5
169
330
14A
100
AcDbEntity
  8
Layer0
  6
AUSGEZOGEN
 62
    56
370
    18
100
AcDbText
 10
225.76609234877
 20
44.922429763161
 30
0.0
 40
1.175
  1
Gewicht:
 41
1.240831402125
  7
Arial
 72
     5
 11
233.68290690218
 21
44.922429763161
 31
0.0
100
AcDbText
  0
TEXT
  5
16A
330
14A
100
AcDbEntity
  8
Layer0
  6
AUSGEZOGEN
 62
    56
370
    18
100
AcDbText
 10
202.219505434707
 20
41.664293319069
 30
0.0
 40
1.175
  1
Werkstoff/Farbe:siehe Zeichnung
 41
1.269550999613
  7
Arial
 72
     5
 11
232.886335038499
 21
41.664293319069
 31
0.0
100
AcDbText
  0
TEXT
  5
16B
330
14A
100
AcDbEntity
  8
Layer0
  6
AUSGEZOGEN
 62
    56
370
    18
100
AcDbText
 10
202.219505434707
 20
44.932391158425
 30
0.0
 40
1.175
  1
Maßstab:2:1
 41
1.241041547507
  7
Arial
 72
     5
 11
213.532405817241
 21
44.932391158425
 31
0.0
100
AcDbText
  0
TEXT
  5
16C
330
14A
100
AcDbEntity
  8
Layer0
  6
AUSGEZOGEN
 62
    56
370
    18
100
AcDbText
 10
155.730240297989
 20
44.932541762673
 30
0.0
 40
1.175
  1
Schwindung:
 41
1.234746274162
  7
Arial
 72
     5
 11
167.323797833264
 21
44.932541762673
 31
0.0
100
AcDbText
  0
TEXT
  5
16D
330
14A
100
AcDbEntity
  8
Layer0
  6
AUSGEZOGEN
 62
    56
370
    18
100
AcDbText
 10
155.786924868301
 20
41.992230483376
 30
0.0
 40
1.175
  1
Diese Zeichnung darf nur
 41
1.271210741346
  7
Arial
 72
     5
 11
179.194268513263
 21
41.992230483376
 31
0.0
100
AcDbText
  0
TEXT
  5
16E
330
14A
100
AcDbEntity
  8
Layer0
  6
AUSGEZOGEN
 62
    56
370
    18
100
AcDbText
 10
155.786924868301
 20
40.112230455362
 30
0.0
 40
1.175
  1
mit CAD geändert werden
 41
1.255342283876
  7
Arial
 72
     5
 11
179.472911381812
 21
40.112230455362
 31
0.0
100
AcDbText
  0
LINE
  5
16F
330
14A
100
AcDbEntity
  8
Layer99
  6
AUSGEZOGEN
 62
    56
370
    18
100
AcDbLine
 10
242.116205874161
 20
23.242042838417
 30
0.0
 11
201.602228823379
 21
23.242042838417
 31
0.0
  0
LINE
  5
170
330
14A
100
AcDbEntity
  8
Layer99
  6
AUSGEZOGEN
 62
    56
370
    18
100
AcDbLine
 10
242.116205874161
 20
25.239542838417
 30
0.0
 11
236.006205874161
 21
25.239542838417
 31
0.0
  0
TEXT
  5
171
330
14A
100
AcDbEntity
  8
Layer99
  6
AUSGEZOGEN
 62
    56
370
    18
100
AcDbText
 10
239.474234438614
 20
23.689064933144
 30
0.0
 40
1.175
  1
Bl.
 41
1.229150265254
  7
Arial
 72
     5
 11
241.82692023258
 21
23.689064933144
 31
0.0
100
AcDbText
  0
LINE
  5
172
330
14A
100
AcDbEntity
  8
Layer99
  6
AUSGEZOGEN
 62
    56
370
    18
100
AcDbLine
 10
201.602228823379
 20
23.242042838417
 30
0.0
 11
180.828194399551
 21
23.242042838417
 31
0.0
  0
LINE
  5
173
330
14A
100
AcDbEntity
  8
Layer99
  6
AUSGEZOGEN
 62
    56
370
    18
100
AcDbLine
 10
172.979102602676
 20
38.940041762673
 30
0.0
 11
172.979102602676
 21
20.962541762673
 31
0.0
  0
TEXT
  5
174
330
14A
100
AcDbEntity
  8
Text
  6
AUSGEZOGEN
 62
   136
370
    18
100
AcDbText
 10
157.203494082168
 20
23.391357806527
 30
0.0
 40
0.94
  1
-  ---
 41
1.340992890965
  7
Arial
 72
     5
 11
160.526259907118
 21
23.391357806527
 31
0.0
100
AcDbText
  0
TEXT
  5
175
330
14A
100
AcDbEntity
  8
Text
  6
AUSGEZOGEN
 62
   136
370
    18
100
AcDbText
 10
173.089316225723
 20
23.506509993874
 30
0.0
 40
0.94
  1
--.--.--/--
 41
1.366444411798
  7
Arial
 72
     5
 11
179.362607862512
 21
23.506509993874
 31
0.0
100
AcDbText
  0
TEXT
  5
176
330
14A
100
AcDbEntity
  8
Layer0
  6
AUSGEZOGEN
 62
    56
370
    18
100
AcDbText
 10
181.413227358536
 20
21.47724903711
 30
0.0
 40
1.175
  1
Schutzvermerk nach DIN 34 beachten .        Copyright reserved
 41
1.286227457357
  7
Arial
 72
     5
 11
240.739986493841
 21
21.47724903711
 31
0.0
100
AcDbText
  0
INSERT
  5
18F
330
14A
100
AcDbEntity
  8
0
100
AcDbBlockReference
  2
ULTRAREFLEX_nNn02
 10
0.0
 20
0.0
 30
0.0
  0
TEXT
  5
190
330
14A
100
AcDbEntity
  8
Text
  6
AUSGEZOGEN
 62
   136
370
    18
100
AcDbText
 10
202.613920022716
 20
29.560835204973
 30
0.0
 40
0.94
  1
---
 41
1.259600656861
  7
Arial
 72
     5
 11
204.265634364058
 21
29.560835204973
 31
0.0
100
AcDbText
  0
TEXT
  5
191
330
14A
100
AcDbEntity
  8
Layer99
  6
AUSGEZOGEN
 62
    56
370
    18
100
AcDbText
 10
173.231143644905
 20
21.429392331105
 30
0.0
 40
0.94
  1
Dat./Nam.
 41
1.239717192527
  7
Arial
 72
     5
 11
180.552938178313
 21
21.429392331105
 31
0.0
100
AcDbText
  0
TEXT
  5
192
330
14A
100
AcDbEntity
  8
Layer99
  6
AUSGEZOGEN
 62
    56
370
    18
100
AcDbText
 10
155.258723654167
 20
21.427261233704
 30
0.0
 40
0.94
  1
Zust.
 41
1.239906123597
  7
Arial
 72
     5
 11
158.875306633596
 21
21.427261233704
 31
0.0
100
AcDbText
  0
TEXT
  5
193
330
14A
100
AcDbEntity
  8
Layer0
  6
AUSGEZOGEN
 62
    56
370
    18
100
AcDbText
 10
186.4925106138
 20
37.345738021218
 30
0.0
 40
1.175
  1
Datum
 41
1.188171149402
  7
Arial
 72
     5
 11
192.231882238151
 21
37.345738021218
 31
0.0
100
AcDbText
  0
TEXT
  5
194
330
14A
100
AcDbEntity
  8
Layer0
  6
AUSGEZOGEN
 62
    56
370
    18
100
AcDbText
 10
194.795149812357
 20
37.349665677237
 30
0.0
 40
1.175
  1
Name
 41
1.15958716227
  7
Arial
 72
     5
 11
199.867792843388
 21
37.349665677237
 31
0.0
100
AcDbText
  0
TEXT
  5
195
330
14A
100
AcDbEntity
  8
Layer99
  6
AUSGEZOGEN
 62
    56
370
    18
100
AcDbText
 10
159.502485762396
 20
21.427373064582
 30
0.0
 40
0.94
  1
Änderung
 41
1.218204176926
  7
Arial
 72
     5
 11
166.432703140429
 21
21.427373064582
 31
0.0
100
AcDbText
  0
ENDBLK
  5
14C
330
14A
100
AcDbEntity
  8
0
100
AcDbBlockEnd
  0
BLOCK
  5
178
330
177
100
AcDbEntity
  8
0
100
AcDbBlockBegin
  2
ULTRAREFLEX_nNn02
 70
     0
 10
0.0
 20
0.0
 30
0.0
  3
ULTRAREFLEX_nNn02
  1

  0
LINE
  5
17A
330
177
100
AcDbEntity
  8
Layer0
  6
AUSGEZOGEN
 62
    30
370
    18
100
AcDbLine
 10
200.10319725725
 20
27.468997807381
 30
0.0
 11
198.673158375494
 21
27.468997807381
 31
0.0
  0
LINE
  5
17B
330
177
100
AcDbEntity
  8
Layer0
  6
AUSGEZOGEN
 62
    30
370
    18
100
AcDbLine
 10
198.53476751597
 20
27.389097807381
 30
0.0
 11
197.819748075092
 21
26.150647807381
 31
0.0
  0
LINE
  5
17C
330
177
100
AcDbEntity
  8
Layer0
  6
AUSGEZOGEN
 62
    30
370
    18
100
AcDbLine
 10
197.819748075092
 20
25.990847807381
 30
0.0
 11
198.53476751597
 21
24.752397807381
 31
0.0
  0
LINE
  5
17D
330
177
100
AcDbEntity
  8
Layer0
  6
AUSGEZOGEN
 62
    30
370
    18
100
AcDbLine
 10
198.673158375494
 20
24.672497807381
 30
0.0
 11
200.10319725725
 21
24.672497807381
 31
0.0
  0
LINE
  5
17E
330
177
100
AcDbEntity
  8
Layer0
  6
AUSGEZOGEN
 62
    30
370
    18
100
AcDbLine
 10
200.241588116775
 20
24.752397807381
 30
0.0
 11
200.956607557653
 21
25.990847807381
 31
0.0
  0
LINE
  5
17F
330
177
100
AcDbEntity
  8
Layer0
  6
AUSGEZOGEN
 62
    30
370
    18
100
AcDbLine
 10
200.956607557653
 20
26.150647807381
 30
0.0
 11
200.241588116775
 21
27.389097807381
 31
0.0
  0
LINE
  5
180
330
177
100
AcDbEntity
  8
Layer0
  6
AUSGEZOGEN
 62
    30
370
    18
100
AcDbLine
 10
199.526568675897
 20
26.150647807381
 30
0.0
 11
200.956607557653
 21
26.150647807381
 31
0.0
  0
LINE
  5
181
330
177
100
AcDbEntity
  8
Layer0
  6
AUSGEZOGEN
 62
    30
370
    18
100
AcDbLine
 10
197.819748075092
 20
26.150647807381
 30
0.0
 11
199.249786956848
 21
26.150647807381
 31
0.0
  0
LINE
  5
182
330
177
100
AcDbEntity
  8
Layer0
  6
AUSGEZOGEN
 62
    30
370
    18
100
AcDbLine
 10
199.526568675897
 20
25.990847807381
 30
0.0
 11
200.956607557653
 21
25.990847807381
 31
0.0
  0
LINE
  5
183
330
177
100
AcDbEntity
  8
Layer0
  6
AUSGEZOGEN
 62
    30
370
    18
100
AcDbLine
 10
197.819748075092
 20
25.990847807381
 30
0.0
 11
199.249786956848
 21
25.990847807381
 31
0.0
  0
LINE
  5
184
330
177
100
AcDbEntity
  8
Layer0
  6
AUSGEZOGEN
 62
    30
370
    18
100
AcDbLine
 10
199.526568675897
 20
25.990847807381
 30
0.0
 11
200.241588116775
 21
24.752397807381
 31
0.0
  0
LINE
  5
185
330
177
100
AcDbEntity
  8
Layer0
  6
AUSGEZOGEN
 62
    30
370
    18
100
AcDbLine
 10
198.673158375494
 20
27.468997807381
 30
0.0
 11
199.388177816372
 21
26.230547807381
 31
0.0
  0
LINE
  5
186
330
177
100
AcDbEntity
  8
Layer0
  6
AUSGEZOGEN
 62
    30
370
    18
100
AcDbLine
 10
199.388177816372
 20
25.910947807381
 30
0.0
 11
200.10319725725
 21
24.672497807381
 31
0.0
  0
LINE
  5
187
330
177
100
AcDbEntity
  8
Layer0
  6
AUSGEZOGEN
 62
    30
370
    18
100
AcDbLine
 10
198.53476751597
 20
27.389097807381
 30
0.0
 11
199.249786956848
 21
26.150647807381
 31
0.0
  0
LINE
  5
188
330
177
100
AcDbEntity
  8
Layer0
  6
AUSGEZOGEN
 62
    30
370
    18
100
AcDbLine
 10
199.388177816372
 20
25.910947807381
 30
0.0
 11
198.673158375494
 21
24.672497807381
 31
0.0
  0
LINE
  5
189
330
177
100
AcDbEntity
  8
Layer0
  6
AUSGEZOGEN
 62
    30
370
    18
100
AcDbLine
 10
200.241588116775
 20
27.389097807381
 30
0.0
 11
199.526568675897
 21
26.150647807381
 31
0.0
  0
LINE
  5
18A
330
177
100
AcDbEntity
  8
Layer0
  6
AUSGEZOGEN
 62
    30
370
    18
100
AcDbLine
 10
199.249786956848
 20
25.990847807381
 30
0.0
 11
198.53476751597
 21
24.752397807381
 31
0.0
  0
LINE
  5
18B
330
177
100
AcDbEntity
  8
Layer0
  6
AUSGEZOGEN
 62
    30
370
    18
100
AcDbLine
 10
200.10319725725
 20
27.468997807381
 30
0.0
 11
199.388177816372
 21
26.230547807381
 31
0.0
  0
HATCH
  5
18C
330
177
100
AcDbEntity
  8
Layer0
  6
AUSGEZOGEN
 62
    30
370
    18
100
AcDbHatch
 10
0.0
 20
0.0
 30
0.0
210
0.0
220
0.0
230
1.0
  2
SOLID
 70
     1
 71
     0
 91
        6
 92
        2
 72
     0
 73
     1
 93
        3
 10
199.2497869568476
 20
25.99084780738136
 10
197.8197480750918
 20
25.99084780738136
 10
198.5347675159697
 20
24.75239780738136
 97
        0
 92
        2
 72
     0
 73
     1
 93
        3
 10
199.2497869568476
 20
26.15064780738136
 10
198.5347675159697
 20
27.38909780738136
 10
197.8197480750918
 20
26.15064780738136
 97
        0
 92
        2
 72
     0
 73
     1
 93
        3
 10
199.3881778163724
 20
26.23054780738136
 10
200.1031972572502
 20
27.46899780738136
 10
198.6731583754945
 20
27.46899780738136
 97
        0
 92
        2
 72
     0
 73
     1
 93
        3
 10
199.5265686758971
 20
26.15064780738136
 10
200.9566075576529
 20
26.15064780738136
 10
200.241588116775
 20
27.38909780738134
 97
        0
 92
        2
 72
     0
 73
     1
 93
        3
 10
200.241588116775
 20
24.75239780738136
 10
200.9566075576529
 20
25.99084780738136
 10
199.5265686758971
 20
25.99084780738136
 97
        0
 92
        2
 72
     0
 73
     1
 93
        3
 10
199.3881778163724
 20
25.91094780738135
 10
198.6731583754945
 20
24.67249780738136
 10
200.1031972572502
 20
24.67249780738136
 97
        0
 75
     0
 76
     1
 98
        0
  0
TEXT
  5
18D
330
177
100
AcDbEntity
  8
Layer0
  6
AUSGEZOGEN
 62
     7
370
    70
100
AcDbText
 10
189.279333176902
 20
25.170630692124
 30
0.0
 40
1.8377
  1
REFLEX
 41
0.705366510959
  7
Arial Black
 72
     5
 11
197.129508176902
 21
25.170630692124
 31
0.0
100
AcDbText
  0
TEXT
  5
18E
330
177
100
AcDbEntity
  8
Layer0
  6
AUSGEZOGEN
 62
     7
370
    18
100
AcDbText
 10
181.529827157851
 20
25.257323310554
 30
0.0
 40
1.39825
  1
ULTRA
 41
1.159777722278
  7
Arial
 72
     5
 11
188.950539657851
 21
25.257323310554
 31
0.0
100
AcDbText
  0
ENDBLK
  5
179
330
177
100
AcDbEntity
  8
0
100
AcDbBlockEnd
  0
BLOCK
  5
19C
330
19B
100
AcDbEntity
  8
0
100
AcDbBlockBegin
  2
A4_nNn03
 70
     0
 10
0.0
 20
0.0
 30
0.0
  3
A4_nNn03
  1

  0
LINE
  5
19E
330
19B
100
AcDbEntity
  8
Layer99
  6
AUSGEZOGEN
 62
     9
370
    18
100
AcDbLine
 10
242.116205874161
 20
20.962541762673
 30
0.0
 11
242.116205874161
 21
155.852541762673
 31
0.0
  0
LINE
  5
19F
330
19B
100
AcDbEntity
  8
Layer0
  6
AUSGEZOGEN
 62
     9
370
    18
100
AcDbLine
 10
148.116205874161
 20
20.962541762673
 30
0.0
 11
148.116205874161
 21
155.852541762673
 31
0.0
  0
LINE
  5
1A0
330
19B
100
AcDbEntity
  8
Layer0
  6
AUSGEZOGEN
 62
     9
370
    18
100
AcDbLine
 10
148.116205874161
 20
155.852541762673
 30
0.0
 11
242.116205874161
 21
155.852541762673
 31
0.0
  0
LINE
  5
1A1
330
19B
100
AcDbEntity
  8
Layer0
  6
AUSGEZOGEN
 62
    56
370
    18
100
AcDbLine
 10
145.766205874161
 20
158.202541762673
 30
0.0
 11
244.466205874161
 21
158.202541762673
 31
0.0
  0
LINE
  5
1A2
330
19B
100
AcDbEntity
  8
Layer0
  6
AUSGEZOGEN
 62
    56
370
    18
100
AcDbLine
 10
145.766205874161
 20
18.612541762673
 30
0.0
 11
145.766205874161
 21
158.202541762673
 31
0.0
  0
LINE
  5
1A3
330
19B
100
AcDbEntity
  8
Layer0
  6
AUSGEZOGEN
 62
    56
370
    18
100
AcDbLine
 10
244.466205874161
 20
18.612541762673
 30
0.0
 11
244.466205874161
 21
158.202541762673
 31
0.0
  0
ENDBLK
  5
19D
330
19B
100
AcDbEntity
  8
0
100
AcDbBlockEnd
  0
BLOCK
  5
1B0
330
1AF
100
AcDbEntity
  8
0
100
AcDbBlockBegin
  2
SECHSK1_nNn04
 70
     0
 10
0.0
 20
0.0
 30
0.0
  3
SECHSK1_nNn04
  1

  0
LINE
  5
1B2
330
1AF
100
AcDbEntity
  8
Stammform
  6
AUSGEZOGEN
 62
    56
370
    18
100
AcDbLine
 10
184.432196800975
 20
89.087508141514
 30
0.0
 11
185.076607048808
 21
89.087508141514
 31
0.0
  0
LINE
  5
1B3
330
1AF
100
AcDbEntity
  8
Layer0
  6
AUSGEZOGEN
 62
     9
370
    18
100
AcDbLine
 10
184.622024458065
 20
88.300148471694
 30
0.0
 11
185.076607048808
 21
89.087508141514
 31
0.0
  0
LINE
  5
1B4
330
1AF
100
AcDbEntity
  8
Layer0
  6
AUSGEZOGEN
 62
     9
370
    18
100
AcDbLine
 10
185.076607048808
 20
89.087508141514
 30
0.0
 11
184.412653839884
 21
90.237508141514
 31
0.0
  0
LINE
  5
1B5
330
1AF
100
AcDbEntity
  8
Layer0
  6
AUSGEZOGEN
 62
     9
370
    18
100
AcDbLine
 10
184.412653839884
 20
90.237508141514
 30
0.0
 11
184.257494091051
 21
90.237508141514
 31
0.0
  0
LINE
  5
1B6
330
1AF
100
AcDbEntity
  8
Layer0
  6
AUSGEZOGEN
 62
     9
370
    18
100
AcDbLine
 10
184.257494091051
 20
92.537508141514
 30
0.0
 11
184.412653839884
 21
92.537508141514
 31
0.0
  0
LINE
  5
1B7
330
1AF
100
AcDbEntity
  8
Layer0
  6
AUSGEZOGEN
 62
     9
370
    18
100
AcDbLine
 10
184.412653839884
 20
92.537508141514
 30
0.0
 11
185.076607048808
 21
93.687508141514
 31
0.0
  0
LINE
  5
1B8
330
1AF
100
AcDbEntity
  8
Layer0
  6
AUSGEZOGEN
 62
     9
370
    18
100
AcDbLine
 10
185.076607048808
 20
93.687508141514
 30
0.0
 11
184.622024458065
 21
94.474867811335
 31
0.0
  0
LINE
  5
1B9
330
1AF
100
AcDbEntity
  8
Stammform
  6
AUSGEZOGEN
 62
    56
370
    18
100
AcDbLine
 10
184.432196800975
 20
93.687508141514
 30
0.0
 11
185.076607048808
 21
93.687508141514
 31
0.0
  0
LINE
  5
1BA
330
1AF
100
AcDbEntity
  8
Stammform
  6
AUSGEZOGEN
 62
    56
370
    18
100
AcDbLine
 10
183.748700630961
 20
91.387508141514
 30
0.0
 11
185.076607048808
 21
91.387508141514
 31
0.0
  0
LINE
  5
1BB
330
1AF
100
AcDbEntity
  8
Layer0
  6
AUSGEZOGEN
 62
     9
370
    18
100
AcDbLine
 10
184.412653839884
 20
90.237508141514
 30
0.0
 11
185.076607048808
 21
91.387508141514
 31
0.0
  0
LINE
  5
1BC
330
1AF
100
AcDbEntity
  8
Layer0
  6
AUSGEZOGEN
 62
     9
370
    18
100
AcDbLine
 10
185.076607048808
 20
91.387508141514
 30
0.0
 11
184.412653839884
 21
92.537508141514
 31
0.0
  0
LINE
  5
1BD
330
1AF
100
AcDbEntity
  8
Layer0
  6
AUSGEZOGEN
 62
     9
370
    18
100
AcDbLine
 10
187.068462288676
 20
87.937508141514
 30
0.0
 11
186.404509079752
 21
86.787508141514
 31
0.0
  0
LINE
  5
1BE
330
1AF
100
AcDbEntity
  8
Layer0
  6
AUSGEZOGEN
 62
     9
370
    18
100
AcDbLine
 10
186.404509079752
 20
86.787508141514
 30
0.0
 11
187.068462288676
 21
85.637508141514
 31
0.0
  0
LINE
  5
1BF
330
1AF
100
AcDbEntity
  8
Layer0
  6
AUSGEZOGEN
 62
     9
370
    18
100
AcDbLine
 10
187.068462288676
 20
85.637508141514
 30
0.0
 11
188.396368706522
 21
85.637508141514
 31
0.0
  0
LINE
  5
1C0
330
1AF
100
AcDbEntity
  8
Layer0
  6
AUSGEZOGEN
 62
     9
370
    18
100
AcDbLine
 10
188.396368706522
 20
85.637508141514
 30
0.0
 11
189.060321915446
 21
86.787508141514
 31
0.0
  0
LINE
  5
1C1
330
1AF
100
AcDbEntity
  8
Layer0
  6
AUSGEZOGEN
 62
     9
370
    18
100
AcDbLine
 10
189.060321915446
 20
86.787508141514
 30
0.0
 11
188.396368706522
 21
87.937508141514
 31
0.0
  0
LINE
  5
1C2
330
1AF
100
AcDbEntity
  8
Layer0
  6
AUSGEZOGEN
 62
     9
370
    18
100
AcDbLine
 10
188.396368706522
 20
87.937508141514
 30
0.0
 11
187.068462288676
 21
87.937508141514
 31
0.0
  0
LINE
  5
1C3
330
1AF
100
AcDbEntity
  8
Stammform
  6
AUSGEZOGEN
 62
    56
370
    18
100
AcDbLine
 10
187.068462288676
 20
87.937508141514
 30
0.0
 11
187.732415497599
 21
86.787508141514
 31
0.0
  0
LINE
  5
1C4
330
1AF
100
AcDbEntity
  8
Stammform
  6
AUSGEZOGEN
 62
    56
370
    18
100
AcDbLine
 10
187.732415497599
 20
86.787508141514
 30
0.0
 11
189.060321915446
 21
86.787508141514
 31
0.0
  0
LINE
  5
1C5
330
1AF
100
AcDbEntity
  8
Stammform
  6
AUSGEZOGEN
 62
    56
370
    18
100
AcDbLine
 10
187.732415497599
 20
86.787508141514
 30
0.0
 11
187.068462288676
 21
85.637508141514
 31
0.0
  0
LINE
  5
1C6
330
1AF
100
AcDbEntity
  8
Stammform
  6
AUSGEZOGEN
 62
    56
370
    18
100
AcDbLine
 10
187.732415497599
 20
89.087508141514
 30
0.0
 11
187.068462288676
 21
87.937508141514
 31
0.0
  0
LINE
  5
1C7
330
1AF
100
AcDbEntity
  8
Stammform
  6
AUSGEZOGEN
 62
    56
370
    18
100
AcDbLine
 10
187.732415497599
 20
89.087508141514
 30
0.0
 11
189.060321915446
 21
89.087508141514
 31
0.0
  0
LINE
  5
1C8
330
1AF
100
AcDbEntity
  8
Stammform
  6
AUSGEZOGEN
 62
    56
370
    18
100
AcDbLine
 10
187.068462288676
 20
90.237508141514
 30
0.0
 11
187.732415497599
 21
89.087508141514
 31
0.0
  0
LINE
  5
1C9
330
1AF
100
AcDbEntity
  8
Layer0
  6
AUSGEZOGEN
 62
     9
370
    18
100
AcDbLine
 10
187.068462288676
 20
90.237508141514
 30
0.0
 11
186.404509079752
 21
89.087508141514
 31
0.0
  0
LINE
  5
1CA
330
1AF
100
AcDbEntity
  8
Layer0
  6
AUSGEZOGEN
 62
     9
370
    18
100
AcDbLine
 10
186.404509079752
 20
89.087508141514
 30
0.0
 11
187.068462288676
 21
87.937508141514
 31
0.0
  0
LINE
  5
1CB
330
1AF
100
AcDbEntity
  8
Layer0
  6
AUSGEZOGEN
 62
     9
370
    18
100
AcDbLine
 10
187.068462288676
 20
87.937508141514
 30
0.0
 11
188.396368706522
 21
87.937508141514
 31
0.0
  0
LINE
  5
1CC
330
1AF
100
AcDbEntity
  8
Layer0
  6
AUSGEZOGEN
 62
     9
370
    18
100
AcDbLine
 10
188.396368706522
 20
87.937508141514
 30
0.0
 11
189.060321915446
 21
89.087508141514
 31
0.0
  0
LINE
  5
1CD
330
1AF
100
AcDbEntity
  8
Layer0
  6
AUSGEZOGEN
 62
     9
370
    18
100
AcDbLine
 10
189.060321915446
 20
89.087508141514
 30
0.0
 11
188.396368706522
 21
90.237508141514
 31
0.0
  0
LINE
  5
1CE
330
1AF
100
AcDbEntity
  8
Layer0
  6
AUSGEZOGEN
 62
     9
370
    18
100
AcDbLine
 10
188.396368706522
 20
90.237508141514
 30
0.0
 11
187.068462288676
 21
90.237508141514
 31
0.0
  0
LINE
  5
1CF
330
1AF
100
AcDbEntity
  8
Layer0
  6
AUSGEZOGEN
 62
     9
370
    18
100
AcDbLine
 10
187.068462288676
 20
94.837508141514
 30
0.0
 11
186.404509079752
 21
93.687508141514
 31
0.0
  0
LINE
  5
1D0
330
1AF
100
AcDbEntity
  8
Layer0
  6
AUSGEZOGEN
 62
     9
370
    18
100
AcDbLine
 10
186.404509079752
 20
93.687508141514
 30
0.0
 11
187.068462288676
 21
92.537508141514
 31
0.0
  0
LINE
  5
1D1
330
1AF
100
AcDbEntity
  8
Layer0
  6
AUSGEZOGEN
 62
     9
370
    18
100
AcDbLine
 10
187.068462288676
 20
92.537508141514
 30
0.0
 11
188.396368706522
 21
92.537508141514
 31
0.0
  0
LINE
  5
1D2
330
1AF
100
AcDbEntity
  8
Layer0
  6
AUSGEZOGEN
 62
     9
370
    18
100
AcDbLine
 10
188.396368706522
 20
92.537508141514
 30
0.0
 11
189.060321915446
 21
93.687508141514
 31
0.0
  0
LINE
  5
1D3
330
1AF
100
AcDbEntity
  8
Layer0
  6
AUSGEZOGEN
 62
     9
370
    18
100
AcDbLine
 10
189.060321915446
 20
93.687508141514
 30
0.0
 11
188.396368706522
 21
94.837508141514
 31
0.0
  0
LINE
  5
1D4
330
1AF
100
AcDbEntity
  8
Layer0
  6
AUSGEZOGEN
 62
     9
370
    18
100
AcDbLine
 10
188.396368706522
 20
94.837508141514
 30
0.0
 11
187.068462288676
 21
94.837508141514
 31
0.0
  0
LINE
  5
1D5
330
1AF
100
AcDbEntity
  8
Stammform
  6
AUSGEZOGEN
 62
    56
370
    18
100
AcDbLine
 10
187.068462288676
 20
94.837508141514
 30
0.0
 11
187.732415497599
 21
93.687508141514
 31
0.0
  0
LINE
  5
1D6
330
1AF
100
AcDbEntity
  8
Stammform
  6
AUSGEZOGEN
 62
    56
370
    18
100
AcDbLine
 10
187.732415497599
 20
93.687508141514
 30
0.0
 11
189.060321915446
 21
93.687508141514
 31
0.0
  0
LINE
  5
1D7
330
1AF
100
AcDbEntity
  8
Stammform
  6
AUSGEZOGEN
 62
    56
370
    18
100
AcDbLine
 10
187.732415497599
 20
93.687508141514
 30
0.0
 11
187.068462288676
 21
92.537508141514
 31
0.0
  0
LINE
  5
1D8
330
1AF
100
AcDbEntity
  8
Stammform
  6
AUSGEZOGEN
 62
    56
370
    18
100
AcDbLine
 10
187.732415497599
 20
91.387508141514
 30
0.0
 11
187.068462288676
 21
90.237508141514
 31
0.0
  0
LINE
  5
1D9
330
1AF
100
AcDbEntity
  8
Stammform
  6
AUSGEZOGEN
 62
    56
370
    18
100
AcDbLine
 10
187.732415497599
 20
91.387508141514
 30
0.0
 11
189.060321915446
 21
91.387508141514
 31
0.0
  0
LINE
  5
1DA
330
1AF
100
AcDbEntity
  8
Stammform
  6
AUSGEZOGEN
 62
    56
370
    18
100
AcDbLine
 10
187.068462288676
 20
92.537508141514
 30
0.0
 11
187.732415497599
 21
91.387508141514
 31
0.0
  0
LINE
  5
1DB
330
1AF
100
AcDbEntity
  8
Layer0
  6
AUSGEZOGEN
 62
     9
370
    18
100
AcDbLine
 10
187.068462288676
 20
92.537508141514
 30
0.0
 11
186.404509079752
 21
91.387508141514
 31
0.0
  0
LINE
  5
1DC
330
1AF
100
AcDbEntity
  8
Layer0
  6
AUSGEZOGEN
 62
     9
370
    18
100
AcDbLine
 10
186.404509079752
 20
91.387508141514
 30
0.0
 11
187.068462288676
 21
90.237508141514
 31
0.0
  0
LINE
  5
1DD
330
1AF
100
AcDbEntity
  8
Layer0
  6
AUSGEZOGEN
 62
     9
370
    18
100
AcDbLine
 10
187.068462288676
 20
90.237508141514
 30
0.0
 11
188.396368706522
 21
90.237508141514
 31
0.0
  0
LINE
  5
1DE
330
1AF
100
AcDbEntity
  8
Layer0
  6
AUSGEZOGEN
 62
     9
370
    18
100
AcDbLine
 10
188.396368706522
 20
90.237508141514
 30
0.0
 11
189.060321915446
 21
91.387508141514
 31
0.0
  0
LINE
  5
1DF
330
1AF
100
AcDbEntity
  8
Layer0
  6
AUSGEZOGEN
 62
     9
370
    18
100
AcDbLine
 10
189.060321915446
 20
91.387508141514
 30
0.0
 11
188.396368706522
 21
92.537508141514
 31
0.0
  0
LINE
  5
1E0
330
1AF
100
AcDbEntity
  8
Layer0
  6
AUSGEZOGEN
 62
     9
370
    18
100
AcDbLine
 10
188.396368706522
 20
92.537508141514
 30
0.0
 11
187.068462288676
 21
92.537508141514
 31
0.0
  0
LINE
  5
1E1
330
1AF
100
AcDbEntity
  8
Layer0
  6
AUSGEZOGEN
 62
     9
370
    18
100
AcDbLine
 10
187.068462288676
 20
97.137508141514
 30
0.0
 11
188.396368706522
 21
97.137508141514
 31
0.0
  0
LINE
  5
1E2
330
1AF
100
AcDbEntity
  8
Layer0
  6
AUSGEZOGEN
 62
     9
370
    18
100
AcDbLine
 10
188.396368706522
 20
97.137508141514
 30
0.0
 11
189.060321915446
 21
98.287508141514
 31
0.0
  0
LINE
  5
1E3
330
1AF
100
AcDbEntity
  8
Layer0
  6
AUSGEZOGEN
 62
     9
370
    18
100
AcDbLine
 10
189.060321915446
 20
98.287508141514
 30
0.0
 11
188.396368706522
 21
99.437508141514
 31
0.0
  0
LINE
  5
1E4
330
1AF
100
AcDbEntity
  8
Layer0
  6
AUSGEZOGEN
 62
     9
370
    18
100
AcDbLine
 10
188.396368706522
 20
99.437508141514
 30
0.0
 11
187.487206924953
 21
99.437508141514
 31
0.0
  0
LINE
  5
1E5
330
1AF
100
AcDbEntity
  8
Stammform
  6
AUSGEZOGEN
 62
    56
370
    18
100
AcDbLine
 10
187.226911131119
 20
99.163066861073
 30
0.0
 11
187.732415497599
 21
98.287508141514
 31
0.0
  0
LINE
  5
1E6
330
1AF
100
AcDbEntity
  8
Stammform
  6
AUSGEZOGEN
 62
    56
370
    18
100
AcDbLine
 10
187.732415497599
 20
98.287508141514
 30
0.0
 11
189.060321915446
 21
98.287508141514
 31
0.0
  0
LINE
  5
1E7
330
1AF
100
AcDbEntity
  8
Stammform
  6
AUSGEZOGEN
 62
    56
370
    18
100
AcDbLine
 10
187.732415497599
 20
98.287508141514
 30
0.0
 11
187.068462288676
 21
97.137508141514
 31
0.0
  0
LINE
  5
1E8
330
1AF
100
AcDbEntity
  8
Stammform
  6
AUSGEZOGEN
 62
    56
370
    18
100
AcDbLine
 10
187.732415497599
 20
95.987508141514
 30
0.0
 11
187.068462288676
 21
94.837508141514
 31
0.0
  0
LINE
  5
1E9
330
1AF
100
AcDbEntity
  8
Stammform
  6
AUSGEZOGEN
 62
    56
370
    18
100
AcDbLine
 10
187.732415497599
 20
95.987508141514
 30
0.0
 11
189.060321915446
 21
95.987508141514
 31
0.0
  0
LINE
  5
1EA
330
1AF
100
AcDbEntity
  8
Stammform
  6
AUSGEZOGEN
 62
    56
370
    18
100
AcDbLine
 10
187.068462288676
 20
97.137508141514
 30
0.0
 11
187.732415497599
 21
95.987508141514
 31
0.0
  0
LINE
  5
1EB
330
1AF
100
AcDbEntity
  8
Layer0
  6
AUSGEZOGEN
 62
     9
370
    18
100
AcDbLine
 10
187.068462288676
 20
97.137508141514
 30
0.0
 11
186.404509079752
 21
95.987508141514
 31
0.0
  0
LINE
  5
1EC
330
1AF
100
AcDbEntity
  8
Layer0
  6
AUSGEZOGEN
 62
     9
370
    18
100
AcDbLine
 10
186.404509079752
 20
95.987508141514
 30
0.0
 11
187.068462288676
 21
94.837508141514
 31
0.0
  0
LINE
  5
1ED
330
1AF
100
AcDbEntity
  8
Layer0
  6
AUSGEZOGEN
 62
     9
370
    18
100
AcDbLine
 10
187.068462288676
 20
94.837508141514
 30
0.0
 11
188.396368706522
 21
94.837508141514
 31
0.0
  0
LINE
  5
1EE
330
1AF
100
AcDbEntity
  8
Layer0
  6
AUSGEZOGEN
 62
     9
370
    18
100
AcDbLine
 10
188.396368706522
 20
94.837508141514
 30
0.0
 11
189.060321915446
 21
95.987508141514
 31
0.0
  0
LINE
  5
1EF
330
1AF
100
AcDbEntity
  8
Layer0
  6
AUSGEZOGEN
 62
     9
370
    18
100
AcDbLine
 10
189.060321915446
 20
95.987508141514
 30
0.0
 11
188.396368706522
 21
97.137508141514
 31
0.0
  0
LINE
  5
1F0
330
1AF
100
AcDbEntity
  8
Layer0
  6
AUSGEZOGEN
 62
     9
370
    18
100
AcDbLine
 10
188.396368706522
 20
97.137508141514
 30
0.0
 11
187.068462288676
 21
97.137508141514
 31
0.0
  0
LINE
  5
1F1
330
1AF
100
AcDbEntity
  8
Stammform
  6
AUSGEZOGEN
 62
    56
370
    18
100
AcDbLine
 10
188.799849617777
 20
100.587508141514
 30
0.0
 11
189.060321915446
 21
100.587508141514
 31
0.0
  0
LINE
  5
1F2
330
1AF
100
AcDbEntity
  8
Layer0
  6
AUSGEZOGEN
 62
     9
370
    18
100
AcDbLine
 10
188.396368706522
 20
99.437508141514
 30
0.0
 11
189.060321915446
 21
100.587508141514
 31
0.0
  0
LINE
  5
1F3
330
1AF
100
AcDbEntity
  8
Layer0
  6
AUSGEZOGEN
 62
     9
370
    18
100
AcDbLine
 10
188.98274288499
 20
82.053137399984
 30
0.0
 11
189.060321915446
 21
82.187508141514
 31
0.0
  0
LINE
  5
1F4
330
1AF
100
AcDbEntity
  8
Layer0
  6
AUSGEZOGEN
 62
     9
370
    18
100
AcDbLine
 10
189.060321915446
 20
82.187508141514
 30
0.0
 11
188.396368706522
 21
83.337508141514
 31
0.0
  0
LINE
  5
1F5
330
1AF
100
AcDbEntity
  8
Layer0
  6
AUSGEZOGEN
 62
     9
370
    18
100
AcDbLine
 10
188.396368706522
 20
83.337508141514
 30
0.0
 11
187.487206924953
 21
83.337508141514
 31
0.0
  0
LINE
  5
1F6
330
1AF
100
AcDbEntity
  8
Stammform
  6
AUSGEZOGEN
 62
    56
370
    18
100
AcDbLine
 10
188.799849617777
 20
82.187508141514
 30
0.0
 11
189.060321915446
 21
82.187508141514
 31
0.0
  0
LINE
  5
1F7
330
1AF
100
AcDbEntity
  8
Stammform
  6
AUSGEZOGEN
 62
    56
370
    18
100
AcDbLine
 10
187.732415497599
 20
84.487508141514
 30
0.0
 11
187.226911131119
 21
83.611949421956
 31
0.0
  0
LINE
  5
1F8
330
1AF
100
AcDbEntity
  8
Stammform
  6
AUSGEZOGEN
 62
    56
370
    18
100
AcDbLine
 10
187.732415497599
 20
84.487508141514
 30
0.0
 11
189.060321915446
 21
84.487508141514
 31
0.0
  0
LINE
  5
1F9
330
1AF
100
AcDbEntity
  8
Stammform
  6
AUSGEZOGEN
 62
    56
370
    18
100
AcDbLine
 10
187.068462288676
 20
85.637508141514
 30
0.0
 11
187.732415497599
 21
84.487508141514
 31
0.0
  0
LINE
  5
1FA
330
1AF
100
AcDbEntity
  8
Layer0
  6
AUSGEZOGEN
 62
     9
370
    18
100
AcDbLine
 10
187.068462288676
 20
85.637508141514
 30
0.0
 11
186.446170049722
 21
84.559667014792
 31
0.0
  0
LINE
  5
1FB
330
1AF
100
AcDbEntity
  8
Layer0
  6
AUSGEZOGEN
 62
     9
370
    18
100
AcDbLine
 10
188.396368706522
 20
83.337508141514
 30
0.0
 11
189.060321915446
 21
84.487508141514
 31
0.0
  0
LINE
  5
1FC
330
1AF
100
AcDbEntity
  8
Layer0
  6
AUSGEZOGEN
 62
     9
370
    18
100
AcDbLine
 10
189.060321915446
 20
84.487508141514
 30
0.0
 11
188.396368706522
 21
85.637508141514
 31
0.0
  0
LINE
  5
1FD
330
1AF
100
AcDbEntity
  8
Layer0
  6
AUSGEZOGEN
 62
     9
370
    18
100
AcDbLine
 10
188.396368706522
 20
85.637508141514
 30
0.0
 11
187.068462288676
 21
85.637508141514
 31
0.0
  0
LINE
  5
1FE
330
1AF
100
AcDbEntity
  8
Layer0
  6
AUSGEZOGEN
 62
     9
370
    18
100
AcDbLine
 10
185.076607048808
 20
93.687508141514
 30
0.0
 11
186.404509079752
 21
93.687508141514
 31
0.0
  0
LINE
  5
1FF
330
1AF
100
AcDbEntity
  8
Layer0
  6
AUSGEZOGEN
 62
     9
370
    18
100
AcDbLine
 10
186.404509079752
 20
93.687508141514
 30
0.0
 11
187.068462288676
 21
94.837508141514
 31
0.0
  0
LINE
  5
200
330
1AF
100
AcDbEntity
  8
Layer0
  6
AUSGEZOGEN
 62
     9
370
    18
100
AcDbLine
 10
187.068462288676
 20
94.837508141514
 30
0.0
 11
186.404509079752
 21
95.987508141514
 31
0.0
  0
LINE
  5
201
330
1AF
100
AcDbEntity
  8
Layer0
  6
AUSGEZOGEN
 62
     9
370
    18
100
AcDbLine
 10
186.404509079752
 20
95.987508141514
 30
0.0
 11
185.159925519379
 21
95.987508141514
 31
0.0
  0
LINE
  5
202
330
1AF
100
AcDbEntity
  8
Stammform
  6
AUSGEZOGEN
 62
    56
370
    18
100
AcDbLine
 10
185.124275223749
 20
95.904943944751
 30
0.0
 11
185.740555870829
 21
94.837508141514
 31
0.0
  0
LINE
  5
203
330
1AF
100
AcDbEntity
  8
Stammform
  6
AUSGEZOGEN
 62
    56
370
    18
100
AcDbLine
 10
185.740555870829
 20
94.837508141514
 30
0.0
 11
187.068462288676
 21
94.837508141514
 31
0.0
  0
LINE
  5
204
330
1AF
100
AcDbEntity
  8
Stammform
  6
AUSGEZOGEN
 62
    56
370
    18
100
AcDbLine
 10
185.740555870829
 20
94.837508141514
 30
0.0
 11
185.076607048808
 21
93.687508141514
 31
0.0
  0
LINE
  5
205
330
1AF
100
AcDbEntity
  8
Stammform
  6
AUSGEZOGEN
 62
    56
370
    18
100
AcDbLine
 10
185.740557474256
 20
97.137508141514
 30
0.0
 11
187.068462288676
 21
97.137508141514
 31
0.0
  0
LINE
  5
206
330
1AF
100
AcDbEntity
  8
Layer0
  6
AUSGEZOGEN
 62
     9
370
    18
100
AcDbLine
 10
186.404509079752
 20
95.987508141514
 30
0.0
 11
187.068462288676
 21
97.137508141514
 31
0.0
  0
LINE
  5
207
330
1AF
100
AcDbEntity
  8
Layer0
  6
AUSGEZOGEN
 62
     9
370
    18
100
AcDbLine
 10
187.068462288676
 20
97.137508141514
 30
0.0
 11
186.446170049722
 21
98.215349268237
 31
0.0
  0
LINE
  5
208
330
1AF
100
AcDbEntity
  8
Layer0
  6
AUSGEZOGEN
 62
     9
370
    18
100
AcDbLine
 10
185.076607048808
 20
91.387508141514
 30
0.0
 11
184.412653839884
 21
90.237508141514
 31
0.0
  0
LINE
  5
209
330
1AF
100
AcDbEntity
  8
Layer0
  6
AUSGEZOGEN
 62
     9
370
    18
100
AcDbLine
 10
184.412653839884
 20
90.237508141514
 30
0.0
 11
185.076607048808
 21
89.087508141514
 31
0.0
  0
LINE
  5
20A
330
1AF
100
AcDbEntity
  8
Layer0
  6
AUSGEZOGEN
 62
     9
370
    18
100
AcDbLine
 10
185.076607048808
 20
89.087508141514
 30
0.0
 11
186.404509079752
 21
89.087508141514
 31
0.0
  0
LINE
  5
20B
330
1AF
100
AcDbEntity
  8
Layer0
  6
AUSGEZOGEN
 62
     9
370
    18
100
AcDbLine
 10
186.404509079752
 20
89.087508141514
 30
0.0
 11
187.068462288676
 21
90.237508141514
 31
0.0
  0
LINE
  5
20C
330
1AF
100
AcDbEntity
  8
Layer0
  6
AUSGEZOGEN
 62
     9
370
    18
100
AcDbLine
 10
187.068462288676
 20
90.237508141514
 30
0.0
 11
186.404509079752
 21
91.387508141514
 31
0.0
  0
LINE
  5
20D
330
1AF
100
AcDbEntity
  8
Layer0
  6
AUSGEZOGEN
 62
     9
370
    18
100
AcDbLine
 10
186.404509079752
 20
91.387508141514
 30
0.0
 11
185.076607048808
 21
91.387508141514
 31
0.0
  0
LINE
  5
20E
330
1AF
100
AcDbEntity
  8
Stammform
  6
AUSGEZOGEN
 62
    56
370
    18
100
AcDbLine
 10
185.076607048808
 20
91.387508141514
 30
0.0
 11
185.740555870829
 21
90.237508141514
 31
0.0
  0
LINE
  5
20F
330
1AF
100
AcDbEntity
  8
Stammform
  6
AUSGEZOGEN
 62
    56
370
    18
100
AcDbLine
 10
185.740555870829
 20
90.237508141514
 30
0.0
 11
187.068462288676
 21
90.237508141514
 31
0.0
  0
LINE
  5
210
330
1AF
100
AcDbEntity
  8
Stammform
  6
AUSGEZOGEN
 62
    56
370
    18
100
AcDbLine
 10
185.740555870829
 20
90.237508141514
 30
0.0
 11
185.076607048808
 21
89.087508141514
 31
0.0
  0
LINE
  5
211
330
1AF
100
AcDbEntity
  8
Stammform
  6
AUSGEZOGEN
 62
    56
370
    18
100
AcDbLine
 10
185.740555870829
 20
92.537508141514
 30
0.0
 11
185.076607048808
 21
91.387508141514
 31
0.0
  0
LINE
  5
212
330
1AF
100
AcDbEntity
  8
Stammform
  6
AUSGEZOGEN
 62
    56
370
    18
100
AcDbLine
 10
185.740555870829
 20
92.537508141514
 30
0.0
 11
187.068462288676
 21
92.537508141514
 31
0.0
  0
LINE
  5
213
330
1AF
100
AcDbEntity
  8
Stammform
  6
AUSGEZOGEN
 62
    56
370
    18
100
AcDbLine
 10
185.076607048808
 20
93.687508141514
 30
0.0
 11
185.740555870829
 21
92.537508141514
 31
0.0
  0
LINE
  5
214
330
1AF
100
AcDbEntity
  8
Layer0
  6
AUSGEZOGEN
 62
     9
370
    18
100
AcDbLine
 10
185.076607048808
 20
93.687508141514
 30
0.0
 11
184.412653839884
 21
92.537508141514
 31
0.0
  0
LINE
  5
215
330
1AF
100
AcDbEntity
  8
Layer0
  6
AUSGEZOGEN
 62
     9
370
    18
100
AcDbLine
 10
184.412653839884
 20
92.537508141514
 30
0.0
 11
185.076607048808
 21
91.387508141514
 31
0.0
  0
LINE
  5
216
330
1AF
100
AcDbEntity
  8
Layer0
  6
AUSGEZOGEN
 62
     9
370
    18
100
AcDbLine
 10
185.076607048808
 20
91.387508141514
 30
0.0
 11
186.404509079752
 21
91.387508141514
 31
0.0
  0
LINE
  5
217
330
1AF
100
AcDbEntity
  8
Layer0
  6
AUSGEZOGEN
 62
     9
370
    18
100
AcDbLine
 10
186.404509079752
 20
91.387508141514
 30
0.0
 11
187.068462288676
 21
92.537508141514
 31
0.0
  0
LINE
  5
218
330
1AF
100
AcDbEntity
  8
Layer0
  6
AUSGEZOGEN
 62
     9
370
    18
100
AcDbLine
 10
187.068462288676
 20
92.537508141514
 30
0.0
 11
186.404509079752
 21
93.687508141514
 31
0.0
  0
LINE
  5
219
330
1AF
100
AcDbEntity
  8
Layer0
  6
AUSGEZOGEN
 62
     9
370
    18
100
AcDbLine
 10
186.404509079752
 20
93.687508141514
 30
0.0
 11
185.076607048808
 21
93.687508141514
 31
0.0
  0
LINE
  5
21A
330
1AF
100
AcDbEntity
  8
Layer0
  6
AUSGEZOGEN
 62
     9
370
    18
100
AcDbLine
 10
185.159925519379
 20
86.787508141514
 30
0.0
 11
186.404509079752
 21
86.787508141514
 31
0.0
  0
LINE
  5
21B
330
1AF
100
AcDbEntity
  8
Layer0
  6
AUSGEZOGEN
 62
     9
370
    18
100
AcDbLine
 10
186.404509079752
 20
86.787508141514
 30
0.0
 11
187.068462288676
 21
87.937508141514
 31
0.0
  0
LINE
  5
21C
330
1AF
100
AcDbEntity
  8
Layer0
  6
AUSGEZOGEN
 62
     9
370
    18
100
AcDbLine
 10
187.068462288676
 20
87.937508141514
 30
0.0
 11
186.404509079752
 21
89.087508141514
 31
0.0
  0
LINE
  5
21D
330
1AF
100
AcDbEntity
  8
Layer0
  6
AUSGEZOGEN
 62
     9
370
    18
100
AcDbLine
 10
186.404509079752
 20
89.087508141514
 30
0.0
 11
185.076607048808
 21
89.087508141514
 31
0.0
  0
LINE
  5
21E
330
1AF
100
AcDbEntity
  8
Stammform
  6
AUSGEZOGEN
 62
    56
370
    18
100
AcDbLine
 10
185.076607048808
 20
89.087508141514
 30
0.0
 11
185.740555870829
 21
87.937508141514
 31
0.0
  0
LINE
  5
21F
330
1AF
100
AcDbEntity
  8
Stammform
  6
AUSGEZOGEN
 62
    56
370
    18
100
AcDbLine
 10
185.740555870829
 20
87.937508141514
 30
0.0
 11
187.068462288676
 21
87.937508141514
 31
0.0
  0
LINE
  5
220
330
1AF
100
AcDbEntity
  8
Stammform
  6
AUSGEZOGEN
 62
    56
370
    18
100
AcDbLine
 10
185.740555870829
 20
87.937508141514
 30
0.0
 11
185.124275223749
 21
86.870072338278
 31
0.0
  0
LINE
  5
221
330
1AF
100
AcDbEntity
  8
Stammform
  6
AUSGEZOGEN
 62
    56
370
    18
100
AcDbLine
 10
185.740555870829
 20
85.637508141514
 30
0.0
 11
187.068462288676
 21
85.637508141514
 31
0.0
  0
LINE
  5
222
330
1AF
100
AcDbEntity
  8
Layer0
  6
AUSGEZOGEN
 62
     9
370
    18
100
AcDbLine
 10
187.068462288676
 20
85.637508141514
 30
0.0
 11
186.404509079752
 21
86.787508141514
 31
0.0
  0
LINE
  5
223
330
1AF
100
AcDbEntity
  8
Layer0
  6
AUSGEZOGEN
 62
     9
370
    18
100
AcDbLine
 10
186.404509079752
 20
86.787508141514
 30
0.0
 11
185.076607048808
 21
86.787508141514
 31
0.0
  0
LINE
  5
224
330
1AF
100
AcDbEntity
  8
Layer0
  6
AUSGEZOGEN
 62
     9
370
    18
100
AcDbLine
 10
191.052181542216
 20
87.937508141514
 30
0.0
 11
190.388228333292
 21
86.787508141514
 31
0.0
  0
LINE
  5
225
330
1AF
100
AcDbEntity
  8
Layer0
  6
AUSGEZOGEN
 62
     9
370
    18
100
AcDbLine
 10
190.388228333292
 20
86.787508141514
 30
0.0
 11
191.052181542216
 21
85.637508141514
 31
0.0
  0
LINE
  5
226
330
1AF
100
AcDbEntity
  8
Layer0
  6
AUSGEZOGEN
 62
     9
370
    18
100
AcDbLine
 10
191.052181542216
 20
85.637508141514
 30
0.0
 11
192.380087960062
 21
85.637508141514
 31
0.0
  0
LINE
  5
227
330
1AF
100
AcDbEntity
  8
Layer0
  6
AUSGEZOGEN
 62
     9
370
    18
100
AcDbLine
 10
192.380087960062
 20
85.637508141514
 30
0.0
 11
193.044036782084
 21
86.787508141514
 31
0.0
  0
LINE
  5
228
330
1AF
100
AcDbEntity
  8
Layer0
  6
AUSGEZOGEN
 62
     9
370
    18
100
AcDbLine
 10
193.044036782084
 20
86.787508141514
 30
0.0
 11
192.380087960062
 21
87.937508141514
 31
0.0
  0
LINE
  5
229
330
1AF
100
AcDbEntity
  8
Layer0
  6
AUSGEZOGEN
 62
     9
370
    18
100
AcDbLine
 10
192.380087960062
 20
87.937508141514
 30
0.0
 11
191.052181542216
 21
87.937508141514
 31
0.0
  0
LINE
  5
22A
330
1AF
100
AcDbEntity
  8
Stammform
  6
AUSGEZOGEN
 62
    56
370
    18
100
AcDbLine
 10
191.052181542216
 20
87.937508141514
 30
0.0
 11
191.716134751139
 21
86.787508141514
 31
0.0
  0
LINE
  5
22B
330
1AF
100
AcDbEntity
  8
Stammform
  6
AUSGEZOGEN
 62
    56
370
    18
100
AcDbLine
 10
191.716134751139
 20
86.787508141514
 30
0.0
 11
193.044036782084
 21
86.787508141514
 31
0.0
  0
LINE
  5
22C
330
1AF
100
AcDbEntity
  8
Stammform
  6
AUSGEZOGEN
 62
    56
370
    18
100
AcDbLine
 10
191.716134751139
 20
86.787508141514
 30
0.0
 11
191.052181542216
 21
85.637508141514
 31
0.0
  0
LINE
  5
22D
330
1AF
100
AcDbEntity
  8
Stammform
  6
AUSGEZOGEN
 62
    56
370
    18
100
AcDbLine
 10
191.716134751139
 20
89.087508141514
 30
0.0
 11
191.052181542216
 21
87.937508141514
 31
0.0
  0
LINE
  5
22E
330
1AF
100
AcDbEntity
  8
Stammform
  6
AUSGEZOGEN
 62
    56
370
    18
100
AcDbLine
 10
191.716134751139
 20
89.087508141514
 30
0.0
 11
193.044036782084
 21
89.087508141514
 31
0.0
  0
LINE
  5
22F
330
1AF
100
AcDbEntity
  8
Stammform
  6
AUSGEZOGEN
 62
    56
370
    18
100
AcDbLine
 10
191.052181542216
 20
90.237508141514
 30
0.0
 11
191.716134751139
 21
89.087508141514
 31
0.0
  0
LINE
  5
230
330
1AF
100
AcDbEntity
  8
Layer0
  6
AUSGEZOGEN
 62
     9
370
    18
100
AcDbLine
 10
191.052181542216
 20
90.237508141514
 30
0.0
 11
190.388228333292
 21
89.087508141514
 31
0.0
  0
LINE
  5
231
330
1AF
100
AcDbEntity
  8
Layer0
  6
AUSGEZOGEN
 62
     9
370
    18
100
AcDbLine
 10
190.388228333292
 20
89.087508141514
 30
0.0
 11
191.052181542216
 21
87.937508141514
 31
0.0
  0
LINE
  5
232
330
1AF
100
AcDbEntity
  8
Layer0
  6
AUSGEZOGEN
 62
     9
370
    18
100
AcDbLine
 10
191.052181542216
 20
87.937508141514
 30
0.0
 11
192.380087960062
 21
87.937508141514
 31
0.0
  0
LINE
  5
233
330
1AF
100
AcDbEntity
  8
Layer0
  6
AUSGEZOGEN
 62
     9
370
    18
100
AcDbLine
 10
192.380087960062
 20
87.937508141514
 30
0.0
 11
193.044036782084
 21
89.087508141514
 31
0.0
  0
LINE
  5
234
330
1AF
100
AcDbEntity
  8
Layer0
  6
AUSGEZOGEN
 62
     9
370
    18
100
AcDbLine
 10
193.044036782084
 20
89.087508141514
 30
0.0
 11
192.380087960062
 21
90.237508141514
 31
0.0
  0
LINE
  5
235
330
1AF
100
AcDbEntity
  8
Layer0
  6
AUSGEZOGEN
 62
     9
370
    18
100
AcDbLine
 10
192.380087960062
 20
90.237508141514
 30
0.0
 11
191.052181542216
 21
90.237508141514
 31
0.0
  0
LINE
  5
236
330
1AF
100
AcDbEntity
  8
Layer0
  6
AUSGEZOGEN
 62
     9
370
    18
100
AcDbLine
 10
191.052181542216
 20
94.837508141514
 30
0.0
 11
190.388228333292
 21
93.687508141514
 31
0.0
  0
LINE
  5
237
330
1AF
100
AcDbEntity
  8
Layer0
  6
AUSGEZOGEN
 62
     9
370
    18
100
AcDbLine
 10
190.388228333292
 20
93.687508141514
 30
0.0
 11
191.052181542216
 21
92.537508141514
 31
0.0
  0
LINE
  5
238
330
1AF
100
AcDbEntity
  8
Layer0
  6
AUSGEZOGEN
 62
     9
370
    18
100
AcDbLine
 10
191.052181542216
 20
92.537508141514
 30
0.0
 11
192.380087960062
 21
92.537508141514
 31
0.0
  0
LINE
  5
239
330
1AF
100
AcDbEntity
  8
Layer0
  6
AUSGEZOGEN
 62
     9
370
    18
100
AcDbLine
 10
192.380087960062
 20
92.537508141514
 30
0.0
 11
193.044036782084
 21
93.687508141514
 31
0.0
  0
LINE
  5
23A
330
1AF
100
AcDbEntity
  8
Layer0
  6
AUSGEZOGEN
 62
     9
370
    18
100
AcDbLine
 10
193.044036782084
 20
93.687508141514
 30
0.0
 11
192.380087960062
 21
94.837508141514
 31
0.0
  0
LINE
  5
23B
330
1AF
100
AcDbEntity
  8
Layer0
  6
AUSGEZOGEN
 62
     9
370
    18
100
AcDbLine
 10
192.380087960062
 20
94.837508141514
 30
0.0
 11
191.052181542216
 21
94.837508141514
 31
0.0
  0
LINE
  5
23C
330
1AF
100
AcDbEntity
  8
Stammform
  6
AUSGEZOGEN
 62
    56
370
    18
100
AcDbLine
 10
191.052181542216
 20
94.837508141514
 30
0.0
 11
191.716134751139
 21
93.687508141514
 31
0.0
  0
LINE
  5
23D
330
1AF
100
AcDbEntity
  8
Stammform
  6
AUSGEZOGEN
 62
    56
370
    18
100
AcDbLine
 10
191.716134751139
 20
93.687508141514
 30
0.0
 11
193.044036782084
 21
93.687508141514
 31
0.0
  0
LINE
  5
23E
330
1AF
100
AcDbEntity
  8
Stammform
  6
AUSGEZOGEN
 62
    56
370
    18
100
AcDbLine
 10
191.716134751139
 20
93.687508141514
 30
0.0
 11
191.052181542216
 21
92.537508141514
 31
0.0
  0
LINE
  5
23F
330
1AF
100
AcDbEntity
  8
Stammform
  6
AUSGEZOGEN
 62
    56
370
    18
100
AcDbLine
 10
191.716134751139
 20
91.387508141514
 30
0.0
 11
191.052181542216
 21
90.237508141514
 31
0.0
  0
LINE
  5
240
330
1AF
100
AcDbEntity
  8
Stammform
  6
AUSGEZOGEN
 62
    56
370
    18
100
AcDbLine
 10
191.716134751139
 20
91.387508141514
 30
0.0
 11
193.044036782084
 21
91.387508141514
 31
0.0
  0
LINE
  5
241
330
1AF
100
AcDbEntity
  8
Stammform
  6
AUSGEZOGEN
 62
    56
370
    18
100
AcDbLine
 10
191.052181542216
 20
92.537508141514
 30
0.0
 11
191.716134751139
 21
91.387508141514
 31
0.0
  0
LINE
  5
242
330
1AF
100
AcDbEntity
  8
Layer0
  6
AUSGEZOGEN
 62
     9
370
    18
100
AcDbLine
 10
191.052181542216
 20
92.537508141514
 30
0.0
 11
190.388228333292
 21
91.387508141514
 31
0.0
  0
LINE
  5
243
330
1AF
100
AcDbEntity
  8
Layer0
  6
AUSGEZOGEN
 62
     9
370
    18
100
AcDbLine
 10
190.388228333292
 20
91.387508141514
 30
0.0
 11
191.052181542216
 21
90.237508141514
 31
0.0
  0
LINE
  5
244
330
1AF
100
AcDbEntity
  8
Layer0
  6
AUSGEZOGEN
 62
     9
370
    18
100
AcDbLine
 10
191.052181542216
 20
90.237508141514
 30
0.0
 11
192.380087960062
 21
90.237508141514
 31
0.0
  0
LINE
  5
245
330
1AF
100
AcDbEntity
  8
Layer0
  6
AUSGEZOGEN
 62
     9
370
    18
100
AcDbLine
 10
192.380087960062
 20
90.237508141514
 30
0.0
 11
193.044036782084
 21
91.387508141514
 31
0.0
  0
LINE
  5
246
330
1AF
100
AcDbEntity
  8
Layer0
  6
AUSGEZOGEN
 62
     9
370
    18
100
AcDbLine
 10
193.044036782084
 20
91.387508141514
 30
0.0
 11
192.380087960062
 21
92.537508141514
 31
0.0
  0
LINE
  5
247
330
1AF
100
AcDbEntity
  8
Layer0
  6
AUSGEZOGEN
 62
     9
370
    18
100
AcDbLine
 10
192.380087960062
 20
92.537508141514
 30
0.0
 11
191.052181542216
 21
92.537508141514
 31
0.0
  0
LINE
  5
248
330
1AF
100
AcDbEntity
  8
Layer0
  6
AUSGEZOGEN
 62
     9
370
    18
100
AcDbLine
 10
191.052181542216
 20
99.437508141514
 30
0.0
 11
190.388228333292
 21
98.287508141514
 31
0.0
  0
LINE
  5
249
330
1AF
100
AcDbEntity
  8
Layer0
  6
AUSGEZOGEN
 62
     9
370
    18
100
AcDbLine
 10
190.388228333292
 20
98.287508141514
 30
0.0
 11
191.052181542216
 21
97.137508141514
 31
0.0
  0
LINE
  5
24A
330
1AF
100
AcDbEntity
  8
Layer0
  6
AUSGEZOGEN
 62
     9
370
    18
100
AcDbLine
 10
191.052181542216
 20
97.137508141514
 30
0.0
 11
192.380087960062
 21
97.137508141514
 31
0.0
  0
LINE
  5
24B
330
1AF
100
AcDbEntity
  8
Layer0
  6
AUSGEZOGEN
 62
     9
370
    18
100
AcDbLine
 10
192.380087960062
 20
97.137508141514
 30
0.0
 11
193.044036782084
 21
98.287508141514
 31
0.0
  0
LINE
  5
24C
330
1AF
100
AcDbEntity
  8
Layer0
  6
AUSGEZOGEN
 62
     9
370
    18
100
AcDbLine
 10
193.044036782084
 20
98.287508141514
 30
0.0
 11
192.380087960062
 21
99.437508141514
 31
0.0
  0
LINE
  5
24D
330
1AF
100
AcDbEntity
  8
Layer0
  6
AUSGEZOGEN
 62
     9
370
    18
100
AcDbLine
 10
192.380087960062
 20
99.437508141514
 30
0.0
 11
191.052181542216
 21
99.437508141514
 31
0.0
  0
LINE
  5
24E
330
1AF
100
AcDbEntity
  8
Stammform
  6
AUSGEZOGEN
 62
    56
370
    18
100
AcDbLine
 10
191.052181542216
 20
99.437508141514
 30
0.0
 11
191.716134751139
 21
98.287508141514
 31
0.0
  0
LINE
  5
24F
330
1AF
100
AcDbEntity
  8
Stammform
  6
AUSGEZOGEN
 62
    56
370
    18
100
AcDbLine
 10
191.716134751139
 20
98.287508141514
 30
0.0
 11
193.044036782084
 21
98.287508141514
 31
0.0
  0
LINE
  5
250
330
1AF
100
AcDbEntity
  8
Stammform
  6
AUSGEZOGEN
 62
    56
370
    18
100
AcDbLine
 10
191.716134751139
 20
98.287508141514
 30
0.0
 11
191.052181542216
 21
97.137508141514
 31
0.0
  0
LINE
  5
251
330
1AF
100
AcDbEntity
  8
Stammform
  6
AUSGEZOGEN
 62
    56
370
    18
100
AcDbLine
 10
191.716134751139
 20
95.987508141514
 30
0.0
 11
191.052181542216
 21
94.837508141514
 31
0.0
  0
LINE
  5
252
330
1AF
100
AcDbEntity
  8
Stammform
  6
AUSGEZOGEN
 62
    56
370
    18
100
AcDbLine
 10
191.716134751139
 20
95.987508141514
 30
0.0
 11
193.044036782084
 21
95.987508141514
 31
0.0
  0
LINE
  5
253
330
1AF
100
AcDbEntity
  8
Stammform
  6
AUSGEZOGEN
 62
    56
370
    18
100
AcDbLine
 10
191.052181542216
 20
97.137508141514
 30
0.0
 11
191.716134751139
 21
95.987508141514
 31
0.0
  0
LINE
  5
254
330
1AF
100
AcDbEntity
  8
Layer0
  6
AUSGEZOGEN
 62
     9
370
    18
100
AcDbLine
 10
191.052181542216
 20
97.137508141514
 30
0.0
 11
190.388228333292
 21
95.987508141514
 31
0.0
  0
LINE
  5
255
330
1AF
100
AcDbEntity
  8
Layer0
  6
AUSGEZOGEN
 62
     9
370
    18
100
AcDbLine
 10
190.388228333292
 20
95.987508141514
 30
0.0
 11
191.052181542216
 21
94.837508141514
 31
0.0
  0
LINE
  5
256
330
1AF
100
AcDbEntity
  8
Layer0
  6
AUSGEZOGEN
 62
     9
370
    18
100
AcDbLine
 10
191.052181542216
 20
94.837508141514
 30
0.0
 11
192.380087960062
 21
94.837508141514
 31
0.0
  0
LINE
  5
257
330
1AF
100
AcDbEntity
  8
Layer0
  6
AUSGEZOGEN
 62
     9
370
    18
100
AcDbLine
 10
192.380087960062
 20
94.837508141514
 30
0.0
 11
193.044036782084
 21
95.987508141514
 31
0.0
  0
LINE
  5
258
330
1AF
100
AcDbEntity
  8
Layer0
  6
AUSGEZOGEN
 62
     9
370
    18
100
AcDbLine
 10
193.044036782084
 20
95.987508141514
 30
0.0
 11
192.380087960062
 21
97.137508141514
 31
0.0
  0
LINE
  5
259
330
1AF
100
AcDbEntity
  8
Layer0
  6
AUSGEZOGEN
 62
     9
370
    18
100
AcDbLine
 10
192.380087960062
 20
97.137508141514
 30
0.0
 11
191.052181542216
 21
97.137508141514
 31
0.0
  0
LINE
  5
25A
330
1AF
100
AcDbEntity
  8
Layer0
  6
AUSGEZOGEN
 62
     9
370
    18
100
AcDbLine
 10
191.052181542216
 20
101.737508141514
 30
0.0
 11
192.380087960062
 21
101.737508141514
 31
0.0
  0
LINE
  5
25B
330
1AF
100
AcDbEntity
  8
Layer0
  6
AUSGEZOGEN
 62
     9
370
    18
100
AcDbLine
 10
192.380087960062
 20
101.737508141514
 30
0.0
 11
192.834666064438
 21
102.524865242985
 31
0.0
  0
LINE
  5
25C
330
1AF
100
AcDbEntity
  8
Stammform
  6
AUSGEZOGEN
 62
    56
370
    18
100
AcDbLine
 10
191.182418119303
 20
101.963084374354
 30
0.0
 11
191.052181542216
 21
101.737508141514
 31
0.0
  0
LINE
  5
25D
330
1AF
100
AcDbEntity
  8
Stammform
  6
AUSGEZOGEN
 62
    56
370
    18
100
AcDbLine
 10
191.716134751139
 20
100.587508141514
 30
0.0
 11
191.052181542216
 21
99.437508141514
 31
0.0
  0
LINE
  5
25E
330
1AF
100
AcDbEntity
  8
Stammform
  6
AUSGEZOGEN
 62
    56
370
    18
100
AcDbLine
 10
191.716134751139
 20
100.587508141514
 30
0.0
 11
193.044036782084
 21
100.587508141514
 31
0.0
  0
LINE
  5
25F
330
1AF
100
AcDbEntity
  8
Stammform
  6
AUSGEZOGEN
 62
    56
370
    18
100
AcDbLine
 10
191.052181542216
 20
101.737508141514
 30
0.0
 11
191.716134751139
 21
100.587508141514
 31
0.0
  0
LINE
  5
260
330
1AF
100
AcDbEntity
  8
Layer0
  6
AUSGEZOGEN
 62
     9
370
    18
100
AcDbLine
 10
191.052181542216
 20
101.737508141514
 30
0.0
 11
190.388228333292
 21
100.587508141514
 31
0.0
  0
LINE
  5
261
330
1AF
100
AcDbEntity
  8
Layer0
  6
AUSGEZOGEN
 62
     9
370
    18
100
AcDbLine
 10
190.388228333292
 20
100.587508141514
 30
0.0
 11
191.052181542216
 21
99.437508141514
 31
0.0
  0
LINE
  5
262
330
1AF
100
AcDbEntity
  8
Layer0
  6
AUSGEZOGEN
 62
     9
370
    18
100
AcDbLine
 10
191.052181542216
 20
99.437508141514
 30
0.0
 11
192.380087960062
 21
99.437508141514
 31
0.0
  0
LINE
  5
263
330
1AF
100
AcDbEntity
  8
Layer0
  6
AUSGEZOGEN
 62
     9
370
    18
100
AcDbLine
 10
192.380087960062
 20
99.437508141514
 30
0.0
 11
193.044036782084
 21
100.587508141514
 31
0.0
  0
LINE
  5
264
330
1AF
100
AcDbEntity
  8
Layer0
  6
AUSGEZOGEN
 62
     9
370
    18
100
AcDbLine
 10
193.044036782084
 20
100.587508141514
 30
0.0
 11
192.380087960062
 21
101.737508141514
 31
0.0
  0
LINE
  5
265
330
1AF
100
AcDbEntity
  8
Layer0
  6
AUSGEZOGEN
 62
     9
370
    18
100
AcDbLine
 10
192.380087960062
 20
101.737508141514
 30
0.0
 11
191.052181542216
 21
101.737508141514
 31
0.0
  0
LINE
  5
266
330
1AF
100
AcDbEntity
  8
Layer0
  6
AUSGEZOGEN
 62
     9
370
    18
100
AcDbLine
 10
191.052181542216
 20
83.337508141514
 30
0.0
 11
190.388228333292
 21
82.187508141514
 31
0.0
  0
LINE
  5
267
330
1AF
100
AcDbEntity
  8
Layer0
  6
AUSGEZOGEN
 62
     9
370
    18
100
AcDbLine
 10
190.388228333292
 20
82.187508141514
 30
0.0
 11
191.052181542216
 21
81.037508141514
 31
0.0
  0
LINE
  5
268
330
1AF
100
AcDbEntity
  8
Layer0
  6
AUSGEZOGEN
 62
     9
370
    18
100
AcDbLine
 10
191.052181542216
 20
81.037508141514
 30
0.0
 11
192.380087960062
 21
81.037508141514
 31
0.0
  0
LINE
  5
269
330
1AF
100
AcDbEntity
  8
Layer0
  6
AUSGEZOGEN
 62
     9
370
    18
100
AcDbLine
 10
192.380087960062
 20
81.037508141514
 30
0.0
 11
193.044036782084
 21
82.187508141514
 31
0.0
  0
LINE
  5
26A
330
1AF
100
AcDbEntity
  8
Layer0
  6
AUSGEZOGEN
 62
     9
370
    18
100
AcDbLine
 10
193.044036782084
 20
82.187508141514
 30
0.0
 11
192.380087960062
 21
83.337508141514
 31
0.0
  0
LINE
  5
26B
330
1AF
100
AcDbEntity
  8
Layer0
  6
AUSGEZOGEN
 62
     9
370
    18
100
AcDbLine
 10
192.380087960062
 20
83.337508141514
 30
0.0
 11
191.052181542216
 21
83.337508141514
 31
0.0
  0
LINE
  5
26C
330
1AF
100
AcDbEntity
  8
Stammform
  6
AUSGEZOGEN
 62
    56
370
    18
100
AcDbLine
 10
191.052181542216
 20
83.337508141514
 30
0.0
 11
191.716134751139
 21
82.187508141514
 31
0.0
  0
LINE
  5
26D
330
1AF
100
AcDbEntity
  8
Stammform
  6
AUSGEZOGEN
 62
    56
370
    18
100
AcDbLine
 10
191.716134751139
 20
82.187508141514
 30
0.0
 11
193.044036782084
 21
82.187508141514
 31
0.0
  0
LINE
  5
26E
330
1AF
100
AcDbEntity
  8
Stammform
  6
AUSGEZOGEN
 62
    56
370
    18
100
AcDbLine
 10
191.716134751139
 20
82.187508141514
 30
0.0
 11
191.052181542216
 21
81.037508141514
 31
0.0
  0
LINE
  5
26F
330
1AF
100
AcDbEntity
  8
Stammform
  6
AUSGEZOGEN
 62
    56
370
    18
100
AcDbLine
 10
191.716134751139
 20
84.487508141514
 30
0.0
 11
191.052181542216
 21
83.337508141514
 31
0.0
  0
LINE
  5
270
330
1AF
100
AcDbEntity
  8
Stammform
  6
AUSGEZOGEN
 62
    56
370
    18
100
AcDbLine
 10
191.716134751139
 20
84.487508141514
 30
0.0
 11
193.044036782084
 21
84.487508141514
 31
0.0
  0
LINE
  5
271
330
1AF
100
AcDbEntity
  8
Stammform
  6
AUSGEZOGEN
 62
    56
370
    18
100
AcDbLine
 10
191.052181542216
 20
85.637508141514
 30
0.0
 11
191.716134751139
 21
84.487508141514
 31
0.0
  0
LINE
  5
272
330
1AF
100
AcDbEntity
  8
Layer0
  6
AUSGEZOGEN
 62
     9
370
    18
100
AcDbLine
 10
191.052181542216
 20
85.637508141514
 30
0.0
 11
190.388228333292
 21
84.487508141514
 31
0.0
  0
LINE
  5
273
330
1AF
100
AcDbEntity
  8
Layer0
  6
AUSGEZOGEN
 62
     9
370
    18
100
AcDbLine
 10
190.388228333292
 20
84.487508141514
 30
0.0
 11
191.052181542216
 21
83.337508141514
 31
0.0
  0
LINE
  5
274
330
1AF
100
AcDbEntity
  8
Layer0
  6
AUSGEZOGEN
 62
     9
370
    18
100
AcDbLine
 10
191.052181542216
 20
83.337508141514
 30
0.0
 11
192.380087960062
 21
83.337508141514
 31
0.0
  0
LINE
  5
275
330
1AF
100
AcDbEntity
  8
Layer0
  6
AUSGEZOGEN
 62
     9
370
    18
100
AcDbLine
 10
192.380087960062
 20
83.337508141514
 30
0.0
 11
193.044036782084
 21
84.487508141514
 31
0.0
  0
LINE
  5
276
330
1AF
100
AcDbEntity
  8
Layer0
  6
AUSGEZOGEN
 62
     9
370
    18
100
AcDbLine
 10
193.044036782084
 20
84.487508141514
 30
0.0
 11
192.380087960062
 21
85.637508141514
 31
0.0
  0
LINE
  5
277
330
1AF
100
AcDbEntity
  8
Layer0
  6
AUSGEZOGEN
 62
     9
370
    18
100
AcDbLine
 10
192.380087960062
 20
85.637508141514
 30
0.0
 11
191.052181542216
 21
85.637508141514
 31
0.0
  0
LINE
  5
278
330
1AF
100
AcDbEntity
  8
Stammform
  6
AUSGEZOGEN
 62
    56
370
    18
100
AcDbLine
 10
191.052181542216
 20
81.037508141514
 30
0.0
 11
191.182418119303
 21
80.811931908675
 31
0.0
  0
LINE
  5
279
330
1AF
100
AcDbEntity
  8
Layer0
  6
AUSGEZOGEN
 62
     9
370
    18
100
AcDbLine
 10
192.834666064438
 20
80.250151040044
 30
0.0
 11
192.380087960062
 21
81.037508141514
 31
0.0
  0
LINE
  5
27A
330
1AF
100
AcDbEntity
  8
Layer0
  6
AUSGEZOGEN
 62
     9
370
    18
100
AcDbLine
 10
192.380087960062
 20
81.037508141514
 30
0.0
 11
191.052181542216
 21
81.037508141514
 31
0.0
  0
LINE
  5
27B
330
1AF
100
AcDbEntity
  8
Layer0
  6
AUSGEZOGEN
 62
     9
370
    18
100
AcDbLine
 10
189.060321915446
 20
84.487508141514
 30
0.0
 11
188.396368706522
 21
83.337508141514
 31
0.0
  0
LINE
  5
27C
330
1AF
100
AcDbEntity
  8
Layer0
  6
AUSGEZOGEN
 62
     9
370
    18
100
AcDbLine
 10
188.396368706522
 20
83.337508141514
 30
0.0
 11
189.060321915446
 21
82.187508141514
 31
0.0
  0
LINE
  5
27D
330
1AF
100
AcDbEntity
  8
Layer0
  6
AUSGEZOGEN
 62
     9
370
    18
100
AcDbLine
 10
189.060321915446
 20
82.187508141514
 30
0.0
 11
190.388228333292
 21
82.187508141514
 31
0.0
  0
LINE
  5
27E
330
1AF
100
AcDbEntity
  8
Layer0
  6
AUSGEZOGEN
 62
     9
370
    18
100
AcDbLine
 10
190.388228333292
 20
82.187508141514
 30
0.0
 11
191.052181542216
 21
83.337508141514
 31
0.0
  0
LINE
  5
27F
330
1AF
100
AcDbEntity
  8
Layer0
  6
AUSGEZOGEN
 62
     9
370
    18
100
AcDbLine
 10
191.052181542216
 20
83.337508141514
 30
0.0
 11
190.388228333292
 21
84.487508141514
 31
0.0
  0
LINE
  5
280
330
1AF
100
AcDbEntity
  8
Layer0
  6
AUSGEZOGEN
 62
     9
370
    18
100
AcDbLine
 10
190.388228333292
 20
84.487508141514
 30
0.0
 11
189.060321915446
 21
84.487508141514
 31
0.0
  0
LINE
  5
281
330
1AF
100
AcDbEntity
  8
Stammform
  6
AUSGEZOGEN
 62
    56
370
    18
100
AcDbLine
 10
189.060321915446
 20
84.487508141514
 30
0.0
 11
189.724275124369
 21
83.337508141514
 31
0.0
  0
LINE
  5
282
330
1AF
100
AcDbEntity
  8
Stammform
  6
AUSGEZOGEN
 62
    56
370
    18
100
AcDbLine
 10
189.724275124369
 20
83.337508141514
 30
0.0
 11
191.052181542216
 21
83.337508141514
 31
0.0
  0
LINE
  5
283
330
1AF
100
AcDbEntity
  8
Stammform
  6
AUSGEZOGEN
 62
    56
370
    18
100
AcDbLine
 10
189.724275124369
 20
83.337508141514
 30
0.0
 11
189.060321915446
 21
82.187508141514
 31
0.0
  0
LINE
  5
284
330
1AF
100
AcDbEntity
  8
Stammform
  6
AUSGEZOGEN
 62
    56
370
    18
100
AcDbLine
 10
190.687115832705
 20
81.037508141514
 30
0.0
 11
191.052181542216
 21
81.037508141514
 31
0.0
  0
LINE
  5
285
330
1AF
100
AcDbEntity
  8
Stammform
  6
AUSGEZOGEN
 62
    56
370
    18
100
AcDbLine
 10
189.060321915446
 20
82.187508141514
 30
0.0
 11
189.242854408334
 21
81.87135277996
 31
0.0
  0
LINE
  5
286
330
1AF
100
AcDbEntity
  8
Layer0
  6
AUSGEZOGEN
 62
     9
370
    18
100
AcDbLine
 10
190.974602294557
 20
80.903137023779
 30
0.0
 11
191.052181542216
 21
81.037508141514
 31
0.0
  0
LINE
  5
287
330
1AF
100
AcDbEntity
  8
Layer0
  6
AUSGEZOGEN
 62
     9
370
    18
100
AcDbLine
 10
191.052181542216
 20
81.037508141514
 30
0.0
 11
190.388228333292
 21
82.187508141514
 31
0.0
  0
LINE
  5
288
330
1AF
100
AcDbEntity
  8
Layer0
  6
AUSGEZOGEN
 62
     9
370
    18
100
AcDbLine
 10
190.388228333292
 20
82.187508141514
 30
0.0
 11
189.060321915446
 21
82.187508141514
 31
0.0
  0
LINE
  5
289
330
1AF
100
AcDbEntity
  8
Layer0
  6
AUSGEZOGEN
 62
     9
370
    18
100
AcDbLine
 10
189.060321915446
 20
100.587508141514
 30
0.0
 11
188.396368706522
 21
99.437508141514
 31
0.0
  0
LINE
  5
28A
330
1AF
100
AcDbEntity
  8
Layer0
  6
AUSGEZOGEN
 62
     9
370
    18
100
AcDbLine
 10
188.396368706522
 20
99.437508141514
 30
0.0
 11
189.060321915446
 21
98.287508141514
 31
0.0
  0
LINE
  5
28B
330
1AF
100
AcDbEntity
  8
Layer0
  6
AUSGEZOGEN
 62
     9
370
    18
100
AcDbLine
 10
189.060321915446
 20
98.287508141514
 30
0.0
 11
190.388228333292
 21
98.287508141514
 31
0.0
  0
LINE
  5
28C
330
1AF
100
AcDbEntity
  8
Layer0
  6
AUSGEZOGEN
 62
     9
370
    18
100
AcDbLine
 10
190.388228333292
 20
98.287508141514
 30
0.0
 11
191.052181542216
 21
99.437508141514
 31
0.0
  0
LINE
  5
28D
330
1AF
100
AcDbEntity
  8
Layer0
  6
AUSGEZOGEN
 62
     9
370
    18
100
AcDbLine
 10
191.052181542216
 20
99.437508141514
 30
0.0
 11
190.388228333292
 21
100.587508141514
 31
0.0
  0
LINE
  5
28E
330
1AF
100
AcDbEntity
  8
Layer0
  6
AUSGEZOGEN
 62
     9
370
    18
100
AcDbLine
 10
190.388228333292
 20
100.587508141514
 30
0.0
 11
189.060321915446
 21
100.587508141514
 31
0.0
  0
LINE
  5
28F
330
1AF
100
AcDbEntity
  8
Stammform
  6
AUSGEZOGEN
 62
    56
370
    18
100
AcDbLine
 10
189.060321915446
 20
100.587508141514
 30
0.0
 11
189.724275124369
 21
99.437508141514
 31
0.0
  0
LINE
  5
290
330
1AF
100
AcDbEntity
  8
Stammform
  6
AUSGEZOGEN
 62
    56
370
    18
100
AcDbLine
 10
189.724275124369
 20
99.437508141514
 30
0.0
 11
191.052181542216
 21
99.437508141514
 31
0.0
  0
LINE
  5
291
330
1AF
100
AcDbEntity
  8
Stammform
  6
AUSGEZOGEN
 62
    56
370
    18
100
AcDbLine
 10
189.724275124369
 20
99.437508141514
 30
0.0
 11
189.060321915446
 21
98.287508141514
 31
0.0
  0
LINE
  5
292
330
1AF
100
AcDbEntity
  8
Stammform
  6
AUSGEZOGEN
 62
    56
370
    18
100
AcDbLine
 10
189.242854408334
 20
100.903663503068
 30
0.0
 11
189.060321915446
 21
100.587508141514
 31
0.0
  0
LINE
  5
293
330
1AF
100
AcDbEntity
  8
Stammform
  6
AUSGEZOGEN
 62
    56
370
    18
100
AcDbLine
 10
190.687115832705
 20
101.737508141514
 30
0.0
 11
191.052181542216
 21
101.737508141514
 31
0.0
  0
LINE
  5
294
330
1AF
100
AcDbEntity
  8
Layer0
  6
AUSGEZOGEN
 62
     9
370
    18
100
AcDbLine
 10
188.98274288499
 20
100.721878883045
 30
0.0
 11
189.060321915446
 21
100.587508141514
 31
0.0
  0
LINE
  5
295
330
1AF
100
AcDbEntity
  8
Layer0
  6
AUSGEZOGEN
 62
     9
370
    18
100
AcDbLine
 10
189.060321915446
 20
100.587508141514
 30
0.0
 11
190.388228333292
 21
100.587508141514
 31
0.0
  0
LINE
  5
296
330
1AF
100
AcDbEntity
  8
Layer0
  6
AUSGEZOGEN
 62
     9
370
    18
100
AcDbLine
 10
190.388228333292
 20
100.587508141514
 30
0.0
 11
191.052181542216
 21
101.737508141514
 31
0.0
  0
LINE
  5
297
330
1AF
100
AcDbEntity
  8
Layer0
  6
AUSGEZOGEN
 62
     9
370
    18
100
AcDbLine
 10
191.052181542216
 20
101.737508141514
 30
0.0
 11
190.974602294557
 21
101.87187925925
 31
0.0
  0
LINE
  5
298
330
1AF
100
AcDbEntity
  8
Layer0
  6
AUSGEZOGEN
 62
     9
370
    18
100
AcDbLine
 10
189.060321915446
 20
95.987508141514
 30
0.0
 11
188.396368706522
 21
94.837508141514
 31
0.0
  0
LINE
  5
299
330
1AF
100
AcDbEntity
  8
Layer0
  6
AUSGEZOGEN
 62
     9
370
    18
100
AcDbLine
 10
188.396368706522
 20
94.837508141514
 30
0.0
 11
189.060321915446
 21
93.687508141514
 31
0.0
  0
LINE
  5
29A
330
1AF
100
AcDbEntity
  8
Layer0
  6
AUSGEZOGEN
 62
     9
370
    18
100
AcDbLine
 10
189.060321915446
 20
93.687508141514
 30
0.0
 11
190.388228333292
 21
93.687508141514
 31
0.0
  0
LINE
  5
29B
330
1AF
100
AcDbEntity
  8
Layer0
  6
AUSGEZOGEN
 62
     9
370
    18
100
AcDbLine
 10
190.388228333292
 20
93.687508141514
 30
0.0
 11
191.052181542216
 21
94.837508141514
 31
0.0
  0
LINE
  5
29C
330
1AF
100
AcDbEntity
  8
Layer0
  6
AUSGEZOGEN
 62
     9
370
    18
100
AcDbLine
 10
191.052181542216
 20
94.837508141514
 30
0.0
 11
190.388228333292
 21
95.987508141514
 31
0.0
  0
LINE
  5
29D
330
1AF
100
AcDbEntity
  8
Layer0
  6
AUSGEZOGEN
 62
     9
370
    18
100
AcDbLine
 10
190.388228333292
 20
95.987508141514
 30
0.0
 11
189.060321915446
 21
95.987508141514
 31
0.0
  0
LINE
  5
29E
330
1AF
100
AcDbEntity
  8
Stammform
  6
AUSGEZOGEN
 62
    56
370
    18
100
AcDbLine
 10
189.060321915446
 20
95.987508141514
 30
0.0
 11
189.724275124369
 21
94.837508141514
 31
0.0
  0
LINE
  5
29F
330
1AF
100
AcDbEntity
  8
Stammform
  6
AUSGEZOGEN
 62
    56
370
    18
100
AcDbLine
 10
189.724275124369
 20
94.837508141514
 30
0.0
 11
191.052181542216
 21
94.837508141514
 31
0.0
  0
LINE
  5
2A0
330
1AF
100
AcDbEntity
  8
Stammform
  6
AUSGEZOGEN
 62
    56
370
    18
100
AcDbLine
 10
189.724275124369
 20
94.837508141514
 30
0.0
 11
189.060321915446
 21
93.687508141514
 31
0.0
  0
LINE
  5
2A1
330
1AF
100
AcDbEntity
  8
Stammform
  6
AUSGEZOGEN
 62
    56
370
    18
100
AcDbLine
 10
189.724275124369
 20
97.137508141514
 30
0.0
 11
189.060321915446
 21
95.987508141514
 31
0.0
  0
LINE
  5
2A2
330
1AF
100
AcDbEntity
  8
Stammform
  6
AUSGEZOGEN
 62
    56
370
    18
100
AcDbLine
 10
189.724275124369
 20
97.137508141514
 30
0.0
 11
191.052181542216
 21
97.137508141514
 31
0.0
  0
LINE
  5
2A3
330
1AF
100
AcDbEntity
  8
Stammform
  6
AUSGEZOGEN
 62
    56
370
    18
100
AcDbLine
 10
189.060321915446
 20
98.287508141514
 30
0.0
 11
189.724275124369
 21
97.137508141514
 31
0.0
  0
LINE
  5
2A4
330
1AF
100
AcDbEntity
  8
Layer0
  6
AUSGEZOGEN
 62
     9
370
    18
100
AcDbLine
 10
189.060321915446
 20
98.287508141514
 30
0.0
 11
188.396368706522
 21
97.137508141514
 31
0.0
  0
LINE
  5
2A5
330
1AF
100
AcDbEntity
  8
Layer0
  6
AUSGEZOGEN
 62
     9
370
    18
100
AcDbLine
 10
188.396368706522
 20
97.137508141514
 30
0.0
 11
189.060321915446
 21
95.987508141514
 31
0.0
  0
LINE
  5
2A6
330
1AF
100
AcDbEntity
  8
Layer0
  6
AUSGEZOGEN
 62
     9
370
    18
100
AcDbLine
 10
189.060321915446
 20
95.987508141514
 30
0.0
 11
190.388228333292
 21
95.987508141514
 31
0.0
  0
LINE
  5
2A7
330
1AF
100
AcDbEntity
  8
Layer0
  6
AUSGEZOGEN
 62
     9
370
    18
100
AcDbLine
 10
190.388228333292
 20
95.987508141514
 30
0.0
 11
191.052181542216
 21
97.137508141514
 31
0.0
  0
LINE
  5
2A8
330
1AF
100
AcDbEntity
  8
Layer0
  6
AUSGEZOGEN
 62
     9
370
    18
100
AcDbLine
 10
191.052181542216
 20
97.137508141514
 30
0.0
 11
190.388228333292
 21
98.287508141514
 31
0.0
  0
LINE
  5
2A9
330
1AF
100
AcDbEntity
  8
Layer0
  6
AUSGEZOGEN
 62
     9
370
    18
100
AcDbLine
 10
190.388228333292
 20
98.287508141514
 30
0.0
 11
189.060321915446
 21
98.287508141514
 31
0.0
  0
LINE
  5
2AA
330
1AF
100
AcDbEntity
  8
Layer0
  6
AUSGEZOGEN
 62
     9
370
    18
100
AcDbLine
 10
189.060321915446
 20
91.387508141514
 30
0.0
 11
188.396368706522
 21
90.237508141514
 31
0.0
  0
LINE
  5
2AB
330
1AF
100
AcDbEntity
  8
Layer0
  6
AUSGEZOGEN
 62
     9
370
    18
100
AcDbLine
 10
188.396368706522
 20
90.237508141514
 30
0.0
 11
189.060321915446
 21
89.087508141514
 31
0.0
  0
LINE
  5
2AC
330
1AF
100
AcDbEntity
  8
Layer0
  6
AUSGEZOGEN
 62
     9
370
    18
100
AcDbLine
 10
189.060321915446
 20
89.087508141514
 30
0.0
 11
190.388228333292
 21
89.087508141514
 31
0.0
  0
LINE
  5
2AD
330
1AF
100
AcDbEntity
  8
Layer0
  6
AUSGEZOGEN
 62
     9
370
    18
100
AcDbLine
 10
190.388228333292
 20
89.087508141514
 30
0.0
 11
191.052181542216
 21
90.237508141514
 31
0.0
  0
LINE
  5
2AE
330
1AF
100
AcDbEntity
  8
Layer0
  6
AUSGEZOGEN
 62
     9
370
    18
100
AcDbLine
 10
191.052181542216
 20
90.237508141514
 30
0.0
 11
190.388228333292
 21
91.387508141514
 31
0.0
  0
LINE
  5
2AF
330
1AF
100
AcDbEntity
  8
Layer0
  6
AUSGEZOGEN
 62
     9
370
    18
100
AcDbLine
 10
190.388228333292
 20
91.387508141514
 30
0.0
 11
189.060321915446
 21
91.387508141514
 31
0.0
  0
LINE
  5
2B0
330
1AF
100
AcDbEntity
  8
Stammform
  6
AUSGEZOGEN
 62
    56
370
    18
100
AcDbLine
 10
189.060321915446
 20
91.387508141514
 30
0.0
 11
189.724275124369
 21
90.237508141514
 31
0.0
  0
LINE
  5
2B1
330
1AF
100
AcDbEntity
  8
Stammform
  6
AUSGEZOGEN
 62
    56
370
    18
100
AcDbLine
 10
189.724275124369
 20
90.237508141514
 30
0.0
 11
191.052181542216
 21
90.237508141514
 31
0.0
  0
LINE
  5
2B2
330
1AF
100
AcDbEntity
  8
Stammform
  6
AUSGEZOGEN
 62
    56
370
    18
100
AcDbLine
 10
189.724275124369
 20
90.237508141514
 30
0.0
 11
189.060321915446
 21
89.087508141514
 31
0.0
  0
LINE
  5
2B3
330
1AF
100
AcDbEntity
  8
Stammform
  6
AUSGEZOGEN
 62
    56
370
    18
100
AcDbLine
 10
189.724275124369
 20
92.537508141514
 30
0.0
 11
189.060321915446
 21
91.387508141514
 31
0.0
  0
LINE
  5
2B4
330
1AF
100
AcDbEntity
  8
Stammform
  6
AUSGEZOGEN
 62
    56
370
    18
100
AcDbLine
 10
189.724275124369
 20
92.537508141514
 30
0.0
 11
191.052181542216
 21
92.537508141514
 31
0.0
  0
LINE
  5
2B5
330
1AF
100
AcDbEntity
  8
Stammform
  6
AUSGEZOGEN
 62
    56
370
    18
100
AcDbLine
 10
189.060321915446
 20
93.687508141514
 30
0.0
 11
189.724275124369
 21
92.537508141514
 31
0.0
  0
LINE
  5
2B6
330
1AF
100
AcDbEntity
  8
Layer0
  6
AUSGEZOGEN
 62
     9
370
    18
100
AcDbLine
 10
189.060321915446
 20
93.687508141514
 30
0.0
 11
188.396368706522
 21
92.537508141514
 31
0.0
  0
LINE
  5
2B7
330
1AF
100
AcDbEntity
  8
Layer0
  6
AUSGEZOGEN
 62
     9
370
    18
100
AcDbLine
 10
188.396368706522
 20
92.537508141514
 30
0.0
 11
189.060321915446
 21
91.387508141514
 31
0.0
  0
LINE
  5
2B8
330
1AF
100
AcDbEntity
  8
Layer0
  6
AUSGEZOGEN
 62
     9
370
    18
100
AcDbLine
 10
189.060321915446
 20
91.387508141514
 30
0.0
 11
190.388228333292
 21
91.387508141514
 31
0.0
  0
LINE
  5
2B9
330
1AF
100
AcDbEntity
  8
Layer0
  6
AUSGEZOGEN
 62
     9
370
    18
100
AcDbLine
 10
190.388228333292
 20
91.387508141514
 30
0.0
 11
191.052181542216
 21
92.537508141514
 31
0.0
  0
LINE
  5
2BA
330
1AF
100
AcDbEntity
  8
Layer0
  6
AUSGEZOGEN
 62
     9
370
    18
100
AcDbLine
 10
191.052181542216
 20
92.537508141514
 30
0.0
 11
190.388228333292
 21
93.687508141514
 31
0.0
  0
LINE
  5
2BB
330
1AF
100
AcDbEntity
  8
Layer0
  6
AUSGEZOGEN
 62
     9
370
    18
100
AcDbLine
 10
190.388228333292
 20
93.687508141514
 30
0.0
 11
189.060321915446
 21
93.687508141514
 31
0.0
  0
LINE
  5
2BC
330
1AF
100
AcDbEntity
  8
Layer0
  6
AUSGEZOGEN
 62
     9
370
    18
100
AcDbLine
 10
189.060321915446
 20
89.087508141514
 30
0.0
 11
188.396368706522
 21
87.937508141514
 31
0.0
  0
LINE
  5
2BD
330
1AF
100
AcDbEntity
  8
Layer0
  6
AUSGEZOGEN
 62
     9
370
    18
100
AcDbLine
 10
188.396368706522
 20
87.937508141514
 30
0.0
 11
189.060321915446
 21
86.787508141514
 31
0.0
  0
LINE
  5
2BE
330
1AF
100
AcDbEntity
  8
Layer0
  6
AUSGEZOGEN
 62
     9
370
    18
100
AcDbLine
 10
189.060321915446
 20
86.787508141514
 30
0.0
 11
190.388228333292
 21
86.787508141514
 31
0.0
  0
LINE
  5
2BF
330
1AF
100
AcDbEntity
  8
Layer0
  6
AUSGEZOGEN
 62
     9
370
    18
100
AcDbLine
 10
190.388228333292
 20
86.787508141514
 30
0.0
 11
191.052181542216
 21
87.937508141514
 31
0.0
  0
LINE
  5
2C0
330
1AF
100
AcDbEntity
  8
Layer0
  6
AUSGEZOGEN
 62
     9
370
    18
100
AcDbLine
 10
191.052181542216
 20
87.937508141514
 30
0.0
 11
190.388228333292
 21
89.087508141514
 31
0.0
  0
LINE
  5
2C1
330
1AF
100
AcDbEntity
  8
Layer0
  6
AUSGEZOGEN
 62
     9
370
    18
100
AcDbLine
 10
190.388228333292
 20
89.087508141514
 30
0.0
 11
189.060321915446
 21
89.087508141514
 31
0.0
  0
LINE
  5
2C2
330
1AF
100
AcDbEntity
  8
Stammform
  6
AUSGEZOGEN
 62
    56
370
    18
100
AcDbLine
 10
189.060321915446
 20
89.087508141514
 30
0.0
 11
189.724275124369
 21
87.937508141514
 31
0.0
  0
LINE
  5
2C3
330
1AF
100
AcDbEntity
  8
Stammform
  6
AUSGEZOGEN
 62
    56
370
    18
100
AcDbLine
 10
189.724275124369
 20
87.937508141514
 30
0.0
 11
191.052181542216
 21
87.937508141514
 31
0.0
  0
LINE
  5
2C4
330
1AF
100
AcDbEntity
  8
Stammform
  6
AUSGEZOGEN
 62
    56
370
    18
100
AcDbLine
 10
189.724275124369
 20
87.937508141514
 30
0.0
 11
189.060321915446
 21
86.787508141514
 31
0.0
  0
LINE
  5
2C5
330
1AF
100
AcDbEntity
  8
Stammform
  6
AUSGEZOGEN
 62
    56
370
    18
100
AcDbLine
 10
189.724275124369
 20
85.637508141514
 30
0.0
 11
189.060321915446
 21
84.487508141514
 31
0.0
  0
LINE
  5
2C6
330
1AF
100
AcDbEntity
  8
Stammform
  6
AUSGEZOGEN
 62
    56
370
    18
100
AcDbLine
 10
189.724275124369
 20
85.637508141514
 30
0.0
 11
191.052181542216
 21
85.637508141514
 31
0.0
  0
LINE
  5
2C7
330
1AF
100
AcDbEntity
  8
Stammform
  6
AUSGEZOGEN
 62
    56
370
    18
100
AcDbLine
 10
189.060321915446
 20
86.787508141514
 30
0.0
 11
189.724275124369
 21
85.637508141514
 31
0.0
  0
LINE
  5
2C8
330
1AF
100
AcDbEntity
  8
Layer0
  6
AUSGEZOGEN
 62
     9
370
    18
100
AcDbLine
 10
189.060321915446
 20
86.787508141514
 30
0.0
 11
188.396368706522
 21
85.637508141514
 31
0.0
  0
LINE
  5
2C9
330
1AF
100
AcDbEntity
  8
Layer0
  6
AUSGEZOGEN
 62
     9
370
    18
100
AcDbLine
 10
188.396368706522
 20
85.637508141514
 30
0.0
 11
189.060321915446
 21
84.487508141514
 31
0.0
  0
LINE
  5
2CA
330
1AF
100
AcDbEntity
  8
Layer0
  6
AUSGEZOGEN
 62
     9
370
    18
100
AcDbLine
 10
189.060321915446
 20
84.487508141514
 30
0.0
 11
190.388228333292
 21
84.487508141514
 31
0.0
  0
LINE
  5
2CB
330
1AF
100
AcDbEntity
  8
Layer0
  6
AUSGEZOGEN
 62
     9
370
    18
100
AcDbLine
 10
190.388228333292
 20
84.487508141514
 30
0.0
 11
191.052181542216
 21
85.637508141514
 31
0.0
  0
LINE
  5
2CC
330
1AF
100
AcDbEntity
  8
Layer0
  6
AUSGEZOGEN
 62
     9
370
    18
100
AcDbLine
 10
191.052181542216
 20
85.637508141514
 30
0.0
 11
190.388228333292
 21
86.787508141514
 31
0.0
  0
LINE
  5
2CD
330
1AF
100
AcDbEntity
  8
Layer0
  6
AUSGEZOGEN
 62
     9
370
    18
100
AcDbLine
 10
190.388228333292
 20
86.787508141514
 30
0.0
 11
189.060321915446
 21
86.787508141514
 31
0.0
  0
LINE
  5
2CE
330
1AF
100
AcDbEntity
  8
Layer0
  6
AUSGEZOGEN
 62
     9
370
    18
100
AcDbLine
 10
195.035896408854
 20
87.937508141514
 30
0.0
 11
194.371943199931
 21
86.787508141514
 31
0.0
  0
LINE
  5
2CF
330
1AF
100
AcDbEntity
  8
Layer0
  6
AUSGEZOGEN
 62
     9
370
    18
100
AcDbLine
 10
194.371943199931
 20
86.787508141514
 30
0.0
 11
195.035896408854
 21
85.637508141514
 31
0.0
  0
LINE
  5
2D0
330
1AF
100
AcDbEntity
  8
Layer0
  6
AUSGEZOGEN
 62
     9
370
    18
100
AcDbLine
 10
195.035896408854
 20
85.637508141514
 30
0.0
 11
196.363802826701
 21
85.637508141514
 31
0.0
  0
LINE
  5
2D1
330
1AF
100
AcDbEntity
  8
Layer0
  6
AUSGEZOGEN
 62
     9
370
    18
100
AcDbLine
 10
196.363802826701
 20
85.637508141514
 30
0.0
 11
197.027756035624
 21
86.787508141514
 31
0.0
  0
LINE
  5
2D2
330
1AF
100
AcDbEntity
  8
Layer0
  6
AUSGEZOGEN
 62
     9
370
    18
100
AcDbLine
 10
197.027756035624
 20
86.787508141514
 30
0.0
 11
196.363802826701
 21
87.937508141514
 31
0.0
  0
LINE
  5
2D3
330
1AF
100
AcDbEntity
  8
Layer0
  6
AUSGEZOGEN
 62
     9
370
    18
100
AcDbLine
 10
196.363802826701
 20
87.937508141514
 30
0.0
 11
195.035896408854
 21
87.937508141514
 31
0.0
  0
LINE
  5
2D4
330
1AF
100
AcDbEntity
  8
Stammform
  6
AUSGEZOGEN
 62
    56
370
    18
100
AcDbLine
 10
195.035896408854
 20
87.937508141514
 30
0.0
 11
195.699849617777
 21
86.787508141514
 31
0.0
  0
LINE
  5
2D5
330
1AF
100
AcDbEntity
  8
Stammform
  6
AUSGEZOGEN
 62
    56
370
    18
100
AcDbLine
 10
195.699849617777
 20
86.787508141514
 30
0.0
 11
197.027756035624
 21
86.787508141514
 31
0.0
  0
LINE
  5
2D6
330
1AF
100
AcDbEntity
  8
Stammform
  6
AUSGEZOGEN
 62
    56
370
    18
100
AcDbLine
 10
195.699849617777
 20
86.787508141514
 30
0.0
 11
195.035896408854
 21
85.637508141514
 31
0.0
  0
LINE
  5
2D7
330
1AF
100
AcDbEntity
  8
Stammform
  6
AUSGEZOGEN
 62
    56
370
    18
100
AcDbLine
 10
195.699849617777
 20
89.087508141514
 30
0.0
 11
195.035896408854
 21
87.937508141514
 31
0.0
  0
LINE
  5
2D8
330
1AF
100
AcDbEntity
  8
Stammform
  6
AUSGEZOGEN
 62
    56
370
    18
100
AcDbLine
 10
195.699849617777
 20
89.087508141514
 30
0.0
 11
197.027756035624
 21
89.087508141514
 31
0.0
  0
LINE
  5
2D9
330
1AF
100
AcDbEntity
  8
Stammform
  6
AUSGEZOGEN
 62
    56
370
    18
100
AcDbLine
 10
195.035896408854
 20
90.237508141514
 30
0.0
 11
195.699849617777
 21
89.087508141514
 31
0.0
  0
LINE
  5
2DA
330
1AF
100
AcDbEntity
  8
Layer0
  6
AUSGEZOGEN
 62
     9
370
    18
100
AcDbLine
 10
195.035896408854
 20
90.237508141514
 30
0.0
 11
194.371943199931
 21
89.087508141514
 31
0.0
  0
LINE
  5
2DB
330
1AF
100
AcDbEntity
  8
Layer0
  6
AUSGEZOGEN
 62
     9
370
    18
100
AcDbLine
 10
194.371943199931
 20
89.087508141514
 30
0.0
 11
195.035896408854
 21
87.937508141514
 31
0.0
  0
LINE
  5
2DC
330
1AF
100
AcDbEntity
  8
Layer0
  6
AUSGEZOGEN
 62
     9
370
    18
100
AcDbLine
 10
195.035896408854
 20
87.937508141514
 30
0.0
 11
196.363802826701
 21
87.937508141514
 31
0.0
  0
LINE
  5
2DD
330
1AF
100
AcDbEntity
  8
Layer0
  6
AUSGEZOGEN
 62
     9
370
    18
100
AcDbLine
 10
196.363802826701
 20
87.937508141514
 30
0.0
 11
197.027756035624
 21
89.087508141514
 31
0.0
  0
LINE
  5
2DE
330
1AF
100
AcDbEntity
  8
Layer0
  6
AUSGEZOGEN
 62
     9
370
    18
100
AcDbLine
 10
197.027756035624
 20
89.087508141514
 30
0.0
 11
196.363802826701
 21
90.237508141514
 31
0.0
  0
LINE
  5
2DF
330
1AF
100
AcDbEntity
  8
Layer0
  6
AUSGEZOGEN
 62
     9
370
    18
100
AcDbLine
 10
196.363802826701
 20
90.237508141514
 30
0.0
 11
195.035896408854
 21
90.237508141514
 31
0.0
  0
LINE
  5
2E0
330
1AF
100
AcDbEntity
  8
Layer0
  6
AUSGEZOGEN
 62
     9
370
    18
100
AcDbLine
 10
195.035896408854
 20
94.837508141514
 30
0.0
 11
194.371943199931
 21
93.687508141514
 31
0.0
  0
LINE
  5
2E1
330
1AF
100
AcDbEntity
  8
Layer0
  6
AUSGEZOGEN
 62
     9
370
    18
100
AcDbLine
 10
194.371943199931
 20
93.687508141514
 30
0.0
 11
195.035896408854
 21
92.537508141514
 31
0.0
  0
LINE
  5
2E2
330
1AF
100
AcDbEntity
  8
Layer0
  6
AUSGEZOGEN
 62
     9
370
    18
100
AcDbLine
 10
195.035896408854
 20
92.537508141514
 30
0.0
 11
196.363802826701
 21
92.537508141514
 31
0.0
  0
LINE
  5
2E3
330
1AF
100
AcDbEntity
  8
Layer0
  6
AUSGEZOGEN
 62
     9
370
    18
100
AcDbLine
 10
196.363802826701
 20
92.537508141514
 30
0.0
 11
197.027756035624
 21
93.687508141514
 31
0.0
  0
LINE
  5
2E4
330
1AF
100
AcDbEntity
  8
Layer0
  6
AUSGEZOGEN
 62
     9
370
    18
100
AcDbLine
 10
197.027756035624
 20
93.687508141514
 30
0.0
 11
196.363802826701
 21
94.837508141514
 31
0.0
  0
LINE
  5
2E5
330
1AF
100
AcDbEntity
  8
Layer0
  6
AUSGEZOGEN
 62
     9
370
    18
100
AcDbLine
 10
196.363802826701
 20
94.837508141514
 30
0.0
 11
195.035896408854
 21
94.837508141514
 31
0.0
  0
LINE
  5
2E6
330
1AF
100
AcDbEntity
  8
Stammform
  6
AUSGEZOGEN
 62
    56
370
    18
100
AcDbLine
 10
195.035896408854
 20
94.837508141514
 30
0.0
 11
195.699849617777
 21
93.687508141514
 31
0.0
  0
LINE
  5
2E7
330
1AF
100
AcDbEntity
  8
Stammform
  6
AUSGEZOGEN
 62
    56
370
    18
100
AcDbLine
 10
195.699849617777
 20
93.687508141514
 30
0.0
 11
197.027756035624
 21
93.687508141514
 31
0.0
  0
LINE
  5
2E8
330
1AF
100
AcDbEntity
  8
Stammform
  6
AUSGEZOGEN
 62
    56
370
    18
100
AcDbLine
 10
195.699849617777
 20
93.687508141514
 30
0.0
 11
195.035896408854
 21
92.537508141514
 31
0.0
  0
LINE
  5
2E9
330
1AF
100
AcDbEntity
  8
Stammform
  6
AUSGEZOGEN
 62
    56
370
    18
100
AcDbLine
 10
195.699849617777
 20
91.387508141514
 30
0.0
 11
195.035896408854
 21
90.237508141514
 31
0.0
  0
LINE
  5
2EA
330
1AF
100
AcDbEntity
  8
Stammform
  6
AUSGEZOGEN
 62
    56
370
    18
100
AcDbLine
 10
195.699849617777
 20
91.387508141514
 30
0.0
 11
197.027756035624
 21
91.387508141514
 31
0.0
  0
LINE
  5
2EB
330
1AF
100
AcDbEntity
  8
Stammform
  6
AUSGEZOGEN
 62
    56
370
    18
100
AcDbLine
 10
195.035896408854
 20
92.537508141514
 30
0.0
 11
195.699849617777
 21
91.387508141514
 31
0.0
  0
LINE
  5
2EC
330
1AF
100
AcDbEntity
  8
Layer0
  6
AUSGEZOGEN
 62
     9
370
    18
100
AcDbLine
 10
195.035896408854
 20
92.537508141514
 30
0.0
 11
194.371943199931
 21
91.387508141514
 31
0.0
  0
LINE
  5
2ED
330
1AF
100
AcDbEntity
  8
Layer0
  6
AUSGEZOGEN
 62
     9
370
    18
100
AcDbLine
 10
194.371943199931
 20
91.387508141514
 30
0.0
 11
195.035896408854
 21
90.237508141514
 31
0.0
  0
LINE
  5
2EE
330
1AF
100
AcDbEntity
  8
Layer0
  6
AUSGEZOGEN
 62
     9
370
    18
100
AcDbLine
 10
195.035896408854
 20
90.237508141514
 30
0.0
 11
196.363802826701
 21
90.237508141514
 31
0.0
  0
LINE
  5
2EF
330
1AF
100
AcDbEntity
  8
Layer0
  6
AUSGEZOGEN
 62
     9
370
    18
100
AcDbLine
 10
196.363802826701
 20
90.237508141514
 30
0.0
 11
197.027756035624
 21
91.387508141514
 31
0.0
  0
LINE
  5
2F0
330
1AF
100
AcDbEntity
  8
Layer0
  6
AUSGEZOGEN
 62
     9
370
    18
100
AcDbLine
 10
197.027756035624
 20
91.387508141514
 30
0.0
 11
196.363802826701
 21
92.537508141514
 31
0.0
  0
LINE
  5
2F1
330
1AF
100
AcDbEntity
  8
Layer0
  6
AUSGEZOGEN
 62
     9
370
    18
100
AcDbLine
 10
196.363802826701
 20
92.537508141514
 30
0.0
 11
195.035896408854
 21
92.537508141514
 31
0.0
  0
LINE
  5
2F2
330
1AF
100
AcDbEntity
  8
Layer0
  6
AUSGEZOGEN
 62
     9
370
    18
100
AcDbLine
 10
195.035896408854
 20
99.437508141514
 30
0.0
 11
194.371943199931
 21
98.287508141514
 31
0.0
  0
LINE
  5
2F3
330
1AF
100
AcDbEntity
  8
Layer0
  6
AUSGEZOGEN
 62
     9
370
    18
100
AcDbLine
 10
194.371943199931
 20
98.287508141514
 30
0.0
 11
195.035896408854
 21
97.137508141514
 31
0.0
  0
LINE
  5
2F4
330
1AF
100
AcDbEntity
  8
Layer0
  6
AUSGEZOGEN
 62
     9
370
    18
100
AcDbLine
 10
195.035896408854
 20
97.137508141514
 30
0.0
 11
196.363802826701
 21
97.137508141514
 31
0.0
  0
LINE
  5
2F5
330
1AF
100
AcDbEntity
  8
Layer0
  6
AUSGEZOGEN
 62
     9
370
    18
100
AcDbLine
 10
196.363802826701
 20
97.137508141514
 30
0.0
 11
197.027756035624
 21
98.287508141514
 31
0.0
  0
LINE
  5
2F6
330
1AF
100
AcDbEntity
  8
Layer0
  6
AUSGEZOGEN
 62
     9
370
    18
100
AcDbLine
 10
197.027756035624
 20
98.287508141514
 30
0.0
 11
196.363802826701
 21
99.437508141514
 31
0.0
  0
LINE
  5
2F7
330
1AF
100
AcDbEntity
  8
Layer0
  6
AUSGEZOGEN
 62
     9
370
    18
100
AcDbLine
 10
196.363802826701
 20
99.437508141514
 30
0.0
 11
195.035896408854
 21
99.437508141514
 31
0.0
  0
LINE
  5
2F8
330
1AF
100
AcDbEntity
  8
Stammform
  6
AUSGEZOGEN
 62
    56
370
    18
100
AcDbLine
 10
195.035896408854
 20
99.437508141514
 30
0.0
 11
195.699849617777
 21
98.287508141514
 31
0.0
  0
LINE
  5
2F9
330
1AF
100
AcDbEntity
  8
Stammform
  6
AUSGEZOGEN
 62
    56
370
    18
100
AcDbLine
 10
195.699849617777
 20
98.287508141514
 30
0.0
 11
197.027756035624
 21
98.287508141514
 31
0.0
  0
LINE
  5
2FA
330
1AF
100
AcDbEntity
  8
Stammform
  6
AUSGEZOGEN
 62
    56
370
    18
100
AcDbLine
 10
195.699849617777
 20
98.287508141514
 30
0.0
 11
195.035896408854
 21
97.137508141514
 31
0.0
  0
LINE
  5
2FB
330
1AF
100
AcDbEntity
  8
Stammform
  6
AUSGEZOGEN
 62
    56
370
    18
100
AcDbLine
 10
195.699849617777
 20
95.987508141514
 30
0.0
 11
195.035896408854
 21
94.837508141514
 31
0.0
  0
LINE
  5
2FC
330
1AF
100
AcDbEntity
  8
Stammform
  6
AUSGEZOGEN
 62
    56
370
    18
100
AcDbLine
 10
195.699849617777
 20
95.987508141514
 30
0.0
 11
197.027756035624
 21
95.987508141514
 31
0.0
  0
LINE
  5
2FD
330
1AF
100
AcDbEntity
  8
Stammform
  6
AUSGEZOGEN
 62
    56
370
    18
100
AcDbLine
 10
195.035896408854
 20
97.137508141514
 30
0.0
 11
195.699849617777
 21
95.987508141514
 31
0.0
  0
LINE
  5
2FE
330
1AF
100
AcDbEntity
  8
Layer0
  6
AUSGEZOGEN
 62
     9
370
    18
100
AcDbLine
 10
195.035896408854
 20
97.137508141514
 30
0.0
 11
194.371943199931
 21
95.987508141514
 31
0.0
  0
LINE
  5
2FF
330
1AF
100
AcDbEntity
  8
Layer0
  6
AUSGEZOGEN
 62
     9
370
    18
100
AcDbLine
 10
194.371943199931
 20
95.987508141514
 30
0.0
 11
195.035896408854
 21
94.837508141514
 31
0.0
  0
LINE
  5
300
330
1AF
100
AcDbEntity
  8
Layer0
  6
AUSGEZOGEN
 62
     9
370
    18
100
AcDbLine
 10
195.035896408854
 20
94.837508141514
 30
0.0
 11
196.363802826701
 21
94.837508141514
 31
0.0
  0
LINE
  5
301
330
1AF
100
AcDbEntity
  8
Layer0
  6
AUSGEZOGEN
 62
     9
370
    18
100
AcDbLine
 10
196.363802826701
 20
94.837508141514
 30
0.0
 11
197.027756035624
 21
95.987508141514
 31
0.0
  0
LINE
  5
302
330
1AF
100
AcDbEntity
  8
Layer0
  6
AUSGEZOGEN
 62
     9
370
    18
100
AcDbLine
 10
197.027756035624
 20
95.987508141514
 30
0.0
 11
196.363802826701
 21
97.137508141514
 31
0.0
  0
LINE
  5
303
330
1AF
100
AcDbEntity
  8
Layer0
  6
AUSGEZOGEN
 62
     9
370
    18
100
AcDbLine
 10
196.363802826701
 20
97.137508141514
 30
0.0
 11
195.035896408854
 21
97.137508141514
 31
0.0
  0
LINE
  5
304
330
1AF
100
AcDbEntity
  8
Layer0
  6
AUSGEZOGEN
 62
     9
370
    18
100
AcDbLine
 10
195.035896408854
 20
101.737508141514
 30
0.0
 11
196.363802826701
 21
101.737508141514
 31
0.0
  0
LINE
  5
305
330
1AF
100
AcDbEntity
  8
Layer0
  6
AUSGEZOGEN
 62
     9
370
    18
100
AcDbLine
 10
196.363802826701
 20
101.737508141514
 30
0.0
 11
196.986095536014
 21
102.815350082923
 31
0.0
  0
LINE
  5
306
330
1AF
100
AcDbEntity
  8
Stammform
  6
AUSGEZOGEN
 62
    56
370
    18
100
AcDbLine
 10
195.699849617777
 20
102.887508141514
 30
0.0
 11
195.035896408854
 21
101.737508141514
 31
0.0
  0
LINE
  5
307
330
1AF
100
AcDbEntity
  8
Stammform
  6
AUSGEZOGEN
 62
    56
370
    18
100
AcDbLine
 10
195.699849617777
 20
100.587508141514
 30
0.0
 11
195.035896408854
 21
99.437508141514
 31
0.0
  0
LINE
  5
308
330
1AF
100
AcDbEntity
  8
Stammform
  6
AUSGEZOGEN
 62
    56
370
    18
100
AcDbLine
 10
195.699849617777
 20
100.587508141514
 30
0.0
 11
197.027756035624
 21
100.587508141514
 31
0.0
  0
LINE
  5
309
330
1AF
100
AcDbEntity
  8
Stammform
  6
AUSGEZOGEN
 62
    56
370
    18
100
AcDbLine
 10
195.035896408854
 20
101.737508141514
 30
0.0
 11
195.699849617777
 21
100.587508141514
 31
0.0
  0
LINE
  5
30A
330
1AF
100
AcDbEntity
  8
Layer0
  6
AUSGEZOGEN
 62
     9
370
    18
100
AcDbLine
 10
195.035896408854
 20
101.737508141514
 30
0.0
 11
194.371943199931
 21
100.587508141514
 31
0.0
  0
LINE
  5
30B
330
1AF
100
AcDbEntity
  8
Layer0
  6
AUSGEZOGEN
 62
     9
370
    18
100
AcDbLine
 10
194.371943199931
 20
100.587508141514
 30
0.0
 11
195.035896408854
 21
99.437508141514
 31
0.0
  0
LINE
  5
30C
330
1AF
100
AcDbEntity
  8
Layer0
  6
AUSGEZOGEN
 62
     9
370
    18
100
AcDbLine
 10
195.035896408854
 20
99.437508141514
 30
0.0
 11
196.363802826701
 21
99.437508141514
 31
0.0
  0
LINE
  5
30D
330
1AF
100
AcDbEntity
  8
Layer0
  6
AUSGEZOGEN
 62
     9
370
    18
100
AcDbLine
 10
196.363802826701
 20
99.437508141514
 30
0.0
 11
197.027756035624
 21
100.587508141514
 31
0.0
  0
LINE
  5
30E
330
1AF
100
AcDbEntity
  8
Layer0
  6
AUSGEZOGEN
 62
     9
370
    18
100
AcDbLine
 10
197.027756035624
 20
100.587508141514
 30
0.0
 11
196.363802826701
 21
101.737508141514
 31
0.0
  0
LINE
  5
30F
330
1AF
100
AcDbEntity
  8
Layer0
  6
AUSGEZOGEN
 62
     9
370
    18
100
AcDbLine
 10
196.363802826701
 20
101.737508141514
 30
0.0
 11
195.035896408854
 21
101.737508141514
 31
0.0
  0
LINE
  5
310
330
1AF
100
AcDbEntity
  8
Layer0
  6
AUSGEZOGEN
 62
     9
370
    18
100
AcDbLine
 10
195.035896408854
 20
83.337508141514
 30
0.0
 11
194.371943199931
 21
82.187508141514
 31
0.0
  0
LINE
  5
311
330
1AF
100
AcDbEntity
  8
Layer0
  6
AUSGEZOGEN
 62
     9
370
    18
100
AcDbLine
 10
194.371943199931
 20
82.187508141514
 30
0.0
 11
195.035896408854
 21
81.037508141514
 31
0.0
  0
LINE
  5
312
330
1AF
100
AcDbEntity
  8
Layer0
  6
AUSGEZOGEN
 62
     9
370
    18
100
AcDbLine
 10
195.035896408854
 20
81.037508141514
 30
0.0
 11
196.363802826701
 21
81.037508141514
 31
0.0
  0
LINE
  5
313
330
1AF
100
AcDbEntity
  8
Layer0
  6
AUSGEZOGEN
 62
     9
370
    18
100
AcDbLine
 10
196.363802826701
 20
81.037508141514
 30
0.0
 11
197.027756035624
 21
82.187508141514
 31
0.0
  0
LINE
  5
314
330
1AF
100
AcDbEntity
  8
Layer0
  6
AUSGEZOGEN
 62
     9
370
    18
100
AcDbLine
 10
197.027756035624
 20
82.187508141514
 30
0.0
 11
196.363802826701
 21
83.337508141514
 31
0.0
  0
LINE
  5
315
330
1AF
100
AcDbEntity
  8
Layer0
  6
AUSGEZOGEN
 62
     9
370
    18
100
AcDbLine
 10
196.363802826701
 20
83.337508141514
 30
0.0
 11
195.035896408854
 21
83.337508141514
 31
0.0
  0
LINE
  5
316
330
1AF
100
AcDbEntity
  8
Stammform
  6
AUSGEZOGEN
 62
    56
370
    18
100
AcDbLine
 10
195.035896408854
 20
83.337508141514
 30
0.0
 11
195.699849617777
 21
82.187508141514
 31
0.0
  0
LINE
  5
317
330
1AF
100
AcDbEntity
  8
Stammform
  6
AUSGEZOGEN
 62
    56
370
    18
100
AcDbLine
 10
195.699849617777
 20
82.187508141514
 30
0.0
 11
197.027756035624
 21
82.187508141514
 31
0.0
  0
LINE
  5
318
330
1AF
100
AcDbEntity
  8
Stammform
  6
AUSGEZOGEN
 62
    56
370
    18
100
AcDbLine
 10
195.699849617777
 20
82.187508141514
 30
0.0
 11
195.035896408854
 21
81.037508141514
 31
0.0
  0
LINE
  5
319
330
1AF
100
AcDbEntity
  8
Stammform
  6
AUSGEZOGEN
 62
    56
370
    18
100
AcDbLine
 10
195.699849617777
 20
84.487508141514
 30
0.0
 11
195.035896408854
 21
83.337508141514
 31
0.0
  0
LINE
  5
31A
330
1AF
100
AcDbEntity
  8
Stammform
  6
AUSGEZOGEN
 62
    56
370
    18
100
AcDbLine
 10
195.699849617777
 20
84.487508141514
 30
0.0
 11
197.027756035624
 21
84.487508141514
 31
0.0
  0
LINE
  5
31B
330
1AF
100
AcDbEntity
  8
Stammform
  6
AUSGEZOGEN
 62
    56
370
    18
100
AcDbLine
 10
195.035896408854
 20
85.637508141514
 30
0.0
 11
195.699849617777
 21
84.487508141514
 31
0.0
  0
LINE
  5
31C
330
1AF
100
AcDbEntity
  8
Layer0
  6
AUSGEZOGEN
 62
     9
370
    18
100
AcDbLine
 10
195.035896408854
 20
85.637508141514
 30
0.0
 11
194.371943199931
 21
84.487508141514
 31
0.0
  0
LINE
  5
31D
330
1AF
100
AcDbEntity
  8
Layer0
  6
AUSGEZOGEN
 62
     9
370
    18
100
AcDbLine
 10
194.371943199931
 20
84.487508141514
 30
0.0
 11
195.035896408854
 21
83.337508141514
 31
0.0
  0
LINE
  5
31E
330
1AF
100
AcDbEntity
  8
Layer0
  6
AUSGEZOGEN
 62
     9
370
    18
100
AcDbLine
 10
195.035896408854
 20
83.337508141514
 30
0.0
 11
196.363802826701
 21
83.337508141514
 31
0.0
  0
LINE
  5
31F
330
1AF
100
AcDbEntity
  8
Layer0
  6
AUSGEZOGEN
 62
     9
370
    18
100
AcDbLine
 10
196.363802826701
 20
83.337508141514
 30
0.0
 11
197.027756035624
 21
84.487508141514
 31
0.0
  0
LINE
  5
320
330
1AF
100
AcDbEntity
  8
Layer0
  6
AUSGEZOGEN
 62
     9
370
    18
100
AcDbLine
 10
197.027756035624
 20
84.487508141514
 30
0.0
 11
196.363802826701
 21
85.637508141514
 31
0.0
  0
LINE
  5
321
330
1AF
100
AcDbEntity
  8
Layer0
  6
AUSGEZOGEN
 62
     9
370
    18
100
AcDbLine
 10
196.363802826701
 20
85.637508141514
 30
0.0
 11
195.035896408854
 21
85.637508141514
 31
0.0
  0
LINE
  5
322
330
1AF
100
AcDbEntity
  8
Stammform
  6
AUSGEZOGEN
 62
    56
370
    18
100
AcDbLine
 10
195.035896408854
 20
81.037508141514
 30
0.0
 11
195.699849617777
 21
79.887508141514
 31
0.0
  0
LINE
  5
323
330
1AF
100
AcDbEntity
  8
Layer0
  6
AUSGEZOGEN
 62
     9
370
    18
100
AcDbLine
 10
195.035896408854
 20
81.037508141514
 30
0.0
 11
194.371943199931
 21
79.887508141514
 31
0.0
  0
LINE
  5
324
330
1AF
100
AcDbEntity
  8
Layer0
  6
AUSGEZOGEN
 62
     9
370
    18
100
AcDbLine
 10
196.986095536014
 20
79.959666200106
 30
0.0
 11
196.363802826701
 21
81.037508141514
 31
0.0
  0
LINE
  5
325
330
1AF
100
AcDbEntity
  8
Layer0
  6
AUSGEZOGEN
 62
     9
370
    18
100
AcDbLine
 10
196.363802826701
 20
81.037508141514
 30
0.0
 11
195.035896408854
 21
81.037508141514
 31
0.0
  0
LINE
  5
326
330
1AF
100
AcDbEntity
  8
Layer0
  6
AUSGEZOGEN
 62
     9
370
    18
100
AcDbLine
 10
193.044036782084
 20
84.487508141514
 30
0.0
 11
192.380087960062
 21
83.337508141514
 31
0.0
  0
LINE
  5
327
330
1AF
100
AcDbEntity
  8
Layer0
  6
AUSGEZOGEN
 62
     9
370
    18
100
AcDbLine
 10
192.380087960062
 20
83.337508141514
 30
0.0
 11
193.044036782084
 21
82.187508141514
 31
0.0
  0
LINE
  5
328
330
1AF
100
AcDbEntity
  8
Layer0
  6
AUSGEZOGEN
 62
     9
370
    18
100
AcDbLine
 10
193.044036782084
 20
82.187508141514
 30
0.0
 11
194.371943199931
 21
82.187508141514
 31
0.0
  0
LINE
  5
329
330
1AF
100
AcDbEntity
  8
Layer0
  6
AUSGEZOGEN
 62
     9
370
    18
100
AcDbLine
 10
194.371943199931
 20
82.187508141514
 30
0.0
 11
195.035896408854
 21
83.337508141514
 31
0.0
  0
LINE
  5
32A
330
1AF
100
AcDbEntity
  8
Layer0
  6
AUSGEZOGEN
 62
     9
370
    18
100
AcDbLine
 10
195.035896408854
 20
83.337508141514
 30
0.0
 11
194.371943199931
 21
84.487508141514
 31
0.0
  0
LINE
  5
32B
330
1AF
100
AcDbEntity
  8
Layer0
  6
AUSGEZOGEN
 62
     9
370
    18
100
AcDbLine
 10
194.371943199931
 20
84.487508141514
 30
0.0
 11
193.044036782084
 21
84.487508141514
 31
0.0
  0
LINE
  5
32C
330
1AF
100
AcDbEntity
  8
Stammform
  6
AUSGEZOGEN
 62
    56
370
    18
100
AcDbLine
 10
193.044036782084
 20
84.487508141514
 30
0.0
 11
193.707989991007
 21
83.337508141514
 31
0.0
  0
LINE
  5
32D
330
1AF
100
AcDbEntity
  8
Stammform
  6
AUSGEZOGEN
 62
    56
370
    18
100
AcDbLine
 10
193.707989991007
 20
83.337508141514
 30
0.0
 11
195.035896408854
 21
83.337508141514
 31
0.0
  0
LINE
  5
32E
330
1AF
100
AcDbEntity
  8
Stammform
  6
AUSGEZOGEN
 62
    56
370
    18
100
AcDbLine
 10
193.707989991007
 20
83.337508141514
 30
0.0
 11
193.044036782084
 21
82.187508141514
 31
0.0
  0
LINE
  5
32F
330
1AF
100
AcDbEntity
  8
Stammform
  6
AUSGEZOGEN
 62
    56
370
    18
100
AcDbLine
 10
193.707989991007
 20
81.037508141514
 30
0.0
 11
193.202485521546
 21
80.161949243586
 31
0.0
  0
LINE
  5
330
330
1AF
100
AcDbEntity
  8
Stammform
  6
AUSGEZOGEN
 62
    56
370
    18
100
AcDbLine
 10
193.707989991007
 20
81.037508141514
 30
0.0
 11
195.035896408854
 21
81.037508141514
 31
0.0
  0
LINE
  5
331
330
1AF
100
AcDbEntity
  8
Stammform
  6
AUSGEZOGEN
 62
    56
370
    18
100
AcDbLine
 10
193.044036782084
 20
82.187508141514
 30
0.0
 11
193.707989991007
 21
81.037508141514
 31
0.0
  0
LINE
  5
332
330
1AF
100
AcDbEntity
  8
Layer0
  6
AUSGEZOGEN
 62
     9
370
    18
100
AcDbLine
 10
193.044036782084
 20
82.187508141514
 30
0.0
 11
192.380087960062
 21
81.037508141514
 31
0.0
  0
LINE
  5
333
330
1AF
100
AcDbEntity
  8
Layer0
  6
AUSGEZOGEN
 62
     9
370
    18
100
AcDbLine
 10
194.41360369954
 20
79.959666200106
 30
0.0
 11
195.035896408854
 21
81.037508141514
 31
0.0
  0
LINE
  5
334
330
1AF
100
AcDbEntity
  8
Layer0
  6
AUSGEZOGEN
 62
     9
370
    18
100
AcDbLine
 10
195.035896408854
 20
81.037508141514
 30
0.0
 11
194.371943199931
 21
82.187508141514
 31
0.0
  0
LINE
  5
335
330
1AF
100
AcDbEntity
  8
Layer0
  6
AUSGEZOGEN
 62
     9
370
    18
100
AcDbLine
 10
194.371943199931
 20
82.187508141514
 30
0.0
 11
193.044036782084
 21
82.187508141514
 31
0.0
  0
LINE
  5
336
330
1AF
100
AcDbEntity
  8
Layer0
  6
AUSGEZOGEN
 62
     9
370
    18
100
AcDbLine
 10
193.044036782084
 20
100.587508141514
 30
0.0
 11
192.380087960062
 21
99.437508141514
 31
0.0
  0
LINE
  5
337
330
1AF
100
AcDbEntity
  8
Layer0
  6
AUSGEZOGEN
 62
     9
370
    18
100
AcDbLine
 10
192.380087960062
 20
99.437508141514
 30
0.0
 11
193.044036782084
 21
98.287508141514
 31
0.0
  0
LINE
  5
338
330
1AF
100
AcDbEntity
  8
Layer0
  6
AUSGEZOGEN
 62
     9
370
    18
100
AcDbLine
 10
193.044036782084
 20
98.287508141514
 30
0.0
 11
194.371943199931
 21
98.287508141514
 31
0.0
  0
LINE
  5
339
330
1AF
100
AcDbEntity
  8
Layer0
  6
AUSGEZOGEN
 62
     9
370
    18
100
AcDbLine
 10
194.371943199931
 20
98.287508141514
 30
0.0
 11
195.035896408854
 21
99.437508141514
 31
0.0
  0
LINE
  5
33A
330
1AF
100
AcDbEntity
  8
Layer0
  6
AUSGEZOGEN
 62
     9
370
    18
100
AcDbLine
 10
195.035896408854
 20
99.437508141514
 30
0.0
 11
194.371943199931
 21
100.587508141514
 31
0.0
  0
LINE
  5
33B
330
1AF
100
AcDbEntity
  8
Layer0
  6
AUSGEZOGEN
 62
     9
370
    18
100
AcDbLine
 10
194.371943199931
 20
100.587508141514
 30
0.0
 11
193.044036782084
 21
100.587508141514
 31
0.0
  0
LINE
  5
33C
330
1AF
100
AcDbEntity
  8
Stammform
  6
AUSGEZOGEN
 62
    56
370
    18
100
AcDbLine
 10
193.044036782084
 20
100.587508141514
 30
0.0
 11
193.707989991007
 21
99.437508141514
 31
0.0
  0
LINE
  5
33D
330
1AF
100
AcDbEntity
  8
Stammform
  6
AUSGEZOGEN
 62
    56
370
    18
100
AcDbLine
 10
193.707989991007
 20
99.437508141514
 30
0.0
 11
195.035896408854
 21
99.437508141514
 31
0.0
  0
LINE
  5
33E
330
1AF
100
AcDbEntity
  8
Stammform
  6
AUSGEZOGEN
 62
    56
370
    18
100
AcDbLine
 10
193.707989991007
 20
99.437508141514
 30
0.0
 11
193.044036782084
 21
98.287508141514
 31
0.0
  0
LINE
  5
33F
330
1AF
100
AcDbEntity
  8
Stammform
  6
AUSGEZOGEN
 62
    56
370
    18
100
AcDbLine
 10
193.707989991007
 20
101.737508141514
 30
0.0
 11
193.044036782084
 21
100.587508141514
 31
0.0
  0
LINE
  5
340
330
1AF
100
AcDbEntity
  8
Stammform
  6
AUSGEZOGEN
 62
    56
370
    18
100
AcDbLine
 10
193.707989991007
 20
101.737508141514
 30
0.0
 11
195.035896408854
 21
101.737508141514
 31
0.0
  0
LINE
  5
341
330
1AF
100
AcDbEntity
  8
Stammform
  6
AUSGEZOGEN
 62
    56
370
    18
100
AcDbLine
 10
193.202485521546
 20
102.613067039443
 30
0.0
 11
193.707989991007
 21
101.737508141514
 31
0.0
  0
LINE
  5
342
330
1AF
100
AcDbEntity
  8
Layer0
  6
AUSGEZOGEN
 62
     9
370
    18
100
AcDbLine
 10
192.380087960062
 20
101.737508141514
 30
0.0
 11
193.044036782084
 21
100.587508141514
 31
0.0
  0
LINE
  5
343
330
1AF
100
AcDbEntity
  8
Layer0
  6
AUSGEZOGEN
 62
     9
370
    18
100
AcDbLine
 10
193.044036782084
 20
100.587508141514
 30
0.0
 11
194.371943199931
 21
100.587508141514
 31
0.0
  0
LINE
  5
344
330
1AF
100
AcDbEntity
  8
Layer0
  6
AUSGEZOGEN
 62
     9
370
    18
100
AcDbLine
 10
194.371943199931
 20
100.587508141514
 30
0.0
 11
195.035896408854
 21
101.737508141514
 31
0.0
  0
LINE
  5
345
330
1AF
100
AcDbEntity
  8
Layer0
  6
AUSGEZOGEN
 62
     9
370
    18
100
AcDbLine
 10
195.035896408854
 20
101.737508141514
 30
0.0
 11
194.41360369954
 21
102.815350082923
 31
0.0
  0
LINE
  5
346
330
1AF
100
AcDbEntity
  8
Layer0
  6
AUSGEZOGEN
 62
     9
370
    18
100
AcDbLine
 10
193.044036782084
 20
95.987508141514
 30
0.0
 11
192.380087960062
 21
94.837508141514
 31
0.0
  0
LINE
  5
347
330
1AF
100
AcDbEntity
  8
Layer0
  6
AUSGEZOGEN
 62
     9
370
    18
100
AcDbLine
 10
192.380087960062
 20
94.837508141514
 30
0.0
 11
193.044036782084
 21
93.687508141514
 31
0.0
  0
LINE
  5
348
330
1AF
100
AcDbEntity
  8
Layer0
  6
AUSGEZOGEN
 62
     9
370
    18
100
AcDbLine
 10
193.044036782084
 20
93.687508141514
 30
0.0
 11
194.371943199931
 21
93.687508141514
 31
0.0
  0
LINE
  5
349
330
1AF
100
AcDbEntity
  8
Layer0
  6
AUSGEZOGEN
 62
     9
370
    18
100
AcDbLine
 10
194.371943199931
 20
93.687508141514
 30
0.0
 11
195.035896408854
 21
94.837508141514
 31
0.0
  0
LINE
  5
34A
330
1AF
100
AcDbEntity
  8
Layer0
  6
AUSGEZOGEN
 62
     9
370
    18
100
AcDbLine
 10
195.035896408854
 20
94.837508141514
 30
0.0
 11
194.371943199931
 21
95.987508141514
 31
0.0
  0
LINE
  5
34B
330
1AF
100
AcDbEntity
  8
Layer0
  6
AUSGEZOGEN
 62
     9
370
    18
100
AcDbLine
 10
194.371943199931
 20
95.987508141514
 30
0.0
 11
193.044036782084
 21
95.987508141514
 31
0.0
  0
LINE
  5
34C
330
1AF
100
AcDbEntity
  8
Stammform
  6
AUSGEZOGEN
 62
    56
370
    18
100
AcDbLine
 10
193.044036782084
 20
95.987508141514
 30
0.0
 11
193.707989991007
 21
94.837508141514
 31
0.0
  0
LINE
  5
34D
330
1AF
100
AcDbEntity
  8
Stammform
  6
AUSGEZOGEN
 62
    56
370
    18
100
AcDbLine
 10
193.707989991007
 20
94.837508141514
 30
0.0
 11
195.035896408854
 21
94.837508141514
 31
0.0
  0
LINE
  5
34E
330
1AF
100
AcDbEntity
  8
Stammform
  6
AUSGEZOGEN
 62
    56
370
    18
100
AcDbLine
 10
193.707989991007
 20
94.837508141514
 30
0.0
 11
193.044036782084
 21
93.687508141514
 31
0.0
  0
LINE
  5
34F
330
1AF
100
AcDbEntity
  8
Stammform
  6
AUSGEZOGEN
 62
    56
370
    18
100
AcDbLine
 10
193.707989991007
 20
97.137508141514
 30
0.0
 11
193.044036782084
 21
95.987508141514
 31
0.0
  0
LINE
  5
350
330
1AF
100
AcDbEntity
  8
Stammform
  6
AUSGEZOGEN
 62
    56
370
    18
100
AcDbLine
 10
193.707989991007
 20
97.137508141514
 30
0.0
 11
195.035896408854
 21
97.137508141514
 31
0.0
  0
LINE
  5
351
330
1AF
100
AcDbEntity
  8
Stammform
  6
AUSGEZOGEN
 62
    56
370
    18
100
AcDbLine
 10
193.044036782084
 20
98.287508141514
 30
0.0
 11
193.707989991007
 21
97.137508141514
 31
0.0
  0
LINE
  5
352
330
1AF
100
AcDbEntity
  8
Layer0
  6
AUSGEZOGEN
 62
     9
370
    18
100
AcDbLine
 10
193.044036782084
 20
98.287508141514
 30
0.0
 11
192.380087960062
 21
97.137508141514
 31
0.0
  0
LINE
  5
353
330
1AF
100
AcDbEntity
  8
Layer0
  6
AUSGEZOGEN
 62
     9
370
    18
100
AcDbLine
 10
192.380087960062
 20
97.137508141514
 30
0.0
 11
193.044036782084
 21
95.987508141514
 31
0.0
  0
LINE
  5
354
330
1AF
100
AcDbEntity
  8
Layer0
  6
AUSGEZOGEN
 62
     9
370
    18
100
AcDbLine
 10
193.044036782084
 20
95.987508141514
 30
0.0
 11
194.371943199931
 21
95.987508141514
 31
0.0
  0
LINE
  5
355
330
1AF
100
AcDbEntity
  8
Layer0
  6
AUSGEZOGEN
 62
     9
370
    18
100
AcDbLine
 10
194.371943199931
 20
95.987508141514
 30
0.0
 11
195.035896408854
 21
97.137508141514
 31
0.0
  0
LINE
  5
356
330
1AF
100
AcDbEntity
  8
Layer0
  6
AUSGEZOGEN
 62
     9
370
    18
100
AcDbLine
 10
195.035896408854
 20
97.137508141514
 30
0.0
 11
194.371943199931
 21
98.287508141514
 31
0.0
  0
LINE
  5
357
330
1AF
100
AcDbEntity
  8
Layer0
  6
AUSGEZOGEN
 62
     9
370
    18
100
AcDbLine
 10
194.371943199931
 20
98.287508141514
 30
0.0
 11
193.044036782084
 21
98.287508141514
 31
0.0
  0
LINE
  5
358
330
1AF
100
AcDbEntity
  8
Layer0
  6
AUSGEZOGEN
 62
     9
370
    18
100
AcDbLine
 10
193.044036782084
 20
91.387508141514
 30
0.0
 11
192.380087960062
 21
90.237508141514
 31
0.0
  0
LINE
  5
359
330
1AF
100
AcDbEntity
  8
Layer0
  6
AUSGEZOGEN
 62
     9
370
    18
100
AcDbLine
 10
192.380087960062
 20
90.237508141514
 30
0.0
 11
193.044036782084
 21
89.087508141514
 31
0.0
  0
LINE
  5
35A
330
1AF
100
AcDbEntity
  8
Layer0
  6
AUSGEZOGEN
 62
     9
370
    18
100
AcDbLine
 10
193.044036782084
 20
89.087508141514
 30
0.0
 11
194.371943199931
 21
89.087508141514
 31
0.0
  0
LINE
  5
35B
330
1AF
100
AcDbEntity
  8
Layer0
  6
AUSGEZOGEN
 62
     9
370
    18
100
AcDbLine
 10
194.371943199931
 20
89.087508141514
 30
0.0
 11
195.035896408854
 21
90.237508141514
 31
0.0
  0
LINE
  5
35C
330
1AF
100
AcDbEntity
  8
Layer0
  6
AUSGEZOGEN
 62
     9
370
    18
100
AcDbLine
 10
195.035896408854
 20
90.237508141514
 30
0.0
 11
194.371943199931
 21
91.387508141514
 31
0.0
  0
LINE
  5
35D
330
1AF
100
AcDbEntity
  8
Layer0
  6
AUSGEZOGEN
 62
     9
370
    18
100
AcDbLine
 10
194.371943199931
 20
91.387508141514
 30
0.0
 11
193.044036782084
 21
91.387508141514
 31
0.0
  0
LINE
  5
35E
330
1AF
100
AcDbEntity
  8
Stammform
  6
AUSGEZOGEN
 62
    56
370
    18
100
AcDbLine
 10
193.044036782084
 20
91.387508141514
 30
0.0
 11
193.707989991007
 21
90.237508141514
 31
0.0
  0
LINE
  5
35F
330
1AF
100
AcDbEntity
  8
Stammform
  6
AUSGEZOGEN
 62
    56
370
    18
100
AcDbLine
 10
193.707989991007
 20
90.237508141514
 30
0.0
 11
195.035896408854
 21
90.237508141514
 31
0.0
  0
LINE
  5
360
330
1AF
100
AcDbEntity
  8
Stammform
  6
AUSGEZOGEN
 62
    56
370
    18
100
AcDbLine
 10
193.707989991007
 20
90.237508141514
 30
0.0
 11
193.044036782084
 21
89.087508141514
 31
0.0
  0
LINE
  5
361
330
1AF
100
AcDbEntity
  8
Stammform
  6
AUSGEZOGEN
 62
    56
370
    18
100
AcDbLine
 10
193.707989991007
 20
92.537508141514
 30
0.0
 11
193.044036782084
 21
91.387508141514
 31
0.0
  0
LINE
  5
362
330
1AF
100
AcDbEntity
  8
Stammform
  6
AUSGEZOGEN
 62
    56
370
    18
100
AcDbLine
 10
193.707989991007
 20
92.537508141514
 30
0.0
 11
195.035896408854
 21
92.537508141514
 31
0.0
  0
LINE
  5
363
330
1AF
100
AcDbEntity
  8
Stammform
  6
AUSGEZOGEN
 62
    56
370
    18
100
AcDbLine
 10
193.044036782084
 20
93.687508141514
 30
0.0
 11
193.707989991007
 21
92.537508141514
 31
0.0
  0
LINE
  5
364
330
1AF
100
AcDbEntity
  8
Layer0
  6
AUSGEZOGEN
 62
     9
370
    18
100
AcDbLine
 10
193.044036782084
 20
93.687508141514
 30
0.0
 11
192.380087960062
 21
92.537508141514
 31
0.0
  0
LINE
  5
365
330
1AF
100
AcDbEntity
  8
Layer0
  6
AUSGEZOGEN
 62
     9
370
    18
100
AcDbLine
 10
192.380087960062
 20
92.537508141514
 30
0.0
 11
193.044036782084
 21
91.387508141514
 31
0.0
  0
LINE
  5
366
330
1AF
100
AcDbEntity
  8
Layer0
  6
AUSGEZOGEN
 62
     9
370
    18
100
AcDbLine
 10
193.044036782084
 20
91.387508141514
 30
0.0
 11
194.371943199931
 21
91.387508141514
 31
0.0
  0
LINE
  5
367
330
1AF
100
AcDbEntity
  8
Layer0
  6
AUSGEZOGEN
 62
     9
370
    18
100
AcDbLine
 10
194.371943199931
 20
91.387508141514
 30
0.0
 11
195.035896408854
 21
92.537508141514
 31
0.0
  0
LINE
  5
368
330
1AF
100
AcDbEntity
  8
Layer0
  6
AUSGEZOGEN
 62
     9
370
    18
100
AcDbLine
 10
195.035896408854
 20
92.537508141514
 30
0.0
 11
194.371943199931
 21
93.687508141514
 31
0.0
  0
LINE
  5
369
330
1AF
100
AcDbEntity
  8
Layer0
  6
AUSGEZOGEN
 62
     9
370
    18
100
AcDbLine
 10
194.371943199931
 20
93.687508141514
 30
0.0
 11
193.044036782084
 21
93.687508141514
 31
0.0
  0
LINE
  5
36A
330
1AF
100
AcDbEntity
  8
Layer0
  6
AUSGEZOGEN
 62
     9
370
    18
100
AcDbLine
 10
193.044036782084
 20
89.087508141514
 30
0.0
 11
192.380087960062
 21
87.937508141514
 31
0.0
  0
LINE
  5
36B
330
1AF
100
AcDbEntity
  8
Layer0
  6
AUSGEZOGEN
 62
     9
370
    18
100
AcDbLine
 10
192.380087960062
 20
87.937508141514
 30
0.0
 11
193.044036782084
 21
86.787508141514
 31
0.0
  0
LINE
  5
36C
330
1AF
100
AcDbEntity
  8
Layer0
  6
AUSGEZOGEN
 62
     9
370
    18
100
AcDbLine
 10
193.044036782084
 20
86.787508141514
 30
0.0
 11
194.371943199931
 21
86.787508141514
 31
0.0
  0
LINE
  5
36D
330
1AF
100
AcDbEntity
  8
Layer0
  6
AUSGEZOGEN
 62
     9
370
    18
100
AcDbLine
 10
194.371943199931
 20
86.787508141514
 30
0.0
 11
195.035896408854
 21
87.937508141514
 31
0.0
  0
LINE
  5
36E
330
1AF
100
AcDbEntity
  8
Layer0
  6
AUSGEZOGEN
 62
     9
370
    18
100
AcDbLine
 10
195.035896408854
 20
87.937508141514
 30
0.0
 11
194.371943199931
 21
89.087508141514
 31
0.0
  0
LINE
  5
36F
330
1AF
100
AcDbEntity
  8
Layer0
  6
AUSGEZOGEN
 62
     9
370
    18
100
AcDbLine
 10
194.371943199931
 20
89.087508141514
 30
0.0
 11
193.044036782084
 21
89.087508141514
 31
0.0
  0
LINE
  5
370
330
1AF
100
AcDbEntity
  8
Stammform
  6
AUSGEZOGEN
 62
    56
370
    18
100
AcDbLine
 10
193.044036782084
 20
89.087508141514
 30
0.0
 11
193.707989991007
 21
87.937508141514
 31
0.0
  0
LINE
  5
371
330
1AF
100
AcDbEntity
  8
Stammform
  6
AUSGEZOGEN
 62
    56
370
    18
100
AcDbLine
 10
193.707989991007
 20
87.937508141514
 30
0.0
 11
195.035896408854
 21
87.937508141514
 31
0.0
  0
LINE
  5
372
330
1AF
100
AcDbEntity
  8
Stammform
  6
AUSGEZOGEN
 62
    56
370
    18
100
AcDbLine
 10
193.707989991007
 20
87.937508141514
 30
0.0
 11
193.044036782084
 21
86.787508141514
 31
0.0
  0
LINE
  5
373
330
1AF
100
AcDbEntity
  8
Stammform
  6
AUSGEZOGEN
 62
    56
370
    18
100
AcDbLine
 10
193.707989991007
 20
85.637508141514
 30
0.0
 11
193.044036782084
 21
84.487508141514
 31
0.0
  0
LINE
  5
374
330
1AF
100
AcDbEntity
  8
Stammform
  6
AUSGEZOGEN
 62
    56
370
    18
100
AcDbLine
 10
193.707989991007
 20
85.637508141514
 30
0.0
 11
195.035896408854
 21
85.637508141514
 31
0.0
  0
LINE
  5
375
330
1AF
100
AcDbEntity
  8
Stammform
  6
AUSGEZOGEN
 62
    56
370
    18
100
AcDbLine
 10
193.044036782084
 20
86.787508141514
 30
0.0
 11
193.707989991007
 21
85.637508141514
 31
0.0
  0
LINE
  5
376
330
1AF
100
AcDbEntity
  8
Layer0
  6
AUSGEZOGEN
 62
     9
370
    18
100
AcDbLine
 10
193.044036782084
 20
86.787508141514
 30
0.0
 11
192.380087960062
 21
85.637508141514
 31
0.0
  0
LINE
  5
377
330
1AF
100
AcDbEntity
  8
Layer0
  6
AUSGEZOGEN
 62
     9
370
    18
100
AcDbLine
 10
192.380087960062
 20
85.637508141514
 30
0.0
 11
193.044036782084
 21
84.487508141514
 31
0.0
  0
LINE
  5
378
330
1AF
100
AcDbEntity
  8
Layer0
  6
AUSGEZOGEN
 62
     9
370
    18
100
AcDbLine
 10
193.044036782084
 20
84.487508141514
 30
0.0
 11
194.371943199931
 21
84.487508141514
 31
0.0
  0
LINE
  5
379
330
1AF
100
AcDbEntity
  8
Layer0
  6
AUSGEZOGEN
 62
     9
370
    18
100
AcDbLine
 10
194.371943199931
 20
84.487508141514
 30
0.0
 11
195.035896408854
 21
85.637508141514
 31
0.0
  0
LINE
  5
37A
330
1AF
100
AcDbEntity
  8
Layer0
  6
AUSGEZOGEN
 62
     9
370
    18
100
AcDbLine
 10
195.035896408854
 20
85.637508141514
 30
0.0
 11
194.371943199931
 21
86.787508141514
 31
0.0
  0
LINE
  5
37B
330
1AF
100
AcDbEntity
  8
Layer0
  6
AUSGEZOGEN
 62
     9
370
    18
100
AcDbLine
 10
194.371943199931
 20
86.787508141514
 30
0.0
 11
193.044036782084
 21
86.787508141514
 31
0.0
  0
LINE
  5
37C
330
1AF
100
AcDbEntity
  8
Layer0
  6
AUSGEZOGEN
 62
     9
370
    18
100
AcDbLine
 10
199.019615662394
 20
87.937508141514
 30
0.0
 11
198.355662453471
 21
86.787508141514
 31
0.0
  0
LINE
  5
37D
330
1AF
100
AcDbEntity
  8
Layer0
  6
AUSGEZOGEN
 62
     9
370
    18
100
AcDbLine
 10
198.355662453471
 20
86.787508141514
 30
0.0
 11
199.019615662394
 21
85.637508141514
 31
0.0
  0
LINE
  5
37E
330
1AF
100
AcDbEntity
  8
Layer0
  6
AUSGEZOGEN
 62
     9
370
    18
100
AcDbLine
 10
199.019615662394
 20
85.637508141514
 30
0.0
 11
200.347522080241
 21
85.637508141514
 31
0.0
  0
LINE
  5
37F
330
1AF
100
AcDbEntity
  8
Layer0
  6
AUSGEZOGEN
 62
     9
370
    18
100
AcDbLine
 10
200.347522080241
 20
85.637508141514
 30
0.0
 11
201.011470902262
 21
86.787508141514
 31
0.0
  0
LINE
  5
380
330
1AF
100
AcDbEntity
  8
Layer0
  6
AUSGEZOGEN
 62
     9
370
    18
100
AcDbLine
 10
201.011470902262
 20
86.787508141514
 30
0.0
 11
200.347522080241
 21
87.937508141514
 31
0.0
  0
LINE
  5
381
330
1AF
100
AcDbEntity
  8
Layer0
  6
AUSGEZOGEN
 62
     9
370
    18
100
AcDbLine
 10
200.347522080241
 20
87.937508141514
 30
0.0
 11
199.019615662394
 21
87.937508141514
 31
0.0
  0
LINE
  5
382
330
1AF
100
AcDbEntity
  8
Stammform
  6
AUSGEZOGEN
 62
    56
370
    18
100
AcDbLine
 10
199.019615662394
 20
87.937508141514
 30
0.0
 11
199.683564484415
 21
86.787508141514
 31
0.0
  0
LINE
  5
383
330
1AF
100
AcDbEntity
  8
Stammform
  6
AUSGEZOGEN
 62
    56
370
    18
100
AcDbLine
 10
199.683564484415
 20
86.787508141514
 30
0.0
 11
201.011470902262
 21
86.787508141514
 31
0.0
  0
LINE
  5
384
330
1AF
100
AcDbEntity
  8
Stammform
  6
AUSGEZOGEN
 62
    56
370
    18
100
AcDbLine
 10
199.683564484415
 20
86.787508141514
 30
0.0
 11
199.019615662394
 21
85.637508141514
 31
0.0
  0
LINE
  5
385
330
1AF
100
AcDbEntity
  8
Stammform
  6
AUSGEZOGEN
 62
    56
370
    18
100
AcDbLine
 10
199.683564484415
 20
89.087508141514
 30
0.0
 11
199.019615662394
 21
87.937508141514
 31
0.0
  0
LINE
  5
386
330
1AF
100
AcDbEntity
  8
Stammform
  6
AUSGEZOGEN
 62
    56
370
    18
100
AcDbLine
 10
199.683564484415
 20
89.087508141514
 30
0.0
 11
201.011470902262
 21
89.087508141514
 31
0.0
  0
LINE
  5
387
330
1AF
100
AcDbEntity
  8
Stammform
  6
AUSGEZOGEN
 62
    56
370
    18
100
AcDbLine
 10
199.019615662394
 20
90.237508141514
 30
0.0
 11
199.683564484415
 21
89.087508141514
 31
0.0
  0
LINE
  5
388
330
1AF
100
AcDbEntity
  8
Layer0
  6
AUSGEZOGEN
 62
     9
370
    18
100
AcDbLine
 10
199.019615662394
 20
90.237508141514
 30
0.0
 11
198.355662453471
 21
89.087508141514
 31
0.0
  0
LINE
  5
389
330
1AF
100
AcDbEntity
  8
Layer0
  6
AUSGEZOGEN
 62
     9
370
    18
100
AcDbLine
 10
198.355662453471
 20
89.087508141514
 30
0.0
 11
199.019615662394
 21
87.937508141514
 31
0.0
  0
LINE
  5
38A
330
1AF
100
AcDbEntity
  8
Layer0
  6
AUSGEZOGEN
 62
     9
370
    18
100
AcDbLine
 10
199.019615662394
 20
87.937508141514
 30
0.0
 11
200.347522080241
 21
87.937508141514
 31
0.0
  0
LINE
  5
38B
330
1AF
100
AcDbEntity
  8
Layer0
  6
AUSGEZOGEN
 62
     9
370
    18
100
AcDbLine
 10
200.347522080241
 20
87.937508141514
 30
0.0
 11
201.011470902262
 21
89.087508141514
 31
0.0
  0
LINE
  5
38C
330
1AF
100
AcDbEntity
  8
Layer0
  6
AUSGEZOGEN
 62
     9
370
    18
100
AcDbLine
 10
201.011470902262
 20
89.087508141514
 30
0.0
 11
200.347522080241
 21
90.237508141514
 31
0.0
  0
LINE
  5
38D
330
1AF
100
AcDbEntity
  8
Layer0
  6
AUSGEZOGEN
 62
     9
370
    18
100
AcDbLine
 10
200.347522080241
 20
90.237508141514
 30
0.0
 11
199.019615662394
 21
90.237508141514
 31
0.0
  0
LINE
  5
38E
330
1AF
100
AcDbEntity
  8
Layer0
  6
AUSGEZOGEN
 62
     9
370
    18
100
AcDbLine
 10
199.019615662394
 20
94.837508141514
 30
0.0
 11
198.355662453471
 21
93.687508141514
 31
0.0
  0
LINE
  5
38F
330
1AF
100
AcDbEntity
  8
Layer0
  6
AUSGEZOGEN
 62
     9
370
    18
100
AcDbLine
 10
198.355662453471
 20
93.687508141514
 30
0.0
 11
199.019615662394
 21
92.537508141514
 31
0.0
  0
LINE
  5
390
330
1AF
100
AcDbEntity
  8
Layer0
  6
AUSGEZOGEN
 62
     9
370
    18
100
AcDbLine
 10
199.019615662394
 20
92.537508141514
 30
0.0
 11
200.347522080241
 21
92.537508141514
 31
0.0
  0
LINE
  5
391
330
1AF
100
AcDbEntity
  8
Layer0
  6
AUSGEZOGEN
 62
     9
370
    18
100
AcDbLine
 10
200.347522080241
 20
92.537508141514
 30
0.0
 11
201.011470902262
 21
93.687508141514
 31
0.0
  0
LINE
  5
392
330
1AF
100
AcDbEntity
  8
Layer0
  6
AUSGEZOGEN
 62
     9
370
    18
100
AcDbLine
 10
201.011470902262
 20
93.687508141514
 30
0.0
 11
200.347522080241
 21
94.837508141514
 31
0.0
  0
LINE
  5
393
330
1AF
100
AcDbEntity
  8
Layer0
  6
AUSGEZOGEN
 62
     9
370
    18
100
AcDbLine
 10
200.347522080241
 20
94.837508141514
 30
0.0
 11
199.019615662394
 21
94.837508141514
 31
0.0
  0
LINE
  5
394
330
1AF
100
AcDbEntity
  8
Stammform
  6
AUSGEZOGEN
 62
    56
370
    18
100
AcDbLine
 10
199.019615662394
 20
94.837508141514
 30
0.0
 11
199.683564484415
 21
93.687508141514
 31
0.0
  0
LINE
  5
395
330
1AF
100
AcDbEntity
  8
Stammform
  6
AUSGEZOGEN
 62
    56
370
    18
100
AcDbLine
 10
199.683564484415
 20
93.687508141514
 30
0.0
 11
201.011470902262
 21
93.687508141514
 31
0.0
  0
LINE
  5
396
330
1AF
100
AcDbEntity
  8
Stammform
  6
AUSGEZOGEN
 62
    56
370
    18
100
AcDbLine
 10
199.683564484415
 20
93.687508141514
 30
0.0
 11
199.019615662394
 21
92.537508141514
 31
0.0
  0
LINE
  5
397
330
1AF
100
AcDbEntity
  8
Stammform
  6
AUSGEZOGEN
 62
    56
370
    18
100
AcDbLine
 10
199.683564484415
 20
91.387508141514
 30
0.0
 11
199.019615662394
 21
90.237508141514
 31
0.0
  0
LINE
  5
398
330
1AF
100
AcDbEntity
  8
Stammform
  6
AUSGEZOGEN
 62
    56
370
    18
100
AcDbLine
 10
199.683564484415
 20
91.387508141514
 30
0.0
 11
201.011470902262
 21
91.387508141514
 31
0.0
  0
LINE
  5
399
330
1AF
100
AcDbEntity
  8
Stammform
  6
AUSGEZOGEN
 62
    56
370
    18
100
AcDbLine
 10
199.019615662394
 20
92.537508141514
 30
0.0
 11
199.683564484415
 21
91.387508141514
 31
0.0
  0
LINE
  5
39A
330
1AF
100
AcDbEntity
  8
Layer0
  6
AUSGEZOGEN
 62
     9
370
    18
100
AcDbLine
 10
199.019615662394
 20
92.537508141514
 30
0.0
 11
198.355662453471
 21
91.387508141514
 31
0.0
  0
LINE
  5
39B
330
1AF
100
AcDbEntity
  8
Layer0
  6
AUSGEZOGEN
 62
     9
370
    18
100
AcDbLine
 10
198.355662453471
 20
91.387508141514
 30
0.0
 11
199.019615662394
 21
90.237508141514
 31
0.0
  0
LINE
  5
39C
330
1AF
100
AcDbEntity
  8
Layer0
  6
AUSGEZOGEN
 62
     9
370
    18
100
AcDbLine
 10
199.019615662394
 20
90.237508141514
 30
0.0
 11
200.347522080241
 21
90.237508141514
 31
0.0
  0
LINE
  5
39D
330
1AF
100
AcDbEntity
  8
Layer0
  6
AUSGEZOGEN
 62
     9
370
    18
100
AcDbLine
 10
200.347522080241
 20
90.237508141514
 30
0.0
 11
201.011470902262
 21
91.387508141514
 31
0.0
  0
LINE
  5
39E
330
1AF
100
AcDbEntity
  8
Layer0
  6
AUSGEZOGEN
 62
     9
370
    18
100
AcDbLine
 10
201.011470902262
 20
91.387508141514
 30
0.0
 11
200.347522080241
 21
92.537508141514
 31
0.0
  0
LINE
  5
39F
330
1AF
100
AcDbEntity
  8
Layer0
  6
AUSGEZOGEN
 62
     9
370
    18
100
AcDbLine
 10
200.347522080241
 20
92.537508141514
 30
0.0
 11
199.019615662394
 21
92.537508141514
 31
0.0
  0
LINE
  5
3A0
330
1AF
100
AcDbEntity
  8
Layer0
  6
AUSGEZOGEN
 62
     9
370
    18
100
AcDbLine
 10
199.019615662394
 20
99.437508141514
 30
0.0
 11
198.355662453471
 21
98.287508141514
 31
0.0
  0
LINE
  5
3A1
330
1AF
100
AcDbEntity
  8
Layer0
  6
AUSGEZOGEN
 62
     9
370
    18
100
AcDbLine
 10
198.355662453471
 20
98.287508141514
 30
0.0
 11
199.019615662394
 21
97.137508141514
 31
0.0
  0
LINE
  5
3A2
330
1AF
100
AcDbEntity
  8
Layer0
  6
AUSGEZOGEN
 62
     9
370
    18
100
AcDbLine
 10
199.019615662394
 20
97.137508141514
 30
0.0
 11
200.347522080241
 21
97.137508141514
 31
0.0
  0
LINE
  5
3A3
330
1AF
100
AcDbEntity
  8
Layer0
  6
AUSGEZOGEN
 62
     9
370
    18
100
AcDbLine
 10
200.347522080241
 20
97.137508141514
 30
0.0
 11
201.011470902262
 21
98.287508141514
 31
0.0
  0
LINE
  5
3A4
330
1AF
100
AcDbEntity
  8
Layer0
  6
AUSGEZOGEN
 62
     9
370
    18
100
AcDbLine
 10
201.011470902262
 20
98.287508141514
 30
0.0
 11
200.347522080241
 21
99.437508141514
 31
0.0
  0
LINE
  5
3A5
330
1AF
100
AcDbEntity
  8
Layer0
  6
AUSGEZOGEN
 62
     9
370
    18
100
AcDbLine
 10
200.347522080241
 20
99.437508141514
 30
0.0
 11
199.019615662394
 21
99.437508141514
 31
0.0
  0
LINE
  5
3A6
330
1AF
100
AcDbEntity
  8
Stammform
  6
AUSGEZOGEN
 62
    56
370
    18
100
AcDbLine
 10
199.019615662394
 20
99.437508141514
 30
0.0
 11
199.683564484415
 21
98.287508141514
 31
0.0
  0
LINE
  5
3A7
330
1AF
100
AcDbEntity
  8
Stammform
  6
AUSGEZOGEN
 62
    56
370
    18
100
AcDbLine
 10
199.683564484415
 20
98.287508141514
 30
0.0
 11
201.011470902262
 21
98.287508141514
 31
0.0
  0
LINE
  5
3A8
330
1AF
100
AcDbEntity
  8
Stammform
  6
AUSGEZOGEN
 62
    56
370
    18
100
AcDbLine
 10
199.683564484415
 20
98.287508141514
 30
0.0
 11
199.019615662394
 21
97.137508141514
 31
0.0
  0
LINE
  5
3A9
330
1AF
100
AcDbEntity
  8
Stammform
  6
AUSGEZOGEN
 62
    56
370
    18
100
AcDbLine
 10
199.683564484415
 20
95.987508141514
 30
0.0
 11
199.019615662394
 21
94.837508141514
 31
0.0
  0
LINE
  5
3AA
330
1AF
100
AcDbEntity
  8
Stammform
  6
AUSGEZOGEN
 62
    56
370
    18
100
AcDbLine
 10
199.683564484415
 20
95.987508141514
 30
0.0
 11
201.011470902262
 21
95.987508141514
 31
0.0
  0
LINE
  5
3AB
330
1AF
100
AcDbEntity
  8
Stammform
  6
AUSGEZOGEN
 62
    56
370
    18
100
AcDbLine
 10
199.019615662394
 20
97.137508141514
 30
0.0
 11
199.683564484415
 21
95.987508141514
 31
0.0
  0
LINE
  5
3AC
330
1AF
100
AcDbEntity
  8
Layer0
  6
AUSGEZOGEN
 62
     9
370
    18
100
AcDbLine
 10
199.019615662394
 20
97.137508141514
 30
0.0
 11
198.355662453471
 21
95.987508141514
 31
0.0
  0
LINE
  5
3AD
330
1AF
100
AcDbEntity
  8
Layer0
  6
AUSGEZOGEN
 62
     9
370
    18
100
AcDbLine
 10
198.355662453471
 20
95.987508141514
 30
0.0
 11
199.019615662394
 21
94.837508141514
 31
0.0
  0
LINE
  5
3AE
330
1AF
100
AcDbEntity
  8
Layer0
  6
AUSGEZOGEN
 62
     9
370
    18
100
AcDbLine
 10
199.019615662394
 20
94.837508141514
 30
0.0
 11
200.347522080241
 21
94.837508141514
 31
0.0
  0
LINE
  5
3AF
330
1AF
100
AcDbEntity
  8
Layer0
  6
AUSGEZOGEN
 62
     9
370
    18
100
AcDbLine
 10
200.347522080241
 20
94.837508141514
 30
0.0
 11
201.011470902262
 21
95.987508141514
 31
0.0
  0
LINE
  5
3B0
330
1AF
100
AcDbEntity
  8
Layer0
  6
AUSGEZOGEN
 62
     9
370
    18
100
AcDbLine
 10
201.011470902262
 20
95.987508141514
 30
0.0
 11
200.347522080241
 21
97.137508141514
 31
0.0
  0
LINE
  5
3B1
330
1AF
100
AcDbEntity
  8
Layer0
  6
AUSGEZOGEN
 62
     9
370
    18
100
AcDbLine
 10
200.347522080241
 20
97.137508141514
 30
0.0
 11
199.019615662394
 21
97.137508141514
 31
0.0
  0
LINE
  5
3B2
330
1AF
100
AcDbEntity
  8
Layer0
  6
AUSGEZOGEN
 62
     9
370
    18
100
AcDbLine
 10
198.565034795802
 20
102.52486482502
 30
0.0
 11
199.019615662394
 21
101.737508141514
 31
0.0
  0
LINE
  5
3B3
330
1AF
100
AcDbEntity
  8
Layer0
  6
AUSGEZOGEN
 62
     9
370
    18
100
AcDbLine
 10
199.019615662394
 20
101.737508141514
 30
0.0
 11
200.347522080241
 21
101.737508141514
 31
0.0
  0
LINE
  5
3B4
330
1AF
100
AcDbEntity
  8
Layer0
  6
AUSGEZOGEN
 62
     9
370
    18
100
AcDbLine
 10
200.347522080241
 20
101.737508141514
 30
0.0
 11
200.425100015346
 21
101.871877873657
 31
0.0
  0
LINE
  5
3B5
330
1AF
100
AcDbEntity
  8
Stammform
  6
AUSGEZOGEN
 62
    56
370
    18
100
AcDbLine
 10
199.341817649198
 20
102.295581704619
 30
0.0
 11
199.019615662394
 21
101.737508141514
 31
0.0
  0
LINE
  5
3B6
330
1AF
100
AcDbEntity
  8
Stammform
  6
AUSGEZOGEN
 62
    56
370
    18
100
AcDbLine
 10
199.683564484415
 20
100.587508141514
 30
0.0
 11
199.019615662394
 21
99.437508141514
 31
0.0
  0
LINE
  5
3B7
330
1AF
100
AcDbEntity
  8
Stammform
  6
AUSGEZOGEN
 62
    56
370
    18
100
AcDbLine
 10
199.683564484415
 20
100.587508141514
 30
0.0
 11
201.011470902262
 21
100.587508141514
 31
0.0
  0
LINE
  5
3B8
330
1AF
100
AcDbEntity
  8
Stammform
  6
AUSGEZOGEN
 62
    56
370
    18
100
AcDbLine
 10
199.019615662394
 20
101.737508141514
 30
0.0
 11
199.683564484415
 21
100.587508141514
 31
0.0
  0
LINE
  5
3B9
330
1AF
100
AcDbEntity
  8
Layer0
  6
AUSGEZOGEN
 62
     9
370
    18
100
AcDbLine
 10
199.019615662394
 20
101.737508141514
 30
0.0
 11
198.355662453471
 21
100.587508141514
 31
0.0
  0
LINE
  5
3BA
330
1AF
100
AcDbEntity
  8
Layer0
  6
AUSGEZOGEN
 62
     9
370
    18
100
AcDbLine
 10
198.355662453471
 20
100.587508141514
 30
0.0
 11
199.019615662394
 21
99.437508141514
 31
0.0
  0
LINE
  5
3BB
330
1AF
100
AcDbEntity
  8
Layer0
  6
AUSGEZOGEN
 62
     9
370
    18
100
AcDbLine
 10
199.019615662394
 20
99.437508141514
 30
0.0
 11
200.347522080241
 21
99.437508141514
 31
0.0
  0
LINE
  5
3BC
330
1AF
100
AcDbEntity
  8
Layer0
  6
AUSGEZOGEN
 62
     9
370
    18
100
AcDbLine
 10
200.347522080241
 20
99.437508141514
 30
0.0
 11
201.011470902262
 21
100.587508141514
 31
0.0
  0
LINE
  5
3BD
330
1AF
100
AcDbEntity
  8
Layer0
  6
AUSGEZOGEN
 62
     9
370
    18
100
AcDbLine
 10
201.011470902262
 20
100.587508141514
 30
0.0
 11
200.347522080241
 21
101.737508141514
 31
0.0
  0
LINE
  5
3BE
330
1AF
100
AcDbEntity
  8
Layer0
  6
AUSGEZOGEN
 62
     9
370
    18
100
AcDbLine
 10
200.347522080241
 20
101.737508141514
 30
0.0
 11
199.019615662394
 21
101.737508141514
 31
0.0
  0
LINE
  5
3BF
330
1AF
100
AcDbEntity
  8
Layer0
  6
AUSGEZOGEN
 62
     9
370
    18
100
AcDbLine
 10
199.019615662394
 20
83.337508141514
 30
0.0
 11
198.355662453471
 21
82.187508141514
 31
0.0
  0
LINE
  5
3C0
330
1AF
100
AcDbEntity
  8
Layer0
  6
AUSGEZOGEN
 62
     9
370
    18
100
AcDbLine
 10
198.355662453471
 20
82.187508141514
 30
0.0
 11
199.019615662394
 21
81.037508141514
 31
0.0
  0
LINE
  5
3C1
330
1AF
100
AcDbEntity
  8
Layer0
  6
AUSGEZOGEN
 62
     9
370
    18
100
AcDbLine
 10
199.019615662394
 20
81.037508141514
 30
0.0
 11
200.347522080241
 21
81.037508141514
 31
0.0
  0
LINE
  5
3C2
330
1AF
100
AcDbEntity
  8
Layer0
  6
AUSGEZOGEN
 62
     9
370
    18
100
AcDbLine
 10
200.347522080241
 20
81.037508141514
 30
0.0
 11
201.011470902262
 21
82.187508141514
 31
0.0
  0
LINE
  5
3C3
330
1AF
100
AcDbEntity
  8
Layer0
  6
AUSGEZOGEN
 62
     9
370
    18
100
AcDbLine
 10
201.011470902262
 20
82.187508141514
 30
0.0
 11
200.347522080241
 21
83.337508141514
 31
0.0
  0
LINE
  5
3C4
330
1AF
100
AcDbEntity
  8
Layer0
  6
AUSGEZOGEN
 62
     9
370
    18
100
AcDbLine
 10
200.347522080241
 20
83.337508141514
 30
0.0
 11
199.019615662394
 21
83.337508141514
 31
0.0
  0
LINE
  5
3C5
330
1AF
100
AcDbEntity
  8
Stammform
  6
AUSGEZOGEN
 62
    56
370
    18
100
AcDbLine
 10
199.019615662394
 20
83.337508141514
 30
0.0
 11
199.683564484415
 21
82.187508141514
 31
0.0
  0
LINE
  5
3C6
330
1AF
100
AcDbEntity
  8
Stammform
  6
AUSGEZOGEN
 62
    56
370
    18
100
AcDbLine
 10
199.683564484415
 20
82.187508141514
 30
0.0
 11
201.011470902262
 21
82.187508141514
 31
0.0
  0
LINE
  5
3C7
330
1AF
100
AcDbEntity
  8
Stammform
  6
AUSGEZOGEN
 62
    56
370
    18
100
AcDbLine
 10
199.683564484415
 20
82.187508141514
 30
0.0
 11
199.019615662394
 21
81.037508141514
 31
0.0
  0
LINE
  5
3C8
330
1AF
100
AcDbEntity
  8
Stammform
  6
AUSGEZOGEN
 62
    56
370
    18
100
AcDbLine
 10
199.683564484415
 20
84.487508141514
 30
0.0
 11
199.019615662394
 21
83.337508141514
 31
0.0
  0
LINE
  5
3C9
330
1AF
100
AcDbEntity
  8
Stammform
  6
AUSGEZOGEN
 62
    56
370
    18
100
AcDbLine
 10
199.683564484415
 20
84.487508141514
 30
0.0
 11
201.011470902262
 21
84.487508141514
 31
0.0
  0
LINE
  5
3CA
330
1AF
100
AcDbEntity
  8
Stammform
  6
AUSGEZOGEN
 62
    56
370
    18
100
AcDbLine
 10
199.019615662394
 20
85.637508141514
 30
0.0
 11
199.683564484415
 21
84.487508141514
 31
0.0
  0
LINE
  5
3CB
330
1AF
100
AcDbEntity
  8
Layer0
  6
AUSGEZOGEN
 62
     9
370
    18
100
AcDbLine
 10
199.019615662394
 20
85.637508141514
 30
0.0
 11
198.355662453471
 21
84.487508141514
 31
0.0
  0
LINE
  5
3CC
330
1AF
100
AcDbEntity
  8
Layer0
  6
AUSGEZOGEN
 62
     9
370
    18
100
AcDbLine
 10
198.355662453471
 20
84.487508141514
 30
0.0
 11
199.019615662394
 21
83.337508141514
 31
0.0
  0
LINE
  5
3CD
330
1AF
100
AcDbEntity
  8
Layer0
  6
AUSGEZOGEN
 62
     9
370
    18
100
AcDbLine
 10
199.019615662394
 20
83.337508141514
 30
0.0
 11
200.347522080241
 21
83.337508141514
 31
0.0
  0
LINE
  5
3CE
330
1AF
100
AcDbEntity
  8
Layer0
  6
AUSGEZOGEN
 62
     9
370
    18
100
AcDbLine
 10
200.347522080241
 20
83.337508141514
 30
0.0
 11
201.011470902262
 21
84.487508141514
 31
0.0
  0
LINE
  5
3CF
330
1AF
100
AcDbEntity
  8
Layer0
  6
AUSGEZOGEN
 62
     9
370
    18
100
AcDbLine
 10
201.011470902262
 20
84.487508141514
 30
0.0
 11
200.347522080241
 21
85.637508141514
 31
0.0
  0
LINE
  5
3D0
330
1AF
100
AcDbEntity
  8
Layer0
  6
AUSGEZOGEN
 62
     9
370
    18
100
AcDbLine
 10
200.347522080241
 20
85.637508141514
 30
0.0
 11
199.019615662394
 21
85.637508141514
 31
0.0
  0
LINE
  5
3D1
330
1AF
100
AcDbEntity
  8
Stammform
  6
AUSGEZOGEN
 62
    56
370
    18
100
AcDbLine
 10
199.019615662394
 20
81.037508141514
 30
0.0
 11
199.341817649198
 21
80.47943457841
 31
0.0
  0
LINE
  5
3D2
330
1AF
100
AcDbEntity
  8
Layer0
  6
AUSGEZOGEN
 62
     9
370
    18
100
AcDbLine
 10
199.019615662394
 20
81.037508141514
 30
0.0
 11
198.565034795802
 21
80.250151458009
 31
0.0
  0
LINE
  5
3D3
330
1AF
100
AcDbEntity
  8
Layer0
  6
AUSGEZOGEN
 62
     9
370
    18
100
AcDbLine
 10
200.425100015346
 20
80.903138409372
 30
0.0
 11
200.347522080241
 21
81.037508141514
 31
0.0
  0
LINE
  5
3D4
330
1AF
100
AcDbEntity
  8
Layer0
  6
AUSGEZOGEN
 62
     9
370
    18
100
AcDbLine
 10
200.347522080241
 20
81.037508141514
 30
0.0
 11
199.019615662394
 21
81.037508141514
 31
0.0
  0
LINE
  5
3D5
330
1AF
100
AcDbEntity
  8
Layer0
  6
AUSGEZOGEN
 62
     9
370
    18
100
AcDbLine
 10
197.027756035624
 20
84.487508141514
 30
0.0
 11
196.363802826701
 21
83.337508141514
 31
0.0
  0
LINE
  5
3D6
330
1AF
100
AcDbEntity
  8
Layer0
  6
AUSGEZOGEN
 62
     9
370
    18
100
AcDbLine
 10
196.363802826701
 20
83.337508141514
 30
0.0
 11
197.027756035624
 21
82.187508141514
 31
0.0
  0
LINE
  5
3D7
330
1AF
100
AcDbEntity
  8
Layer0
  6
AUSGEZOGEN
 62
     9
370
    18
100
AcDbLine
 10
197.027756035624
 20
82.187508141514
 30
0.0
 11
198.355662453471
 21
82.187508141514
 31
0.0
  0
LINE
  5
3D8
330
1AF
100
AcDbEntity
  8
Layer0
  6
AUSGEZOGEN
 62
     9
370
    18
100
AcDbLine
 10
198.355662453471
 20
82.187508141514
 30
0.0
 11
199.019615662394
 21
83.337508141514
 31
0.0
  0
LINE
  5
3D9
330
1AF
100
AcDbEntity
  8
Layer0
  6
AUSGEZOGEN
 62
     9
370
    18
100
AcDbLine
 10
199.019615662394
 20
83.337508141514
 30
0.0
 11
198.355662453471
 21
84.487508141514
 31
0.0
  0
LINE
  5
3DA
330
1AF
100
AcDbEntity
  8
Layer0
  6
AUSGEZOGEN
 62
     9
370
    18
100
AcDbLine
 10
198.355662453471
 20
84.487508141514
 30
0.0
 11
197.027756035624
 21
84.487508141514
 31
0.0
  0
LINE
  5
3DB
330
1AF
100
AcDbEntity
  8
Stammform
  6
AUSGEZOGEN
 62
    56
370
    18
100
AcDbLine
 10
197.027756035624
 20
84.487508141514
 30
0.0
 11
197.691709244547
 21
83.337508141514
 31
0.0
  0
LINE
  5
3DC
330
1AF
100
AcDbEntity
  8
Stammform
  6
AUSGEZOGEN
 62
    56
370
    18
100
AcDbLine
 10
197.691709244547
 20
83.337508141514
 30
0.0
 11
199.019615662394
 21
83.337508141514
 31
0.0
  0
LINE
  5
3DD
330
1AF
100
AcDbEntity
  8
Stammform
  6
AUSGEZOGEN
 62
    56
370
    18
100
AcDbLine
 10
197.691709244547
 20
83.337508141514
 30
0.0
 11
197.027756035624
 21
82.187508141514
 31
0.0
  0
LINE
  5
3DE
330
1AF
100
AcDbEntity
  8
Stammform
  6
AUSGEZOGEN
 62
    56
370
    18
100
AcDbLine
 10
197.691709244547
 20
81.037508141514
 30
0.0
 11
197.075425793128
 21
79.970074533833
 31
0.0
  0
LINE
  5
3DF
330
1AF
100
AcDbEntity
  8
Stammform
  6
AUSGEZOGEN
 62
    56
370
    18
100
AcDbLine
 10
197.691709244547
 20
81.037508141514
 30
0.0
 11
199.019615662394
 21
81.037508141514
 31
0.0
  0
LINE
  5
3E0
330
1AF
100
AcDbEntity
  8
Stammform
  6
AUSGEZOGEN
 62
    56
370
    18
100
AcDbLine
 10
197.027756035624
 20
82.187508141514
 30
0.0
 11
197.691709244547
 21
81.037508141514
 31
0.0
  0
LINE
  5
3E1
330
1AF
100
AcDbEntity
  8
Layer0
  6
AUSGEZOGEN
 62
     9
370
    18
100
AcDbLine
 10
197.027756035624
 20
82.187508141514
 30
0.0
 11
196.363802826701
 21
81.037508141514
 31
0.0
  0
LINE
  5
3E2
330
1AF
100
AcDbEntity
  8
Layer0
  6
AUSGEZOGEN
 62
     9
370
    18
100
AcDbLine
 10
196.363802826701
 20
81.037508141514
 30
0.0
 11
197.027756035624
 21
79.887508141514
 31
0.0
  0
LINE
  5
3E3
330
1AF
100
AcDbEntity
  8
Layer0
  6
AUSGEZOGEN
 62
     9
370
    18
100
AcDbLine
 10
199.019615662394
 20
81.037508141514
 30
0.0
 11
198.355662453471
 21
82.187508141514
 31
0.0
  0
LINE
  5
3E4
330
1AF
100
AcDbEntity
  8
Layer0
  6
AUSGEZOGEN
 62
     9
370
    18
100
AcDbLine
 10
198.355662453471
 20
82.187508141514
 30
0.0
 11
197.027756035624
 21
82.187508141514
 31
0.0
  0
LINE
  5
3E5
330
1AF
100
AcDbEntity
  8
Layer0
  6
AUSGEZOGEN
 62
     9
370
    18
100
AcDbLine
 10
197.027756035624
 20
100.587508141514
 30
0.0
 11
196.363802826701
 21
99.437508141514
 31
0.0
  0
LINE
  5
3E6
330
1AF
100
AcDbEntity
  8
Layer0
  6
AUSGEZOGEN
 62
     9
370
    18
100
AcDbLine
 10
196.363802826701
 20
99.437508141514
 30
0.0
 11
197.027756035624
 21
98.287508141514
 31
0.0
  0
LINE
  5
3E7
330
1AF
100
AcDbEntity
  8
Layer0
  6
AUSGEZOGEN
 62
     9
370
    18
100
AcDbLine
 10
197.027756035624
 20
98.287508141514
 30
0.0
 11
198.355662453471
 21
98.287508141514
 31
0.0
  0
LINE
  5
3E8
330
1AF
100
AcDbEntity
  8
Layer0
  6
AUSGEZOGEN
 62
     9
370
    18
100
AcDbLine
 10
198.355662453471
 20
98.287508141514
 30
0.0
 11
199.019615662394
 21
99.437508141514
 31
0.0
  0
LINE
  5
3E9
330
1AF
100
AcDbEntity
  8
Layer0
  6
AUSGEZOGEN
 62
     9
370
    18
100
AcDbLine
 10
199.019615662394
 20
99.437508141514
 30
0.0
 11
198.355662453471
 21
100.587508141514
 31
0.0
  0
LINE
  5
3EA
330
1AF
100
AcDbEntity
  8
Layer0
  6
AUSGEZOGEN
 62
     9
370
    18
100
AcDbLine
 10
198.355662453471
 20
100.587508141514
 30
0.0
 11
197.027756035624
 21
100.587508141514
 31
0.0
  0
LINE
  5
3EB
330
1AF
100
AcDbEntity
  8
Stammform
  6
AUSGEZOGEN
 62
    56
370
    18
100
AcDbLine
 10
197.027756035624
 20
100.587508141514
 30
0.0
 11
197.691709244547
 21
99.437508141514
 31
0.0
  0
LINE
  5
3EC
330
1AF
100
AcDbEntity
  8
Stammform
  6
AUSGEZOGEN
 62
    56
370
    18
100
AcDbLine
 10
197.691709244547
 20
99.437508141514
 30
0.0
 11
199.019615662394
 21
99.437508141514
 31
0.0
  0
LINE
  5
3ED
330
1AF
100
AcDbEntity
  8
Stammform
  6
AUSGEZOGEN
 62
    56
370
    18
100
AcDbLine
 10
197.691709244547
 20
99.437508141514
 30
0.0
 11
197.027756035624
 21
98.287508141514
 31
0.0
  0
LINE
  5
3EE
330
1AF
100
AcDbEntity
  8
Stammform
  6
AUSGEZOGEN
 62
    56
370
    18
100
AcDbLine
 10
197.691709244547
 20
101.737508141514
 30
0.0
 11
197.027756035624
 21
100.587508141514
 31
0.0
  0
LINE
  5
3EF
330
1AF
100
AcDbEntity
  8
Stammform
  6
AUSGEZOGEN
 62
    56
370
    18
100
AcDbLine
 10
197.691709244547
 20
101.737508141514
 30
0.0
 11
199.019615662394
 21
101.737508141514
 31
0.0
  0
LINE
  5
3F0
330
1AF
100
AcDbEntity
  8
Stammform
  6
AUSGEZOGEN
 62
    56
370
    18
100
AcDbLine
 10
197.075425793128
 20
102.804941749196
 30
0.0
 11
197.691709244547
 21
101.737508141514
 31
0.0
  0
LINE
  5
3F1
330
1AF
100
AcDbEntity
  8
Layer0
  6
AUSGEZOGEN
 62
     9
370
    18
100
AcDbLine
 10
196.363802826701
 20
101.737508141514
 30
0.0
 11
197.027756035624
 21
100.587508141514
 31
0.0
  0
LINE
  5
3F2
330
1AF
100
AcDbEntity
  8
Layer0
  6
AUSGEZOGEN
 62
     9
370
    18
100
AcDbLine
 10
197.027756035624
 20
100.587508141514
 30
0.0
 11
198.355662453471
 21
100.587508141514
 31
0.0
  0
LINE
  5
3F3
330
1AF
100
AcDbEntity
  8
Layer0
  6
AUSGEZOGEN
 62
     9
370
    18
100
AcDbLine
 10
198.355662453471
 20
100.587508141514
 30
0.0
 11
199.019615662394
 21
101.737508141514
 31
0.0
  0
LINE
  5
3F4
330
1AF
100
AcDbEntity
  8
Layer0
  6
AUSGEZOGEN
 62
     9
370
    18
100
AcDbLine
 10
197.027756035624
 20
95.987508141514
 30
0.0
 11
196.363802826701
 21
94.837508141514
 31
0.0
  0
LINE
  5
3F5
330
1AF
100
AcDbEntity
  8
Layer0
  6
AUSGEZOGEN
 62
     9
370
    18
100
AcDbLine
 10
196.363802826701
 20
94.837508141514
 30
0.0
 11
197.027756035624
 21
93.687508141514
 31
0.0
  0
LINE
  5
3F6
330
1AF
100
AcDbEntity
  8
Layer0
  6
AUSGEZOGEN
 62
     9
370
    18
100
AcDbLine
 10
197.027756035624
 20
93.687508141514
 30
0.0
 11
198.355662453471
 21
93.687508141514
 31
0.0
  0
LINE
  5
3F7
330
1AF
100
AcDbEntity
  8
Layer0
  6
AUSGEZOGEN
 62
     9
370
    18
100
AcDbLine
 10
198.355662453471
 20
93.687508141514
 30
0.0
 11
199.019615662394
 21
94.837508141514
 31
0.0
  0
LINE
  5
3F8
330
1AF
100
AcDbEntity
  8
Layer0
  6
AUSGEZOGEN
 62
     9
370
    18
100
AcDbLine
 10
199.019615662394
 20
94.837508141514
 30
0.0
 11
198.355662453471
 21
95.987508141514
 31
0.0
  0
LINE
  5
3F9
330
1AF
100
AcDbEntity
  8
Layer0
  6
AUSGEZOGEN
 62
     9
370
    18
100
AcDbLine
 10
198.355662453471
 20
95.987508141514
 30
0.0
 11
197.027756035624
 21
95.987508141514
 31
0.0
  0
LINE
  5
3FA
330
1AF
100
AcDbEntity
  8
Stammform
  6
AUSGEZOGEN
 62
    56
370
    18
100
AcDbLine
 10
197.027756035624
 20
95.987508141514
 30
0.0
 11
197.691709244547
 21
94.837508141514
 31
0.0
  0
LINE
  5
3FB
330
1AF
100
AcDbEntity
  8
Stammform
  6
AUSGEZOGEN
 62
    56
370
    18
100
AcDbLine
 10
197.691709244547
 20
94.837508141514
 30
0.0
 11
199.019615662394
 21
94.837508141514
 31
0.0
  0
LINE
  5
3FC
330
1AF
100
AcDbEntity
  8
Stammform
  6
AUSGEZOGEN
 62
    56
370
    18
100
AcDbLine
 10
197.691709244547
 20
94.837508141514
 30
0.0
 11
197.027756035624
 21
93.687508141514
 31
0.0
  0
LINE
  5
3FD
330
1AF
100
AcDbEntity
  8
Stammform
  6
AUSGEZOGEN
 62
    56
370
    18
100
AcDbLine
 10
197.691709244547
 20
97.137508141514
 30
0.0
 11
197.027756035624
 21
95.987508141514
 31
0.0
  0
LINE
  5
3FE
330
1AF
100
AcDbEntity
  8
Stammform
  6
AUSGEZOGEN
 62
    56
370
    18
100
AcDbLine
 10
197.691709244547
 20
97.137508141514
 30
0.0
 11
199.019615662394
 21
97.137508141514
 31
0.0
  0
LINE
  5
3FF
330
1AF
100
AcDbEntity
  8
Stammform
  6
AUSGEZOGEN
 62
    56
370
    18
100
AcDbLine
 10
197.027756035624
 20
98.287508141514
 30
0.0
 11
197.691709244547
 21
97.137508141514
 31
0.0
  0
LINE
  5
400
330
1AF
100
AcDbEntity
  8
Layer0
  6
AUSGEZOGEN
 62
     9
370
    18
100
AcDbLine
 10
197.027756035624
 20
98.287508141514
 30
0.0
 11
196.363802826701
 21
97.137508141514
 31
0.0
  0
LINE
  5
401
330
1AF
100
AcDbEntity
  8
Layer0
  6
AUSGEZOGEN
 62
     9
370
    18
100
AcDbLine
 10
196.363802826701
 20
97.137508141514
 30
0.0
 11
197.027756035624
 21
95.987508141514
 31
0.0
  0
LINE
  5
402
330
1AF
100
AcDbEntity
  8
Layer0
  6
AUSGEZOGEN
 62
     9
370
    18
100
AcDbLine
 10
197.027756035624
 20
95.987508141514
 30
0.0
 11
198.355662453471
 21
95.987508141514
 31
0.0
  0
LINE
  5
403
330
1AF
100
AcDbEntity
  8
Layer0
  6
AUSGEZOGEN
 62
     9
370
    18
100
AcDbLine
 10
198.355662453471
 20
95.987508141514
 30
0.0
 11
199.019615662394
 21
97.137508141514
 31
0.0
  0
LINE
  5
404
330
1AF
100
AcDbEntity
  8
Layer0
  6
AUSGEZOGEN
 62
     9
370
    18
100
AcDbLine
 10
199.019615662394
 20
97.137508141514
 30
0.0
 11
198.355662453471
 21
98.287508141514
 31
0.0
  0
LINE
  5
405
330
1AF
100
AcDbEntity
  8
Layer0
  6
AUSGEZOGEN
 62
     9
370
    18
100
AcDbLine
 10
198.355662453471
 20
98.287508141514
 30
0.0
 11
197.027756035624
 21
98.287508141514
 31
0.0
  0
LINE
  5
406
330
1AF
100
AcDbEntity
  8
Layer0
  6
AUSGEZOGEN
 62
     9
370
    18
100
AcDbLine
 10
197.027756035624
 20
91.387508141514
 30
0.0
 11
196.363802826701
 21
90.237508141514
 31
0.0
  0
LINE
  5
407
330
1AF
100
AcDbEntity
  8
Layer0
  6
AUSGEZOGEN
 62
     9
370
    18
100
AcDbLine
 10
196.363802826701
 20
90.237508141514
 30
0.0
 11
197.027756035624
 21
89.087508141514
 31
0.0
  0
LINE
  5
408
330
1AF
100
AcDbEntity
  8
Layer0
  6
AUSGEZOGEN
 62
     9
370
    18
100
AcDbLine
 10
197.027756035624
 20
89.087508141514
 30
0.0
 11
198.355662453471
 21
89.087508141514
 31
0.0
  0
LINE
  5
409
330
1AF
100
AcDbEntity
  8
Layer0
  6
AUSGEZOGEN
 62
     9
370
    18
100
AcDbLine
 10
198.355662453471
 20
89.087508141514
 30
0.0
 11
199.019615662394
 21
90.237508141514
 31
0.0
  0
LINE
  5
40A
330
1AF
100
AcDbEntity
  8
Layer0
  6
AUSGEZOGEN
 62
     9
370
    18
100
AcDbLine
 10
199.019615662394
 20
90.237508141514
 30
0.0
 11
198.355662453471
 21
91.387508141514
 31
0.0
  0
LINE
  5
40B
330
1AF
100
AcDbEntity
  8
Layer0
  6
AUSGEZOGEN
 62
     9
370
    18
100
AcDbLine
 10
198.355662453471
 20
91.387508141514
 30
0.0
 11
197.027756035624
 21
91.387508141514
 31
0.0
  0
LINE
  5
40C
330
1AF
100
AcDbEntity
  8
Stammform
  6
AUSGEZOGEN
 62
    56
370
    18
100
AcDbLine
 10
197.027756035624
 20
91.387508141514
 30
0.0
 11
197.691709244547
 21
90.237508141514
 31
0.0
  0
LINE
  5
40D
330
1AF
100
AcDbEntity
  8
Stammform
  6
AUSGEZOGEN
 62
    56
370
    18
100
AcDbLine
 10
197.691709244547
 20
90.237508141514
 30
0.0
 11
199.019615662394
 21
90.237508141514
 31
0.0
  0
LINE
  5
40E
330
1AF
100
AcDbEntity
  8
Stammform
  6
AUSGEZOGEN
 62
    56
370
    18
100
AcDbLine
 10
197.691709244547
 20
90.237508141514
 30
0.0
 11
197.027756035624
 21
89.087508141514
 31
0.0
  0
LINE
  5
40F
330
1AF
100
AcDbEntity
  8
Stammform
  6
AUSGEZOGEN
 62
    56
370
    18
100
AcDbLine
 10
197.691709244547
 20
92.537508141514
 30
0.0
 11
197.027756035624
 21
91.387508141514
 31
0.0
  0
LINE
  5
410
330
1AF
100
AcDbEntity
  8
Stammform
  6
AUSGEZOGEN
 62
    56
370
    18
100
AcDbLine
 10
197.691709244547
 20
92.537508141514
 30
0.0
 11
199.019615662394
 21
92.537508141514
 31
0.0
  0
LINE
  5
411
330
1AF
100
AcDbEntity
  8
Stammform
  6
AUSGEZOGEN
 62
    56
370
    18
100
AcDbLine
 10
197.027756035624
 20
93.687508141514
 30
0.0
 11
197.691709244547
 21
92.537508141514
 31
0.0
  0
LINE
  5
412
330
1AF
100
AcDbEntity
  8
Layer0
  6
AUSGEZOGEN
 62
     9
370
    18
100
AcDbLine
 10
197.027756035624
 20
93.687508141514
 30
0.0
 11
196.363802826701
 21
92.537508141514
 31
0.0
  0
LINE
  5
413
330
1AF
100
AcDbEntity
  8
Layer0
  6
AUSGEZOGEN
 62
     9
370
    18
100
AcDbLine
 10
196.363802826701
 20
92.537508141514
 30
0.0
 11
197.027756035624
 21
91.387508141514
 31
0.0
  0
LINE
  5
414
330
1AF
100
AcDbEntity
  8
Layer0
  6
AUSGEZOGEN
 62
     9
370
    18
100
AcDbLine
 10
197.027756035624
 20
91.387508141514
 30
0.0
 11
198.355662453471
 21
91.387508141514
 31
0.0
  0
LINE
  5
415
330
1AF
100
AcDbEntity
  8
Layer0
  6
AUSGEZOGEN
 62
     9
370
    18
100
AcDbLine
 10
198.355662453471
 20
91.387508141514
 30
0.0
 11
199.019615662394
 21
92.537508141514
 31
0.0
  0
LINE
  5
416
330
1AF
100
AcDbEntity
  8
Layer0
  6
AUSGEZOGEN
 62
     9
370
    18
100
AcDbLine
 10
199.019615662394
 20
92.537508141514
 30
0.0
 11
198.355662453471
 21
93.687508141514
 31
0.0
  0
LINE
  5
417
330
1AF
100
AcDbEntity
  8
Layer0
  6
AUSGEZOGEN
 62
     9
370
    18
100
AcDbLine
 10
198.355662453471
 20
93.687508141514
 30
0.0
 11
197.027756035624
 21
93.687508141514
 31
0.0
  0
LINE
  5
418
330
1AF
100
AcDbEntity
  8
Layer0
  6
AUSGEZOGEN
 62
     9
370
    18
100
AcDbLine
 10
197.027756035624
 20
89.087508141514
 30
0.0
 11
196.363802826701
 21
87.937508141514
 31
0.0
  0
LINE
  5
419
330
1AF
100
AcDbEntity
  8
Layer0
  6
AUSGEZOGEN
 62
     9
370
    18
100
AcDbLine
 10
196.363802826701
 20
87.937508141514
 30
0.0
 11
197.027756035624
 21
86.787508141514
 31
0.0
  0
LINE
  5
41A
330
1AF
100
AcDbEntity
  8
Layer0
  6
AUSGEZOGEN
 62
     9
370
    18
100
AcDbLine
 10
197.027756035624
 20
86.787508141514
 30
0.0
 11
198.355662453471
 21
86.787508141514
 31
0.0
  0
LINE
  5
41B
330
1AF
100
AcDbEntity
  8
Layer0
  6
AUSGEZOGEN
 62
     9
370
    18
100
AcDbLine
 10
198.355662453471
 20
86.787508141514
 30
0.0
 11
199.019615662394
 21
87.937508141514
 31
0.0
  0
LINE
  5
41C
330
1AF
100
AcDbEntity
  8
Layer0
  6
AUSGEZOGEN
 62
     9
370
    18
100
AcDbLine
 10
199.019615662394
 20
87.937508141514
 30
0.0
 11
198.355662453471
 21
89.087508141514
 31
0.0
  0
LINE
  5
41D
330
1AF
100
AcDbEntity
  8
Layer0
  6
AUSGEZOGEN
 62
     9
370
    18
100
AcDbLine
 10
198.355662453471
 20
89.087508141514
 30
0.0
 11
197.027756035624
 21
89.087508141514
 31
0.0
  0
LINE
  5
41E
330
1AF
100
AcDbEntity
  8
Stammform
  6
AUSGEZOGEN
 62
    56
370
    18
100
AcDbLine
 10
197.027756035624
 20
89.087508141514
 30
0.0
 11
197.691709244547
 21
87.937508141514
 31
0.0
  0
LINE
  5
41F
330
1AF
100
AcDbEntity
  8
Stammform
  6
AUSGEZOGEN
 62
    56
370
    18
100
AcDbLine
 10
197.691709244547
 20
87.937508141514
 30
0.0
 11
199.019615662394
 21
87.937508141514
 31
0.0
  0
LINE
  5
420
330
1AF
100
AcDbEntity
  8
Stammform
  6
AUSGEZOGEN
 62
    56
370
    18
100
AcDbLine
 10
197.691709244547
 20
87.937508141514
 30
0.0
 11
197.027756035624
 21
86.787508141514
 31
0.0
  0
LINE
  5
421
330
1AF
100
AcDbEntity
  8
Stammform
  6
AUSGEZOGEN
 62
    56
370
    18
100
AcDbLine
 10
197.691709244547
 20
85.637508141514
 30
0.0
 11
197.027756035624
 21
84.487508141514
 31
0.0
  0
LINE
  5
422
330
1AF
100
AcDbEntity
  8
Stammform
  6
AUSGEZOGEN
 62
    56
370
    18
100
AcDbLine
 10
197.691709244547
 20
85.637508141514
 30
0.0
 11
199.019615662394
 21
85.637508141514
 31
0.0
  0
LINE
  5
423
330
1AF
100
AcDbEntity
  8
Stammform
  6
AUSGEZOGEN
 62
    56
370
    18
100
AcDbLine
 10
197.027756035624
 20
86.787508141514
 30
0.0
 11
197.691709244547
 21
85.637508141514
 31
0.0
  0
LINE
  5
424
330
1AF
100
AcDbEntity
  8
Layer0
  6
AUSGEZOGEN
 62
     9
370
    18
100
AcDbLine
 10
197.027756035624
 20
86.787508141514
 30
0.0
 11
196.363802826701
 21
85.637508141514
 31
0.0
  0
LINE
  5
425
330
1AF
100
AcDbEntity
  8
Layer0
  6
AUSGEZOGEN
 62
     9
370
    18
100
AcDbLine
 10
196.363802826701
 20
85.637508141514
 30
0.0
 11
197.027756035624
 21
84.487508141514
 31
0.0
  0
LINE
  5
426
330
1AF
100
AcDbEntity
  8
Layer0
  6
AUSGEZOGEN
 62
     9
370
    18
100
AcDbLine
 10
197.027756035624
 20
84.487508141514
 30
0.0
 11
198.355662453471
 21
84.487508141514
 31
0.0
  0
LINE
  5
427
330
1AF
100
AcDbEntity
  8
Layer0
  6
AUSGEZOGEN
 62
     9
370
    18
100
AcDbLine
 10
198.355662453471
 20
84.487508141514
 30
0.0
 11
199.019615662394
 21
85.637508141514
 31
0.0
  0
LINE
  5
428
330
1AF
100
AcDbEntity
  8
Layer0
  6
AUSGEZOGEN
 62
     9
370
    18
100
AcDbLine
 10
199.019615662394
 20
85.637508141514
 30
0.0
 11
198.355662453471
 21
86.787508141514
 31
0.0
  0
LINE
  5
429
330
1AF
100
AcDbEntity
  8
Layer0
  6
AUSGEZOGEN
 62
     9
370
    18
100
AcDbLine
 10
198.355662453471
 20
86.787508141514
 30
0.0
 11
197.027756035624
 21
86.787508141514
 31
0.0
  0
LINE
  5
42A
330
1AF
100
AcDbEntity
  8
Layer0
  6
AUSGEZOGEN
 62
     9
370
    18
100
AcDbLine
 10
203.003334915934
 20
87.937508141514
 30
0.0
 11
202.339377320109
 21
86.787508141514
 31
0.0
  0
LINE
  5
42B
330
1AF
100
AcDbEntity
  8
Layer0
  6
AUSGEZOGEN
 62
     9
370
    18
100
AcDbLine
 10
202.339377320109
 20
86.787508141514
 30
0.0
 11
203.003334915934
 21
85.637508141514
 31
0.0
  0
LINE
  5
42C
330
1AF
100
AcDbEntity
  8
Layer0
  6
AUSGEZOGEN
 62
     9
370
    18
100
AcDbLine
 10
203.003334915934
 20
85.637508141514
 30
0.0
 11
204.331232559977
 21
85.637508141514
 31
0.0
  0
LINE
  5
42D
330
1AF
100
AcDbEntity
  8
Layer0
  6
AUSGEZOGEN
 62
     9
370
    18
100
AcDbLine
 10
204.331232559977
 20
85.637508141514
 30
0.0
 11
204.995190155802
 21
86.787508141514
 31
0.0
  0
LINE
  5
42E
330
1AF
100
AcDbEntity
  8
Layer0
  6
AUSGEZOGEN
 62
     9
370
    18
100
AcDbLine
 10
204.995190155802
 20
86.787508141514
 30
0.0
 11
204.331232559977
 21
87.937508141514
 31
0.0
  0
LINE
  5
42F
330
1AF
100
AcDbEntity
  8
Layer0
  6
AUSGEZOGEN
 62
     9
370
    18
100
AcDbLine
 10
204.331232559977
 20
87.937508141514
 30
0.0
 11
203.003334915934
 21
87.937508141514
 31
0.0
  0
LINE
  5
430
330
1AF
100
AcDbEntity
  8
Stammform
  6
AUSGEZOGEN
 62
    56
370
    18
100
AcDbLine
 10
203.003334915934
 20
87.937508141514
 30
0.0
 11
203.667283737955
 21
86.787508141514
 31
0.0
  0
LINE
  5
431
330
1AF
100
AcDbEntity
  8
Stammform
  6
AUSGEZOGEN
 62
    56
370
    18
100
AcDbLine
 10
203.667283737955
 20
86.787508141514
 30
0.0
 11
204.995190155802
 21
86.787508141514
 31
0.0
  0
LINE
  5
432
330
1AF
100
AcDbEntity
  8
Stammform
  6
AUSGEZOGEN
 62
    56
370
    18
100
AcDbLine
 10
203.667283737955
 20
86.787508141514
 30
0.0
 11
203.003334915934
 21
85.637508141514
 31
0.0
  0
LINE
  5
433
330
1AF
100
AcDbEntity
  8
Stammform
  6
AUSGEZOGEN
 62
    56
370
    18
100
AcDbLine
 10
203.667283737955
 20
89.087508141514
 30
0.0
 11
203.003334915934
 21
87.937508141514
 31
0.0
  0
LINE
  5
434
330
1AF
100
AcDbEntity
  8
Stammform
  6
AUSGEZOGEN
 62
    56
370
    18
100
AcDbLine
 10
203.667283737955
 20
89.087508141514
 30
0.0
 11
204.995190155802
 21
89.087508141514
 31
0.0
  0
LINE
  5
435
330
1AF
100
AcDbEntity
  8
Stammform
  6
AUSGEZOGEN
 62
    56
370
    18
100
AcDbLine
 10
203.003334915934
 20
90.237508141514
 30
0.0
 11
203.667283737955
 21
89.087508141514
 31
0.0
  0
LINE
  5
436
330
1AF
100
AcDbEntity
  8
Layer0
  6
AUSGEZOGEN
 62
     9
370
    18
100
AcDbLine
 10
203.003334915934
 20
90.237508141514
 30
0.0
 11
202.339377320109
 21
89.087508141514
 31
0.0
  0
LINE
  5
437
330
1AF
100
AcDbEntity
  8
Layer0
  6
AUSGEZOGEN
 62
     9
370
    18
100
AcDbLine
 10
202.339377320109
 20
89.087508141514
 30
0.0
 11
203.003334915934
 21
87.937508141514
 31
0.0
  0
LINE
  5
438
330
1AF
100
AcDbEntity
  8
Layer0
  6
AUSGEZOGEN
 62
     9
370
    18
100
AcDbLine
 10
203.003334915934
 20
87.937508141514
 30
0.0
 11
204.331232559977
 21
87.937508141514
 31
0.0
  0
LINE
  5
439
330
1AF
100
AcDbEntity
  8
Layer0
  6
AUSGEZOGEN
 62
     9
370
    18
100
AcDbLine
 10
204.331232559977
 20
87.937508141514
 30
0.0
 11
204.995190155802
 21
89.087508141514
 31
0.0
  0
LINE
  5
43A
330
1AF
100
AcDbEntity
  8
Layer0
  6
AUSGEZOGEN
 62
     9
370
    18
100
AcDbLine
 10
204.995190155802
 20
89.087508141514
 30
0.0
 11
204.331232559977
 21
90.237508141514
 31
0.0
  0
LINE
  5
43B
330
1AF
100
AcDbEntity
  8
Layer0
  6
AUSGEZOGEN
 62
     9
370
    18
100
AcDbLine
 10
204.331232559977
 20
90.237508141514
 30
0.0
 11
203.003334915934
 21
90.237508141514
 31
0.0
  0
LINE
  5
43C
330
1AF
100
AcDbEntity
  8
Layer0
  6
AUSGEZOGEN
 62
     9
370
    18
100
AcDbLine
 10
203.003334915934
 20
94.837508141514
 30
0.0
 11
202.339377320109
 21
93.687508141514
 31
0.0
  0
LINE
  5
43D
330
1AF
100
AcDbEntity
  8
Layer0
  6
AUSGEZOGEN
 62
     9
370
    18
100
AcDbLine
 10
202.339377320109
 20
93.687508141514
 30
0.0
 11
203.003334915934
 21
92.537508141514
 31
0.0
  0
LINE
  5
43E
330
1AF
100
AcDbEntity
  8
Layer0
  6
AUSGEZOGEN
 62
     9
370
    18
100
AcDbLine
 10
203.003334915934
 20
92.537508141514
 30
0.0
 11
204.331232559977
 21
92.537508141514
 31
0.0
  0
LINE
  5
43F
330
1AF
100
AcDbEntity
  8
Layer0
  6
AUSGEZOGEN
 62
     9
370
    18
100
AcDbLine
 10
204.331232559977
 20
92.537508141514
 30
0.0
 11
204.995190155802
 21
93.687508141514
 31
0.0
  0
LINE
  5
440
330
1AF
100
AcDbEntity
  8
Layer0
  6
AUSGEZOGEN
 62
     9
370
    18
100
AcDbLine
 10
204.995190155802
 20
93.687508141514
 30
0.0
 11
204.331232559977
 21
94.837508141514
 31
0.0
  0
LINE
  5
441
330
1AF
100
AcDbEntity
  8
Layer0
  6
AUSGEZOGEN
 62
     9
370
    18
100
AcDbLine
 10
204.331232559977
 20
94.837508141514
 30
0.0
 11
203.003334915934
 21
94.837508141514
 31
0.0
  0
LINE
  5
442
330
1AF
100
AcDbEntity
  8
Stammform
  6
AUSGEZOGEN
 62
    56
370
    18
100
AcDbLine
 10
203.003334915934
 20
94.837508141514
 30
0.0
 11
203.667283737955
 21
93.687508141514
 31
0.0
  0
LINE
  5
443
330
1AF
100
AcDbEntity
  8
Stammform
  6
AUSGEZOGEN
 62
    56
370
    18
100
AcDbLine
 10
203.667283737955
 20
93.687508141514
 30
0.0
 11
204.995190155802
 21
93.687508141514
 31
0.0
  0
LINE
  5
444
330
1AF
100
AcDbEntity
  8
Stammform
  6
AUSGEZOGEN
 62
    56
370
    18
100
AcDbLine
 10
203.667283737955
 20
93.687508141514
 30
0.0
 11
203.003334915934
 21
92.537508141514
 31
0.0
  0
LINE
  5
445
330
1AF
100
AcDbEntity
  8
Stammform
  6
AUSGEZOGEN
 62
    56
370
    18
100
AcDbLine
 10
203.667283737955
 20
91.387508141514
 30
0.0
 11
203.003334915934
 21
90.237508141514
 31
0.0
  0
LINE
  5
446
330
1AF
100
AcDbEntity
  8
Stammform
  6
AUSGEZOGEN
 62
    56
370
    18
100
AcDbLine
 10
203.667283737955
 20
91.387508141514
 30
0.0
 11
204.995190155802
 21
91.387508141514
 31
0.0
  0
LINE
  5
447
330
1AF
100
AcDbEntity
  8
Stammform
  6
AUSGEZOGEN
 62
    56
370
    18
100
AcDbLine
 10
203.003334915934
 20
92.537508141514
 30
0.0
 11
203.667283737955
 21
91.387508141514
 31
0.0
  0
LINE
  5
448
330
1AF
100
AcDbEntity
  8
Layer0
  6
AUSGEZOGEN
 62
     9
370
    18
100
AcDbLine
 10
203.003334915934
 20
92.537508141514
 30
0.0
 11
202.339377320109
 21
91.387508141514
 31
0.0
  0
LINE
  5
449
330
1AF
100
AcDbEntity
  8
Layer0
  6
AUSGEZOGEN
 62
     9
370
    18
100
AcDbLine
 10
202.339377320109
 20
91.387508141514
 30
0.0
 11
203.003334915934
 21
90.237508141514
 31
0.0
  0
LINE
  5
44A
330
1AF
100
AcDbEntity
  8
Layer0
  6
AUSGEZOGEN
 62
     9
370
    18
100
AcDbLine
 10
203.003334915934
 20
90.237508141514
 30
0.0
 11
204.331232559977
 21
90.237508141514
 31
0.0
  0
LINE
  5
44B
330
1AF
100
AcDbEntity
  8
Layer0
  6
AUSGEZOGEN
 62
     9
370
    18
100
AcDbLine
 10
204.331232559977
 20
90.237508141514
 30
0.0
 11
204.995190155802
 21
91.387508141514
 31
0.0
  0
LINE
  5
44C
330
1AF
100
AcDbEntity
  8
Layer0
  6
AUSGEZOGEN
 62
     9
370
    18
100
AcDbLine
 10
204.995190155802
 20
91.387508141514
 30
0.0
 11
204.331232559977
 21
92.537508141514
 31
0.0
  0
LINE
  5
44D
330
1AF
100
AcDbEntity
  8
Layer0
  6
AUSGEZOGEN
 62
     9
370
    18
100
AcDbLine
 10
204.331232559977
 20
92.537508141514
 30
0.0
 11
203.003334915934
 21
92.537508141514
 31
0.0
  0
LINE
  5
44E
330
1AF
100
AcDbEntity
  8
Layer0
  6
AUSGEZOGEN
 62
     9
370
    18
100
AcDbLine
 10
203.003334915934
 20
99.437508141514
 30
0.0
 11
202.339377320109
 21
98.287508141514
 31
0.0
  0
LINE
  5
44F
330
1AF
100
AcDbEntity
  8
Layer0
  6
AUSGEZOGEN
 62
     9
370
    18
100
AcDbLine
 10
202.339377320109
 20
98.287508141514
 30
0.0
 11
203.003334915934
 21
97.137508141514
 31
0.0
  0
LINE
  5
450
330
1AF
100
AcDbEntity
  8
Layer0
  6
AUSGEZOGEN
 62
     9
370
    18
100
AcDbLine
 10
203.003334915934
 20
97.137508141514
 30
0.0
 11
204.331232559977
 21
97.137508141514
 31
0.0
  0
LINE
  5
451
330
1AF
100
AcDbEntity
  8
Layer0
  6
AUSGEZOGEN
 62
     9
370
    18
100
AcDbLine
 10
204.331232559977
 20
97.137508141514
 30
0.0
 11
204.995190155802
 21
98.287508141514
 31
0.0
  0
LINE
  5
452
330
1AF
100
AcDbEntity
  8
Layer0
  6
AUSGEZOGEN
 62
     9
370
    18
100
AcDbLine
 10
203.912492310602
 20
99.437508141514
 30
0.0
 11
203.003334915934
 21
99.437508141514
 31
0.0
  0
LINE
  5
453
330
1AF
100
AcDbEntity
  8
Stammform
  6
AUSGEZOGEN
 62
    56
370
    18
100
AcDbLine
 10
203.003334915934
 20
99.437508141514
 30
0.0
 11
203.667283737955
 21
98.287508141514
 31
0.0
  0
LINE
  5
454
330
1AF
100
AcDbEntity
  8
Stammform
  6
AUSGEZOGEN
 62
    56
370
    18
100
AcDbLine
 10
203.667283737955
 20
98.287508141514
 30
0.0
 11
204.899849617777
 21
98.287508141514
 31
0.0
  0
LINE
  5
455
330
1AF
100
AcDbEntity
  8
Stammform
  6
AUSGEZOGEN
 62
    56
370
    18
100
AcDbLine
 10
203.667283737955
 20
98.287508141514
 30
0.0
 11
203.003334915934
 21
97.137508141514
 31
0.0
  0
LINE
  5
456
330
1AF
100
AcDbEntity
  8
Stammform
  6
AUSGEZOGEN
 62
    56
370
    18
100
AcDbLine
 10
203.667283737955
 20
95.987508141514
 30
0.0
 11
203.003334915934
 21
94.837508141514
 31
0.0
  0
LINE
  5
457
330
1AF
100
AcDbEntity
  8
Stammform
  6
AUSGEZOGEN
 62
    56
370
    18
100
AcDbLine
 10
203.667283737955
 20
95.987508141514
 30
0.0
 11
204.995190155802
 21
95.987508141514
 31
0.0
  0
LINE
  5
458
330
1AF
100
AcDbEntity
  8
Stammform
  6
AUSGEZOGEN
 62
    56
370
    18
100
AcDbLine
 10
203.003334915934
 20
97.137508141514
 30
0.0
 11
203.667283737955
 21
95.987508141514
 31
0.0
  0
LINE
  5
459
330
1AF
100
AcDbEntity
  8
Layer0
  6
AUSGEZOGEN
 62
     9
370
    18
100
AcDbLine
 10
203.003334915934
 20
97.137508141514
 30
0.0
 11
202.339377320109
 21
95.987508141514
 31
0.0
  0
LINE
  5
45A
330
1AF
100
AcDbEntity
  8
Layer0
  6
AUSGEZOGEN
 62
     9
370
    18
100
AcDbLine
 10
202.339377320109
 20
95.987508141514
 30
0.0
 11
203.003334915934
 21
94.837508141514
 31
0.0
  0
LINE
  5
45B
330
1AF
100
AcDbEntity
  8
Layer0
  6
AUSGEZOGEN
 62
     9
370
    18
100
AcDbLine
 10
203.003334915934
 20
94.837508141514
 30
0.0
 11
204.331232559977
 21
94.837508141514
 31
0.0
  0
LINE
  5
45C
330
1AF
100
AcDbEntity
  8
Layer0
  6
AUSGEZOGEN
 62
     9
370
    18
100
AcDbLine
 10
204.331232559977
 20
94.837508141514
 30
0.0
 11
204.995190155802
 21
95.987508141514
 31
0.0
  0
LINE
  5
45D
330
1AF
100
AcDbEntity
  8
Layer0
  6
AUSGEZOGEN
 62
     9
370
    18
100
AcDbLine
 10
204.995190155802
 20
95.987508141514
 30
0.0
 11
204.331232559977
 21
97.137508141514
 31
0.0
  0
LINE
  5
45E
330
1AF
100
AcDbEntity
  8
Layer0
  6
AUSGEZOGEN
 62
     9
370
    18
100
AcDbLine
 10
204.331232559977
 20
97.137508141514
 30
0.0
 11
203.003334915934
 21
97.137508141514
 31
0.0
  0
LINE
  5
45F
330
1AF
100
AcDbEntity
  8
Stammform
  6
AUSGEZOGEN
 62
    56
370
    18
100
AcDbLine
 10
203.325536081012
 20
99.99558028134
 30
0.0
 11
203.003334915934
 21
99.437508141514
 31
0.0
  0
LINE
  5
460
330
1AF
100
AcDbEntity
  8
Layer0
  6
AUSGEZOGEN
 62
     9
370
    18
100
AcDbLine
 10
202.416956712695
 20
100.721878622453
 30
0.0
 11
202.339377320109
 21
100.587508141514
 31
0.0
  0
LINE
  5
461
330
1AF
100
AcDbEntity
  8
Layer0
  6
AUSGEZOGEN
 62
     9
370
    18
100
AcDbLine
 10
202.339377320109
 20
100.587508141514
 30
0.0
 11
203.003334915934
 21
99.437508141514
 31
0.0
  0
LINE
  5
462
330
1AF
100
AcDbEntity
  8
Layer0
  6
AUSGEZOGEN
 62
     9
370
    18
100
AcDbLine
 10
203.003334915934
 20
83.337508141514
 30
0.0
 11
202.339377320109
 21
82.187508141514
 31
0.0
  0
LINE
  5
463
330
1AF
100
AcDbEntity
  8
Layer0
  6
AUSGEZOGEN
 62
     9
370
    18
100
AcDbLine
 10
203.912492310602
 20
83.337508141514
 30
0.0
 11
203.003334915934
 21
83.337508141514
 31
0.0
  0
LINE
  5
464
330
1AF
100
AcDbEntity
  8
Stammform
  6
AUSGEZOGEN
 62
    56
370
    18
100
AcDbLine
 10
203.003334915934
 20
83.337508141514
 30
0.0
 11
203.325536081012
 21
82.779436001689
 31
0.0
  0
LINE
  5
465
330
1AF
100
AcDbEntity
  8
Stammform
  6
AUSGEZOGEN
 62
    56
370
    18
100
AcDbLine
 10
203.667283737955
 20
84.487508141514
 30
0.0
 11
203.003334915934
 21
83.337508141514
 31
0.0
  0
LINE
  5
466
330
1AF
100
AcDbEntity
  8
Stammform
  6
AUSGEZOGEN
 62
    56
370
    18
100
AcDbLine
 10
203.667283737955
 20
84.487508141514
 30
0.0
 11
204.899849617777
 21
84.487508141514
 31
0.0
  0
LINE
  5
467
330
1AF
100
AcDbEntity
  8
Stammform
  6
AUSGEZOGEN
 62
    56
370
    18
100
AcDbLine
 10
203.003334915934
 20
85.637508141514
 30
0.0
 11
203.667283737955
 21
84.487508141514
 31
0.0
  0
LINE
  5
468
330
1AF
100
AcDbEntity
  8
Layer0
  6
AUSGEZOGEN
 62
     9
370
    18
100
AcDbLine
 10
203.003334915934
 20
85.637508141514
 30
0.0
 11
202.339377320109
 21
84.487508141514
 31
0.0
  0
LINE
  5
469
330
1AF
100
AcDbEntity
  8
Layer0
  6
AUSGEZOGEN
 62
     9
370
    18
100
AcDbLine
 10
202.339377320109
 20
84.487508141514
 30
0.0
 11
203.003334915934
 21
83.337508141514
 31
0.0
  0
LINE
  5
46A
330
1AF
100
AcDbEntity
  8
Layer0
  6
AUSGEZOGEN
 62
     9
370
    18
100
AcDbLine
 10
204.953529031405
 20
84.559666805499
 30
0.0
 11
204.331232559977
 21
85.637508141514
 31
0.0
  0
LINE
  5
46B
330
1AF
100
AcDbEntity
  8
Layer0
  6
AUSGEZOGEN
 62
     9
370
    18
100
AcDbLine
 10
204.331232559977
 20
85.637508141514
 30
0.0
 11
203.003334915934
 21
85.637508141514
 31
0.0
  0
LINE
  5
46C
330
1AF
100
AcDbEntity
  8
Layer0
  6
AUSGEZOGEN
 62
     9
370
    18
100
AcDbLine
 10
201.011470902262
 20
84.487508141514
 30
0.0
 11
200.347522080241
 21
83.337508141514
 31
0.0
  0
LINE
  5
46D
330
1AF
100
AcDbEntity
  8
Layer0
  6
AUSGEZOGEN
 62
     9
370
    18
100
AcDbLine
 10
200.347522080241
 20
83.337508141514
 30
0.0
 11
201.011470902262
 21
82.187508141514
 31
0.0
  0
LINE
  5
46E
330
1AF
100
AcDbEntity
  8
Layer0
  6
AUSGEZOGEN
 62
     9
370
    18
100
AcDbLine
 10
201.011470902262
 20
82.187508141514
 30
0.0
 11
202.339377320109
 21
82.187508141514
 31
0.0
  0
LINE
  5
46F
330
1AF
100
AcDbEntity
  8
Layer0
  6
AUSGEZOGEN
 62
     9
370
    18
100
AcDbLine
 10
202.339377320109
 20
82.187508141514
 30
0.0
 11
203.003334915934
 21
83.337508141514
 31
0.0
  0
LINE
  5
470
330
1AF
100
AcDbEntity
  8
Layer0
  6
AUSGEZOGEN
 62
     9
370
    18
100
AcDbLine
 10
203.003334915934
 20
83.337508141514
 30
0.0
 11
202.339377320109
 21
84.487508141514
 31
0.0
  0
LINE
  5
471
330
1AF
100
AcDbEntity
  8
Layer0
  6
AUSGEZOGEN
 62
     9
370
    18
100
AcDbLine
 10
202.339377320109
 20
84.487508141514
 30
0.0
 11
201.011470902262
 21
84.487508141514
 31
0.0
  0
LINE
  5
472
330
1AF
100
AcDbEntity
  8
Stammform
  6
AUSGEZOGEN
 62
    56
370
    18
100
AcDbLine
 10
201.011470902262
 20
84.487508141514
 30
0.0
 11
201.675428498087
 21
83.337508141514
 31
0.0
  0
LINE
  5
473
330
1AF
100
AcDbEntity
  8
Stammform
  6
AUSGEZOGEN
 62
    56
370
    18
100
AcDbLine
 10
201.675428498087
 20
83.337508141514
 30
0.0
 11
203.003334915934
 21
83.337508141514
 31
0.0
  0
LINE
  5
474
330
1AF
100
AcDbEntity
  8
Stammform
  6
AUSGEZOGEN
 62
    56
370
    18
100
AcDbLine
 10
201.675428498087
 20
83.337508141514
 30
0.0
 11
201.011470902262
 21
82.187508141514
 31
0.0
  0
LINE
  5
475
330
1AF
100
AcDbEntity
  8
Stammform
  6
AUSGEZOGEN
 62
    56
370
    18
100
AcDbLine
 10
201.011470902262
 20
82.187508141514
 30
0.0
 11
201.449851093839
 21
81.428216850198
 31
0.0
  0
LINE
  5
476
330
1AF
100
AcDbEntity
  8
Layer0
  6
AUSGEZOGEN
 62
     9
370
    18
100
AcDbLine
 10
201.011470902262
 20
82.187508141514
 30
0.0
 11
200.347522080241
 21
81.037508141514
 31
0.0
  0
LINE
  5
477
330
1AF
100
AcDbEntity
  8
Layer0
  6
AUSGEZOGEN
 62
     9
370
    18
100
AcDbLine
 10
202.416956712695
 20
82.053137660576
 30
0.0
 11
202.339377320109
 21
82.187508141514
 31
0.0
  0
LINE
  5
478
330
1AF
100
AcDbEntity
  8
Layer0
  6
AUSGEZOGEN
 62
     9
370
    18
100
AcDbLine
 10
202.339377320109
 20
82.187508141514
 30
0.0
 11
201.011470902262
 21
82.187508141514
 31
0.0
  0
LINE
  5
479
330
1AF
100
AcDbEntity
  8
Layer0
  6
AUSGEZOGEN
 62
     9
370
    18
100
AcDbLine
 10
201.011470902262
 20
100.587508141514
 30
0.0
 11
200.347522080241
 21
99.437508141514
 31
0.0
  0
LINE
  5
47A
330
1AF
100
AcDbEntity
  8
Layer0
  6
AUSGEZOGEN
 62
     9
370
    18
100
AcDbLine
 10
200.347522080241
 20
99.437508141514
 30
0.0
 11
201.011470902262
 21
98.287508141514
 31
0.0
  0
LINE
  5
47B
330
1AF
100
AcDbEntity
  8
Layer0
  6
AUSGEZOGEN
 62
     9
370
    18
100
AcDbLine
 10
201.011470902262
 20
98.287508141514
 30
0.0
 11
202.339377320109
 21
98.287508141514
 31
0.0
  0
LINE
  5
47C
330
1AF
100
AcDbEntity
  8
Layer0
  6
AUSGEZOGEN
 62
     9
370
    18
100
AcDbLine
 10
202.339377320109
 20
98.287508141514
 30
0.0
 11
203.003334915934
 21
99.437508141514
 31
0.0
  0
LINE
  5
47D
330
1AF
100
AcDbEntity
  8
Layer0
  6
AUSGEZOGEN
 62
     9
370
    18
100
AcDbLine
 10
203.003334915934
 20
99.437508141514
 30
0.0
 11
202.339377320109
 21
100.587508141514
 31
0.0
  0
LINE
  5
47E
330
1AF
100
AcDbEntity
  8
Layer0
  6
AUSGEZOGEN
 62
     9
370
    18
100
AcDbLine
 10
202.339377320109
 20
100.587508141514
 30
0.0
 11
201.011470902262
 21
100.587508141514
 31
0.0
  0
LINE
  5
47F
330
1AF
100
AcDbEntity
  8
Stammform
  6
AUSGEZOGEN
 62
    56
370
    18
100
AcDbLine
 10
201.011470902262
 20
100.587508141514
 30
0.0
 11
201.675428498087
 21
99.437508141514
 31
0.0
  0
LINE
  5
480
330
1AF
100
AcDbEntity
  8
Stammform
  6
AUSGEZOGEN
 62
    56
370
    18
100
AcDbLine
 10
201.675428498087
 20
99.437508141514
 30
0.0
 11
203.003334915934
 21
99.437508141514
 31
0.0
  0
LINE
  5
481
330
1AF
100
AcDbEntity
  8
Stammform
  6
AUSGEZOGEN
 62
    56
370
    18
100
AcDbLine
 10
201.675428498087
 20
99.437508141514
 30
0.0
 11
201.011470902262
 21
98.287508141514
 31
0.0
  0
LINE
  5
482
330
1AF
100
AcDbEntity
  8
Stammform
  6
AUSGEZOGEN
 62
    56
370
    18
100
AcDbLine
 10
201.449851093839
 20
101.346799432831
 30
0.0
 11
201.011470902262
 21
100.587508141514
 31
0.0
  0
LINE
  5
483
330
1AF
100
AcDbEntity
  8
Layer0
  6
AUSGEZOGEN
 62
     9
370
    18
100
AcDbLine
 10
200.347522080241
 20
101.737508141514
 30
0.0
 11
201.011470902262
 21
100.587508141514
 31
0.0
  0
LINE
  5
484
330
1AF
100
AcDbEntity
  8
Layer0
  6
AUSGEZOGEN
 62
     9
370
    18
100
AcDbLine
 10
201.011470902262
 20
100.587508141514
 30
0.0
 11
202.339377320109
 21
100.587508141514
 31
0.0
  0
LINE
  5
485
330
1AF
100
AcDbEntity
  8
Layer0
  6
AUSGEZOGEN
 62
     9
370
    18
100
AcDbLine
 10
201.011470902262
 20
95.987508141514
 30
0.0
 11
200.347522080241
 21
94.837508141514
 31
0.0
  0
LINE
  5
486
330
1AF
100
AcDbEntity
  8
Layer0
  6
AUSGEZOGEN
 62
     9
370
    18
100
AcDbLine
 10
200.347522080241
 20
94.837508141514
 30
0.0
 11
201.011470902262
 21
93.687508141514
 31
0.0
  0
LINE
  5
487
330
1AF
100
AcDbEntity
  8
Layer0
  6
AUSGEZOGEN
 62
     9
370
    18
100
AcDbLine
 10
201.011470902262
 20
93.687508141514
 30
0.0
 11
202.339377320109
 21
93.687508141514
 31
0.0
  0
LINE
  5
488
330
1AF
100
AcDbEntity
  8
Layer0
  6
AUSGEZOGEN
 62
     9
370
    18
100
AcDbLine
 10
202.339377320109
 20
93.687508141514
 30
0.0
 11
203.003334915934
 21
94.837508141514
 31
0.0
  0
LINE
  5
489
330
1AF
100
AcDbEntity
  8
Layer0
  6
AUSGEZOGEN
 62
     9
370
    18
100
AcDbLine
 10
203.003334915934
 20
94.837508141514
 30
0.0
 11
202.339377320109
 21
95.987508141514
 31
0.0
  0
LINE
  5
48A
330
1AF
100
AcDbEntity
  8
Layer0
  6
AUSGEZOGEN
 62
     9
370
    18
100
AcDbLine
 10
202.339377320109
 20
95.987508141514
 30
0.0
 11
201.011470902262
 21
95.987508141514
 31
0.0
  0
LINE
  5
48B
330
1AF
100
AcDbEntity
  8
Stammform
  6
AUSGEZOGEN
 62
    56
370
    18
100
AcDbLine
 10
201.011470902262
 20
95.987508141514
 30
0.0
 11
201.675428498087
 21
94.837508141514
 31
0.0
  0
LINE
  5
48C
330
1AF
100
AcDbEntity
  8
Stammform
  6
AUSGEZOGEN
 62
    56
370
    18
100
AcDbLine
 10
201.675428498087
 20
94.837508141514
 30
0.0
 11
203.003334915934
 21
94.837508141514
 31
0.0
  0
LINE
  5
48D
330
1AF
100
AcDbEntity
  8
Stammform
  6
AUSGEZOGEN
 62
    56
370
    18
100
AcDbLine
 10
201.675428498087
 20
94.837508141514
 30
0.0
 11
201.011470902262
 21
93.687508141514
 31
0.0
  0
LINE
  5
48E
330
1AF
100
AcDbEntity
  8
Stammform
  6
AUSGEZOGEN
 62
    56
370
    18
100
AcDbLine
 10
201.675428498087
 20
97.137508141514
 30
0.0
 11
201.011470902262
 21
95.987508141514
 31
0.0
  0
LINE
  5
48F
330
1AF
100
AcDbEntity
  8
Stammform
  6
AUSGEZOGEN
 62
    56
370
    18
100
AcDbLine
 10
201.675428498087
 20
97.137508141514
 30
0.0
 11
203.003334915934
 21
97.137508141514
 31
0.0
  0
LINE
  5
490
330
1AF
100
AcDbEntity
  8
Stammform
  6
AUSGEZOGEN
 62
    56
370
    18
100
AcDbLine
 10
201.011470902262
 20
98.287508141514
 30
0.0
 11
201.675428498087
 21
97.137508141514
 31
0.0
  0
LINE
  5
491
330
1AF
100
AcDbEntity
  8
Layer0
  6
AUSGEZOGEN
 62
     9
370
    18
100
AcDbLine
 10
201.011470902262
 20
98.287508141514
 30
0.0
 11
200.347522080241
 21
97.137508141514
 31
0.0
  0
LINE
  5
492
330
1AF
100
AcDbEntity
  8
Layer0
  6
AUSGEZOGEN
 62
     9
370
    18
100
AcDbLine
 10
200.347522080241
 20
97.137508141514
 30
0.0
 11
201.011470902262
 21
95.987508141514
 31
0.0
  0
LINE
  5
493
330
1AF
100
AcDbEntity
  8
Layer0
  6
AUSGEZOGEN
 62
     9
370
    18
100
AcDbLine
 10
201.011470902262
 20
95.987508141514
 30
0.0
 11
202.339377320109
 21
95.987508141514
 31
0.0
  0
LINE
  5
494
330
1AF
100
AcDbEntity
  8
Layer0
  6
AUSGEZOGEN
 62
     9
370
    18
100
AcDbLine
 10
202.339377320109
 20
95.987508141514
 30
0.0
 11
203.003334915934
 21
97.137508141514
 31
0.0
  0
LINE
  5
495
330
1AF
100
AcDbEntity
  8
Layer0
  6
AUSGEZOGEN
 62
     9
370
    18
100
AcDbLine
 10
203.003334915934
 20
97.137508141514
 30
0.0
 11
202.339377320109
 21
98.287508141514
 31
0.0
  0
LINE
  5
496
330
1AF
100
AcDbEntity
  8
Layer0
  6
AUSGEZOGEN
 62
     9
370
    18
100
AcDbLine
 10
202.339377320109
 20
98.287508141514
 30
0.0
 11
201.011470902262
 21
98.287508141514
 31
0.0
  0
LINE
  5
497
330
1AF
100
AcDbEntity
  8
Layer0
  6
AUSGEZOGEN
 62
     9
370
    18
100
AcDbLine
 10
201.011470902262
 20
91.387508141514
 30
0.0
 11
200.347522080241
 21
90.237508141514
 31
0.0
  0
LINE
  5
498
330
1AF
100
AcDbEntity
  8
Layer0
  6
AUSGEZOGEN
 62
     9
370
    18
100
AcDbLine
 10
200.347522080241
 20
90.237508141514
 30
0.0
 11
201.011470902262
 21
89.087508141514
 31
0.0
  0
LINE
  5
499
330
1AF
100
AcDbEntity
  8
Layer0
  6
AUSGEZOGEN
 62
     9
370
    18
100
AcDbLine
 10
201.011470902262
 20
89.087508141514
 30
0.0
 11
202.339377320109
 21
89.087508141514
 31
0.0
  0
LINE
  5
49A
330
1AF
100
AcDbEntity
  8
Layer0
  6
AUSGEZOGEN
 62
     9
370
    18
100
AcDbLine
 10
202.339377320109
 20
89.087508141514
 30
0.0
 11
203.003334915934
 21
90.237508141514
 31
0.0
  0
LINE
  5
49B
330
1AF
100
AcDbEntity
  8
Layer0
  6
AUSGEZOGEN
 62
     9
370
    18
100
AcDbLine
 10
203.003334915934
 20
90.237508141514
 30
0.0
 11
202.339377320109
 21
91.387508141514
 31
0.0
  0
LINE
  5
49C
330
1AF
100
AcDbEntity
  8
Layer0
  6
AUSGEZOGEN
 62
     9
370
    18
100
AcDbLine
 10
202.339377320109
 20
91.387508141514
 30
0.0
 11
201.011470902262
 21
91.387508141514
 31
0.0
  0
LINE
  5
49D
330
1AF
100
AcDbEntity
  8
Stammform
  6
AUSGEZOGEN
 62
    56
370
    18
100
AcDbLine
 10
201.011470902262
 20
91.387508141514
 30
0.0
 11
201.675428498087
 21
90.237508141514
 31
0.0
  0
LINE
  5
49E
330
1AF
100
AcDbEntity
  8
Stammform
  6
AUSGEZOGEN
 62
    56
370
    18
100
AcDbLine
 10
201.675428498087
 20
90.237508141514
 30
0.0
 11
203.003334915934
 21
90.237508141514
 31
0.0
  0
LINE
  5
49F
330
1AF
100
AcDbEntity
  8
Stammform
  6
AUSGEZOGEN
 62
    56
370
    18
100
AcDbLine
 10
201.675428498087
 20
90.237508141514
 30
0.0
 11
201.011470902262
 21
89.087508141514
 31
0.0
  0
LINE
  5
4A0
330
1AF
100
AcDbEntity
  8
Stammform
  6
AUSGEZOGEN
 62
    56
370
    18
100
AcDbLine
 10
201.675428498087
 20
92.537508141514
 30
0.0
 11
201.011470902262
 21
91.387508141514
 31
0.0
  0
LINE
  5
4A1
330
1AF
100
AcDbEntity
  8
Stammform
  6
AUSGEZOGEN
 62
    56
370
    18
100
AcDbLine
 10
201.675428498087
 20
92.537508141514
 30
0.0
 11
203.003334915934
 21
92.537508141514
 31
0.0
  0
LINE
  5
4A2
330
1AF
100
AcDbEntity
  8
Stammform
  6
AUSGEZOGEN
 62
    56
370
    18
100
AcDbLine
 10
201.011470902262
 20
93.687508141514
 30
0.0
 11
201.675428498087
 21
92.537508141514
 31
0.0
  0
LINE
  5
4A3
330
1AF
100
AcDbEntity
  8
Layer0
  6
AUSGEZOGEN
 62
     9
370
    18
100
AcDbLine
 10
201.011470902262
 20
93.687508141514
 30
0.0
 11
200.347522080241
 21
92.537508141514
 31
0.0
  0
LINE
  5
4A4
330
1AF
100
AcDbEntity
  8
Layer0
  6
AUSGEZOGEN
 62
     9
370
    18
100
AcDbLine
 10
200.347522080241
 20
92.537508141514
 30
0.0
 11
201.011470902262
 21
91.387508141514
 31
0.0
  0
LINE
  5
4A5
330
1AF
100
AcDbEntity
  8
Layer0
  6
AUSGEZOGEN
 62
     9
370
    18
100
AcDbLine
 10
201.011470902262
 20
91.387508141514
 30
0.0
 11
202.339377320109
 21
91.387508141514
 31
0.0
  0
LINE
  5
4A6
330
1AF
100
AcDbEntity
  8
Layer0
  6
AUSGEZOGEN
 62
     9
370
    18
100
AcDbLine
 10
202.339377320109
 20
91.387508141514
 30
0.0
 11
203.003334915934
 21
92.537508141514
 31
0.0
  0
LINE
  5
4A7
330
1AF
100
AcDbEntity
  8
Layer0
  6
AUSGEZOGEN
 62
     9
370
    18
100
AcDbLine
 10
203.003334915934
 20
92.537508141514
 30
0.0
 11
202.339377320109
 21
93.687508141514
 31
0.0
  0
LINE
  5
4A8
330
1AF
100
AcDbEntity
  8
Layer0
  6
AUSGEZOGEN
 62
     9
370
    18
100
AcDbLine
 10
202.339377320109
 20
93.687508141514
 30
0.0
 11
201.011470902262
 21
93.687508141514
 31
0.0
  0
LINE
  5
4A9
330
1AF
100
AcDbEntity
  8
Layer0
  6
AUSGEZOGEN
 62
     9
370
    18
100
AcDbLine
 10
201.011470902262
 20
89.087508141514
 30
0.0
 11
200.347522080241
 21
87.937508141514
 31
0.0
  0
LINE
  5
4AA
330
1AF
100
AcDbEntity
  8
Layer0
  6
AUSGEZOGEN
 62
     9
370
    18
100
AcDbLine
 10
200.347522080241
 20
87.937508141514
 30
0.0
 11
201.011470902262
 21
86.787508141514
 31
0.0
  0
LINE
  5
4AB
330
1AF
100
AcDbEntity
  8
Layer0
  6
AUSGEZOGEN
 62
     9
370
    18
100
AcDbLine
 10
201.011470902262
 20
86.787508141514
 30
0.0
 11
202.339377320109
 21
86.787508141514
 31
0.0
  0
LINE
  5
4AC
330
1AF
100
AcDbEntity
  8
Layer0
  6
AUSGEZOGEN
 62
     9
370
    18
100
AcDbLine
 10
202.339377320109
 20
86.787508141514
 30
0.0
 11
203.003334915934
 21
87.937508141514
 31
0.0
  0
LINE
  5
4AD
330
1AF
100
AcDbEntity
  8
Layer0
  6
AUSGEZOGEN
 62
     9
370
    18
100
AcDbLine
 10
203.003334915934
 20
87.937508141514
 30
0.0
 11
202.339377320109
 21
89.087508141514
 31
0.0
  0
LINE
  5
4AE
330
1AF
100
AcDbEntity
  8
Layer0
  6
AUSGEZOGEN
 62
     9
370
    18
100
AcDbLine
 10
202.339377320109
 20
89.087508141514
 30
0.0
 11
201.011470902262
 21
89.087508141514
 31
0.0
  0
LINE
  5
4AF
330
1AF
100
AcDbEntity
  8
Stammform
  6
AUSGEZOGEN
 62
    56
370
    18
100
AcDbLine
 10
201.011470902262
 20
89.087508141514
 30
0.0
 11
201.675428498087
 21
87.937508141514
 31
0.0
  0
LINE
  5
4B0
330
1AF
100
AcDbEntity
  8
Stammform
  6
AUSGEZOGEN
 62
    56
370
    18
100
AcDbLine
 10
201.675428498087
 20
87.937508141514
 30
0.0
 11
203.003334915934
 21
87.937508141514
 31
0.0
  0
LINE
  5
4B1
330
1AF
100
AcDbEntity
  8
Stammform
  6
AUSGEZOGEN
 62
    56
370
    18
100
AcDbLine
 10
201.675428498087
 20
87.937508141514
 30
0.0
 11
201.011470902262
 21
86.787508141514
 31
0.0
  0
LINE
  5
4B2
330
1AF
100
AcDbEntity
  8
Stammform
  6
AUSGEZOGEN
 62
    56
370
    18
100
AcDbLine
 10
201.675428498087
 20
85.637508141514
 30
0.0
 11
201.011470902262
 21
84.487508141514
 31
0.0
  0
LINE
  5
4B3
330
1AF
100
AcDbEntity
  8
Stammform
  6
AUSGEZOGEN
 62
    56
370
    18
100
AcDbLine
 10
201.675428498087
 20
85.637508141514
 30
0.0
 11
203.003334915934
 21
85.637508141514
 31
0.0
  0
LINE
  5
4B4
330
1AF
100
AcDbEntity
  8
Stammform
  6
AUSGEZOGEN
 62
    56
370
    18
100
AcDbLine
 10
201.011470902262
 20
86.787508141514
 30
0.0
 11
201.675428498087
 21
85.637508141514
 31
0.0
  0
LINE
  5
4B5
330
1AF
100
AcDbEntity
  8
Layer0
  6
AUSGEZOGEN
 62
     9
370
    18
100
AcDbLine
 10
201.011470902262
 20
86.787508141514
 30
0.0
 11
200.347522080241
 21
85.637508141514
 31
0.0
  0
LINE
  5
4B6
330
1AF
100
AcDbEntity
  8
Layer0
  6
AUSGEZOGEN
 62
     9
370
    18
100
AcDbLine
 10
200.347522080241
 20
85.637508141514
 30
0.0
 11
201.011470902262
 21
84.487508141514
 31
0.0
  0
LINE
  5
4B7
330
1AF
100
AcDbEntity
  8
Layer0
  6
AUSGEZOGEN
 62
     9
370
    18
100
AcDbLine
 10
201.011470902262
 20
84.487508141514
 30
0.0
 11
202.339377320109
 21
84.487508141514
 31
0.0
  0
LINE
  5
4B8
330
1AF
100
AcDbEntity
  8
Layer0
  6
AUSGEZOGEN
 62
     9
370
    18
100
AcDbLine
 10
202.339377320109
 20
84.487508141514
 30
0.0
 11
203.003334915934
 21
85.637508141514
 31
0.0
  0
LINE
  5
4B9
330
1AF
100
AcDbEntity
  8
Layer0
  6
AUSGEZOGEN
 62
     9
370
    18
100
AcDbLine
 10
203.003334915934
 20
85.637508141514
 30
0.0
 11
202.339377320109
 21
86.787508141514
 31
0.0
  0
LINE
  5
4BA
330
1AF
100
AcDbEntity
  8
Layer0
  6
AUSGEZOGEN
 62
     9
370
    18
100
AcDbLine
 10
202.339377320109
 20
86.787508141514
 30
0.0
 11
201.011470902262
 21
86.787508141514
 31
0.0
  0
LINE
  5
4BB
330
1AF
100
AcDbEntity
  8
Stammform
  6
AUSGEZOGEN
 62
    56
370
    18
100
AcDbLine
 10
206.98704539567
 20
90.237508141514
 30
0.0
 11
207.117283152016
 21
90.011931356583
 31
0.0
  0
LINE
  5
4BC
330
1AF
100
AcDbEntity
  8
Layer0
  6
AUSGEZOGEN
 62
     9
370
    18
100
AcDbLine
 10
206.98704539567
 20
90.237508141514
 30
0.0
 11
206.323096573649
 21
89.087508141514
 31
0.0
  0
LINE
  5
4BD
330
1AF
100
AcDbEntity
  8
Layer0
  6
AUSGEZOGEN
 62
     9
370
    18
100
AcDbLine
 10
206.323096573649
 20
89.087508141514
 30
0.0
 11
206.777675227863
 21
88.300150087689
 31
0.0
  0
LINE
  5
4BE
330
1AF
100
AcDbEntity
  8
Layer0
  6
AUSGEZOGEN
 62
     9
370
    18
100
AcDbLine
 10
207.142205144503
 20
90.237508141514
 30
0.0
 11
206.98704539567
 21
90.237508141514
 31
0.0
  0
LINE
  5
4BF
330
1AF
100
AcDbEntity
  8
Layer0
  6
AUSGEZOGEN
 62
     9
370
    18
100
AcDbLine
 10
206.777675227863
 20
94.47486619534
 30
0.0
 11
206.323096573649
 21
93.687508141514
 31
0.0
  0
LINE
  5
4C0
330
1AF
100
AcDbEntity
  8
Layer0
  6
AUSGEZOGEN
 62
     9
370
    18
100
AcDbLine
 10
206.323096573649
 20
93.687508141514
 30
0.0
 11
206.98704539567
 21
92.537508141514
 31
0.0
  0
LINE
  5
4C1
330
1AF
100
AcDbEntity
  8
Layer0
  6
AUSGEZOGEN
 62
     9
370
    18
100
AcDbLine
 10
206.98704539567
 20
92.537508141514
 30
0.0
 11
207.142205144503
 21
92.537508141514
 31
0.0
  0
LINE
  5
4C2
330
1AF
100
AcDbEntity
  8
Stammform
  6
AUSGEZOGEN
 62
    56
370
    18
100
AcDbLine
 10
207.117283152016
 20
92.763084926446
 30
0.0
 11
206.98704539567
 21
92.537508141514
 31
0.0
  0
LINE
  5
4C3
330
1AF
100
AcDbEntity
  8
Stammform
  6
AUSGEZOGEN
 62
    56
370
    18
100
AcDbLine
 10
207.169579535848
 20
90.553664267334
 30
0.0
 11
206.98704539567
 21
90.237508141514
 31
0.0
  0
LINE
  5
4C4
330
1AF
100
AcDbEntity
  8
Stammform
  6
AUSGEZOGEN
 62
    56
370
    18
100
AcDbLine
 10
206.98704539567
 20
92.537508141514
 30
0.0
 11
207.169579535848
 21
92.221352015695
 31
0.0
  0
LINE
  5
4C5
330
1AF
100
AcDbEntity
  8
Layer0
  6
AUSGEZOGEN
 62
     9
370
    18
100
AcDbLine
 10
206.98704539567
 20
92.537508141514
 30
0.0
 11
206.323096573649
 21
91.387508141514
 31
0.0
  0
LINE
  5
4C6
330
1AF
100
AcDbEntity
  8
Layer0
  6
AUSGEZOGEN
 62
     9
370
    18
100
AcDbLine
 10
206.323096573649
 20
91.387508141514
 30
0.0
 11
206.98704539567
 21
90.237508141514
 31
0.0
  0
LINE
  5
4C7
330
1AF
100
AcDbEntity
  8
Layer0
  6
AUSGEZOGEN
 62
     9
370
    18
100
AcDbLine
 10
204.995190155802
 20
95.987508141514
 30
0.0
 11
204.331232559977
 21
94.837508141514
 31
0.0
  0
LINE
  5
4C8
330
1AF
100
AcDbEntity
  8
Layer0
  6
AUSGEZOGEN
 62
     9
370
    18
100
AcDbLine
 10
204.331232559977
 20
94.837508141514
 30
0.0
 11
204.995190155802
 21
93.687508141514
 31
0.0
  0
LINE
  5
4C9
330
1AF
100
AcDbEntity
  8
Layer0
  6
AUSGEZOGEN
 62
     9
370
    18
100
AcDbLine
 10
204.995190155802
 20
93.687508141514
 30
0.0
 11
206.323096573649
 21
93.687508141514
 31
0.0
  0
LINE
  5
4CA
330
1AF
100
AcDbEntity
  8
Layer0
  6
AUSGEZOGEN
 62
     9
370
    18
100
AcDbLine
 10
206.239773716176
 20
95.987508141514
 30
0.0
 11
204.995190155802
 21
95.987508141514
 31
0.0
  0
LINE
  5
4CB
330
1AF
100
AcDbEntity
  8
Stammform
  6
AUSGEZOGEN
 62
    56
370
    18
100
AcDbLine
 10
204.995190155802
 20
95.987508141514
 30
0.0
 11
205.659138977824
 21
94.837508141514
 31
0.0
  0
LINE
  5
4CC
330
1AF
100
AcDbEntity
  8
Stammform
  6
AUSGEZOGEN
 62
    56
370
    18
100
AcDbLine
 10
205.659138977824
 20
94.837508141514
 30
0.0
 11
206.670150434072
 21
94.837508141514
 31
0.0
  0
LINE
  5
4CD
330
1AF
100
AcDbEntity
  8
Stammform
  6
AUSGEZOGEN
 62
    56
370
    18
100
AcDbLine
 10
205.659138977824
 20
94.837508141514
 30
0.0
 11
204.995190155802
 21
93.687508141514
 31
0.0
  0
LINE
  5
4CE
330
1AF
100
AcDbEntity
  8
Stammform
  6
AUSGEZOGEN
 62
    56
370
    18
100
AcDbLine
 10
205.659140369557
 20
97.137510552081
 30
0.0
 11
204.995190155802
 21
95.987508141514
 31
0.0
  0
LINE
  5
4CF
330
1AF
100
AcDbEntity
  8
Layer0
  6
AUSGEZOGEN
 62
     9
370
    18
100
AcDbLine
 10
204.953529031405
 20
98.21534947753
 30
0.0
 11
204.331232559977
 21
97.137508141514
 31
0.0
  0
LINE
  5
4D0
330
1AF
100
AcDbEntity
  8
Layer0
  6
AUSGEZOGEN
 62
     9
370
    18
100
AcDbLine
 10
204.331232559977
 20
97.137508141514
 30
0.0
 11
204.995190155802
 21
95.987508141514
 31
0.0
  0
LINE
  5
4D1
330
1AF
100
AcDbEntity
  8
Layer0
  6
AUSGEZOGEN
 62
     9
370
    18
100
AcDbLine
 10
204.995190155802
 20
95.987508141514
 30
0.0
 11
206.323096573649
 21
95.987508141514
 31
0.0
  0
LINE
  5
4D2
330
1AF
100
AcDbEntity
  8
Layer0
  6
AUSGEZOGEN
 62
     9
370
    18
100
AcDbLine
 10
204.995190155802
 20
91.387508141514
 30
0.0
 11
204.331232559977
 21
90.237508141514
 31
0.0
  0
LINE
  5
4D3
330
1AF
100
AcDbEntity
  8
Layer0
  6
AUSGEZOGEN
 62
     9
370
    18
100
AcDbLine
 10
204.331232559977
 20
90.237508141514
 30
0.0
 11
204.995190155802
 21
89.087508141514
 31
0.0
  0
LINE
  5
4D4
330
1AF
100
AcDbEntity
  8
Layer0
  6
AUSGEZOGEN
 62
     9
370
    18
100
AcDbLine
 10
204.995190155802
 20
89.087508141514
 30
0.0
 11
206.323096573649
 21
89.087508141514
 31
0.0
  0
LINE
  5
4D5
330
1AF
100
AcDbEntity
  8
Layer0
  6
AUSGEZOGEN
 62
     9
370
    18
100
AcDbLine
 10
206.323096573649
 20
89.087508141514
 30
0.0
 11
206.98704539567
 21
90.237508141514
 31
0.0
  0
LINE
  5
4D6
330
1AF
100
AcDbEntity
  8
Layer0
  6
AUSGEZOGEN
 62
     9
370
    18
100
AcDbLine
 10
206.98704539567
 20
90.237508141514
 30
0.0
 11
206.323096573649
 21
91.387508141514
 31
0.0
  0
LINE
  5
4D7
330
1AF
100
AcDbEntity
  8
Layer0
  6
AUSGEZOGEN
 62
     9
370
    18
100
AcDbLine
 10
206.323096573649
 20
91.387508141514
 30
0.0
 11
204.995190155802
 21
91.387508141514
 31
0.0
  0
LINE
  5
4D8
330
1AF
100
AcDbEntity
  8
Stammform
  6
AUSGEZOGEN
 62
    56
370
    18
100
AcDbLine
 10
204.995190155802
 20
91.387508141514
 30
0.0
 11
205.659138977824
 21
90.237508141514
 31
0.0
  0
LINE
  5
4D9
330
1AF
100
AcDbEntity
  8
Stammform
  6
AUSGEZOGEN
 62
    56
370
    18
100
AcDbLine
 10
205.659138977824
 20
90.237508141514
 30
0.0
 11
206.98704539567
 21
90.237508141514
 31
0.0
  0
LINE
  5
4DA
330
1AF
100
AcDbEntity
  8
Stammform
  6
AUSGEZOGEN
 62
    56
370
    18
100
AcDbLine
 10
205.659138977824
 20
90.237508141514
 30
0.0
 11
204.995190155802
 21
89.087508141514
 31
0.0
  0
LINE
  5
4DB
330
1AF
100
AcDbEntity
  8
Stammform
  6
AUSGEZOGEN
 62
    56
370
    18
100
AcDbLine
 10
205.659138977824
 20
92.537508141514
 30
0.0
 11
204.995190155802
 21
91.387508141514
 31
0.0
  0
LINE
  5
4DC
330
1AF
100
AcDbEntity
  8
Stammform
  6
AUSGEZOGEN
 62
    56
370
    18
100
AcDbLine
 10
205.659138977824
 20
92.537508141514
 30
0.0
 11
206.98704539567
 21
92.537508141514
 31
0.0
  0
LINE
  5
4DD
330
1AF
100
AcDbEntity
  8
Stammform
  6
AUSGEZOGEN
 62
    56
370
    18
100
AcDbLine
 10
204.995190155802
 20
93.687508141514
 30
0.0
 11
205.659138977824
 21
92.537508141514
 31
0.0
  0
LINE
  5
4DE
330
1AF
100
AcDbEntity
  8
Layer0
  6
AUSGEZOGEN
 62
     9
370
    18
100
AcDbLine
 10
204.995190155802
 20
93.687508141514
 30
0.0
 11
204.331232559977
 21
92.537508141514
 31
0.0
  0
LINE
  5
4DF
330
1AF
100
AcDbEntity
  8
Layer0
  6
AUSGEZOGEN
 62
     9
370
    18
100
AcDbLine
 10
204.331232559977
 20
92.537508141514
 30
0.0
 11
204.995190155802
 21
91.387508141514
 31
0.0
  0
LINE
  5
4E0
330
1AF
100
AcDbEntity
  8
Layer0
  6
AUSGEZOGEN
 62
     9
370
    18
100
AcDbLine
 10
204.995190155802
 20
91.387508141514
 30
0.0
 11
206.323096573649
 21
91.387508141514
 31
0.0
  0
LINE
  5
4E1
330
1AF
100
AcDbEntity
  8
Layer0
  6
AUSGEZOGEN
 62
     9
370
    18
100
AcDbLine
 10
206.323096573649
 20
91.387508141514
 30
0.0
 11
206.98704539567
 21
92.537508141514
 31
0.0
  0
LINE
  5
4E2
330
1AF
100
AcDbEntity
  8
Layer0
  6
AUSGEZOGEN
 62
     9
370
    18
100
AcDbLine
 10
206.98704539567
 20
92.537508141514
 30
0.0
 11
206.323096573649
 21
93.687508141514
 31
0.0
  0
LINE
  5
4E3
330
1AF
100
AcDbEntity
  8
Layer0
  6
AUSGEZOGEN
 62
     9
370
    18
100
AcDbLine
 10
206.323096573649
 20
93.687508141514
 30
0.0
 11
204.995190155802
 21
93.687508141514
 31
0.0
  0
LINE
  5
4E4
330
1AF
100
AcDbEntity
  8
Layer0
  6
AUSGEZOGEN
 62
     9
370
    18
100
AcDbLine
 10
204.995190155802
 20
89.087508141514
 30
0.0
 11
204.331232559977
 21
87.937508141514
 31
0.0
  0
LINE
  5
4E5
330
1AF
100
AcDbEntity
  8
Layer0
  6
AUSGEZOGEN
 62
     9
370
    18
100
AcDbLine
 10
204.331232559977
 20
87.937508141514
 30
0.0
 11
204.995190155802
 21
86.787508141514
 31
0.0
  0
LINE
  5
4E6
330
1AF
100
AcDbEntity
  8
Layer0
  6
AUSGEZOGEN
 62
     9
370
    18
100
AcDbLine
 10
204.995190155802
 20
86.787508141514
 30
0.0
 11
206.239773716176
 21
86.787508141514
 31
0.0
  0
LINE
  5
4E7
330
1AF
100
AcDbEntity
  8
Layer0
  6
AUSGEZOGEN
 62
     9
370
    18
100
AcDbLine
 10
206.323096573649
 20
89.087508141514
 30
0.0
 11
204.995190155802
 21
89.087508141514
 31
0.0
  0
LINE
  5
4E8
330
1AF
100
AcDbEntity
  8
Stammform
  6
AUSGEZOGEN
 62
    56
370
    18
100
AcDbLine
 10
204.995190155802
 20
89.087508141514
 30
0.0
 11
205.659138977824
 21
87.937508141514
 31
0.0
  0
LINE
  5
4E9
330
1AF
100
AcDbEntity
  8
Stammform
  6
AUSGEZOGEN
 62
    56
370
    18
100
AcDbLine
 10
205.659138977824
 20
87.937508141514
 30
0.0
 11
206.670150434072
 21
87.937508141514
 31
0.0
  0
LINE
  5
4EA
330
1AF
100
AcDbEntity
  8
Stammform
  6
AUSGEZOGEN
 62
    56
370
    18
100
AcDbLine
 10
205.659138977824
 20
87.937508141514
 30
0.0
 11
204.995190155802
 21
86.787508141514
 31
0.0
  0
LINE
  5
4EB
330
1AF
100
AcDbEntity
  8
Stammform
  6
AUSGEZOGEN
 62
    56
370
    18
100
AcDbLine
 10
204.995190155802
 20
86.787508141514
 30
0.0
 11
205.659140369557
 21
85.637505730948
 31
0.0
  0
LINE
  5
4EC
330
1AF
100
AcDbEntity
  8
Layer0
  6
AUSGEZOGEN
 62
     9
370
    18
100
AcDbLine
 10
204.995190155802
 20
86.787508141514
 30
0.0
 11
204.331232559977
 21
85.637508141514
 31
0.0
  0
LINE
  5
4ED
330
1AF
100
AcDbEntity
  8
Layer0
  6
AUSGEZOGEN
 62
     9
370
    18
100
AcDbLine
 10
204.331232559977
 20
85.637508141514
 30
0.0
 11
204.995190155802
 21
84.487508141514
 31
0.0
  0
ENDBLK
  5
1B1
330
1AF
100
AcDbEntity
  8
0
100
AcDbBlockEnd
  0
BLOCK
  5
4F2
330
4F1
100
AcDbEntity
  8
0
100
AcDbBlockBegin
  2
*D6
 70
     1
 10
0.0
 20
0.0
 30
0.0
  3
*D6
  1

  0
LINE
  5
4F4
330
4F1
100
AcDbEntity
  8
Bemassung
  6
AUSGEZOGEN
 62
   136
370
    18
100
AcDbLine
 10
205.949849617777
 20
74.110746694909
 30
0.0
 11
205.949849617777
 21
73.610746694909
 31
0.0
  0
LINE
  5
4F5
330
4F1
100
AcDbEntity
  8
Bemassung
  6
AUSGEZOGEN
 62
   136
370
    18
100
AcDbLine
 10
205.949849617777
 20
74.110746694909
 30
0.0
 11
207.199849617777
 21
73.860746694909
 31
0.0
  0
LINE
  5
4F6
330
4F1
100
AcDbEntity
  8
Bemassung
  6
AUSGEZOGEN
 62
   136
370
    18
100
AcDbLine
 10
207.199849617777
 20
73.860746694909
 30
0.0
 11
205.949849617777
 21
73.610746694909
 31
0.0
  0
LINE
  5
4F7
330
4F1
100
AcDbEntity
  8
Bemassung
  6
AUSGEZOGEN
 62
   136
370
    18
100
AcDbLine
 10
185.449849617777
 20
73.610746694909
 30
0.0
 11
185.449849617777
 21
74.110746694909
 31
0.0
  0
LINE
  5
4F8
330
4F1
100
AcDbEntity
  8
Bemassung
  6
AUSGEZOGEN
 62
   136
370
    18
100
AcDbLine
 10
185.449849617777
 20
73.610746694909
 30
0.0
 11
184.199849617777
 21
73.860746694909
 31
0.0
  0
LINE
  5
4F9
330
4F1
100
AcDbEntity
  8
Bemassung
  6
AUSGEZOGEN
 62
   136
370
    18
100
AcDbLine
 10
184.199849617777
 20
73.860746694909
 30
0.0
 11
185.449849617777
 21
74.110746694909
 31
0.0
  0
LINE
  5
4FA
330
4F1
100
AcDbEntity
  8
Bemassung
  6
AUSGEZOGEN
 62
   136
370
    18
100
AcDbLine
 10
184.199849617777
 20
73.860746694909
 30
0.0
 11
207.199849617777
 21
73.860746694909
 31
0.0
  0
LINE
  5
4FB
330
4F1
100
AcDbEntity
  8
Bemassung
  6
AUSGEZOGEN
 62
   136
370
    18
100
AcDbLine
 10
184.199849617777
 20
91.387508141514
 30
0.0
 11
184.199849617777
 21
73.146460980623
 31
0.0
  0
LINE
  5
4FC
330
4F1
100
AcDbEntity
  8
Bemassung
  6
AUSGEZOGEN
 62
   136
370
    18
100
AcDbLine
 10
207.199849617777
 20
91.387508141514
 30
0.0
 11
207.199849617777
 21
73.146460980623
 31
0.0
  0
TEXT
  5
4FD
330
4F1
100
AcDbEntity
  8
Bemassung
  6
AUSGEZOGEN
 62
   136
370
    18
100
AcDbText
 10
194.826896134538
 20
74.735746694909
 30
0.0
 40
1.25
  1
23
 41
1.131075166857
  7
Arial
 72
     5
 11
197.021181958241
 21
74.735746694909
 31
0.0
100
AcDbText
  0
ENDBLK
  5
4F3
330
4F1
100
AcDbEntity
  8
0
100
AcDbBlockEnd
  0
BLOCK
  5
500
330
4FF
100
AcDbEntity
  8
0
100
AcDbBlockBegin
  2
_CLOSED
 70
     0
 10
0.0
 20
0.0
 30
0.0
  3
_CLOSED
  1

  0
LINE
  5
502
330
4FF
100
AcDbEntity
  8
0
  6
ByBlock
 62
     0
370
    -2
100
AcDbLine
 10
-1.0
 20
0.166667
 30
0.0
 11
0.0
 21
0.0
 31
0.0
  0
LINE
  5
503
330
4FF
100
AcDbEntity
  8
0
  6
ByBlock
 62
     0
370
    -2
100
AcDbLine
 10
0.0
 20
0.0
 30
0.0
 11
-1.0
 21
-0.166667
 31
0.0
  0
LINE
  5
504
330
4FF
100
AcDbEntity
  8
0
  6
ByBlock
 62
     0
370
    -2
100
AcDbLine
 10
-1.0
 20
0.166667
 30
0.0
 11
-1.0
 21
-0.166667
 31
0.0
  0
LINE
  5
505
330
4FF
100
AcDbEntity
  8
0
  6
ByBlock
 62
     0
370
    -2
100
AcDbLine
 10
0.0
 20
0.0
 30
0.0
 11
-1.0
 21
0.0
 31
0.0
  0
ENDBLK
  5
501
330
4FF
100
AcDbEntity
  8
0
100
AcDbBlockEnd
  0
BLOCK
  5
508
330
507
100
AcDbEntity
  8
0
100
AcDbBlockBegin
  2
*D8
 70
     1
 10
0.0
 20
0.0
 30
0.0
  3
*D8
  1

  0
LINE
  5
50A
330
507
100
AcDbEntity
  8
Bemassung
  6
AUSGEZOGEN
 62
   136
370
    18
100
AcDbLine
 10
207.549849617777
 20
71.094787367466
 30
0.0
 11
207.549849617777
 21
70.594787367466
 31
0.0
  0
LINE
  5
50B
330
507
100
AcDbEntity
  8
Bemassung
  6
AUSGEZOGEN
 62
   136
370
    18
100
AcDbLine
 10
207.549849617777
 20
71.094787367466
 30
0.0
 11
208.799849617777
 21
70.844787367466
 31
0.0
  0
LINE
  5
50C
330
507
100
AcDbEntity
  8
Bemassung
  6
AUSGEZOGEN
 62
   136
370
    18
100
AcDbLine
 10
208.799849617777
 20
70.844787367466
 30
0.0
 11
207.549849617777
 21
70.594787367466
 31
0.0
  0
LINE
  5
50D
330
507
100
AcDbEntity
  8
Bemassung
  6
AUSGEZOGEN
 62
   136
370
    18
100
AcDbLine
 10
183.849849617777
 20
70.594787367466
 30
0.0
 11
183.849849617777
 21
71.094787367466
 31
0.0
  0
LINE
  5
50E
330
507
100
AcDbEntity
  8
Bemassung
  6
AUSGEZOGEN
 62
   136
370
    18
100
AcDbLine
 10
183.849849617777
 20
70.594787367466
 30
0.0
 11
182.599849617777
 21
70.844787367466
 31
0.0
  0
LINE
  5
50F
330
507
100
AcDbEntity
  8
Bemassung
  6
AUSGEZOGEN
 62
   136
370
    18
100
AcDbLine
 10
182.599849617777
 20
70.844787367466
 30
0.0
 11
183.849849617777
 21
71.094787367466
 31
0.0
  0
LINE
  5
510
330
507
100
AcDbEntity
  8
Bemassung
  6
AUSGEZOGEN
 62
   136
370
    18
100
AcDbLine
 10
182.599849617777
 20
70.844787367466
 30
0.0
 11
208.799849617777
 21
70.844787367466
 31
0.0
  0
LINE
  5
511
330
507
100
AcDbEntity
  8
Bemassung
  6
AUSGEZOGEN
 62
   136
370
    18
100
AcDbLine
 10
182.599849617777
 20
91.387508141514
 30
0.0
 11
182.599849617777
 21
70.130501653181
 31
0.0
  0
LINE
  5
512
330
507
100
AcDbEntity
  8
Bemassung
  6
AUSGEZOGEN
 62
   136
370
    18
100
AcDbLine
 10
208.799849617777
 20
91.387508141514
 30
0.0
 11
208.799849617777
 21
70.130501653181
 31
0.0
  0
TEXT
  5
513
330
507
100
AcDbEntity
  8
Bemassung
  6
AUSGEZOGEN
 62
   136
370
    18
100
AcDbText
 10
193.051635207532
 20
71.466914328479
 30
0.0
 40
1.25
  1
%%c28
 41
1.059244067674
  7
Arial
 72
     5
 11
196.544492520688
 21
71.466914328479
 31
0.0
100
AcDbText
  0
TEXT
  5
514
330
507
100
AcDbEntity
  8
Bemassung
  6
AUSGEZOGEN
 62
   136
370
    18
100
AcDbText
 10
196.758778237102
 20
71.654414328479
 30
0.0
 40
0.875
  1
%%p2
 41
1.17790312464
  7
Arial
 72
     5
 11
198.348064028023
 21
71.654414328479
 31
0.0
100
AcDbText
  0
ENDBLK
  5
509
330
507
100
AcDbEntity
  8
0
100
AcDbBlockEnd
  0
BLOCK
  5
520
330
51F
100
AcDbEntity
  8
0
100
AcDbBlockBegin
  2
*D9
 70
     1
 10
0.0
 20
0.0
 30
0.0
  3
*D9
  1

  0
LINE
  5
522
330
51F
100
AcDbEntity
  8
Bemassung
  6
AUSGEZOGEN
 62
   136
370
    18
100
AcDbLine
 10
215.371372854625
 20
134.407692275362
 30
0.0
 11
215.871372854625
 21
134.407692275362
 31
0.0
  0
LINE
  5
523
330
51F
100
AcDbEntity
  8
Bemassung
  6
AUSGEZOGEN
 62
   136
370
    18
100
AcDbLine
 10
215.371372854625
 20
134.407692275362
 30
0.0
 11
215.621372854625
 21
135.657692275362
 31
0.0
  0
LINE
  5
524
330
51F
100
AcDbEntity
  8
Bemassung
  6
AUSGEZOGEN
 62
   136
370
    18
100
AcDbLine
 10
215.621372854625
 20
135.657692275362
 30
0.0
 11
215.871372854625
 21
134.407692275362
 31
0.0
  0
LINE
  5
525
330
51F
100
AcDbEntity
  8
Bemassung
  6
AUSGEZOGEN
 62
   136
370
    18
100
AcDbLine
 10
215.871372854625
 20
129.907692275362
 30
0.0
 11
215.371372854625
 21
129.907692275362
 31
0.0
  0
LINE
  5
526
330
51F
100
AcDbEntity
  8
Bemassung
  6
AUSGEZOGEN
 62
   136
370
    18
100
AcDbLine
 10
215.871372854625
 20
129.907692275362
 30
0.0
 11
215.621372854625
 21
128.657692275362
 31
0.0
  0
LINE
  5
527
330
51F
100
AcDbEntity
  8
Bemassung
  6
AUSGEZOGEN
 62
   136
370
    18
100
AcDbLine
 10
215.621372854625
 20
128.657692275362
 30
0.0
 11
215.371372854625
 21
129.907692275362
 31
0.0
  0
LINE
  5
528
330
51F
100
AcDbEntity
  8
Bemassung
  6
AUSGEZOGEN
 62
   136
370
    18
100
AcDbLine
 10
215.621372854625
 20
128.657692275362
 30
0.0
 11
215.621372854625
 21
135.657692275362
 31
0.0
  0
LINE
  5
529
330
51F
100
AcDbEntity
  8
Bemassung
  6
AUSGEZOGEN
 62
   136
370
    18
100
AcDbLine
 10
215.621372854625
 20
135.657692275362
 30
0.0
 11
215.621372854625
 21
141.649189197832
 31
0.0
  0
LINE
  5
52A
330
51F
100
AcDbEntity
  8
Bemassung
  6
AUSGEZOGEN
 62
   136
370
    18
100
AcDbLine
 10
208.799849617777
 20
128.657692275362
 30
0.0
 11
216.33565856891
 21
128.657692275362
 31
0.0
  0
LINE
  5
52B
330
51F
100
AcDbEntity
  8
Bemassung
  6
AUSGEZOGEN
 62
   136
370
    18
100
AcDbLine
 10
208.699849617777
 20
135.657692275362
 30
0.0
 11
216.33565856891
 21
135.657692275362
 31
0.0
  0
TEXT
  5
52C
330
51F
100
AcDbEntity
  8
Bemassung
  6
AUSGEZOGEN
 62
   136
370
    18
100
AcDbText
 10
214.746372854625
 20
136.373117535525
 30
0.0
 40
1.25
  1
7
 50
90.0
 41
1.020618612004
  7
Arial
 72
     5
 11
214.746372854625
 21
137.363117589169
 31
0.0
100
AcDbText
  0
TEXT
  5
52D
330
51F
100
AcDbEntity
  8
Bemassung
  6
AUSGEZOGEN
 62
   136
370
    18
100
AcDbText
 10
214.558872854625
 20
137.577403305584
 30
0.0
 40
0.875
  1
%%p0.25
 50
90.0
 41
1.301269560693
  7
Arial
 72
     5
 11
214.558872854625
 21
141.542046339625
 31
0.0
100
AcDbText
  0
ENDBLK
  5
521
330
51F
100
AcDbEntity
  8
0
100
AcDbBlockEnd
  0
BLOCK
  5
55D
330
55C
100
AcDbEntity
  8
0
100
AcDbBlockBegin
  2
*D10
 70
     1
 10
0.0
 20
0.0
 30
0.0
  3
*D10
  1

  0
LINE
  5
55F
330
55C
100
AcDbEntity
  8
Bemassung
  6
AUSGEZOGEN
 62
   136
370
    18
100
AcDbLine
 10
215.891597635581
 20
119.407692275362
 30
0.0
 11
215.391597635581
 21
119.407692275362
 31
0.0
  0
LINE
  5
560
330
55C
100
AcDbEntity
  8
Bemassung
  6
AUSGEZOGEN
 62
   136
370
    18
100
AcDbLine
 10
215.891597635581
 20
119.407692275362
 30
0.0
 11
215.641597635581
 21
118.157692275362
 31
0.0
  0
LINE
  5
561
330
55C
100
AcDbEntity
  8
Bemassung
  6
AUSGEZOGEN
 62
   136
370
    18
100
AcDbLine
 10
215.641597635581
 20
118.157692275362
 30
0.0
 11
215.391597635581
 21
119.407692275362
 31
0.0
  0
LINE
  5
562
330
55C
100
AcDbEntity
  8
Bemassung
  6
AUSGEZOGEN
 62
   136
370
    18
100
AcDbLine
 10
215.391597635581
 20
127.407692275362
 30
0.0
 11
215.891597635581
 21
127.407692275362
 31
0.0
  0
LINE
  5
563
330
55C
100
AcDbEntity
  8
Bemassung
  6
AUSGEZOGEN
 62
   136
370
    18
100
AcDbLine
 10
215.391597635581
 20
127.407692275362
 30
0.0
 11
215.641597635581
 21
128.657692275362
 31
0.0
  0
LINE
  5
564
330
55C
100
AcDbEntity
  8
Bemassung
  6
AUSGEZOGEN
 62
   136
370
    18
100
AcDbLine
 10
215.641597635581
 20
128.657692275362
 30
0.0
 11
215.891597635581
 21
127.407692275362
 31
0.0
  0
LINE
  5
565
330
55C
100
AcDbEntity
  8
Bemassung
  6
AUSGEZOGEN
 62
   136
370
    18
100
AcDbLine
 10
215.641597635581
 20
128.657692275362
 30
0.0
 11
215.641597635581
 21
118.157692275362
 31
0.0
  0
LINE
  5
566
330
55C
100
AcDbEntity
  8
Bemassung
  6
AUSGEZOGEN
 62
   136
370
    18
100
AcDbLine
 10
208.799849617777
 20
128.657692275362
 30
0.0
 11
215.121372854625
 21
128.657692275362
 31
0.0
  0
LINE
  5
567
330
55C
100
AcDbEntity
  8
Bemassung
  6
AUSGEZOGEN
 62
   136
370
    18
100
AcDbLine
 10
216.121372854625
 20
128.657692275362
 30
0.0
 11
216.355883349867
 21
128.657692275362
 31
0.0
  0
LINE
  5
568
330
55C
100
AcDbEntity
  8
Bemassung
  6
AUSGEZOGEN
 62
   136
370
    18
100
AcDbLine
 10
197.999849617777
 20
118.157692275362
 30
0.0
 11
216.355883349867
 21
118.157692275362
 31
0.0
  0
WIPEOUT
  5
569
330
55C
100
AcDbEntity
  8
Bemassung
  6
AUSGEZOGEN
 62
   136
370
    18
 92
      152
310
98000000040000000C0000000E000000120000000C00000016000000000000C20C00000014000000010000006C00000007000000040000005AC0C3F787E06A404CB56FC059075E4000000000000000005AC0C3F787E06A40DC778575658F5F4000000000000000005AC0C3F787A06A40DC778575658F5F4000000000000000
310
005AC0C3F787A06A404CB56FC059075E400000000000000000
100
AcDbWipeout
 90
        0
 10
213.016597635581
 20
120.11485300931
 30
0.0
 11
6.125714560747141
 21
0.0
 31
0.0
 12
0.0
 22
6.125714560747141
 32
0.0
 13
1.0
 23
1.0
340
0
 70
     7
280
     1
281
    50
282
    50
283
     0
360
0
 71
     2
 91
        5
 14
-0.173507477345
 24
0.5
 14
-0.173507477345
 24
-0.5
 14
-0.5
 24
-0.5
 14
-0.5
 24
0.5
 14
-0.173507477345
 24
0.5
  0
TEXT
  5
56A
330
55C
100
AcDbEntity
  8
Bemassung
  6
AUSGEZOGEN
 62
   136
370
    18
100
AcDbText
 10
214.641597635581
 20
120.11485300931
 30
0.0
 40
1.25
  1
10.5
 50
90.0
 41
1.209972706038
  7
Arial
 72
     5
 11
214.641597635581
 21
124.222710346308
 31
0.0
100
AcDbText
  0
WIPEOUT
  5
56B
330
55C
100
AcDbEntity
  8
Bemassung
  6
AUSGEZOGEN
 62
   136
370
    18
 92
      152
310
98000000040000000C0000000E000000120000000C00000016000000000000C20C00000014000000010000006C0000000700000004000000C0262A5EEED66A40DA7755BEF71B5F400000000000000000C0262A5EEED66A40359DB5B9015260400000000000000000F3595D9121AA6A40359DB5B90152604000000000000000
310
00F3595D9121AA6A40DA7755BEF71B5F400000000000000000
100
AcDbWipeout
 90
        0
 10
213.316597635581
 20
124.436996062722
 30
0.0
 11
6.125714560747141
 21
0.0
 31
0.0
 12
0.0
 22
6.125714560747141
 32
0.0
 13
1.0
 23
1.0
340
0
 70
     7
280
     1
281
    50
282
    50
283
     0
360
0
 71
     2
 91
        5
 14
-0.271455234142
 24
0.5
 14
-0.271455234142
 24
-0.5
 14
-0.5
 24
-0.5
 14
-0.5
 24
0.5
 14
-0.271455234142
 24
0.5
  0
TEXT
  5
56C
330
55C
100
AcDbEntity
  8
Bemassung
  6
AUSGEZOGEN
 62
   136
370
    18
100
AcDbText
 10
214.454097635581
 20
124.436996062722
 30
0.0
 40
0.875
  1
%%p1
 50
90.0
 41
1.17790312464
  7
Arial
 72
     5
 11
214.454097635581
 21
126.026281853642
 31
0.0
100
AcDbText
  0
ENDBLK
  5
55E
330
55C
100
AcDbEntity
  8
0
100
AcDbBlockEnd
  0
ENDSEC
  0
SECTION
  2
ENTITIES
  0
INSERT
  5
1A5
330
1F
100
AcDbEntity
  8
0
100
AcDbBlockReference
  2
L1_nNn00
 10
0.0
 20
0.0
 30
0.0
  0
TEXT
  5
1A6
330
1F
100
AcDbEntity
  8
Text
  6
AUSGEZOGEN
 62
     9
370
    18
100
AcDbText
 10
205.074024897644
 20
33.940787951808
 30
0.0
 40
1.75
  1
Reflektor 26D Clip7 Z
 41
1.36506100348
  7
Arial
 72
     5
 11
236.946151737399
 21
33.940787951808
 31
0.0
100
AcDbText
  0
TEXT
  5
1A7
330
1F
100
AcDbEntity
  8
Text
  6
AUSGEZOGEN
 62
     9
370
    18
100
AcDbText
 10
210.685372855501
 20
24.804276754153
 30
0.0
 40
2.35
  1
05804500k
 41
1.218898721598
  7
Arial
 72
     5
 11
230.467002098189
 21
24.804276754153
 31
0.0
100
AcDbText
  0
TEXT
  5
1A8
330
1F
100
AcDbEntity
  8
Layer0
  6
AUSGEZOGEN
 62
   136
370
    18
100
AcDbText
 10
154.849861669645
 20
65.641411744839
 30
0.0
 40
1.25
  1
Reflektor: PMMA glasklar
 41
1.135399466531
  7
Arial
 72
     5
 11
177.197361669645
 21
65.641411744839
 31
0.0
100
AcDbText
  0
TEXT
  5
1A9
330
1F
100
AcDbEntity
  8
Layer0
  6
AUSGEZOGEN
 62
   136
370
    18
100
AcDbText
 10
154.849861669645
 20
63.641411715036
 30
0.0
 40
1.25
  1
Halterung: PMMA weiss
 41
1.136037064393
  7
Arial
 72
     5
 11
175.998611669645
 21
63.641411715036
 31
0.0
100
AcDbText
  0
TEXT
  5
1AA
330
1F
100
AcDbEntity
  8
Layer0
  6
AUSGEZOGEN
 62
   136
370
    18
100
AcDbText
 10
154.849861669645
 20
61.641411685234
 30
0.0
 40
1.25
  1
Clip: PA schwarz
 41
1.135368281354
  7
Arial
 72
     5
 11
169.821111669645
 21
61.641411685234
 31
0.0
100
AcDbText
  0
TEXT
  5
1AB
330
1F
100
AcDbEntity
  8
Layer0
  6
AUSGEZOGEN
 62
   136
370
    18
100
AcDbText
 10
154.849861669645
 20
59.641411655432
 30
0.0
 40
1.25
  1
Clip passend für Bohrung 7mm
 41
1.135921825459
  7
Arial
 72
     5
 11
182.167361669645
 21
59.641411655432
 31
0.0
100
AcDbText
  0
TEXT
  5
1AC
330
1F
100
AcDbEntity
  8
Layer0
  6
AUSGEZOGEN
 62
   136
370
    18
100
AcDbText
 10
154.849861669645
 20
57.641411625629
 30
0.0
 40
1.25
  1
Blechstärke 1,5-2mm
 41
1.135436414651
  7
Arial
 72
     5
 11
173.566111669645
 21
57.641411625629
 31
0.0
100
AcDbText
  0
LINE
  5
1AD
330
1F
100
AcDbEntity
  8
Layer0
  6
DASHDOT
 62
    56
370
    18
100
AcDbLine
 10
181.667196918879
 20
91.387508141514
 30
0.0
 11
210.32033511258
 21
91.387508141514
 31
0.0
  0
LINE
  5
1AE
330
1F
100
AcDbEntity
  8
Layer0
  6
DASHDOT
 62
    56
370
    18
100
AcDbLine
 10
195.699849617777
 20
77.324891654696
 30
0.0
 11
195.699849617777
 21
105.645796062779
 31
0.0
  0
INSERT
  5
4EE
330
1F
100
AcDbEntity
  8
0
100
AcDbBlockReference
  2
SECHSK1_nNn04
 10
0.0
 20
0.0
 30
0.0
  0
CIRCLE
  5
4EF
330
1F
100
AcDbEntity
  8
Layer0
  6
AUSGEZOGEN
 62
     9
370
    18
100
AcDbCircle
 10
195.699849617777
 20
91.387508141514
 30
0.0
 40
13.0
  0
CIRCLE
  5
4F0
330
1F
100
AcDbEntity
  8
Layer0
  6
AUSGEZOGEN
 62
   136
370
    18
100
AcDbCircle
 10
195.699849617777
 20
91.387508141514
 30
0.0
 40
11.5
  0
DIMENSION
  5
4FE
330
1F
100
AcDbEntity
  8
Bemassung
  6
AUSGEZOGEN
 62
   136
370
    18
100
AcDbDimension
  2
*D6
 10
207.199849617777
 20
73.860746694909
 30
0.0
 11
195.924039046389
 21
75.360746694909
 31
0.0
 70
   160
 71
     5
 42
-1.0
  3
ISO-25
100
AcDbAlignedDimension
 13
184.199849617777
 23
91.387508141514
 33
0.0
 14
207.199849617777
 24
91.387508141514
 34
0.0
100
AcDbRotatedDimension
1001
ACAD
1000
DSTYLE
1002
{
1070
     3
1000
<>
1070
    44
1040
0.892857142857
1070
   280
1070
     0
1070
    77
1070
     1
1070
    78
1070
     8
1070
   179
1070
     2
1070
   271
1070
     2
1070
   344
1005
4FF
1070
   343
1005
4FF
1070
   173
1070
     1
1070
    41
1040
1.25
1070
   147
1040
0.178571428571
1070
   140
1040
1.25
1070
   178
1070
   136
1070
   177
1070
   136
1070
   176
1070
   136
1002
}
  0
CIRCLE
  5
506
330
1F
100
AcDbEntity
  8
Layer0
  6
AUSGEZOGEN
 62
     9
370
    18
100
AcDbCircle
 10
195.699849617777
 20
91.387508141514
 30
0.0
 40
13.1
  0
DIMENSION
  5
515
330
1F
100
AcDbEntity
  8
Bemassung
  6
AUSGEZOGEN
 62
   136
370
    18
100
AcDbDimension
  2
*D8
 10
208.799849617777
 20
70.844787367466
 30
0.0
 11
195.699849617777
 21
72.091914328479
 31
0.0
 70
   160
  1
%%c28\S±2
 71
     5
 42
-1.0
  3
ISO-25
100
AcDbAlignedDimension
 13
182.599849617777
 23
91.387508141514
 33
0.0
 14
208.799849617777
 24
91.387508141514
 34
0.0
100
AcDbRotatedDimension
1001
ACAD
1000
DSTYLE
1002
{
1070
    44
1040
0.892857142857
1070
   280
1070
     0
1070
    77
1070
     1
1070
    78
1070
     8
1070
   179
1070
     2
1070
   271
1070
     2
1070
   344
1005
4FF
1070
   343
1005
4FF
1070
   173
1070
     1
1070
    41
1040
1.25
1070
   147
1040
0.178571428571
1070
   140
1040
1.25
1070
   178
1070
   136
1070
   177
1070
   136
1070
   176
1070
   136
1002
}
  0
LINE
  5
516
330
1F
100
AcDbEntity
  8
Layer0
  6
DASHDOT
 62
    56
370
    18
100
AcDbLine
 10
195.699849617777
 20
115.939920794931
 30
0.0
 11
195.699849617777
 21
137.393722638249
 31
0.0
  0
LINE
  5
517
330
1F
100
AcDbEntity
  8
Layer0
  6
AUSGEZOGEN
 62
     9
370
    18
100
AcDbLine
 10
182.599849617777
 20
133.857692275362
 30
0.0
 11
208.799849617777
 21
133.857692275362
 31
0.0
  0
LINE
  5
518
330
1F
100
AcDbEntity
  8
Layer0
  6
AUSGEZOGEN
 62
     9
370
    18
100
AcDbLine
 10
195.699849617777
 20
128.657692275362
 30
0.0
 11
208.799849617777
 21
128.657692275362
 31
0.0
  0
LINE
  5
519
330
1F
100
AcDbEntity
  8
Layer0
  6
AUSGEZOGEN
 62
     9
370
    18
100
AcDbLine
 10
182.599849617777
 20
128.657692275362
 30
0.0
 11
195.699849617777
 21
128.657692275362
 31
0.0
  0
LINE
  5
51A
330
1F
100
AcDbEntity
  8
Layer0
  6
AUSGEZOGEN
 62
     9
370
    18
100
AcDbLine
 10
182.699849617777
 20
135.657692275362
 30
0.0
 11
208.699849617777
 21
135.657692275362
 31
0.0
  0
LINE
  5
51B
330
1F
100
AcDbEntity
  8
Layer0
  6
AUSGEZOGEN
 62
     9
370
    18
100
AcDbLine
 10
182.699849617777
 20
133.857692275362
 30
0.0
 11
182.699849617777
 21
135.657692275362
 31
0.0
  0
LINE
  5
51C
330
1F
100
AcDbEntity
  8
Layer0
  6
AUSGEZOGEN
 62
     9
370
    18
100
AcDbLine
 10
182.599849617777
 20
128.657692275362
 30
0.0
 11
182.599849617777
 21
133.857692275362
 31
0.0
  0
LINE
  5
51D
330
1F
100
AcDbEntity
  8
Layer0
  6
AUSGEZOGEN
 62
     9
370
    18
100
AcDbLine
 10
208.699849617777
 20
133.857692275362
 30
0.0
 11
208.699849617777
 21
135.657692275362
 31
0.0
  0
LINE
  5
51E
330
1F
100
AcDbEntity
  8
Layer0
  6
AUSGEZOGEN
 62
     9
370
    18
100
AcDbLine
 10
208.799849617777
 20
128.657692275362
 30
0.0
 11
208.799849617777
 21
133.857692275362
 31
0.0
  0
DIMENSION
  5
52E
330
1F
100
AcDbEntity
  8
Bemassung
  6
AUSGEZOGEN
 62
   136
370
    18
100
AcDbDimension
  2
*D9
 10
215.621372854625
 20
135.657692275362
 30
0.0
 11
214.121372854625
 21
138.957581937575
 31
0.0
 70
   160
 71
     5
 42
-1.0
 53
90.0
  3
ISO-25
100
AcDbAlignedDimension
 13
208.799849617777
 23
128.657692275362
 33
0.0
 14
208.699849617777
 24
135.657692275362
 34
0.0
 50
90.0
100
AcDbRotatedDimension
1001
ACAD
1000
DSTYLE
1002
{
1070
     3
1000
<>\S%%p0.25
1070
    44
1040
0.892857142857
1070
   280
1070
     0
1070
    77
1070
     1
1070
    78
1070
     8
1070
   179
1070
     2
1070
   271
1070
     2
1070
   344
1005
4FF
1070
   343
1005
4FF
1070
   173
1070
     1
1070
    41
1040
1.25
1070
   147
1040
0.178571428571
1070
   140
1040
1.25
1070
   178
1070
   136
1070
   177
1070
   136
1070
   176
1070
   136
1002
}
  0
ARC
  5
52F
330
1F
100
AcDbEntity
  8
Layer0
  6
AUSGEZOGEN
 62
     9
370
    18
100
AcDbCircle
 10
197.999849617777
 20
119.157692275362
 30
0.0
 40
1.0
100
AcDbArc
 50
270.0
 51
0.0
  0
ARC
  5
530
330
1F
100
AcDbEntity
  8
Layer0
  6
AUSGEZOGEN
 62
     9
370
    18
100
AcDbCircle
 10
193.399849617777
 20
119.157692275362
 30
0.0
 40
1.0
100
AcDbArc
 50
180.0
 51
270.0
  0
LINE
  5
531
330
1F
100
AcDbEntity
  8
Layer0
  6
AUSGEZOGEN
 62
     9
370
    18
100
AcDbLine
 10
192.399849617777
 20
120.157692275362
 30
0.0
 11
192.399849617777
 21
119.157692275362
 31
0.0
  0
LINE
  5
532
330
1F
100
AcDbEntity
  8
Layer0
  6
AUSGEZOGEN
 62
     9
370
    18
100
AcDbLine
 10
192.399849617777
 20
128.657692275362
 30
0.0
 11
192.399849617777
 21
128.407692275362
 31
0.0
  0
LINE
  5
533
330
1F
100
AcDbEntity
  8
Layer0
  6
AUSGEZOGEN
 62
     9
370
    18
100
AcDbLine
 10
198.999849617777
 20
128.407692275362
 30
0.0
 11
198.999849617777
 21
128.657692275362
 31
0.0
  0
LINE
  5
534
330
1F
100
AcDbEntity
  8
Layer0
  6
AUSGEZOGEN
 62
     9
370
    18
100
AcDbLine
 10
198.999849617777
 20
119.157692275362
 30
0.0
 11
198.999849617777
 21
120.157692275362
 31
0.0
  0
LINE
  5
535
330
1F
100
AcDbEntity
  8
Layer0
  6
AUSGEZOGEN
 62
     9
370
    18
100
AcDbLine
 10
199.949672384477
 20
126.175948444762
 30
0.0
 11
198.982167812877
 21
127.851715519362
 31
0.0
  0
LINE
  5
536
330
1F
100
AcDbEntity
  8
Layer0
  6
AUSGEZOGEN
 62
     9
370
    18
100
AcDbLine
 10
192.417531422577
 20
127.851715519362
 30
0.0
 11
191.450026850977
 21
126.175948444762
 31
0.0
  0
LINE
  5
537
330
1F
100
AcDbEntity
  8
Layer0
  6
AUSGEZOGEN
 62
     9
370
    18
100
AcDbLine
 10
198.999849617777
 20
120.157692275362
 30
0.0
 11
199.949768444177
 21
125.544949645562
 31
0.0
  0
LINE
  5
538
330
1F
100
AcDbEntity
  8
Layer0
  6
AUSGEZOGEN
 62
     9
370
    18
100
AcDbLine
 10
191.449930791377
 20
125.544949645562
 30
0.0
 11
192.399849617777
 21
120.157692275362
 31
0.0
  0
LINE
  5
539
330
1F
100
AcDbEntity
  8
Layer0
  6
AUSGEZOGEN
 62
     9
370
    18
100
AcDbLine
 10
199.949849617777
 20
125.545410003962
 30
0.0
 11
199.949849617777
 21
126.175641467762
 31
0.0
  0
LINE
  5
53A
330
1F
100
AcDbEntity
  8
Layer0
  6
AUSGEZOGEN
 62
     9
370
    18
100
AcDbLine
 10
191.449849617777
 20
126.175641467762
 30
0.0
 11
191.449849617777
 21
125.545410003962
 31
0.0
  0
LINE
  5
53B
330
1F
100
AcDbEntity
  8
Layer0
  6
AUSGEZOGEN
 62
     9
370
    18
100
AcDbLine
 10
197.999849617777
 20
118.157692275362
 30
0.0
 11
193.399849617777
 21
118.157692275362
 31
0.0
  0
LINE
  5
53C
330
1F
100
AcDbEntity
  8
Layer0
  6
AUSGEZOGEN
 62
     9
370
    18
100
AcDbLine
 10
192.399849617777
 20
128.407692275362
 30
0.0
 11
193.154265205477
 21
128.407692275362
 31
0.0
  0
LINE
  5
53D
330
1F
100
AcDbEntity
  8
Layer0
  6
AUSGEZOGEN
 62
     9
370
    18
100
AcDbLine
 10
192.734618431677
 20
120.157692275362
 30
0.0
 11
192.734618431677
 21
120.457692275362
 31
0.0
  0
LWPOLYLINE
  5
53E
330
1F
100
AcDbEntity
  8
Layer0
  6
AUSGEZOGEN
 62
     9
370
    18
100
AcDbPolyline
 90
       14
 70
     0
 43
0.0
 10
192.902848548542
 20
120.157692275324
 10
192.885997213413
 20
120.158892813989
 10
192.869577971339
 20
120.162513569716
 10
192.853669445104
 20
120.168583252103
 10
192.838350257493
 20
120.177130570748
 10
192.823699031292
 20
120.18818423525
 10
192.809794389284
 20
120.201772955207
 10
192.796714954256
 20
120.217925440216
 10
192.78453934899
 20
120.236670399877
 10
192.773438424315
 20
120.257987895854
 10
192.763579537527
 20
120.281656216839
 10
192.747881407557
 20
120.334949534358
 10
192.738032018981
 20
120.394358753499
 10
192.7346184317
 20
120.457692275324
  0
LINE
  5
53F
330
1F
100
AcDbEntity
  8
Layer0
  6
AUSGEZOGEN
 62
     9
370
    18
100
AcDbLine
 10
192.933986280577
 20
120.157692275362
 30
0.0
 11
192.902848548577
 21
120.157692275362
 31
0.0
  0
LWPOLYLINE
  5
540
330
1F
100
AcDbEntity
  8
Layer0
  6
AUSGEZOGEN
 62
     9
370
    18
100
AcDbPolyline
 90
       17
 70
     0
 43
0.0
 10
193.154265205479
 20
120.457692275324
 10
193.152705017659
 20
120.42472780394
 10
193.148223465096
 20
120.392779231935
 10
193.141119064134
 20
120.362091526458
 10
193.131690331116
 20
120.332909654664
 10
193.120235782386
 20
120.305478583704
 10
193.107053934288
 20
120.280043280731
 10
193.092443303165
 20
120.256848712896
 10
193.076702405362
 20
120.236139847351
 10
193.060143591662
 20
120.217927903625
 10
193.042964867247
 20
120.202075010705
 10
193.025293230061
 20
120.188602499934
 10
193.007255678046
 20
120.177531702656
 10
192.988979209145
 20
120.168883950213
 10
192.970590821302
 20
120.162680573948
 10
192.95221751246
 20
120.158942905204
 10
192.933986280562
 20
120.157692275324
  0
LINE
  5
541
330
1F
100
AcDbEntity
  8
Layer0
  6
AUSGEZOGEN
 62
     9
370
    18
100
AcDbLine
 10
193.154265205477
 20
128.407692275362
 30
0.0
 11
193.154265205477
 21
120.457692275362
 31
0.0
  0
LINE
  5
542
330
1F
100
AcDbEntity
  8
Layer0
  6
AUSGEZOGEN
 62
     9
370
    18
100
AcDbLine
 10
198.245434029977
 20
120.457692275362
 30
0.0
 11
198.245434029977
 21
128.407692275362
 31
0.0
  0
LWPOLYLINE
  5
543
330
1F
100
AcDbEntity
  8
Layer0
  6
AUSGEZOGEN
 62
     9
370
    18
100
AcDbPolyline
 90
       17
 70
     0
 43
0.0
 10
198.465712954938
 20
120.157692275324
 10
198.447482598227
 20
120.158936043758
 10
198.429142851067
 20
120.162652034281
 10
198.410812649745
 20
120.168817274725
 10
198.392610930546
 20
120.177408792922
 10
198.374656629757
 20
120.188403616705
 10
198.357068683665
 20
120.201778773905
 10
198.339966028555
 20
120.217511292354
 10
198.323467600714
 20
120.235578199885
 10
198.307744646191
 20
120.256184226939
 10
198.293098602919
 20
120.279370929863
 10
198.279843695014
 20
120.304870575348
 10
198.26829414659
 20
120.332415430083
 10
198.258764181764
 20
120.361737760758
 10
198.251568024651
 20
120.392569834063
 10
198.247019899365
 20
120.424643916689
 10
198.245434030022
 20
120.457692275324
  0
LINE
  5
544
330
1F
100
AcDbEntity
  8
Layer0
  6
AUSGEZOGEN
 62
     9
370
    18
100
AcDbLine
 10
198.496850686977
 20
120.157692275362
 30
0.0
 11
198.465712954977
 21
120.157692275362
 31
0.0
  0
LWPOLYLINE
  5
545
330
1F
100
AcDbEntity
  8
Layer0
  6
AUSGEZOGEN
 62
     9
370
    18
100
AcDbPolyline
 90
       14
 70
     0
 43
0.0
 10
198.6650808038
 20
120.457692275324
 10
198.66166463159
 20
120.394499413345
 10
198.65182647198
 20
120.335139501958
 10
198.636181860498
 20
120.281880543988
 10
198.626374490159
 20
120.258247673416
 10
198.615346332675
 20
120.236990542258
 10
198.603224287851
 20
120.218290018204
 10
198.590146394912
 20
120.202128581548
 10
198.576206304931
 20
120.188492151547
 10
198.561497668982
 20
120.177366647456
 10
198.546114138137
 20
120.168737988533
 10
198.530149363469
 20
120.162592094032
 10
198.513696996052
 20
120.15891488321
 10
198.496850686958
 20
120.157692275324
  0
LINE
  5
546
330
1F
100
AcDbEntity
  8
Layer0
  6
AUSGEZOGEN
 62
     9
370
    18
100
AcDbLine
 10
198.665080803777
 20
120.457692275362
 30
0.0
 11
198.665080803777
 21
120.157692275362
 31
0.0
  0
LINE
  5
547
330
1F
100
AcDbEntity
  8
Layer0
  6
AUSGEZOGEN
 62
     9
370
    18
100
AcDbLine
 10
198.245434029977
 20
128.407692275362
 30
0.0
 11
198.999849617777
 21
128.407692275362
 31
0.0
  0
LINE
  5
548
330
1F
100
AcDbEntity
  8
Layer0
  6
AUSGEZOGEN
 62
     9
370
    18
100
AcDbLine
 10
198.982935528068
 20
127.850385797646
 30
0.0
 11
198.245434029977
 21
127.863258934162
 31
0.0
  0
LINE
  5
549
330
1F
100
AcDbEntity
  8
Layer0
  6
AUSGEZOGEN
 62
     9
370
    18
100
AcDbLine
 10
198.666063849477
 20
127.855916813362
 30
0.0
 11
199.643873757677
 21
126.175641467762
 31
0.0
  0
LINE
  5
54A
330
1F
100
AcDbEntity
  8
Layer0
  6
AUSGEZOGEN
 62
     9
370
    18
100
AcDbLine
 10
199.643873757677
 20
125.545410003962
 30
0.0
 11
199.643873757677
 21
126.175641467762
 31
0.0
  0
LINE
  5
54B
330
1F
100
AcDbEntity
  8
Layer0
  6
AUSGEZOGEN
 62
     9
370
    18
100
AcDbLine
 10
199.643873757677
 20
125.545410003962
 30
0.0
 11
198.686332047677
 21
120.157692275362
 31
0.0
  0
LINE
  5
54C
330
1F
100
AcDbEntity
  8
Layer0
  6
AUSGEZOGEN
 62
     9
370
    18
100
AcDbLine
 10
198.665080803777
 20
120.157692275362
 30
0.0
 11
198.686332047677
 21
120.157692275362
 31
0.0
  0
LINE
  5
54D
330
1F
100
AcDbEntity
  8
Layer0
  6
AUSGEZOGEN
 62
     9
370
    18
100
AcDbLine
 10
191.755825477777
 20
125.545410003962
 30
0.0
 11
192.713367187877
 21
120.157692275362
 31
0.0
  0
LINE
  5
54E
330
1F
100
AcDbEntity
  8
Layer0
  6
AUSGEZOGEN
 62
     9
370
    18
100
AcDbLine
 10
191.755825477777
 20
125.545410003962
 30
0.0
 11
191.755825477777
 21
126.175641467762
 31
0.0
  0
LINE
  5
54F
330
1F
100
AcDbEntity
  8
Layer0
  6
AUSGEZOGEN
 62
     9
370
    18
100
AcDbLine
 10
192.733635386077
 20
127.855916813362
 30
0.0
 11
191.755825477777
 21
126.175641467762
 31
0.0
  0
LINE
  5
550
330
1F
100
AcDbEntity
  8
Layer0
  6
AUSGEZOGEN
 62
     9
370
    18
100
AcDbLine
 10
193.154265205477
 20
127.863258934162
 30
0.0
 11
192.733635386077
 21
127.855916813362
 31
0.0
  0
LINE
  5
551
330
1F
100
AcDbEntity
  8
Layer0
  6
AUSGEZOGEN
 62
     9
370
    18
100
AcDbLine
 10
192.713367187877
 20
120.157692275362
 30
0.0
 11
192.734618431677
 21
120.157692275362
 31
0.0
  0
LINE
  5
552
330
1F
100
AcDbEntity
  8
Layer0
  6
AUSGEZOGEN
 62
     9
370
    18
100
AcDbLine
 10
199.643873757685
 20
126.175641467755
 30
0.0
 11
199.949140684815
 21
126.175641467755
 31
0.0
  0
LINE
  5
553
330
1F
100
AcDbEntity
  8
Layer0
  6
AUSGEZOGEN
 62
     9
370
    18
100
AcDbLine
 10
191.450558550685
 20
126.175641467755
 30
0.0
 11
191.755825477815
 21
126.175641467755
 31
0.0
  0
LINE
  5
554
330
1F
100
AcDbEntity
  8
Layer0
  6
AUSGEZOGEN
 62
     9
370
    18
100
AcDbLine
 10
192.733635386071
 20
127.855916813319
 30
0.0
 11
192.419744451272
 21
127.850437826672
 31
0.0
  0
LINE
  5
555
330
1F
100
AcDbEntity
  8
Layer0
  6
AUSGEZOGEN
 62
     9
370
    18
100
AcDbLine
 10
199.947157621966
 20
125.545410003961
 30
0.0
 11
199.643873757685
 21
125.545410003961
 31
0.0
  0
LINE
  5
556
330
1F
100
AcDbEntity
  8
Layer0
  6
AUSGEZOGEN
 62
     9
370
    18
100
AcDbLine
 10
198.99984961775
 20
120.157692275324
 30
0.0
 11
198.686332047642
 21
120.157692275324
 31
0.0
  0
LINE
  5
557
330
1F
100
AcDbEntity
  8
Layer0
  6
AUSGEZOGEN
 62
     9
370
    18
100
AcDbLine
 10
191.755825477815
 20
125.545410003961
 30
0.0
 11
191.452541613534
 21
125.545410003961
 31
0.0
  0
LINE
  5
558
330
1F
100
AcDbEntity
  8
Layer0
  6
AUSGEZOGEN
 62
     9
370
    18
100
AcDbLine
 10
192.713367187858
 20
120.157692275324
 30
0.0
 11
192.39984961775
 21
120.157692275324
 31
0.0
  0
LINE
  5
559
330
1F
100
AcDbEntity
  8
Layer0
  6
AUSGEZOGEN
 62
     9
370
    18
100
AcDbLine
 10
192.399849617777
 20
119.157692275362
 30
0.0
 11
198.999849617777
 21
119.157692275362
 31
0.0
  0
LINE
  5
55A
330
1F
100
AcDbEntity
  8
Layer0
  6
AUSGEZOGEN
 62
     9
370
    18
100
AcDbLine
 10
198.245434029977
 20
120.457692275362
 30
0.0
 11
198.665080803777
 21
120.457692275362
 31
0.0
  0
LINE
  5
55B
330
1F
100
AcDbEntity
  8
Layer0
  6
AUSGEZOGEN
 62
     9
370
    18
100
AcDbLine
 10
192.734618431677
 20
120.457692275362
 30
0.0
 11
193.154265205477
 21
120.457692275362
 31
0.0
  0
DIMENSION
  5
56D
330
1F
100
AcDbEntity
  8
Bemassung
  6
AUSGEZOGEN
 62
   136
370
    18
100
AcDbDimension
  2
*D10
 10
215.641597635581
 20
118.157692275362
 30
0.0
 11
214.016597635581
 21
123.070567431476
 31
0.0
 70
   160
 71
     5
 42
-1.0
 53
90.0
  3
ISO-25
100
AcDbAlignedDimension
 13
208.799849617777
 23
128.657692275362
 33
0.0
 14
197.999849617777
 24
118.157692275362
 34
0.0
 50
-90.0
100
AcDbRotatedDimension
1001
ACAD
1000
DSTYLE
1002
{
1070
     3
1000
<>\S%%p1
1070
    44
1040
0.892857142857
1070
   280
1070
     0
1070
    77
1070
     1
1070
    78
1070
     8
1070
   179
1070
     2
1070
   271
1070
     2
1070
   344
1005
4FF
1070
   343
1005
4FF
1070
   173
1070
     1
1070
    41
1040
1.25
1070
   147
1040
0.178571428571
1070
   140
1040
1.25
1070
   178
1070
   136
1070
   177
1070
   136
1070
   176
1070
   136
1002
}
  0
ENDSEC
  0
SECTION
  2
OBJECTS
  0
DICTIONARY
  5
C
330
0
100
AcDbDictionary
281
     1
  3
ACAD_GROUP
350
D
  3
ACAD_LAYOUT
350
1A
  3
ACAD_MATERIAL
350
3B
  3
ACAD_MLEADERSTYLE
350
595
  3
ACAD_MLINESTYLE
350
17
  3
ACAD_PLOTSETTINGS
350
19
  3
ACAD_PLOTSTYLENAME
350
E
  3
ACAD_TABLESTYLE
350
594
  3
ACAD_VISUALSTYLE
350
2A
  3
ACAD_WIPEOUT_VARS
350
3F
  0
DICTIONARY
  5
D
102
{ACAD_REACTORS
330
C
102
}
330
C
100
AcDbDictionary
281
     1
  0
DICTIONARY
  5
1A
102
{ACAD_REACTORS
330
C
102
}
330
C
100
AcDbDictionary
281
     1
  3
Layout1
350
1E
  3
Layout2
350
26
  3
Model
350
22
  0
DICTIONARY
  5
3B
102
{ACAD_REACTORS
330
C
102
}
330
C
100
AcDbDictionary
281
     1
  3
ByBlock
350
3D
  3
ByLayer
350
3C
  3
Global
350
3E
  0
DICTIONARY
  5
595
102
{ACAD_REACTORS
330
C
102
}
330
C
100
AcDbDictionary
281
     1
  0
DICTIONARY
  5
17
102
{ACAD_REACTORS
330
C
102
}
330
C
100
AcDbDictionary
281
     1
  3
Standard
350
18
  0
DICTIONARY
  5
19
102
{ACAD_REACTORS
330
C
102
}
330
C
100
AcDbDictionary
281
     1
  0
ACDBDICTIONARYWDFLT
  5
E
102
{ACAD_REACTORS
330
C
102
}
330
C
100
AcDbDictionary
281
     1
  3
Normal
350
F
100
AcDbDictionaryWithDefault
340
F
  0
DICTIONARY
  5
594
102
{ACAD_REACTORS
330
C
102
}
330
C
100
AcDbDictionary
281
     1
  0
DICTIONARY
  5
2A
102
{ACAD_REACTORS
330
C
102
}
330
C
100
AcDbDictionary
281
     1
  3
2dWireframe
350
2F
  3
3D Hidden
350
31
  3
3dWireframe
350
30
  3
Basic
350
32
  3
Brighten
350
36
  3
ColorChange
350
3A
  3
Conceptual
350
34
  3
Dim
350
35
  3
Facepattern
350
39
  3
Flat
350
2B
  3
FlatWithEdges
350
2C
  3
Gouraud
350
2D
  3
GouraudWithEdges
350
2E
  3
Linepattern
350
38
  3
Realistic
350
33
  3
Thicken
350
37
  0
WIPEOUTVARIABLES
  5
3F
102
{ACAD_REACTORS
330
C
102
}
330
C
100
AcDbWipeoutVariables
 70
     0
  0
LAYOUT
  5
1E
102
{ACAD_REACTORS
330
1A
102
}
330
1A
100
AcDbPlotSettings
  1

  2
none_device
  4

  6

 40
0.0
 41
0.0
 42
0.0
 43
0.0
 44
0.0
 45
0.0
 46
0.0
 47
0.0
 48
0.0
 49
0.0
140
0.0
141
0.0
142
1.0
143
1.0
 70
   688
 72
     0
 73
     0
 74
     5
  7

 75
    16
 76
     0
 77
     2
 78
   300
147
1.0
148
0.0
149
0.0
100
AcDbLayout
  1
Layout1
 70
     1
 71
     1
 10
0.0
 20
0.0
 11
420.0
 21
297.0
 12
0.0
 22
0.0
 32
0.0
 14
1.000000000000E+20
 24
1.000000000000E+20
 34
1.000000000000E+20
 15
-1.000000000000E+20
 25
-1.000000000000E+20
 35
-1.000000000000E+20
146
0.0
 13
0.0
 23
0.0
 33
0.0
 16
1.0
 26
0.0
 36
0.0
 17
0.0
 27
1.0
 37
0.0
 76
     0
330
1B
  0
LAYOUT
  5
26
102
{ACAD_REACTORS
330
1A
102
}
330
1A
100
AcDbPlotSettings
  1

  2
none_device
  4

  6

 40
0.0
 41
0.0
 42
0.0
 43
0.0
 44
0.0
 45
0.0
 46
0.0
 47
0.0
 48
0.0
 49
0.0
140
0.0
141
0.0
142
1.0
143
1.0
 70
   688
 72
     0
 73
     0
 74
     5
  7

 75
    16
 76
     0
 77
     2
 78
   300
147
1.0
148
0.0
149
0.0
100
AcDbLayout
  1
Layout2
 70
     1
 71
     2
 10
0.0
 20
0.0
 11
0.0
 21
0.0
 12
0.0
 22
0.0
 32
0.0
 14
0.0
 24
0.0
 34
0.0
 15
0.0
 25
0.0
 35
0.0
146
0.0
 13
0.0
 23
0.0
 33
0.0
 16
1.0
 26
0.0
 36
0.0
 17
0.0
 27
1.0
 37
0.0
 76
     0
330
23
  0
LAYOUT
  5
22
102
{ACAD_REACTORS
330
1A
102
}
330
1A
100
AcDbPlotSettings
  1

  2
none_device
  4

  6

 40
0.0
 41
0.0
 42
0.0
 43
0.0
 44
0.0
 45
0.0
 46
0.0
 47
0.0
 48
0.0
 49
0.0
140
0.0
141
0.0
142
1.0
143
1.0
 70
  1712
 72
     0
 73
     0
 74
     0
  7

 75
     0
 76
     0
 77
     2
 78
   300
147
1.0
148
0.0
149
0.0
100
AcDbLayout
  1
Model
 70
     1
 71
     0
 10
0.0
 20
0.0
 11
420.0
 21
297.0
 12
0.0
 22
0.0
 32
0.0
 14
-16.743605552869
 24
11.633041762673
 34
0.0
 15
406.97601730119
 25
165.182041762673
 35
0.0
146
0.0
 13
0.0
 23
0.0
 33
0.0
 16
1.0
 26
0.0
 36
0.0
 17
0.0
 27
1.0
 37
0.0
 76
     0
330
1F
331
29
  0
MATERIAL
  5
3D
102
{ACAD_REACTORS
330
3B
102
}
102
{ACAD_XDICTIONARY
360
590
102
}
330
3B
100
AcDbMaterial
  1
ByBlock
  0
MATERIAL
  5
3C
102
{ACAD_REACTORS
330
3B
102
}
102
{ACAD_XDICTIONARY
360
58E
102
}
330
3B
100
AcDbMaterial
  1
ByLayer
  0
MATERIAL
  5
3E
102
{ACAD_REACTORS
330
3B
102
}
102
{ACAD_XDICTIONARY
360
592
102
}
330
3B
100
AcDbMaterial
  1
Global
  0
MLINESTYLE
  5
18
102
{ACAD_REACTORS
330
17
102
}
330
17
100
AcDbMlineStyle
  2
Standard
 70
     0
  3

 62
   256
 51
90.0
 52
90.0
 71
     2
 49
0.5
 62
   256
  6
BYLAYER
 49
-0.5
 62
   256
  6
BYLAYER
  0
ACDBPLACEHOLDER
  5
F
102
{ACAD_REACTORS
330
E
102
}
330
E
  0
VISUALSTYLE
  5
2F
102
{ACAD_REACTORS
330
2A
102
}
102
{ACAD_XDICTIONARY
360
576
102
}
330
2A
100
AcDbVisualStyle
  2
2dWireframe
 70
     4
 71
     0
 72
     2
 73
     0
 90
        0
 40
-0.6
 41
-30.0
 62
     5
 63
     7
421
 16777215
 74
     1
 91
        4
 64
     7
 65
   257
 75
     1
175
     1
 42
1.0
 92
        0
 66
   257
 43
1.0
 76
     1
 77
     6
 78
     2
 67
     7
 79
     5
170
     0
171
     0
290
     0
174
     0
 93
        1
 44
0.0
173
     0
291
     0
 45
0.0
1001
ACAD
1000
AcDbSavedByObjectVersion
1070
     0
  0
VISUALSTYLE
  5
31
102
{ACAD_REACTORS
330
2A
102
}
102
{ACAD_XDICTIONARY
360
57A
102
}
330
2A
100
AcDbVisualStyle
  2
3D Hidden
 70
     6
 71
     1
 72
     2
 73
     2
 90
        0
 40
-0.6
 41
-30.0
 62
     5
 63
     7
421
 16777215
 74
     2
 91
        2
 64
     7
 65
   257
 75
     2
175
     1
 42
40.0
 92
        0
 66
   257
 43
1.0
 76
     1
 77
     6
 78
     2
 67
     7
 79
     3
170
     0
171
     0
290
     0
174
     0
 93
        1
 44
0.0
173
     0
291
     0
 45
0.0
1001
ACAD
1000
AcDbSavedByObjectVersion
1070
     0
  0
VISUALSTYLE
  5
30
102
{ACAD_REACTORS
330
2A
102
}
102
{ACAD_XDICTIONARY
360
578
102
}
330
2A
100
AcDbVisualStyle
  2
3dWireframe
 70
     5
 71
     0
 72
     2
 73
     0
 90
        0
 40
-0.6
 41
-30.0
 62
     5
 63
     7
421
 16777215
 74
     1
 91
        4
 64
     7
 65
   257
 75
     1
175
     1
 42
1.0
 92
        0
 66
   257
 43
1.0
 76
     1
 77
     6
 78
     2
 67
     7
 79
     5
170
     0
171
     0
290
     0
174
     0
 93
        1
 44
0.0
173
     0
291
     0
 45
0.0
1001
ACAD
1000
AcDbSavedByObjectVersion
1070
     0
  0
VISUALSTYLE
  5
32
102
{ACAD_REACTORS
330
2A
102
}
102
{ACAD_XDICTIONARY
360
57C
102
}
330
2A
100
AcDbVisualStyle
  2
Basic
 70
     7
 71
     1
 72
     0
 73
     1
 90
        0
 40
-0.6
 41
-30.0
 62
     5
 63
     7
421
 16777215
 74
     0
 91
        4
 64
     7
 65
   257
 75
     1
175
     1
 42
1.0
 92
        8
 66
     7
 43
1.0
 76
     1
 77
     6
 78
     2
 67
     7
 79
     5
170
     0
171
     0
290
     0
174
     0
 93
        1
 44
0.0
173
     0
291
     1
 45
0.0
1001
ACAD
1000
AcDbSavedByObjectVersion
1070
     0
  0
VISUALSTYLE
  5
36
102
{ACAD_REACTORS
330
2A
102
}
102
{ACAD_XDICTIONARY
360
584
102
}
330
2A
100
AcDbVisualStyle
  2
Brighten
 70
    12
 71
     2
 72
     2
 73
     0
 90
        0
 40
-0.6
 41
-30.0
 62
     5
 63
     7
421
 16777215
 74
     1
 91
        4
 64
     7
 65
   257
 75
     1
175
     1
 42
1.0
 92
        8
 66
     7
 43
1.0
 76
     1
 77
     6
 78
     2
 67
     7
 79
     5
170
     0
171
     0
290
     0
174
     0
 93
        1
 44
50.0
173
     0
291
     1
 45
0.0
1001
ACAD
1000
AcDbSavedByObjectVersion
1070
     0
  0
VISUALSTYLE
  5
3A
102
{ACAD_REACTORS
330
2A
102
}
102
{ACAD_XDICTIONARY
360
58C
102
}
330
2A
100
AcDbVisualStyle
  2
ColorChange
 70
    16
 71
     2
 72
     2
 73
     3
 90
        0
 40
-0.6
 41
-30.0
 62
     5
 63
     8
421
  8421504
 74
     1
 91
        4
 64
     7
 65
   257
 75
     1
175
     1
 42
1.0
 92
        8
 66
     8
424
  8421504
 43
1.0
 76
     1
 77
     6
 78
     2
 67
     7
 79
     5
170
     0
171
     0
290
     0
174
     0
 93
        1
 44
0.0
173
     0
291
     1
 45
0.0
1001
ACAD
1000
AcDbSavedByObjectVersion
1070
     0
  0
VISUALSTYLE
  5
34
102
{ACAD_REACTORS
330
2A
102
}
102
{ACAD_XDICTIONARY
360
580
102
}
330
2A
100
AcDbVisualStyle
  2
Conceptual
 70
     9
 71
     3
 72
     2
 73
     0
 90
        0
 40
-0.6
 41
-30.0
 62
     5
 63
     7
421
 16777215
 74
     2
 91
        2
 64
     7
 65
   257
 75
     1
175
     1
 42
40.0
 92
        8
 66
     7
 43
1.0
 76
     1
 77
     6
 78
     2
 67
     7
 79
     3
170
     0
171
     0
290
     0
174
     0
 93
        1
 44
0.0
173
     0
291
     0
 45
0.0
1001
ACAD
1000
AcDbSavedByObjectVersion
1070
     0
  0
VISUALSTYLE
  5
35
102
{ACAD_REACTORS
330
2A
102
}
102
{ACAD_XDICTIONARY
360
582
102
}
330
2A
100
AcDbVisualStyle
  2
Dim
 70
    11
 71
     2
 72
     2
 73
     0
 90
        0
 40
-0.6
 41
-30.0
 62
     5
 63
     7
421
 16777215
 74
     1
 91
        4
 64
     7
 65
   257
 75
     1
175
     1
 42
1.0
 92
        8
 66
     7
 43
1.0
 76
     1
 77
     6
 78
     2
 67
     7
 79
     5
170
     0
171
     0
290
     0
174
     0
 93
        1
 44
-50.0
173
     0
291
     1
 45
0.0
1001
ACAD
1000
AcDbSavedByObjectVersion
1070
     0
  0
VISUALSTYLE
  5
39
102
{ACAD_REACTORS
330
2A
102
}
102
{ACAD_XDICTIONARY
360
58A
102
}
330
2A
100
AcDbVisualStyle
  2
Facepattern
 70
    15
 71
     2
 72
     2
 73
     0
 90
        0
 40
-0.6
 41
-30.0
 62
     5
 63
     7
421
 16777215
 74
     1
 91
        4
 64
     7
 65
   257
 75
     1
175
     1
 42
1.0
 92
        8
 66
     7
 43
1.0
 76
     1
 77
     6
 78
     2
 67
     7
 79
     5
170
     0
171
     0
290
     0
174
     0
 93
        1
 44
0.0
173
     0
291
     1
 45
0.0
1001
ACAD
1000
AcDbSavedByObjectVersion
1070
     0
  0
VISUALSTYLE
  5
2B
102
{ACAD_REACTORS
330
2A
102
}
102
{ACAD_XDICTIONARY
360
56E
102
}
330
2A
100
AcDbVisualStyle
  2
Flat
 70
     0
 71
     2
 72
     1
 73
     1
 90
        2
 40
-0.6
 41
30.0
 62
     5
 63
     7
421
 16777215
 74
     0
 91
        4
 64
     7
 65
   257
 75
     1
175
     1
 42
1.0
 92
        8
 66
     7
 43
1.0
 76
     1
 77
     6
 78
     2
 67
     7
 79
     5
170
     0
171
     0
290
     0
174
     0
 93
       13
 44
0.0
173
     0
291
     1
 45
0.0
1001
ACAD
1000
AcDbSavedByObjectVersion
1070
     0
  0
VISUALSTYLE
  5
2C
102
{ACAD_REACTORS
330
2A
102
}
102
{ACAD_XDICTIONARY
360
570
102
}
330
2A
100
AcDbVisualStyle
  2
FlatWithEdges
 70
     1
 71
     2
 72
     1
 73
     1
 90
        2
 40
-0.6
 41
30.0
 62
     5
 63
     7
421
 16777215
 74
     1
 91
        4
 64
     7
 65
   257
 75
     1
175
     1
 42
1.0
 92
        0
 66
   257
 43
1.0
 76
     1
 77
     6
 78
     2
 67
     7
 79
     5
170
     0
171
     0
290
     0
174
     0
 93
       13
 44
0.0
173
     0
291
     1
 45
0.0
1001
ACAD
1000
AcDbSavedByObjectVersion
1070
     0
  0
VISUALSTYLE
  5
2D
102
{ACAD_REACTORS
330
2A
102
}
102
{ACAD_XDICTIONARY
360
572
102
}
330
2A
100
AcDbVisualStyle
  2
Gouraud
 70
     2
 71
     2
 72
     2
 73
     1
 90
        2
 40
-0.6
 41
30.0
 62
     5
 63
     7
421
 16777215
 74
     0
 91
        4
 64
     7
 65
   257
 75
     1
175
     1
 42
1.0
 92
        0
 66
     7
 43
1.0
 76
     1
 77
     6
 78
     2
 67
     7
 79
     5
170
     0
171
     0
290
     0
174
     0
 93
       13
 44
0.0
173
     0
291
     1
 45
0.0
1001
ACAD
1000
AcDbSavedByObjectVersion
1070
     0
  0
VISUALSTYLE
  5
2E
102
{ACAD_REACTORS
330
2A
102
}
102
{ACAD_XDICTIONARY
360
574
102
}
330
2A
100
AcDbVisualStyle
  2
GouraudWithEdges
 70
     3
 71
     2
 72
     2
 73
     1
 90
        2
 40
-0.6
 41
30.0
 62
     5
 63
     7
421
 16777215
 74
     1
 91
        4
 64
     7
 65
   257
 75
     1
175
     1
 42
1.0
 92
        0
 66
   257
 43
1.0
 76
     1
 77
     6
 78
     2
 67
     7
 79
     5
170
     0
171
     0
290
     0
174
     0
 93
       13
 44
0.0
173
     0
291
     1
 45
0.0
1001
ACAD
1000
AcDbSavedByObjectVersion
1070
     0
  0
VISUALSTYLE
  5
38
102
{ACAD_REACTORS
330
2A
102
}
102
{ACAD_XDICTIONARY
360
588
102
}
330
2A
100
AcDbVisualStyle
  2
Linepattern
 70
    14
 71
     2
 72
     2
 73
     0
 90
        0
 40
-0.6
 41
-30.0
 62
     5
 63
     7
421
 16777215
 74
     1
 91
        4
 64
     7
 65
   257
 75
     7
175
     7
 42
1.0
 92
        8
 66
     7
 43
1.0
 76
     1
 77
     6
 78
     2
 67
     7
 79
     5
170
     0
171
     0
290
     0
174
     0
 93
        1
 44
0.0
173
     0
291
     1
 45
0.0
1001
ACAD
1000
AcDbSavedByObjectVersion
1070
     0
  0
VISUALSTYLE
  5
33
102
{ACAD_REACTORS
330
2A
102
}
102
{ACAD_XDICTIONARY
360
57E
102
}
330
2A
100
AcDbVisualStyle
  2
Realistic
 70
     8
 71
     2
 72
     2
 73
     0
 90
        0
 40
-0.6
 41
-30.0
 62
     5
 63
     7
421
 16777215
 74
     1
 91
        0
 64
     7
 65
   257
 75
     1
175
     1
 42
1.0
 92
        8
 66
     8
424
  7895160
 43
1.0
 76
     1
 77
     6
 78
     2
 67
     7
 79
     5
170
     0
171
     0
290
     0
174
     0
 93
       13
 44
0.0
173
     0
291
     0
 45
0.0
1001
ACAD
1000
AcDbSavedByObjectVersion
1070
     0
  0
VISUALSTYLE
  5
37
102
{ACAD_REACTORS
330
2A
102
}
102
{ACAD_XDICTIONARY
360
586
102
}
330
2A
100
AcDbVisualStyle
  2
Thicken
 70
    13
 71
     2
 72
     2
 73
     0
 90
        0
 40
-0.6
 41
-30.0
 62
     5
 63
     7
421
 16777215
 74
     1
 91
        4
 64
     7
 65
   257
 75
     1
175
     1
 42
1.0
 92
       12
 66
     7
 43
1.0
 76
     1
 77
     6
 78
     2
 67
     7
 79
     5
170
     0
171
     0
290
     0
174
     0
 93
        1
 44
0.0
173
     0
291
     1
 45
0.0
1001
ACAD
1000
AcDbSavedByObjectVersion
1070
     0
  0
DICTIONARY
  5
590
330
3D
100
AcDbDictionary
280
     1
281
     1
  3
ACAD_XREC_ROUNDTRIP
360
591
  0
DICTIONARY
  5
58E
330
3C
100
AcDbDictionary
280
     1
281
     1
  3
ACAD_XREC_ROUNDTRIP
360
58F
  0
DICTIONARY
  5
592
330
3E
100
AcDbDictionary
280
     1
281
     1
  3
ACAD_XREC_ROUNDTRIP
360
593
  0
DICTIONARY
  5
576
330
2F
100
AcDbDictionary
280
     1
281
     1
  3
ACAD_XREC_ROUNDTRIP
360
577
  0
DICTIONARY
  5
57A
330
31
100
AcDbDictionary
280
     1
281
     1
  3
ACAD_XREC_ROUNDTRIP
360
57B
  0
DICTIONARY
  5
578
330
30
100
AcDbDictionary
280
     1
281
     1
  3
ACAD_XREC_ROUNDTRIP
360
579
  0
DICTIONARY
  5
57C
330
32
100
AcDbDictionary
280
     1
281
     1
  3
ACAD_XREC_ROUNDTRIP
360
57D
  0
DICTIONARY
  5
584
330
36
100
AcDbDictionary
280
     1
281
     1
  3
ACAD_XREC_ROUNDTRIP
360
585
  0
DICTIONARY
  5
58C
330
3A
100
AcDbDictionary
280
     1
281
     1
  3
ACAD_XREC_ROUNDTRIP
360
58D
  0
DICTIONARY
  5
580
330
34
100
AcDbDictionary
280
     1
281
     1
  3
ACAD_XREC_ROUNDTRIP
360
581
  0
DICTIONARY
  5
582
330
35
100
AcDbDictionary
280
     1
281
     1
  3
ACAD_XREC_ROUNDTRIP
360
583
  0
DICTIONARY
  5
58A
330
39
100
AcDbDictionary
280
     1
281
     1
  3
ACAD_XREC_ROUNDTRIP
360
58B
  0
DICTIONARY
  5
56E
330
2B
100
AcDbDictionary
280
     1
281
     1
  3
ACAD_XREC_ROUNDTRIP
360
56F
  0
DICTIONARY
  5
570
330
2C
100
AcDbDictionary
280
     1
281
     1
  3
ACAD_XREC_ROUNDTRIP
360
571
  0
DICTIONARY
  5
572
330
2D
100
AcDbDictionary
280
     1
281
     1
  3
ACAD_XREC_ROUNDTRIP
360
573
  0
DICTIONARY
  5
574
330
2E
100
AcDbDictionary
280
     1
281
     1
  3
ACAD_XREC_ROUNDTRIP
360
575
  0
DICTIONARY
  5
588
330
38
100
AcDbDictionary
280
     1
281
     1
  3
ACAD_XREC_ROUNDTRIP
360
589
  0
DICTIONARY
  5
57E
330
33
100
AcDbDictionary
280
     1
281
     1
  3
ACAD_XREC_ROUNDTRIP
360
57F
  0
DICTIONARY
  5
586
330
37
100
AcDbDictionary
280
     1
281
     1
  3
ACAD_XREC_ROUNDTRIP
360
587
  0
XRECORD
  5
591
102
{ACAD_REACTORS
330
590
102
}
330
590
100
AcDbXrecord
280
     1
102
MATERIAL
148
0.0
149
0.0
149
0.0
 93
        0
 94
      127
282
     0
 72
     1
 77
     1
171
     1
175
     1
179
     1
273
     0
  0
XRECORD
  5
58F
102
{ACAD_REACTORS
330
58E
102
}
330
58E
100
AcDbXrecord
280
     1
102
MATERIAL
148
0.0
149
0.0
149
0.0
 93
        0
 94
      127
282
     0
 72
     1
 77
     1
171
     1
175
     1
179
     1
273
     0
  0
XRECORD
  5
593
102
{ACAD_REACTORS
330
592
102
}
330
592
100
AcDbXrecord
280
     1
102
MATERIAL
148
0.0
149
0.0
149
0.0
 93
        0
 94
      127
282
     0
 72
     1
 77
     1
171
     1
175
     1
179
     1
273
     0
  0
XRECORD
  5
577
102
{ACAD_REACTORS
330
576
102
}
330
576
100
AcDbXrecord
280
     1
102
RTVSPropertyOp0
 70
     1
102
RTVSPropertyOp1
 70
     1
102
RTVSPropertyOp2
 70
     1
102
RTVSPropertyOp3
 70
     1
102
RTVSPropertyOp4
 70
     1
102
RTVSPropertyOp5
 70
     1
102
RTVSPropertyOp6
 70
     1
102
RTVSPropertyOp7
 70
     1
102
RTVSPropertyOp8
 70
     1
102
RTVSPropertyOp9
 70
     1
102
RTVSPropertyOp10
 70
     1
102
RTVSPropertyOp11
 70
     1
102
RTVSPropertyOp12
 70
     1
102
RTVSPropertyOp13
 70
     1
102
RTVSPropertyOp14
 70
     1
102
RTVSPropertyOp15
 70
     1
102
RTVSPropertyOp16
 70
     1
102
RTVSPropertyOp17
 70
     1
102
RTVSPropertyOp18
 70
     1
102
RTVSPropertyOp19
 70
     1
102
RTVSPropertyOp20
 70
     1
102
RTVSPropertyOp21
 70
     1
102
RTVSPropertyOp22
 70
     1
102
RTVSPropertyOp23
 70
     1
102
RTVSPropertyOp24
 70
     1
102
RTVSPropertyOp25
 70
     1
102
RTVSPropertyOp26
 70
     1
102
RTVSPropertyOp27
 70
     1
102
RTVSPropertyOp28
 70
     1
102
RTVSPropertyOp29
 70
     1
102
RTVSPropertyOp30
 70
     1
102
RTVSPropertyOp31
 70
     1
102
RTVSPropertyOp32
 70
     1
  0
XRECORD
  5
57B
102
{ACAD_REACTORS
330
57A
102
}
330
57A
100
AcDbXrecord
280
     1
102
RTVSPropertyOp0
 70
     1
102
RTVSPropertyOp1
 70
     1
102
RTVSPropertyOp2
 70
     1
102
RTVSPropertyOp3
 70
     1
102
RTVSPropertyOp4
 70
     1
102
RTVSPropertyOp5
 70
     1
102
RTVSPropertyOp6
 70
     1
102
RTVSPropertyOp7
 70
     1
102
RTVSPropertyOp8
 70
     1
102
RTVSPropertyOp9
 70
     1
102
RTVSPropertyOp10
 70
     1
102
RTVSPropertyOp11
 70
     1
102
RTVSPropertyOp12
 70
     1
102
RTVSPropertyOp13
 70
     1
102
RTVSPropertyOp14
 70
     1
102
RTVSPropertyOp15
 70
     1
102
RTVSPropertyOp16
 70
     1
102
RTVSPropertyOp17
 70
     1
102
RTVSPropertyOp18
 70
     1
102
RTVSPropertyOp19
 70
     1
102
RTVSPropertyOp20
 70
     1
102
RTVSPropertyOp21
 70
     1
102
RTVSPropertyOp22
 70
     1
102
RTVSPropertyOp23
 70
     1
102
RTVSPropertyOp24
 70
     1
102
RTVSPropertyOp25
 70
     1
102
RTVSPropertyOp26
 70
     1
102
RTVSPropertyOp27
 70
     1
102
RTVSPropertyOp28
 70
     1
102
RTVSPropertyOp29
 70
     1
102
RTVSPropertyOp30
 70
     1
102
RTVSPropertyOp31
 70
     1
102
RTVSPropertyOp32
 70
     1
  0
XRECORD
  5
579
102
{ACAD_REACTORS
330
578
102
}
330
578
100
AcDbXrecord
280
     1
102
RTVSPropertyOp0
 70
     1
102
RTVSPropertyOp1
 70
     1
102
RTVSPropertyOp2
 70
     1
102
RTVSPropertyOp3
 70
     1
102
RTVSPropertyOp4
 70
     1
102
RTVSPropertyOp5
 70
     1
102
RTVSPropertyOp6
 70
     1
102
RTVSPropertyOp7
 70
     1
102
RTVSPropertyOp8
 70
     1
102
RTVSPropertyOp9
 70
     1
102
RTVSPropertyOp10
 70
     1
102
RTVSPropertyOp11
 70
     1
102
RTVSPropertyOp12
 70
     1
102
RTVSPropertyOp13
 70
     1
102
RTVSPropertyOp14
 70
     1
102
RTVSPropertyOp15
 70
     1
102
RTVSPropertyOp16
 70
     1
102
RTVSPropertyOp17
 70
     1
102
RTVSPropertyOp18
 70
     1
102
RTVSPropertyOp19
 70
     1
102
RTVSPropertyOp20
 70
     1
102
RTVSPropertyOp21
 70
     1
102
RTVSPropertyOp22
 70
     1
102
RTVSPropertyOp23
 70
     1
102
RTVSPropertyOp24
 70
     1
102
RTVSPropertyOp25
 70
     1
102
RTVSPropertyOp26
 70
     1
102
RTVSPropertyOp27
 70
     1
102
RTVSPropertyOp28
 70
     1
102
RTVSPropertyOp29
 70
     1
102
RTVSPropertyOp30
 70
     1
102
RTVSPropertyOp31
 70
     1
102
RTVSPropertyOp32
 70
     1
  0
XRECORD
  5
57D
102
{ACAD_REACTORS
330
57C
102
}
330
57C
100
AcDbXrecord
280
     1
102
RTVSPropertyOp0
 70
     1
102
RTVSPropertyOp1
 70
     1
102
RTVSPropertyOp2
 70
     1
102
RTVSPropertyOp3
 70
     1
102
RTVSPropertyOp4
 70
     1
102
RTVSPropertyOp5
 70
     1
102
RTVSPropertyOp6
 70
     1
102
RTVSPropertyOp7
 70
     1
102
RTVSPropertyOp8
 70
     1
102
RTVSPropertyOp9
 70
     1
102
RTVSPropertyOp10
 70
     1
102
RTVSPropertyOp11
 70
     1
102
RTVSPropertyOp12
 70
     1
102
RTVSPropertyOp13
 70
     1
102
RTVSPropertyOp14
 70
     1
102
RTVSPropertyOp15
 70
     1
102
RTVSPropertyOp16
 70
     1
102
RTVSPropertyOp17
 70
     1
102
RTVSPropertyOp18
 70
     1
102
RTVSPropertyOp19
 70
     1
102
RTVSPropertyOp20
 70
     1
102
RTVSPropertyOp21
 70
     1
102
RTVSPropertyOp22
 70
     1
102
RTVSPropertyOp23
 70
     1
102
RTVSPropertyOp24
 70
     1
102
RTVSPropertyOp25
 70
     1
102
RTVSPropertyOp26
 70
     1
102
RTVSPropertyOp27
 70
     1
102
RTVSPropertyOp28
 70
     1
102
RTVSPropertyOp29
 70
     1
102
RTVSPropertyOp30
 70
     1
102
RTVSPropertyOp31
 70
     1
102
RTVSPropertyOp32
 70
     1
  0
XRECORD
  5
585
102
{ACAD_REACTORS
330
584
102
}
330
584
100
AcDbXrecord
280
     1
102
RTVSPropertyOp0
 70
     1
102
RTVSPropertyOp1
 70
     1
102
RTVSPropertyOp2
 70
     1
102
RTVSPropertyOp3
 70
     1
102
RTVSPropertyOp4
 70
     1
102
RTVSPropertyOp5
 70
     1
102
RTVSPropertyOp6
 70
     1
102
RTVSPropertyOp7
 70
     1
102
RTVSPropertyOp8
 70
     1
102
RTVSPropertyOp9
 70
     1
102
RTVSPropertyOp10
 70
     1
102
RTVSPropertyOp11
 70
     1
102
RTVSPropertyOp12
 70
     1
102
RTVSPropertyOp13
 70
     1
102
RTVSPropertyOp14
 70
     1
102
RTVSPropertyOp15
 70
     1
102
RTVSPropertyOp16
 70
     1
102
RTVSPropertyOp17
 70
     1
102
RTVSPropertyOp18
 70
     1
102
RTVSPropertyOp19
 70
     1
102
RTVSPropertyOp20
 70
     1
102
RTVSPropertyOp21
 70
     1
102
RTVSPropertyOp22
 70
     1
102
RTVSPropertyOp23
 70
     1
102
RTVSPropertyOp24
 70
     1
102
RTVSPropertyOp25
 70
     1
102
RTVSPropertyOp26
 70
     1
102
RTVSPropertyOp27
 70
     1
102
RTVSPropertyOp28
 70
     1
102
RTVSPropertyOp29
 70
     1
102
RTVSPropertyOp30
 70
     1
102
RTVSPropertyOp31
 70
     1
102
RTVSPropertyOp32
 70
     1
  0
XRECORD
  5
58D
102
{ACAD_REACTORS
330
58C
102
}
330
58C
100
AcDbXrecord
280
     1
102
RTVSPropertyOp0
 70
     1
102
RTVSPropertyOp1
 70
     1
102
RTVSPropertyOp2
 70
     1
102
RTVSPropertyOp3
 70
     1
102
RTVSPropertyOp4
 70
     1
102
RTVSPropertyOp5
 70
     1
102
RTVSPropertyOp6
 70
     1
102
RTVSPropertyOp7
 70
     1
102
RTVSPropertyOp8
 70
     1
102
RTVSPropertyOp9
 70
     1
102
RTVSPropertyOp10
 70
     1
102
RTVSPropertyOp11
 70
     1
102
RTVSPropertyOp12
 70
     1
102
RTVSPropertyOp13
 70
     1
102
RTVSPropertyOp14
 70
     1
102
RTVSPropertyOp15
 70
     1
102
RTVSPropertyOp16
 70
     1
102
RTVSPropertyOp17
 70
     1
102
RTVSPropertyOp18
 70
     1
102
RTVSPropertyOp19
 70
     1
102
RTVSPropertyOp20
 70
     1
102
RTVSPropertyOp21
 70
     1
102
RTVSPropertyOp22
 70
     1
102
RTVSPropertyOp23
 70
     1
102
RTVSPropertyOp24
 70
     1
102
RTVSPropertyOp25
 70
     1
102
RTVSPropertyOp26
 70
     1
102
RTVSPropertyOp27
 70
     1
102
RTVSPropertyOp28
 70
     1
102
RTVSPropertyOp29
 70
     1
102
RTVSPropertyOp30
 70
     1
102
RTVSPropertyOp31
 70
     1
102
RTVSPropertyOp32
 70
     1
  0
XRECORD
  5
581
102
{ACAD_REACTORS
330
580
102
}
330
580
100
AcDbXrecord
280
     1
102
RTVSPropertyOp0
 70
     1
102
RTVSPropertyOp1
 70
     1
102
RTVSPropertyOp2
 70
     1
102
RTVSPropertyOp3
 70
     1
102
RTVSPropertyOp4
 70
     1
102
RTVSPropertyOp5
 70
     1
102
RTVSPropertyOp6
 70
     1
102
RTVSPropertyOp7
 70
     1
102
RTVSPropertyOp8
 70
     1
102
RTVSPropertyOp9
 70
     1
102
RTVSPropertyOp10
 70
     1
102
RTVSPropertyOp11
 70
     1
102
RTVSPropertyOp12
 70
     1
102
RTVSPropertyOp13
 70
     1
102
RTVSPropertyOp14
 70
     1
102
RTVSPropertyOp15
 70
     1
102
RTVSPropertyOp16
 70
     1
102
RTVSPropertyOp17
 70
     1
102
RTVSPropertyOp18
 70
     1
102
RTVSPropertyOp19
 70
     1
102
RTVSPropertyOp20
 70
     1
102
RTVSPropertyOp21
 70
     1
102
RTVSPropertyOp22
 70
     1
102
RTVSPropertyOp23
 70
     1
102
RTVSPropertyOp24
 70
     1
102
RTVSPropertyOp25
 70
     1
102
RTVSPropertyOp26
 70
     1
102
RTVSPropertyOp27
 70
     1
102
RTVSPropertyOp28
 70
     1
102
RTVSPropertyOp29
 70
     1
102
RTVSPropertyOp30
 70
     1
102
RTVSPropertyOp31
 70
     1
102
RTVSPropertyOp32
 70
     1
  0
XRECORD
  5
583
102
{ACAD_REACTORS
330
582
102
}
330
582
100
AcDbXrecord
280
     1
102
RTVSPropertyOp0
 70
     1
102
RTVSPropertyOp1
 70
     1
102
RTVSPropertyOp2
 70
     1
102
RTVSPropertyOp3
 70
     1
102
RTVSPropertyOp4
 70
     1
102
RTVSPropertyOp5
 70
     1
102
RTVSPropertyOp6
 70
     1
102
RTVSPropertyOp7
 70
     1
102
RTVSPropertyOp8
 70
     1
102
RTVSPropertyOp9
 70
     1
102
RTVSPropertyOp10
 70
     1
102
RTVSPropertyOp11
 70
     1
102
RTVSPropertyOp12
 70
     1
102
RTVSPropertyOp13
 70
     1
102
RTVSPropertyOp14
 70
     1
102
RTVSPropertyOp15
 70
     1
102
RTVSPropertyOp16
 70
     1
102
RTVSPropertyOp17
 70
     1
102
RTVSPropertyOp18
 70
     1
102
RTVSPropertyOp19
 70
     1
102
RTVSPropertyOp20
 70
     1
102
RTVSPropertyOp21
 70
     1
102
RTVSPropertyOp22
 70
     1
102
RTVSPropertyOp23
 70
     1
102
RTVSPropertyOp24
 70
     1
102
RTVSPropertyOp25
 70
     1
102
RTVSPropertyOp26
 70
     1
102
RTVSPropertyOp27
 70
     1
102
RTVSPropertyOp28
 70
     1
102
RTVSPropertyOp29
 70
     1
102
RTVSPropertyOp30
 70
     1
102
RTVSPropertyOp31
 70
     1
102
RTVSPropertyOp32
 70
     1
  0
XRECORD
  5
58B
102
{ACAD_REACTORS
330
58A
102
}
330
58A
100
AcDbXrecord
280
     1
102
RTVSPropertyOp0
 70
     1
102
RTVSPropertyOp1
 70
     1
102
RTVSPropertyOp2
 70
     1
102
RTVSPropertyOp3
 70
     1
102
RTVSPropertyOp4
 70
     1
102
RTVSPropertyOp5
 70
     1
102
RTVSPropertyOp6
 70
     1
102
RTVSPropertyOp7
 70
     1
102
RTVSPropertyOp8
 70
     1
102
RTVSPropertyOp9
 70
     1
102
RTVSPropertyOp10
 70
     1
102
RTVSPropertyOp11
 70
     1
102
RTVSPropertyOp12
 70
     1
102
RTVSPropertyOp13
 70
     1
102
RTVSPropertyOp14
 70
     1
102
RTVSPropertyOp15
 70
     1
102
RTVSPropertyOp16
 70
     1
102
RTVSPropertyOp17
 70
     1
102
RTVSPropertyOp18
 70
     1
102
RTVSPropertyOp19
 70
     1
102
RTVSPropertyOp20
 70
     1
102
RTVSPropertyOp21
 70
     1
102
RTVSPropertyOp22
 70
     1
102
RTVSPropertyOp23
 70
     1
102
RTVSPropertyOp24
 70
     1
102
RTVSPropertyOp25
 70
     1
102
RTVSPropertyOp26
 70
     1
102
RTVSPropertyOp27
 70
     1
102
RTVSPropertyOp28
 70
     1
102
RTVSPropertyOp29
 70
     1
102
RTVSPropertyOp30
 70
     1
102
RTVSPropertyOp31
 70
     1
102
RTVSPropertyOp32
 70
     1
  0
XRECORD
  5
56F
102
{ACAD_REACTORS
330
56E
102
}
330
56E
100
AcDbXrecord
280
     1
102
RTVSPropertyOp0
 70
     1
102
RTVSPropertyOp1
 70
     1
102
RTVSPropertyOp2
 70
     1
102
RTVSPropertyOp3
 70
     1
102
RTVSPropertyOp4
 70
     1
102
RTVSPropertyOp5
 70
     1
102
RTVSPropertyOp6
 70
     1
102
RTVSPropertyOp7
 70
     1
102
RTVSPropertyOp8
 70
     1
102
RTVSPropertyOp9
 70
     1
102
RTVSPropertyOp10
 70
     1
102
RTVSPropertyOp11
 70
     1
102
RTVSPropertyOp12
 70
     1
102
RTVSPropertyOp13
 70
     1
102
RTVSPropertyOp14
 70
     1
102
RTVSPropertyOp15
 70
     1
102
RTVSPropertyOp16
 70
     1
102
RTVSPropertyOp17
 70
     1
102
RTVSPropertyOp18
 70
     1
102
RTVSPropertyOp19
 70
     1
102
RTVSPropertyOp20
 70
     1
102
RTVSPropertyOp21
 70
     1
102
RTVSPropertyOp22
 70
     1
102
RTVSPropertyOp23
 70
     1
102
RTVSPropertyOp24
 70
     1
102
RTVSPropertyOp25
 70
     1
102
RTVSPropertyOp26
 70
     1
102
RTVSPropertyOp27
 70
     1
102
RTVSPropertyOp28
 70
     1
102
RTVSPropertyOp29
 70
     1
102
RTVSPropertyOp30
 70
     1
102
RTVSPropertyOp31
 70
     1
102
RTVSPropertyOp32
 70
     1
  0
XRECORD
  5
571
102
{ACAD_REACTORS
330
570
102
}
330
570
100
AcDbXrecord
280
     1
102
RTVSPropertyOp0
 70
     1
102
RTVSPropertyOp1
 70
     1
102
RTVSPropertyOp2
 70
     1
102
RTVSPropertyOp3
 70
     1
102
RTVSPropertyOp4
 70
     1
102
RTVSPropertyOp5
 70
     1
102
RTVSPropertyOp6
 70
     1
102
RTVSPropertyOp7
 70
     1
102
RTVSPropertyOp8
 70
     1
102
RTVSPropertyOp9
 70
     1
102
RTVSPropertyOp10
 70
     1
102
RTVSPropertyOp11
 70
     1
102
RTVSPropertyOp12
 70
     1
102
RTVSPropertyOp13
 70
     1
102
RTVSPropertyOp14
 70
     1
102
RTVSPropertyOp15
 70
     1
102
RTVSPropertyOp16
 70
     1
102
RTVSPropertyOp17
 70
     1
102
RTVSPropertyOp18
 70
     1
102
RTVSPropertyOp19
 70
     1
102
RTVSPropertyOp20
 70
     1
102
RTVSPropertyOp21
 70
     1
102
RTVSPropertyOp22
 70
     1
102
RTVSPropertyOp23
 70
     1
102
RTVSPropertyOp24
 70
     1
102
RTVSPropertyOp25
 70
     1
102
RTVSPropertyOp26
 70
     1
102
RTVSPropertyOp27
 70
     1
102
RTVSPropertyOp28
 70
     1
102
RTVSPropertyOp29
 70
     1
102
RTVSPropertyOp30
 70
     1
102
RTVSPropertyOp31
 70
     1
102
RTVSPropertyOp32
 70
     1
  0
XRECORD
  5
573
102
{ACAD_REACTORS
330
572
102
}
330
572
100
AcDbXrecord
280
     1
102
RTVSPropertyOp0
 70
     1
102
RTVSPropertyOp1
 70
     1
102
RTVSPropertyOp2
 70
     1
102
RTVSPropertyOp3
 70
     1
102
RTVSPropertyOp4
 70
     1
102
RTVSPropertyOp5
 70
     1
102
RTVSPropertyOp6
 70
     1
102
RTVSPropertyOp7
 70
     1
102
RTVSPropertyOp8
 70
     1
102
RTVSPropertyOp9
 70
     1
102
RTVSPropertyOp10
 70
     1
102
RTVSPropertyOp11
 70
     1
102
RTVSPropertyOp12
 70
     1
102
RTVSPropertyOp13
 70
     1
102
RTVSPropertyOp14
 70
     1
102
RTVSPropertyOp15
 70
     1
102
RTVSPropertyOp16
 70
     1
102
RTVSPropertyOp17
 70
     1
102
RTVSPropertyOp18
 70
     1
102
RTVSPropertyOp19
 70
     1
102
RTVSPropertyOp20
 70
     1
102
RTVSPropertyOp21
 70
     1
102
RTVSPropertyOp22
 70
     1
102
RTVSPropertyOp23
 70
     1
102
RTVSPropertyOp24
 70
     1
102
RTVSPropertyOp25
 70
     1
102
RTVSPropertyOp26
 70
     1
102
RTVSPropertyOp27
 70
     1
102
RTVSPropertyOp28
 70
     1
102
RTVSPropertyOp29
 70
     1
102
RTVSPropertyOp30
 70
     1
102
RTVSPropertyOp31
 70
     1
102
RTVSPropertyOp32
 70
     1
  0
XRECORD
  5
575
102
{ACAD_REACTORS
330
574
102
}
330
574
100
AcDbXrecord
280
     1
102
RTVSPropertyOp0
 70
     1
102
RTVSPropertyOp1
 70
     1
102
RTVSPropertyOp2
 70
     1
102
RTVSPropertyOp3
 70
     1
102
RTVSPropertyOp4
 70
     1
102
RTVSPropertyOp5
 70
     1
102
RTVSPropertyOp6
 70
     1
102
RTVSPropertyOp7
 70
     1
102
RTVSPropertyOp8
 70
     1
102
RTVSPropertyOp9
 70
     1
102
RTVSPropertyOp10
 70
     1
102
RTVSPropertyOp11
 70
     1
102
RTVSPropertyOp12
 70
     1
102
RTVSPropertyOp13
 70
     1
102
RTVSPropertyOp14
 70
     1
102
RTVSPropertyOp15
 70
     1
102
RTVSPropertyOp16
 70
     1
102
RTVSPropertyOp17
 70
     1
102
RTVSPropertyOp18
 70
     1
102
RTVSPropertyOp19
 70
     1
102
RTVSPropertyOp20
 70
     1
102
RTVSPropertyOp21
 70
     1
102
RTVSPropertyOp22
 70
     1
102
RTVSPropertyOp23
 70
     1
102
RTVSPropertyOp24
 70
     1
102
RTVSPropertyOp25
 70
     1
102
RTVSPropertyOp26
 70
     1
102
RTVSPropertyOp27
 70
     1
102
RTVSPropertyOp28
 70
     1
102
RTVSPropertyOp29
 70
     1
102
RTVSPropertyOp30
 70
     1
102
RTVSPropertyOp31
 70
     1
102
RTVSPropertyOp32
 70
     1
  0
XRECORD
  5
589
102
{ACAD_REACTORS
330
588
102
}
330
588
100
AcDbXrecord
280
     1
102
RTVSPropertyOp0
 70
     1
102
RTVSPropertyOp1
 70
     1
102
RTVSPropertyOp2
 70
     1
102
RTVSPropertyOp3
 70
     1
102
RTVSPropertyOp4
 70
     1
102
RTVSPropertyOp5
 70
     1
102
RTVSPropertyOp6
 70
     1
102
RTVSPropertyOp7
 70
     1
102
RTVSPropertyOp8
 70
     1
102
RTVSPropertyOp9
 70
     1
102
RTVSPropertyOp10
 70
     1
102
RTVSPropertyOp11
 70
     1
102
RTVSPropertyOp12
 70
     1
102
RTVSPropertyOp13
 70
     1
102
RTVSPropertyOp14
 70
     1
102
RTVSPropertyOp15
 70
     1
102
RTVSPropertyOp16
 70
     1
102
RTVSPropertyOp17
 70
     1
102
RTVSPropertyOp18
 70
     1
102
RTVSPropertyOp19
 70
     1
102
RTVSPropertyOp20
 70
     1
102
RTVSPropertyOp21
 70
     1
102
RTVSPropertyOp22
 70
     1
102
RTVSPropertyOp23
 70
     1
102
RTVSPropertyOp24
 70
     1
102
RTVSPropertyOp25
 70
     1
102
RTVSPropertyOp26
 70
     1
102
RTVSPropertyOp27
 70
     1
102
RTVSPropertyOp28
 70
     1
102
RTVSPropertyOp29
 70
     1
102
RTVSPropertyOp30
 70
     1
102
RTVSPropertyOp31
 70
     1
102
RTVSPropertyOp32
 70
     1
  0
XRECORD
  5
57F
102
{ACAD_REACTORS
330
57E
102
}
330
57E
100
AcDbXrecord
280
     1
102
RTVSPropertyOp0
 70
     1
102
RTVSPropertyOp1
 70
     1
102
RTVSPropertyOp2
 70
     1
102
RTVSPropertyOp3
 70
     1
102
RTVSPropertyOp4
 70
     1
102
RTVSPropertyOp5
 70
     1
102
RTVSPropertyOp6
 70
     1
102
RTVSPropertyOp7
 70
     1
102
RTVSPropertyOp8
 70
     1
102
RTVSPropertyOp9
 70
     1
102
RTVSPropertyOp10
 70
     1
102
RTVSPropertyOp11
 70
     1
102
RTVSPropertyOp12
 70
     1
102
RTVSPropertyOp13
 70
     1
102
RTVSPropertyOp14
 70
     1
102
RTVSPropertyOp15
 70
     1
102
RTVSPropertyOp16
 70
     1
102
RTVSPropertyOp17
 70
     1
102
RTVSPropertyOp18
 70
     1
102
RTVSPropertyOp19
 70
     1
102
RTVSPropertyOp20
 70
     1
102
RTVSPropertyOp21
 70
     1
102
RTVSPropertyOp22
 70
     1
102
RTVSPropertyOp23
 70
     1
102
RTVSPropertyOp24
 70
     1
102
RTVSPropertyOp25
 70
     1
102
RTVSPropertyOp26
 70
     1
102
RTVSPropertyOp27
 70
     1
102
RTVSPropertyOp28
 70
     1
102
RTVSPropertyOp29
 70
     1
102
RTVSPropertyOp30
 70
     1
102
RTVSPropertyOp31
 70
     1
102
RTVSPropertyOp32
 70
     1
  0
XRECORD
  5
587
102
{ACAD_REACTORS
330
586
102
}
330
586
100
AcDbXrecord
280
     1
102
RTVSPropertyOp0
 70
     1
102
RTVSPropertyOp1
 70
     1
102
RTVSPropertyOp2
 70
     1
102
RTVSPropertyOp3
 70
     1
102
RTVSPropertyOp4
 70
     1
102
RTVSPropertyOp5
 70
     1
102
RTVSPropertyOp6
 70
     1
102
RTVSPropertyOp7
 70
     1
102
RTVSPropertyOp8
 70
     1
102
RTVSPropertyOp9
 70
     1
102
RTVSPropertyOp10
 70
     1
102
RTVSPropertyOp11
 70
     1
102
RTVSPropertyOp12
 70
     1
102
RTVSPropertyOp13
 70
     1
102
RTVSPropertyOp14
 70
     1
102
RTVSPropertyOp15
 70
     1
102
RTVSPropertyOp16
 70
     1
102
RTVSPropertyOp17
 70
     1
102
RTVSPropertyOp18
 70
     1
102
RTVSPropertyOp19
 70
     1
102
RTVSPropertyOp20
 70
     1
102
RTVSPropertyOp21
 70
     1
102
RTVSPropertyOp22
 70
     1
102
RTVSPropertyOp23
 70
     1
102
RTVSPropertyOp24
 70
     1
102
RTVSPropertyOp25
 70
     1
102
RTVSPropertyOp26
 70
     1
102
RTVSPropertyOp27
 70
     1
102
RTVSPropertyOp28
 70
     1
102
RTVSPropertyOp29
 70
     1
102
RTVSPropertyOp30
 70
     1
102
RTVSPropertyOp31
 70
     1
102
RTVSPropertyOp32
 70
     1
  0
ENDSEC
  0
EOF
