  0
SECTION
  2
HEADER
  9
$ACADVER
  1
AC1018
  9
$ACADMAINTVER
 70
     0
  9
$DWGCODEPAGE
  3
ANSI_1252
  9
$INSBASE
 10
0.0
 20
0.0
 30
0.0
  9
$EXTMIN
 10
318.074538794638
 20
-0.38114516129
 30
0.0
  9
$EXTMAX
 10
741.794161648698
 20
153.16785483871
 30
0.0
  9
$LIMMIN
 10
0.0
 20
0.0
  9
$LIMMAX
 10
420.0
 20
297.0
  9
$ORTHOMODE
 70
     0
  9
$REGENMODE
 70
     1
  9
$FILLMODE
 70
     1
  9
$QTEXTMODE
 70
     0
  9
$MIRRTEXT
 70
     1
  9
$LTSCALE
 40
5.0
  9
$ATTMODE
 70
     1
  9
$TEXTSIZE
 40
2.5
  9
$TRACEWID
 40
1.0
  9
$TEXTSTYLE
  7
Standard
  9
$CLAYER
  8
0
  9
$CELTYPE
  6
ByLayer
  9
$CECOLOR
 62
   256
  9
$CELTSCALE
 40
1.0
  9
$DISPSILH
 70
     0
  9
$DIMSCALE
 40
1.0
  9
$DIMASZ
 40
2.5
  9
$DIMEXO
 40
0.625
  9
$DIMDLI
 40
3.75
  9
$DIMRND
 40
0.0
  9
$DIMDLE
 40
0.0
  9
$DIMEXE
 40
1.25
  9
$DIMTP
 40
0.0
  9
$DIMTM
 40
0.0
  9
$DIMTXT
 40
2.5
  9
$DIMCEN
 40
2.5
  9
$DIMTSZ
 40
0.0
  9
$DIMTOL
 70
     0
  9
$DIMLIM
 70
     0
  9
$DIMTIH
 70
     0
  9
$DIMTOH
 70
     0
  9
$DIMSE1
 70
     0
  9
$DIMSE2
 70
     0
  9
$DIMTAD
 70
     1
  9
$DIMZIN
 70
     8
  9
$DIMBLK
  1

  9
$DIMASO
 70
     1
  9
$DIMSHO
 70
     1
  9
$DIMPOST
  1

  9
$DIMAPOST
  1

  9
$DIMALT
 70
     0
  9
$DIMALTD
 70
     3
  9
$DIMALTF
 40
0.03937007874
  9
$DIMLFAC
 40
1.0
  9
$DIMTOFL
 70
     1
  9
$DIMTVP
 40
0.0
  9
$DIMTIX
 70
     0
  9
$DIMSOXD
 70
     0
  9
$DIMSAH
 70
     0
  9
$DIMBLK1
  1

  9
$DIMBLK2
  1

  9
$DIMSTYLE
  2
ISO-25
  9
$DIMCLRD
 70
     0
  9
$DIMCLRE
 70
     0
  9
$DIMCLRT
 70
     0
  9
$DIMTFAC
 40
1.0
  9
$DIMGAP
 40
0.625
  9
$DIMJUST
 70
     0
  9
$DIMSD1
 70
     0
  9
$DIMSD2
 70
     0
  9
$DIMTOLJ
 70
     0
  9
$DIMTZIN
 70
     8
  9
$DIMALTZ
 70
     0
  9
$DIMALTTZ
 70
     0
  9
$DIMUPT
 70
     0
  9
$DIMDEC
 70
     2
  9
$DIMTDEC
 70
     2
  9
$DIMALTU
 70
     2
  9
$DIMALTTD
 70
     3
  9
$DIMTXSTY
  7
Standard
  9
$DIMAUNIT
 70
     0
  9
$DIMADEC
 70
     0
  9
$DIMALTRND
 40
0.0
  9
$DIMAZIN
 70
     0
  9
$DIMDSEP
 70
    44
  9
$DIMATFIT
 70
     3
  9
$DIMFRAC
 70
     0
  9
$DIMLDRBLK
  1

  9
$DIMLUNIT
 70
     2
  9
$DIMLWD
 70
    -2
  9
$DIMLWE
 70
    -2
  9
$DIMTMOVE
 70
     0
  9
$LUNITS
 70
     2
  9
$LUPREC
 70
     4
  9
$SKETCHINC
 40
1.0
  9
$FILLETRAD
 40
10.0
  9
$AUNITS
 70
     0
  9
$AUPREC
 70
     0
  9
$MENU
  1
.
  9
$ELEVATION
 40
0.0
  9
$PELEVATION
 40
0.0
  9
$THICKNESS
 40
0.0
  9
$LIMCHECK
 70
     0
  9
$CHAMFERA
 40
10.0
  9
$CHAMFERB
 40
10.0
  9
$CHAMFERC
 40
20.0
  9
$CHAMFERD
 40
0.0
  9
$SKPOLY
 70
     0
  9
$TDCREATE
 40
2458718.503399143
  9
$TDUCREATE
 40
2458718.42006581
  9
$TDUPDATE
 40
2458718.503406007
  9
$TDUUPDATE
 40
2458718.420072674
  9
$TDINDWG
 40
0.0000000116
  9
$TDUSRTIMER
 40
0.0000000116
  9
$USRTIMER
 70
     1
  9
$ANGBASE
 50
0.0
  9
$ANGDIR
 70
     0
  9
$PDMODE
 70
     2
  9
$PDSIZE
 40
1.0
  9
$PLINEWID
 40
0.0
  9
$SPLFRAME
 70
     0
  9
$SPLINETYPE
 70
     6
  9
$SPLINESEGS
 70
     8
  9
$HANDSEED
  5
47D
  9
$SURFTAB1
 70
     6
  9
$SURFTAB2
 70
     6
  9
$SURFTYPE
 70
     6
  9
$SURFU
 70
     6
  9
$SURFV
 70
     6
  9
$UCSBASE
  2

  9
$UCSNAME
  2

  9
$UCSORG
 10
0.0
 20
0.0
 30
0.0
  9
$UCSXDIR
 10
1.0
 20
0.0
 30
0.0
  9
$UCSYDIR
 10
0.0
 20
1.0
 30
0.0
  9
$UCSORTHOREF
  2

  9
$UCSORTHOVIEW
 70
     0
  9
$UCSORGTOP
 10
0.0
 20
0.0
 30
0.0
  9
$UCSORGBOTTOM
 10
0.0
 20
0.0
 30
0.0
  9
$UCSORGLEFT
 10
0.0
 20
0.0
 30
0.0
  9
$UCSORGRIGHT
 10
0.0
 20
0.0
 30
0.0
  9
$UCSORGFRONT
 10
0.0
 20
0.0
 30
0.0
  9
$UCSORGBACK
 10
0.0
 20
0.0
 30
0.0
  9
$PUCSBASE
  2

  9
$PUCSNAME
  2

  9
$PUCSORG
 10
0.0
 20
0.0
 30
0.0
  9
$PUCSXDIR
 10
1.0
 20
0.0
 30
0.0
  9
$PUCSYDIR
 10
0.0
 20
1.0
 30
0.0
  9
$PUCSORTHOREF
  2

  9
$PUCSORTHOVIEW
 70
     0
  9
$PUCSORGTOP
 10
0.0
 20
0.0
 30
0.0
  9
$PUCSORGBOTTOM
 10
0.0
 20
0.0
 30
0.0
  9
$PUCSORGLEFT
 10
0.0
 20
0.0
 30
0.0
  9
$PUCSORGRIGHT
 10
0.0
 20
0.0
 30
0.0
  9
$PUCSORGFRONT
 10
0.0
 20
0.0
 30
0.0
  9
$PUCSORGBACK
 10
0.0
 20
0.0
 30
0.0
  9
$USERI1
 70
     0
  9
$USERI2
 70
     0
  9
$USERI3
 70
     0
  9
$USERI4
 70
     0
  9
$USERI5
 70
     0
  9
$USERR1
 40
0.0
  9
$USERR2
 40
0.0
  9
$USERR3
 40
0.0
  9
$USERR4
 40
0.0
  9
$USERR5
 40
0.0
  9
$WORLDVIEW
 70
     1
  9
$SHADEDGE
 70
     3
  9
$SHADEDIF
 70
    70
  9
$TILEMODE
 70
     1
  9
$MAXACTVP
 70
    64
  9
$PINSBASE
 10
0.0
 20
0.0
 30
0.0
  9
$PLIMCHECK
 70
     0
  9
$PEXTMIN
 10
1.000000000000E+20
 20
1.000000000000E+20
 30
1.000000000000E+20
  9
$PEXTMAX
 10
-1.000000000000E+20
 20
-1.000000000000E+20
 30
-1.000000000000E+20
  9
$PLIMMIN
 10
0.0
 20
0.0
  9
$PLIMMAX
 10
420.0
 20
297.0
  9
$UNITMODE
 70
     0
  9
$VISRETAIN
 70
     1
  9
$PLINEGEN
 70
     0
  9
$PSLTSCALE
 70
     1
  9
$TREEDEPTH
 70
  3020
  9
$CMLSTYLE
  2
Standard
  9
$CMLJUST
 70
     0
  9
$CMLSCALE
 40
20.0
  9
$PROXYGRAPHICS
 70
     1
  9
$MEASUREMENT
 70
     1
  9
$CELWEIGHT
370
    -1
  9
$ENDCAPS
280
     0
  9
$JOINSTYLE
280
     0
  9
$LWDISPLAY
290
     0
  9
$INSUNITS
 70
     4
  9
$HYPERLINKBASE
  1

  9
$STYLESHEET
  1

  9
$XEDIT
290
     1
  9
$CEPSNTYPE
380
     0
  9
$PSTYLEMODE
290
     1
  9
$FINGERPRINTGUID
  2
{B0DA3C00-351C-4D93-8F05-5514D2BCA446}
  9
$VERSIONGUID
  2
{FAEB1C32-E019-11D5-929B-00C0DF256EC4}
  9
$EXTNAMES
290
     1
  9
$PSVPSCALE
 40
0.0
  9
$OLESTARTUP
290
     0
  9
$SORTENTS
280
   127
  9
$INDEXCTL
280
     0
  9
$HIDETEXT
280
     1
  9
$XCLIPFRAME
290
     0
  9
$HALOGAP
280
     0
  9
$OBSCOLOR
 70
   257
  9
$OBSLTYPE
280
     0
  9
$INTERSECTIONDISPLAY
280
     0
  9
$INTERSECTIONCOLOR
 70
   257
  9
$DIMASSOC
280
     2
  9
$PROJECTNAME
  1

  0
ENDSEC
  0
SECTION
  2
CLASSES
  0
CLASS
  1
ACDBDICTIONARYWDFLT
  2
AcDbDictionaryWithDefault
  3
ObjectDBX Classes
 90
        0
 91
        4
280
     0
281
     0
  0
CLASS
  1
VISUALSTYLE
  2
AcDbVisualStyle
  3
ObjectDBX Classes
 90
     4095
 91
        4
280
     0
281
     0
  0
CLASS
  1
MATERIAL
  2
AcDbMaterial
  3
ObjectDBX Classes
 90
     1153
 91
        4
280
     0
281
     0
  0
CLASS
  1
WIPEOUTVARIABLES
  2
AcDbWipeoutVariables
  3
WipeOut|AutoCAD Express Tool|expresstools@autodesk.com
 90
        0
 91
        4
280
     0
281
     0
  0
CLASS
  1
WIPEOUT
  2
AcDbWipeout
  3
WipeOut|AutoCAD Express Tool|expresstools@autodesk.com
 90
      127
 91
        4
280
     0
281
     1
  0
ENDSEC
  0
SECTION
  2
TABLES
  0
TABLE
  2
VPORT
  5
8
330
0
100
AcDbSymbolTable
 70
     1
  0
VPORT
  5
29
330
8
100
AcDbSymbolTableRecord
100
AcDbViewportTableRecord
  2
*Active
 70
     0
 10
0.0
 20
0.0
 11
1.0
 21
1.0
 12
529.934350221668
 22
76.39335483871
 13
0.0
 23
0.0
 14
10.0
 24
10.0
 15
10.0
 25
10.0
 16
0.0
 26
0.0
 36
1.0
 17
0.0
 27
0.0
 37
0.0
 40
153.549
 41
2.75950753736
 42
50.0
 43
0.0
 44
0.0
 50
0.0
 51
0.0
 71
     0
 72
   100
 73
     1
 74
     3
 75
     0
 76
     0
 77
     0
 78
     0
281
     0
 65
     1
110
0.0
120
0.0
130
0.0
111
1.0
121
0.0
131
0.0
112
0.0
122
1.0
132
0.0
 79
     0
146
0.0
  0
ENDTAB
  0
TABLE
  2
LTYPE
  5
5
330
0
100
AcDbSymbolTable
 70
     4
  0
LTYPE
  5
14
330
5
100
AcDbSymbolTableRecord
100
AcDbLinetypeTableRecord
  2
ByBlock
 70
     0
  3

 72
    65
 73
     0
 40
0.0
  0
LTYPE
  5
15
330
5
100
AcDbSymbolTableRecord
100
AcDbLinetypeTableRecord
  2
ByLayer
 70
     0
  3

 72
    65
 73
     0
 40
0.0
  0
LTYPE
  5
16
330
5
100
AcDbSymbolTableRecord
100
AcDbLinetypeTableRecord
  2
Continuous
 70
     0
  3
Solid line
 72
    65
 73
     0
 40
0.0
  0
LTYPE
  5
40
330
5
100
AcDbSymbolTableRecord
100
AcDbLinetypeTableRecord
  2
AUSGEZOGEN
 70
     0
  3

 72
    65
 73
     0
 40
0.0
  0
LTYPE
  5
43
330
5
100
AcDbSymbolTableRecord
100
AcDbLinetypeTableRecord
  2
DASHDOT
 70
     0
  3

 72
    65
 73
     4
 40
1.0
 49
0.5
 74
     0
 49
-0.25
 74
     0
 49
0.0
 74
     0
 49
-0.25
 74
     0
  0
LTYPE
  5
44
330
5
100
AcDbSymbolTableRecord
100
AcDbLinetypeTableRecord
  2
DASHED
 70
     0
  3

 72
    65
 73
     2
 40
0.75
 49
0.5
 74
     0
 49
-0.25
 74
     0
  0
ENDTAB
  0
TABLE
  2
LAYER
  5
2
330
0
100
AcDbSymbolTable
 70
   257
  0
LAYER
  5
10
330
2
100
AcDbSymbolTableRecord
100
AcDbLayerTableRecord
  2
0
 70
     0
 62
     7
  6
Continuous
370
    -3
390
F
  0
LAYER
  5
46
330
2
100
AcDbSymbolTableRecord
100
AcDbLayerTableRecord
  2
Layer0
 70
     0
 62
     7
  6
Continuous
370
    -3
390
F
  0
LAYER
  5
47
330
2
100
AcDbSymbolTableRecord
100
AcDbLayerTableRecord
  2
Stammform
 70
     0
 62
     7
  6
Continuous
370
    -3
390
F
  0
LAYER
  5
48
330
2
100
AcDbSymbolTableRecord
100
AcDbLayerTableRecord
  2
Formteil
 70
     0
 62
     7
  6
Continuous
370
    -3
390
F
  0
LAYER
  5
49
330
2
100
AcDbSymbolTableRecord
100
AcDbLayerTableRecord
  2
Kühlsystem
 70
     0
 62
     7
  6
Continuous
370
    -3
390
F
  0
LAYER
  5
4A
330
2
100
AcDbSymbolTableRecord
100
AcDbLayerTableRecord
  2
Auswerfsystem
 70
     0
 62
     7
  6
Continuous
370
    -3
390
F
  0
LAYER
  5
4B
330
2
100
AcDbSymbolTableRecord
100
AcDbLayerTableRecord
  2
Text
 70
     0
 62
     7
  6
Continuous
370
    -3
390
F
  0
LAYER
  5
4C
330
2
100
AcDbSymbolTableRecord
100
AcDbLayerTableRecord
  2
Schraffur
 70
     0
 62
     7
  6
Continuous
370
    -3
390
F
  0
LAYER
  5
4D
330
2
100
AcDbSymbolTableRecord
100
AcDbLayerTableRecord
  2
Bemaßung
 70
     0
 62
     7
  6
Continuous
370
    -3
390
F
  0
LAYER
  5
4E
330
2
100
AcDbSymbolTableRecord
100
AcDbLayerTableRecord
  2
Heißkanal
 70
     0
 62
     7
  6
Continuous
370
    -3
390
F
  0
LAYER
  5
4F
330
2
100
AcDbSymbolTableRecord
100
AcDbLayerTableRecord
  2
Layer9
 70
     0
 62
     7
  6
Continuous
370
    -3
390
F
  0
LAYER
  5
50
330
2
100
AcDbSymbolTableRecord
100
AcDbLayerTableRecord
  2
Hilsgeometrie
 70
     0
 62
     7
  6
Continuous
370
    -3
390
F
  0
LAYER
  5
51
330
2
100
AcDbSymbolTableRecord
100
AcDbLayerTableRecord
  2
Layer11
 70
     0
 62
     7
  6
Continuous
370
    -3
390
F
  0
LAYER
  5
52
330
2
100
AcDbSymbolTableRecord
100
AcDbLayerTableRecord
  2
Layer12
 70
     0
 62
     7
  6
Continuous
370
    -3
390
F
  0
LAYER
  5
53
330
2
100
AcDbSymbolTableRecord
100
AcDbLayerTableRecord
  2
Layer13
 70
     0
 62
     7
  6
Continuous
370
    -3
390
F
  0
LAYER
  5
54
330
2
100
AcDbSymbolTableRecord
100
AcDbLayerTableRecord
  2
Layer14
 70
     0
 62
     7
  6
Continuous
370
    -3
390
F
  0
LAYER
  5
55
330
2
100
AcDbSymbolTableRecord
100
AcDbLayerTableRecord
  2
Layer15
 70
     0
 62
     7
  6
Continuous
370
    -3
390
F
  0
LAYER
  5
56
330
2
100
AcDbSymbolTableRecord
100
AcDbLayerTableRecord
  2
Layer16
 70
     0
 62
     7
  6
Continuous
370
    -3
390
F
  0
LAYER
  5
57
330
2
100
AcDbSymbolTableRecord
100
AcDbLayerTableRecord
  2
Layer17
 70
     0
 62
     7
  6
Continuous
370
    -3
390
F
  0
LAYER
  5
58
330
2
100
AcDbSymbolTableRecord
100
AcDbLayerTableRecord
  2
Layer18
 70
     0
 62
     7
  6
Continuous
370
    -3
390
F
  0
LAYER
  5
59
330
2
100
AcDbSymbolTableRecord
100
AcDbLayerTableRecord
  2
Layer19
 70
     0
 62
     7
  6
Continuous
370
    -3
390
F
  0
LAYER
  5
5A
330
2
100
AcDbSymbolTableRecord
100
AcDbLayerTableRecord
  2
Layer20
 70
     0
 62
     7
  6
Continuous
370
    -3
390
F
  0
LAYER
  5
5B
330
2
100
AcDbSymbolTableRecord
100
AcDbLayerTableRecord
  2
Layer21
 70
     0
 62
     7
  6
Continuous
370
    -3
390
F
  0
LAYER
  5
5C
330
2
100
AcDbSymbolTableRecord
100
AcDbLayerTableRecord
  2
Layer22
 70
     0
 62
     7
  6
Continuous
370
    -3
390
F
  0
LAYER
  5
5D
330
2
100
AcDbSymbolTableRecord
100
AcDbLayerTableRecord
  2
Layer23
 70
     0
 62
     7
  6
Continuous
370
    -3
390
F
  0
LAYER
  5
5E
330
2
100
AcDbSymbolTableRecord
100
AcDbLayerTableRecord
  2
Layer24
 70
     0
 62
     7
  6
Continuous
370
    -3
390
F
  0
LAYER
  5
5F
330
2
100
AcDbSymbolTableRecord
100
AcDbLayerTableRecord
  2
Layer25
 70
     0
 62
     7
  6
Continuous
370
    -3
390
F
  0
LAYER
  5
60
330
2
100
AcDbSymbolTableRecord
100
AcDbLayerTableRecord
  2
Layer26
 70
     0
 62
     7
  6
Continuous
370
    -3
390
F
  0
LAYER
  5
61
330
2
100
AcDbSymbolTableRecord
100
AcDbLayerTableRecord
  2
Layer27
 70
     0
 62
     7
  6
Continuous
370
    -3
390
F
  0
LAYER
  5
62
330
2
100
AcDbSymbolTableRecord
100
AcDbLayerTableRecord
  2
Layer28
 70
     0
 62
     7
  6
Continuous
370
    -3
390
F
  0
LAYER
  5
63
330
2
100
AcDbSymbolTableRecord
100
AcDbLayerTableRecord
  2
Layer29
 70
     0
 62
     7
  6
Continuous
370
    -3
390
F
  0
LAYER
  5
64
330
2
100
AcDbSymbolTableRecord
100
AcDbLayerTableRecord
  2
Layer30
 70
     0
 62
     7
  6
Continuous
370
    -3
390
F
  0
LAYER
  5
65
330
2
100
AcDbSymbolTableRecord
100
AcDbLayerTableRecord
  2
Layer31
 70
     0
 62
     7
  6
Continuous
370
    -3
390
F
  0
LAYER
  5
66
330
2
100
AcDbSymbolTableRecord
100
AcDbLayerTableRecord
  2
Layer32
 70
     0
 62
     7
  6
Continuous
370
    -3
390
F
  0
LAYER
  5
67
330
2
100
AcDbSymbolTableRecord
100
AcDbLayerTableRecord
  2
Layer33
 70
     0
 62
     7
  6
Continuous
370
    -3
390
F
  0
LAYER
  5
68
330
2
100
AcDbSymbolTableRecord
100
AcDbLayerTableRecord
  2
Layer34
 70
     0
 62
     7
  6
Continuous
370
    -3
390
F
  0
LAYER
  5
69
330
2
100
AcDbSymbolTableRecord
100
AcDbLayerTableRecord
  2
Layer35
 70
     0
 62
     7
  6
Continuous
370
    -3
390
F
  0
LAYER
  5
6A
330
2
100
AcDbSymbolTableRecord
100
AcDbLayerTableRecord
  2
Layer36
 70
     0
 62
     7
  6
Continuous
370
    -3
390
F
  0
LAYER
  5
6B
330
2
100
AcDbSymbolTableRecord
100
AcDbLayerTableRecord
  2
Layer37
 70
     0
 62
     7
  6
Continuous
370
    -3
390
F
  0
LAYER
  5
6C
330
2
100
AcDbSymbolTableRecord
100
AcDbLayerTableRecord
  2
Layer38
 70
     0
 62
     7
  6
Continuous
370
    -3
390
F
  0
LAYER
  5
6D
330
2
100
AcDbSymbolTableRecord
100
AcDbLayerTableRecord
  2
Layer39
 70
     0
 62
     7
  6
Continuous
370
    -3
390
F
  0
LAYER
  5
6E
330
2
100
AcDbSymbolTableRecord
100
AcDbLayerTableRecord
  2
Layer40
 70
     0
 62
     7
  6
Continuous
370
    -3
390
F
  0
LAYER
  5
6F
330
2
100
AcDbSymbolTableRecord
100
AcDbLayerTableRecord
  2
Layer41
 70
     0
 62
     7
  6
Continuous
370
    -3
390
F
  0
LAYER
  5
70
330
2
100
AcDbSymbolTableRecord
100
AcDbLayerTableRecord
  2
Layer42
 70
     0
 62
     7
  6
Continuous
370
    -3
390
F
  0
LAYER
  5
71
330
2
100
AcDbSymbolTableRecord
100
AcDbLayerTableRecord
  2
Layer43
 70
     0
 62
     7
  6
Continuous
370
    -3
390
F
  0
LAYER
  5
72
330
2
100
AcDbSymbolTableRecord
100
AcDbLayerTableRecord
  2
Layer44
 70
     0
 62
     7
  6
Continuous
370
    -3
390
F
  0
LAYER
  5
73
330
2
100
AcDbSymbolTableRecord
100
AcDbLayerTableRecord
  2
Layer45
 70
     0
 62
     7
  6
Continuous
370
    -3
390
F
  0
LAYER
  5
74
330
2
100
AcDbSymbolTableRecord
100
AcDbLayerTableRecord
  2
Layer46
 70
     0
 62
     7
  6
Continuous
370
    -3
390
F
  0
LAYER
  5
75
330
2
100
AcDbSymbolTableRecord
100
AcDbLayerTableRecord
  2
Layer47
 70
     0
 62
     7
  6
Continuous
370
    -3
390
F
  0
LAYER
  5
76
330
2
100
AcDbSymbolTableRecord
100
AcDbLayerTableRecord
  2
Layer48
 70
     0
 62
     7
  6
Continuous
370
    -3
390
F
  0
LAYER
  5
77
330
2
100
AcDbSymbolTableRecord
100
AcDbLayerTableRecord
  2
Layer49
 70
     0
 62
     7
  6
Continuous
370
    -3
390
F
  0
LAYER
  5
78
330
2
100
AcDbSymbolTableRecord
100
AcDbLayerTableRecord
  2
Layer50
 70
     0
 62
     7
  6
Continuous
370
    -3
390
F
  0
LAYER
  5
79
330
2
100
AcDbSymbolTableRecord
100
AcDbLayerTableRecord
  2
Layer51
 70
     0
 62
     7
  6
Continuous
370
    -3
390
F
  0
LAYER
  5
7A
330
2
100
AcDbSymbolTableRecord
100
AcDbLayerTableRecord
  2
Layer52
 70
     0
 62
     7
  6
Continuous
370
    -3
390
F
  0
LAYER
  5
7B
330
2
100
AcDbSymbolTableRecord
100
AcDbLayerTableRecord
  2
Layer53
 70
     0
 62
     7
  6
Continuous
370
    -3
390
F
  0
LAYER
  5
7C
330
2
100
AcDbSymbolTableRecord
100
AcDbLayerTableRecord
  2
Layer54
 70
     0
 62
     7
  6
Continuous
370
    -3
390
F
  0
LAYER
  5
7D
330
2
100
AcDbSymbolTableRecord
100
AcDbLayerTableRecord
  2
Layer55
 70
     0
 62
     7
  6
Continuous
370
    -3
390
F
  0
LAYER
  5
7E
330
2
100
AcDbSymbolTableRecord
100
AcDbLayerTableRecord
  2
Layer56
 70
     0
 62
     7
  6
Continuous
370
    -3
390
F
  0
LAYER
  5
7F
330
2
100
AcDbSymbolTableRecord
100
AcDbLayerTableRecord
  2
Layer57
 70
     0
 62
     7
  6
Continuous
370
    -3
390
F
  0
LAYER
  5
80
330
2
100
AcDbSymbolTableRecord
100
AcDbLayerTableRecord
  2
Layer58
 70
     0
 62
     7
  6
Continuous
370
    -3
390
F
  0
LAYER
  5
81
330
2
100
AcDbSymbolTableRecord
100
AcDbLayerTableRecord
  2
Layer59
 70
     0
 62
     7
  6
Continuous
370
    -3
390
F
  0
LAYER
  5
82
330
2
100
AcDbSymbolTableRecord
100
AcDbLayerTableRecord
  2
Layer60
 70
     0
 62
     7
  6
Continuous
370
    -3
390
F
  0
LAYER
  5
83
330
2
100
AcDbSymbolTableRecord
100
AcDbLayerTableRecord
  2
Layer61
 70
     0
 62
     7
  6
Continuous
370
    -3
390
F
  0
LAYER
  5
84
330
2
100
AcDbSymbolTableRecord
100
AcDbLayerTableRecord
  2
Layer62
 70
     0
 62
     7
  6
Continuous
370
    -3
390
F
  0
LAYER
  5
85
330
2
100
AcDbSymbolTableRecord
100
AcDbLayerTableRecord
  2
Layer63
 70
     0
 62
     7
  6
Continuous
370
    -3
390
F
  0
LAYER
  5
86
330
2
100
AcDbSymbolTableRecord
100
AcDbLayerTableRecord
  2
Layer64
 70
     0
 62
     7
  6
Continuous
370
    -3
390
F
  0
LAYER
  5
87
330
2
100
AcDbSymbolTableRecord
100
AcDbLayerTableRecord
  2
Layer65
 70
     0
 62
     7
  6
Continuous
370
    -3
390
F
  0
LAYER
  5
88
330
2
100
AcDbSymbolTableRecord
100
AcDbLayerTableRecord
  2
Layer66
 70
     0
 62
     7
  6
Continuous
370
    -3
390
F
  0
LAYER
  5
89
330
2
100
AcDbSymbolTableRecord
100
AcDbLayerTableRecord
  2
Layer67
 70
     0
 62
     7
  6
Continuous
370
    -3
390
F
  0
LAYER
  5
8A
330
2
100
AcDbSymbolTableRecord
100
AcDbLayerTableRecord
  2
Layer68
 70
     0
 62
     7
  6
Continuous
370
    -3
390
F
  0
LAYER
  5
8B
330
2
100
AcDbSymbolTableRecord
100
AcDbLayerTableRecord
  2
Layer69
 70
     0
 62
     7
  6
Continuous
370
    -3
390
F
  0
LAYER
  5
8C
330
2
100
AcDbSymbolTableRecord
100
AcDbLayerTableRecord
  2
Layer70
 70
     0
 62
     7
  6
Continuous
370
    -3
390
F
  0
LAYER
  5
8D
330
2
100
AcDbSymbolTableRecord
100
AcDbLayerTableRecord
  2
Layer71
 70
     0
 62
     7
  6
Continuous
370
    -3
390
F
  0
LAYER
  5
8E
330
2
100
AcDbSymbolTableRecord
100
AcDbLayerTableRecord
  2
Layer72
 70
     0
 62
     7
  6
Continuous
370
    -3
390
F
  0
LAYER
  5
8F
330
2
100
AcDbSymbolTableRecord
100
AcDbLayerTableRecord
  2
Layer73
 70
     0
 62
     7
  6
Continuous
370
    -3
390
F
  0
LAYER
  5
90
330
2
100
AcDbSymbolTableRecord
100
AcDbLayerTableRecord
  2
Layer74
 70
     0
 62
     7
  6
Continuous
370
    -3
390
F
  0
LAYER
  5
91
330
2
100
AcDbSymbolTableRecord
100
AcDbLayerTableRecord
  2
Layer75
 70
     0
 62
     7
  6
Continuous
370
    -3
390
F
  0
LAYER
  5
92
330
2
100
AcDbSymbolTableRecord
100
AcDbLayerTableRecord
  2
Layer76
 70
     0
 62
     7
  6
Continuous
370
    -3
390
F
  0
LAYER
  5
93
330
2
100
AcDbSymbolTableRecord
100
AcDbLayerTableRecord
  2
Layer77
 70
     0
 62
     7
  6
Continuous
370
    -3
390
F
  0
LAYER
  5
94
330
2
100
AcDbSymbolTableRecord
100
AcDbLayerTableRecord
  2
Layer78
 70
     0
 62
     7
  6
Continuous
370
    -3
390
F
  0
LAYER
  5
95
330
2
100
AcDbSymbolTableRecord
100
AcDbLayerTableRecord
  2
Layer79
 70
     0
 62
     7
  6
Continuous
370
    -3
390
F
  0
LAYER
  5
96
330
2
100
AcDbSymbolTableRecord
100
AcDbLayerTableRecord
  2
Layer80
 70
     0
 62
     7
  6
Continuous
370
    -3
390
F
  0
LAYER
  5
97
330
2
100
AcDbSymbolTableRecord
100
AcDbLayerTableRecord
  2
Layer81
 70
     0
 62
     7
  6
Continuous
370
    -3
390
F
  0
LAYER
  5
98
330
2
100
AcDbSymbolTableRecord
100
AcDbLayerTableRecord
  2
Layer82
 70
     0
 62
     7
  6
Continuous
370
    -3
390
F
  0
LAYER
  5
99
330
2
100
AcDbSymbolTableRecord
100
AcDbLayerTableRecord
  2
Layer83
 70
     0
 62
     7
  6
Continuous
370
    -3
390
F
  0
LAYER
  5
9A
330
2
100
AcDbSymbolTableRecord
100
AcDbLayerTableRecord
  2
Layer84
 70
     0
 62
     7
  6
Continuous
370
    -3
390
F
  0
LAYER
  5
9B
330
2
100
AcDbSymbolTableRecord
100
AcDbLayerTableRecord
  2
Layer85
 70
     0
 62
     7
  6
Continuous
370
    -3
390
F
  0
LAYER
  5
9C
330
2
100
AcDbSymbolTableRecord
100
AcDbLayerTableRecord
  2
Layer86
 70
     0
 62
     7
  6
Continuous
370
    -3
390
F
  0
LAYER
  5
9D
330
2
100
AcDbSymbolTableRecord
100
AcDbLayerTableRecord
  2
Layer87
 70
     0
 62
     7
  6
Continuous
370
    -3
390
F
  0
LAYER
  5
9E
330
2
100
AcDbSymbolTableRecord
100
AcDbLayerTableRecord
  2
Layer88
 70
     0
 62
     7
  6
Continuous
370
    -3
390
F
  0
LAYER
  5
9F
330
2
100
AcDbSymbolTableRecord
100
AcDbLayerTableRecord
  2
Layer89
 70
     0
 62
     7
  6
Continuous
370
    -3
390
F
  0
LAYER
  5
A0
330
2
100
AcDbSymbolTableRecord
100
AcDbLayerTableRecord
  2
Layer90
 70
     0
 62
     7
  6
Continuous
370
    -3
390
F
  0
LAYER
  5
A1
330
2
100
AcDbSymbolTableRecord
100
AcDbLayerTableRecord
  2
Layer91
 70
     0
 62
     7
  6
Continuous
370
    -3
390
F
  0
LAYER
  5
A2
330
2
100
AcDbSymbolTableRecord
100
AcDbLayerTableRecord
  2
Layer92
 70
     0
 62
     7
  6
Continuous
370
    -3
390
F
  0
LAYER
  5
A3
330
2
100
AcDbSymbolTableRecord
100
AcDbLayerTableRecord
  2
Layer93
 70
     0
 62
     7
  6
Continuous
370
    -3
390
F
  0
LAYER
  5
A4
330
2
100
AcDbSymbolTableRecord
100
AcDbLayerTableRecord
  2
Layer94
 70
     0
 62
     7
  6
Continuous
370
    -3
390
F
  0
LAYER
  5
A5
330
2
100
AcDbSymbolTableRecord
100
AcDbLayerTableRecord
  2
Layer95
 70
     0
 62
     7
  6
Continuous
370
    -3
390
F
  0
LAYER
  5
A6
330
2
100
AcDbSymbolTableRecord
100
AcDbLayerTableRecord
  2
Layer96
 70
     0
 62
     7
  6
Continuous
370
    -3
390
F
  0
LAYER
  5
A7
330
2
100
AcDbSymbolTableRecord
100
AcDbLayerTableRecord
  2
Layer97
 70
     0
 62
     7
  6
Continuous
370
    -3
390
F
  0
LAYER
  5
A8
330
2
100
AcDbSymbolTableRecord
100
AcDbLayerTableRecord
  2
Layer98
 70
     0
 62
     7
  6
Continuous
370
    -3
390
F
  0
LAYER
  5
A9
330
2
100
AcDbSymbolTableRecord
100
AcDbLayerTableRecord
  2
Layer99
 70
     0
 62
     7
  6
Continuous
370
    -3
390
F
  0
LAYER
  5
AA
330
2
100
AcDbSymbolTableRecord
100
AcDbLayerTableRecord
  2
Layer100
 70
     0
 62
     7
  6
Continuous
370
    -3
390
F
  0
LAYER
  5
AB
330
2
100
AcDbSymbolTableRecord
100
AcDbLayerTableRecord
  2
Layer101
 70
     0
 62
     7
  6
Continuous
370
    -3
390
F
  0
LAYER
  5
AC
330
2
100
AcDbSymbolTableRecord
100
AcDbLayerTableRecord
  2
Layer102
 70
     0
 62
     7
  6
Continuous
370
    -3
390
F
  0
LAYER
  5
AD
330
2
100
AcDbSymbolTableRecord
100
AcDbLayerTableRecord
  2
Layer103
 70
     0
 62
     7
  6
Continuous
370
    -3
390
F
  0
LAYER
  5
AE
330
2
100
AcDbSymbolTableRecord
100
AcDbLayerTableRecord
  2
Layer104
 70
     0
 62
     7
  6
Continuous
370
    -3
390
F
  0
LAYER
  5
AF
330
2
100
AcDbSymbolTableRecord
100
AcDbLayerTableRecord
  2
Layer105
 70
     0
 62
     7
  6
Continuous
370
    -3
390
F
  0
LAYER
  5
B0
330
2
100
AcDbSymbolTableRecord
100
AcDbLayerTableRecord
  2
Layer106
 70
     0
 62
     7
  6
Continuous
370
    -3
390
F
  0
LAYER
  5
B1
330
2
100
AcDbSymbolTableRecord
100
AcDbLayerTableRecord
  2
Layer107
 70
     0
 62
     7
  6
Continuous
370
    -3
390
F
  0
LAYER
  5
B2
330
2
100
AcDbSymbolTableRecord
100
AcDbLayerTableRecord
  2
Layer108
 70
     0
 62
     7
  6
Continuous
370
    -3
390
F
  0
LAYER
  5
B3
330
2
100
AcDbSymbolTableRecord
100
AcDbLayerTableRecord
  2
Layer109
 70
     0
 62
     7
  6
Continuous
370
    -3
390
F
  0
LAYER
  5
B4
330
2
100
AcDbSymbolTableRecord
100
AcDbLayerTableRecord
  2
Layer110
 70
     0
 62
     7
  6
Continuous
370
    -3
390
F
  0
LAYER
  5
B5
330
2
100
AcDbSymbolTableRecord
100
AcDbLayerTableRecord
  2
Layer111
 70
     0
 62
     7
  6
Continuous
370
    -3
390
F
  0
LAYER
  5
B6
330
2
100
AcDbSymbolTableRecord
100
AcDbLayerTableRecord
  2
Layer112
 70
     0
 62
     7
  6
Continuous
370
    -3
390
F
  0
LAYER
  5
B7
330
2
100
AcDbSymbolTableRecord
100
AcDbLayerTableRecord
  2
Layer113
 70
     0
 62
     7
  6
Continuous
370
    -3
390
F
  0
LAYER
  5
B8
330
2
100
AcDbSymbolTableRecord
100
AcDbLayerTableRecord
  2
Layer114
 70
     0
 62
     7
  6
Continuous
370
    -3
390
F
  0
LAYER
  5
B9
330
2
100
AcDbSymbolTableRecord
100
AcDbLayerTableRecord
  2
Layer115
 70
     0
 62
     7
  6
Continuous
370
    -3
390
F
  0
LAYER
  5
BA
330
2
100
AcDbSymbolTableRecord
100
AcDbLayerTableRecord
  2
Layer116
 70
     0
 62
     7
  6
Continuous
370
    -3
390
F
  0
LAYER
  5
BB
330
2
100
AcDbSymbolTableRecord
100
AcDbLayerTableRecord
  2
Layer117
 70
     0
 62
     7
  6
Continuous
370
    -3
390
F
  0
LAYER
  5
BC
330
2
100
AcDbSymbolTableRecord
100
AcDbLayerTableRecord
  2
Layer118
 70
     0
 62
     7
  6
Continuous
370
    -3
390
F
  0
LAYER
  5
BD
330
2
100
AcDbSymbolTableRecord
100
AcDbLayerTableRecord
  2
Layer119
 70
     0
 62
     7
  6
Continuous
370
    -3
390
F
  0
LAYER
  5
BE
330
2
100
AcDbSymbolTableRecord
100
AcDbLayerTableRecord
  2
Layer120
 70
     0
 62
     7
  6
Continuous
370
    -3
390
F
  0
LAYER
  5
BF
330
2
100
AcDbSymbolTableRecord
100
AcDbLayerTableRecord
  2
Layer121
 70
     0
 62
     7
  6
Continuous
370
    -3
390
F
  0
LAYER
  5
C0
330
2
100
AcDbSymbolTableRecord
100
AcDbLayerTableRecord
  2
Layer122
 70
     0
 62
     7
  6
Continuous
370
    -3
390
F
  0
LAYER
  5
C1
330
2
100
AcDbSymbolTableRecord
100
AcDbLayerTableRecord
  2
Layer123
 70
     0
 62
     7
  6
Continuous
370
    -3
390
F
  0
LAYER
  5
C2
330
2
100
AcDbSymbolTableRecord
100
AcDbLayerTableRecord
  2
Layer124
 70
     0
 62
     7
  6
Continuous
370
    -3
390
F
  0
LAYER
  5
C3
330
2
100
AcDbSymbolTableRecord
100
AcDbLayerTableRecord
  2
Layer125
 70
     0
 62
     7
  6
Continuous
370
    -3
390
F
  0
LAYER
  5
C4
330
2
100
AcDbSymbolTableRecord
100
AcDbLayerTableRecord
  2
Layer126
 70
     0
 62
     7
  6
Continuous
370
    -3
390
F
  0
LAYER
  5
C5
330
2
100
AcDbSymbolTableRecord
100
AcDbLayerTableRecord
  2
Layer127
 70
     0
 62
     7
  6
Continuous
370
    -3
390
F
  0
LAYER
  5
C6
330
2
100
AcDbSymbolTableRecord
100
AcDbLayerTableRecord
  2
Layer128
 70
     0
 62
     7
  6
Continuous
370
    -3
390
F
  0
LAYER
  5
C7
330
2
100
AcDbSymbolTableRecord
100
AcDbLayerTableRecord
  2
Layer129
 70
     0
 62
     7
  6
Continuous
370
    -3
390
F
  0
LAYER
  5
C8
330
2
100
AcDbSymbolTableRecord
100
AcDbLayerTableRecord
  2
Layer130
 70
     0
 62
     7
  6
Continuous
370
    -3
390
F
  0
LAYER
  5
C9
330
2
100
AcDbSymbolTableRecord
100
AcDbLayerTableRecord
  2
Layer131
 70
     0
 62
     7
  6
Continuous
370
    -3
390
F
  0
LAYER
  5
CA
330
2
100
AcDbSymbolTableRecord
100
AcDbLayerTableRecord
  2
Layer132
 70
     0
 62
     7
  6
Continuous
370
    -3
390
F
  0
LAYER
  5
CB
330
2
100
AcDbSymbolTableRecord
100
AcDbLayerTableRecord
  2
Layer133
 70
     0
 62
     7
  6
Continuous
370
    -3
390
F
  0
LAYER
  5
CC
330
2
100
AcDbSymbolTableRecord
100
AcDbLayerTableRecord
  2
Layer134
 70
     0
 62
     7
  6
Continuous
370
    -3
390
F
  0
LAYER
  5
CD
330
2
100
AcDbSymbolTableRecord
100
AcDbLayerTableRecord
  2
Layer135
 70
     0
 62
     7
  6
Continuous
370
    -3
390
F
  0
LAYER
  5
CE
330
2
100
AcDbSymbolTableRecord
100
AcDbLayerTableRecord
  2
Layer136
 70
     0
 62
     7
  6
Continuous
370
    -3
390
F
  0
LAYER
  5
CF
330
2
100
AcDbSymbolTableRecord
100
AcDbLayerTableRecord
  2
Layer137
 70
     0
 62
     7
  6
Continuous
370
    -3
390
F
  0
LAYER
  5
D0
330
2
100
AcDbSymbolTableRecord
100
AcDbLayerTableRecord
  2
Layer138
 70
     0
 62
     7
  6
Continuous
370
    -3
390
F
  0
LAYER
  5
D1
330
2
100
AcDbSymbolTableRecord
100
AcDbLayerTableRecord
  2
Layer139
 70
     0
 62
     7
  6
Continuous
370
    -3
390
F
  0
LAYER
  5
D2
330
2
100
AcDbSymbolTableRecord
100
AcDbLayerTableRecord
  2
Layer140
 70
     0
 62
     7
  6
Continuous
370
    -3
390
F
  0
LAYER
  5
D3
330
2
100
AcDbSymbolTableRecord
100
AcDbLayerTableRecord
  2
Layer141
 70
     0
 62
     7
  6
Continuous
370
    -3
390
F
  0
LAYER
  5
D4
330
2
100
AcDbSymbolTableRecord
100
AcDbLayerTableRecord
  2
Layer142
 70
     0
 62
     7
  6
Continuous
370
    -3
390
F
  0
LAYER
  5
D5
330
2
100
AcDbSymbolTableRecord
100
AcDbLayerTableRecord
  2
Layer143
 70
     0
 62
     7
  6
Continuous
370
    -3
390
F
  0
LAYER
  5
D6
330
2
100
AcDbSymbolTableRecord
100
AcDbLayerTableRecord
  2
Layer144
 70
     0
 62
     7
  6
Continuous
370
    -3
390
F
  0
LAYER
  5
D7
330
2
100
AcDbSymbolTableRecord
100
AcDbLayerTableRecord
  2
Layer145
 70
     0
 62
     7
  6
Continuous
370
    -3
390
F
  0
LAYER
  5
D8
330
2
100
AcDbSymbolTableRecord
100
AcDbLayerTableRecord
  2
Layer146
 70
     0
 62
     7
  6
Continuous
370
    -3
390
F
  0
LAYER
  5
D9
330
2
100
AcDbSymbolTableRecord
100
AcDbLayerTableRecord
  2
Layer147
 70
     0
 62
     7
  6
Continuous
370
    -3
390
F
  0
LAYER
  5
DA
330
2
100
AcDbSymbolTableRecord
100
AcDbLayerTableRecord
  2
Layer148
 70
     0
 62
     7
  6
Continuous
370
    -3
390
F
  0
LAYER
  5
DB
330
2
100
AcDbSymbolTableRecord
100
AcDbLayerTableRecord
  2
Layer149
 70
     0
 62
     7
  6
Continuous
370
    -3
390
F
  0
LAYER
  5
DC
330
2
100
AcDbSymbolTableRecord
100
AcDbLayerTableRecord
  2
Layer150
 70
     0
 62
     7
  6
Continuous
370
    -3
390
F
  0
LAYER
  5
DD
330
2
100
AcDbSymbolTableRecord
100
AcDbLayerTableRecord
  2
Layer151
 70
     0
 62
     7
  6
Continuous
370
    -3
390
F
  0
LAYER
  5
DE
330
2
100
AcDbSymbolTableRecord
100
AcDbLayerTableRecord
  2
Layer152
 70
     0
 62
     7
  6
Continuous
370
    -3
390
F
  0
LAYER
  5
DF
330
2
100
AcDbSymbolTableRecord
100
AcDbLayerTableRecord
  2
Layer153
 70
     0
 62
     7
  6
Continuous
370
    -3
390
F
  0
LAYER
  5
E0
330
2
100
AcDbSymbolTableRecord
100
AcDbLayerTableRecord
  2
Layer154
 70
     0
 62
     7
  6
Continuous
370
    -3
390
F
  0
LAYER
  5
E1
330
2
100
AcDbSymbolTableRecord
100
AcDbLayerTableRecord
  2
Layer155
 70
     0
 62
     7
  6
Continuous
370
    -3
390
F
  0
LAYER
  5
E2
330
2
100
AcDbSymbolTableRecord
100
AcDbLayerTableRecord
  2
Layer156
 70
     0
 62
     7
  6
Continuous
370
    -3
390
F
  0
LAYER
  5
E3
330
2
100
AcDbSymbolTableRecord
100
AcDbLayerTableRecord
  2
Layer157
 70
     0
 62
     7
  6
Continuous
370
    -3
390
F
  0
LAYER
  5
E4
330
2
100
AcDbSymbolTableRecord
100
AcDbLayerTableRecord
  2
Layer158
 70
     0
 62
     7
  6
Continuous
370
    -3
390
F
  0
LAYER
  5
E5
330
2
100
AcDbSymbolTableRecord
100
AcDbLayerTableRecord
  2
Layer159
 70
     0
 62
     7
  6
Continuous
370
    -3
390
F
  0
LAYER
  5
E6
330
2
100
AcDbSymbolTableRecord
100
AcDbLayerTableRecord
  2
Layer160
 70
     0
 62
     7
  6
Continuous
370
    -3
390
F
  0
LAYER
  5
E7
330
2
100
AcDbSymbolTableRecord
100
AcDbLayerTableRecord
  2
Layer161
 70
     0
 62
     7
  6
Continuous
370
    -3
390
F
  0
LAYER
  5
E8
330
2
100
AcDbSymbolTableRecord
100
AcDbLayerTableRecord
  2
Layer162
 70
     0
 62
     7
  6
Continuous
370
    -3
390
F
  0
LAYER
  5
E9
330
2
100
AcDbSymbolTableRecord
100
AcDbLayerTableRecord
  2
Layer163
 70
     0
 62
     7
  6
Continuous
370
    -3
390
F
  0
LAYER
  5
EA
330
2
100
AcDbSymbolTableRecord
100
AcDbLayerTableRecord
  2
Layer164
 70
     0
 62
     7
  6
Continuous
370
    -3
390
F
  0
LAYER
  5
EB
330
2
100
AcDbSymbolTableRecord
100
AcDbLayerTableRecord
  2
Layer165
 70
     0
 62
     7
  6
Continuous
370
    -3
390
F
  0
LAYER
  5
EC
330
2
100
AcDbSymbolTableRecord
100
AcDbLayerTableRecord
  2
Layer166
 70
     0
 62
     7
  6
Continuous
370
    -3
390
F
  0
LAYER
  5
ED
330
2
100
AcDbSymbolTableRecord
100
AcDbLayerTableRecord
  2
Layer167
 70
     0
 62
     7
  6
Continuous
370
    -3
390
F
  0
LAYER
  5
EE
330
2
100
AcDbSymbolTableRecord
100
AcDbLayerTableRecord
  2
Layer168
 70
     0
 62
     7
  6
Continuous
370
    -3
390
F
  0
LAYER
  5
EF
330
2
100
AcDbSymbolTableRecord
100
AcDbLayerTableRecord
  2
Layer169
 70
     0
 62
     7
  6
Continuous
370
    -3
390
F
  0
LAYER
  5
F0
330
2
100
AcDbSymbolTableRecord
100
AcDbLayerTableRecord
  2
Layer170
 70
     0
 62
     7
  6
Continuous
370
    -3
390
F
  0
LAYER
  5
F1
330
2
100
AcDbSymbolTableRecord
100
AcDbLayerTableRecord
  2
Layer171
 70
     0
 62
     7
  6
Continuous
370
    -3
390
F
  0
LAYER
  5
F2
330
2
100
AcDbSymbolTableRecord
100
AcDbLayerTableRecord
  2
Layer172
 70
     0
 62
     7
  6
Continuous
370
    -3
390
F
  0
LAYER
  5
F3
330
2
100
AcDbSymbolTableRecord
100
AcDbLayerTableRecord
  2
Layer173
 70
     0
 62
     7
  6
Continuous
370
    -3
390
F
  0
LAYER
  5
F4
330
2
100
AcDbSymbolTableRecord
100
AcDbLayerTableRecord
  2
Layer174
 70
     0
 62
     7
  6
Continuous
370
    -3
390
F
  0
LAYER
  5
F5
330
2
100
AcDbSymbolTableRecord
100
AcDbLayerTableRecord
  2
Layer175
 70
     0
 62
     7
  6
Continuous
370
    -3
390
F
  0
LAYER
  5
F6
330
2
100
AcDbSymbolTableRecord
100
AcDbLayerTableRecord
  2
Layer176
 70
     0
 62
     7
  6
Continuous
370
    -3
390
F
  0
LAYER
  5
F7
330
2
100
AcDbSymbolTableRecord
100
AcDbLayerTableRecord
  2
Layer177
 70
     0
 62
     7
  6
Continuous
370
    -3
390
F
  0
LAYER
  5
F8
330
2
100
AcDbSymbolTableRecord
100
AcDbLayerTableRecord
  2
Layer178
 70
     0
 62
     7
  6
Continuous
370
    -3
390
F
  0
LAYER
  5
F9
330
2
100
AcDbSymbolTableRecord
100
AcDbLayerTableRecord
  2
Layer179
 70
     0
 62
     7
  6
Continuous
370
    -3
390
F
  0
LAYER
  5
FA
330
2
100
AcDbSymbolTableRecord
100
AcDbLayerTableRecord
  2
Layer180
 70
     0
 62
     7
  6
Continuous
370
    -3
390
F
  0
LAYER
  5
FB
330
2
100
AcDbSymbolTableRecord
100
AcDbLayerTableRecord
  2
Layer181
 70
     0
 62
     7
  6
Continuous
370
    -3
390
F
  0
LAYER
  5
FC
330
2
100
AcDbSymbolTableRecord
100
AcDbLayerTableRecord
  2
Layer182
 70
     0
 62
     7
  6
Continuous
370
    -3
390
F
  0
LAYER
  5
FD
330
2
100
AcDbSymbolTableRecord
100
AcDbLayerTableRecord
  2
Layer183
 70
     0
 62
     7
  6
Continuous
370
    -3
390
F
  0
LAYER
  5
FE
330
2
100
AcDbSymbolTableRecord
100
AcDbLayerTableRecord
  2
Layer184
 70
     0
 62
     7
  6
Continuous
370
    -3
390
F
  0
LAYER
  5
FF
330
2
100
AcDbSymbolTableRecord
100
AcDbLayerTableRecord
  2
Layer185
 70
     0
 62
     7
  6
Continuous
370
    -3
390
F
  0
LAYER
  5
100
330
2
100
AcDbSymbolTableRecord
100
AcDbLayerTableRecord
  2
Layer186
 70
     0
 62
     7
  6
Continuous
370
    -3
390
F
  0
LAYER
  5
101
330
2
100
AcDbSymbolTableRecord
100
AcDbLayerTableRecord
  2
Layer187
 70
     0
 62
     7
  6
Continuous
370
    -3
390
F
  0
LAYER
  5
102
330
2
100
AcDbSymbolTableRecord
100
AcDbLayerTableRecord
  2
Layer188
 70
     0
 62
     7
  6
Continuous
370
    -3
390
F
  0
LAYER
  5
103
330
2
100
AcDbSymbolTableRecord
100
AcDbLayerTableRecord
  2
Layer189
 70
     0
 62
     7
  6
Continuous
370
    -3
390
F
  0
LAYER
  5
104
330
2
100
AcDbSymbolTableRecord
100
AcDbLayerTableRecord
  2
Layer190
 70
     0
 62
     7
  6
Continuous
370
    -3
390
F
  0
LAYER
  5
105
330
2
100
AcDbSymbolTableRecord
100
AcDbLayerTableRecord
  2
Layer191
 70
     0
 62
     7
  6
Continuous
370
    -3
390
F
  0
LAYER
  5
106
330
2
100
AcDbSymbolTableRecord
100
AcDbLayerTableRecord
  2
Layer192
 70
     0
 62
     7
  6
Continuous
370
    -3
390
F
  0
LAYER
  5
107
330
2
100
AcDbSymbolTableRecord
100
AcDbLayerTableRecord
  2
Layer193
 70
     0
 62
     7
  6
Continuous
370
    -3
390
F
  0
LAYER
  5
108
330
2
100
AcDbSymbolTableRecord
100
AcDbLayerTableRecord
  2
Layer194
 70
     0
 62
     7
  6
Continuous
370
    -3
390
F
  0
LAYER
  5
109
330
2
100
AcDbSymbolTableRecord
100
AcDbLayerTableRecord
  2
Layer195
 70
     0
 62
     7
  6
Continuous
370
    -3
390
F
  0
LAYER
  5
10A
330
2
100
AcDbSymbolTableRecord
100
AcDbLayerTableRecord
  2
Layer196
 70
     0
 62
     7
  6
Continuous
370
    -3
390
F
  0
LAYER
  5
10B
330
2
100
AcDbSymbolTableRecord
100
AcDbLayerTableRecord
  2
Layer197
 70
     0
 62
     7
  6
Continuous
370
    -3
390
F
  0
LAYER
  5
10C
330
2
100
AcDbSymbolTableRecord
100
AcDbLayerTableRecord
  2
Layer198
 70
     0
 62
     7
  6
Continuous
370
    -3
390
F
  0
LAYER
  5
10D
330
2
100
AcDbSymbolTableRecord
100
AcDbLayerTableRecord
  2
Layer199
 70
     0
 62
     7
  6
Continuous
370
    -3
390
F
  0
LAYER
  5
10E
330
2
100
AcDbSymbolTableRecord
100
AcDbLayerTableRecord
  2
Layer200
 70
     0
 62
     7
  6
Continuous
370
    -3
390
F
  0
LAYER
  5
10F
330
2
100
AcDbSymbolTableRecord
100
AcDbLayerTableRecord
  2
Layer201
 70
     0
 62
     7
  6
Continuous
370
    -3
390
F
  0
LAYER
  5
110
330
2
100
AcDbSymbolTableRecord
100
AcDbLayerTableRecord
  2
Layer202
 70
     0
 62
     7
  6
Continuous
370
    -3
390
F
  0
LAYER
  5
111
330
2
100
AcDbSymbolTableRecord
100
AcDbLayerTableRecord
  2
Layer203
 70
     0
 62
     7
  6
Continuous
370
    -3
390
F
  0
LAYER
  5
112
330
2
100
AcDbSymbolTableRecord
100
AcDbLayerTableRecord
  2
Layer204
 70
     0
 62
     7
  6
Continuous
370
    -3
390
F
  0
LAYER
  5
113
330
2
100
AcDbSymbolTableRecord
100
AcDbLayerTableRecord
  2
Layer205
 70
     0
 62
     7
  6
Continuous
370
    -3
390
F
  0
LAYER
  5
114
330
2
100
AcDbSymbolTableRecord
100
AcDbLayerTableRecord
  2
Layer206
 70
     0
 62
     7
  6
Continuous
370
    -3
390
F
  0
LAYER
  5
115
330
2
100
AcDbSymbolTableRecord
100
AcDbLayerTableRecord
  2
Layer207
 70
     0
 62
     7
  6
Continuous
370
    -3
390
F
  0
LAYER
  5
116
330
2
100
AcDbSymbolTableRecord
100
AcDbLayerTableRecord
  2
Layer208
 70
     0
 62
     7
  6
Continuous
370
    -3
390
F
  0
LAYER
  5
117
330
2
100
AcDbSymbolTableRecord
100
AcDbLayerTableRecord
  2
Layer209
 70
     0
 62
     7
  6
Continuous
370
    -3
390
F
  0
LAYER
  5
118
330
2
100
AcDbSymbolTableRecord
100
AcDbLayerTableRecord
  2
Layer210
 70
     0
 62
     7
  6
Continuous
370
    -3
390
F
  0
LAYER
  5
119
330
2
100
AcDbSymbolTableRecord
100
AcDbLayerTableRecord
  2
Layer211
 70
     0
 62
     7
  6
Continuous
370
    -3
390
F
  0
LAYER
  5
11A
330
2
100
AcDbSymbolTableRecord
100
AcDbLayerTableRecord
  2
Layer212
 70
     0
 62
     7
  6
Continuous
370
    -3
390
F
  0
LAYER
  5
11B
330
2
100
AcDbSymbolTableRecord
100
AcDbLayerTableRecord
  2
Layer213
 70
     0
 62
     7
  6
Continuous
370
    -3
390
F
  0
LAYER
  5
11C
330
2
100
AcDbSymbolTableRecord
100
AcDbLayerTableRecord
  2
Layer214
 70
     0
 62
     7
  6
Continuous
370
    -3
390
F
  0
LAYER
  5
11D
330
2
100
AcDbSymbolTableRecord
100
AcDbLayerTableRecord
  2
Layer215
 70
     0
 62
     7
  6
Continuous
370
    -3
390
F
  0
LAYER
  5
11E
330
2
100
AcDbSymbolTableRecord
100
AcDbLayerTableRecord
  2
Layer216
 70
     0
 62
     7
  6
Continuous
370
    -3
390
F
  0
LAYER
  5
11F
330
2
100
AcDbSymbolTableRecord
100
AcDbLayerTableRecord
  2
Layer217
 70
     0
 62
     7
  6
Continuous
370
    -3
390
F
  0
LAYER
  5
120
330
2
100
AcDbSymbolTableRecord
100
AcDbLayerTableRecord
  2
Layer218
 70
     0
 62
     7
  6
Continuous
370
    -3
390
F
  0
LAYER
  5
121
330
2
100
AcDbSymbolTableRecord
100
AcDbLayerTableRecord
  2
Layer219
 70
     0
 62
     7
  6
Continuous
370
    -3
390
F
  0
LAYER
  5
122
330
2
100
AcDbSymbolTableRecord
100
AcDbLayerTableRecord
  2
Layer220
 70
     0
 62
     7
  6
Continuous
370
    -3
390
F
  0
LAYER
  5
123
330
2
100
AcDbSymbolTableRecord
100
AcDbLayerTableRecord
  2
Layer221
 70
     0
 62
     7
  6
Continuous
370
    -3
390
F
  0
LAYER
  5
124
330
2
100
AcDbSymbolTableRecord
100
AcDbLayerTableRecord
  2
Layer222
 70
     0
 62
     7
  6
Continuous
370
    -3
390
F
  0
LAYER
  5
125
330
2
100
AcDbSymbolTableRecord
100
AcDbLayerTableRecord
  2
Layer223
 70
     0
 62
     7
  6
Continuous
370
    -3
390
F
  0
LAYER
  5
126
330
2
100
AcDbSymbolTableRecord
100
AcDbLayerTableRecord
  2
Layer224
 70
     0
 62
     7
  6
Continuous
370
    -3
390
F
  0
LAYER
  5
127
330
2
100
AcDbSymbolTableRecord
100
AcDbLayerTableRecord
  2
Layer225
 70
     0
 62
     7
  6
Continuous
370
    -3
390
F
  0
LAYER
  5
128
330
2
100
AcDbSymbolTableRecord
100
AcDbLayerTableRecord
  2
Layer226
 70
     0
 62
     7
  6
Continuous
370
    -3
390
F
  0
LAYER
  5
129
330
2
100
AcDbSymbolTableRecord
100
AcDbLayerTableRecord
  2
Layer227
 70
     0
 62
     7
  6
Continuous
370
    -3
390
F
  0
LAYER
  5
12A
330
2
100
AcDbSymbolTableRecord
100
AcDbLayerTableRecord
  2
Layer228
 70
     0
 62
     7
  6
Continuous
370
    -3
390
F
  0
LAYER
  5
12B
330
2
100
AcDbSymbolTableRecord
100
AcDbLayerTableRecord
  2
Layer229
 70
     0
 62
     7
  6
Continuous
370
    -3
390
F
  0
LAYER
  5
12C
330
2
100
AcDbSymbolTableRecord
100
AcDbLayerTableRecord
  2
Layer230
 70
     0
 62
     7
  6
Continuous
370
    -3
390
F
  0
LAYER
  5
12D
330
2
100
AcDbSymbolTableRecord
100
AcDbLayerTableRecord
  2
Layer231
 70
     0
 62
     7
  6
Continuous
370
    -3
390
F
  0
LAYER
  5
12E
330
2
100
AcDbSymbolTableRecord
100
AcDbLayerTableRecord
  2
Layer232
 70
     0
 62
     7
  6
Continuous
370
    -3
390
F
  0
LAYER
  5
12F
330
2
100
AcDbSymbolTableRecord
100
AcDbLayerTableRecord
  2
Layer233
 70
     0
 62
     7
  6
Continuous
370
    -3
390
F
  0
LAYER
  5
130
330
2
100
AcDbSymbolTableRecord
100
AcDbLayerTableRecord
  2
Layer234
 70
     0
 62
     7
  6
Continuous
370
    -3
390
F
  0
LAYER
  5
131
330
2
100
AcDbSymbolTableRecord
100
AcDbLayerTableRecord
  2
Layer235
 70
     0
 62
     7
  6
Continuous
370
    -3
390
F
  0
LAYER
  5
132
330
2
100
AcDbSymbolTableRecord
100
AcDbLayerTableRecord
  2
Layer236
 70
     0
 62
     7
  6
Continuous
370
    -3
390
F
  0
LAYER
  5
133
330
2
100
AcDbSymbolTableRecord
100
AcDbLayerTableRecord
  2
Layer237
 70
     0
 62
     7
  6
Continuous
370
    -3
390
F
  0
LAYER
  5
134
330
2
100
AcDbSymbolTableRecord
100
AcDbLayerTableRecord
  2
Layer238
 70
     0
 62
     7
  6
Continuous
370
    -3
390
F
  0
LAYER
  5
135
330
2
100
AcDbSymbolTableRecord
100
AcDbLayerTableRecord
  2
Layer239
 70
     0
 62
     7
  6
Continuous
370
    -3
390
F
  0
LAYER
  5
136
330
2
100
AcDbSymbolTableRecord
100
AcDbLayerTableRecord
  2
Layer240
 70
     0
 62
     7
  6
Continuous
370
    -3
390
F
  0
LAYER
  5
137
330
2
100
AcDbSymbolTableRecord
100
AcDbLayerTableRecord
  2
Layer241
 70
     0
 62
     7
  6
Continuous
370
    -3
390
F
  0
LAYER
  5
138
330
2
100
AcDbSymbolTableRecord
100
AcDbLayerTableRecord
  2
Layer242
 70
     0
 62
     7
  6
Continuous
370
    -3
390
F
  0
LAYER
  5
139
330
2
100
AcDbSymbolTableRecord
100
AcDbLayerTableRecord
  2
Layer243
 70
     0
 62
     7
  6
Continuous
370
    -3
390
F
  0
LAYER
  5
13A
330
2
100
AcDbSymbolTableRecord
100
AcDbLayerTableRecord
  2
Layer244
 70
     0
 62
     7
  6
Continuous
370
    -3
390
F
  0
LAYER
  5
13B
330
2
100
AcDbSymbolTableRecord
100
AcDbLayerTableRecord
  2
Layer245
 70
     0
 62
     7
  6
Continuous
370
    -3
390
F
  0
LAYER
  5
13C
330
2
100
AcDbSymbolTableRecord
100
AcDbLayerTableRecord
  2
Layer246
 70
     0
 62
     7
  6
Continuous
370
    -3
390
F
  0
LAYER
  5
13D
330
2
100
AcDbSymbolTableRecord
100
AcDbLayerTableRecord
  2
Layer247
 70
     0
 62
     7
  6
Continuous
370
    -3
390
F
  0
LAYER
  5
13E
330
2
100
AcDbSymbolTableRecord
100
AcDbLayerTableRecord
  2
Layer248
 70
     0
 62
     7
  6
Continuous
370
    -3
390
F
  0
LAYER
  5
13F
330
2
100
AcDbSymbolTableRecord
100
AcDbLayerTableRecord
  2
Layer249
 70
     0
 62
     7
  6
Continuous
370
    -3
390
F
  0
LAYER
  5
140
330
2
100
AcDbSymbolTableRecord
100
AcDbLayerTableRecord
  2
Layer250
 70
     0
 62
     7
  6
Continuous
370
    -3
390
F
  0
LAYER
  5
141
330
2
100
AcDbSymbolTableRecord
100
AcDbLayerTableRecord
  2
Layer251
 70
     0
 62
     7
  6
Continuous
370
    -3
390
F
  0
LAYER
  5
142
330
2
100
AcDbSymbolTableRecord
100
AcDbLayerTableRecord
  2
Layer252
 70
     0
 62
     7
  6
Continuous
370
    -3
390
F
  0
LAYER
  5
143
330
2
100
AcDbSymbolTableRecord
100
AcDbLayerTableRecord
  2
Layer253
 70
     0
 62
     7
  6
Continuous
370
    -3
390
F
  0
LAYER
  5
144
330
2
100
AcDbSymbolTableRecord
100
AcDbLayerTableRecord
  2
Layer254
 70
     0
 62
     7
  6
Continuous
370
    -3
390
F
  0
LAYER
  5
145
330
2
100
AcDbSymbolTableRecord
100
AcDbLayerTableRecord
  2
Layer255
 70
     0
 62
     7
  6
Continuous
370
    -3
390
F
  0
ENDTAB
  0
TABLE
  2
STYLE
  5
3
330
0
100
AcDbSymbolTable
 70
     4
  0
STYLE
  5
11
330
3
100
AcDbSymbolTableRecord
100
AcDbTextStyleTableRecord
  2
Standard
 70
     0
 40
0.0
 41
1.0
 50
0.0
 71
     0
 42
2.5
  3
txt
  4

  0
STYLE
  5
41
330
3
100
AcDbSymbolTableRecord
100
AcDbTextStyleTableRecord
  2
Arial
 70
     0
 40
0.0
 41
1.0
 50
0.0
 71
     0
 42
0.2
  3
arial.ttf
  4

1001
ACAD
1000
Arial
1071
       34
  0
STYLE
  5
42
330
3
100
AcDbSymbolTableRecord
100
AcDbTextStyleTableRecord
  2
Arial Black
 70
     0
 40
0.0
 41
1.0
 50
0.0
 71
     0
 42
0.2
  3
ariblk.ttf
  4

1001
ACAD
1000
Arial Black
1071
       34
  0
STYLE
  5
45
330
3
100
AcDbSymbolTableRecord
100
AcDbTextStyleTableRecord
  2
Toleranzfont
 70
     0
 40
0.0
 41
1.0
 50
0.0
 71
     0
 42
0.2
  3
IGES1003.SHX
  4

  0
ENDTAB
  0
TABLE
  2
VIEW
  5
6
330
0
100
AcDbSymbolTable
 70
     0
  0
ENDTAB
  0
TABLE
  2
UCS
  5
7
330
0
100
AcDbSymbolTable
 70
     0
  0
ENDTAB
  0
TABLE
  2
APPID
  5
9
330
0
100
AcDbSymbolTable
 70
     1
  0
APPID
  5
12
330
9
100
AcDbSymbolTableRecord
100
AcDbRegAppTableRecord
  2
ACAD
 70
     0
  0
ENDTAB
  0
TABLE
  2
DIMSTYLE
  5
A
330
0
100
AcDbSymbolTable
 70
     1
100
AcDbDimStyleTable
  0
DIMSTYLE
105
27
102
{ACAD_REACTORS
330
1D7
330
1F1
330
3C8
330
3DB
330
3EC
330
3FB
330
40B
330
41A
330
437
330
449
102
}
330
A
100
AcDbSymbolTableRecord
100
AcDbDimStyleTableRecord
  2
ISO-25
 70
     0
 41
2.5
 42
0.625
 43
3.75
 44
1.25
 73
     0
 74
     0
 77
     1
 78
     8
140
2.5
141
2.5
143
0.03937007874
147
0.625
171
     3
172
     1
178
     0
271
     2
272
     2
274
     3
278
    44
283
     0
284
     8
340
11
  0
ENDTAB
  0
TABLE
  2
BLOCK_RECORD
  5
1
330
0
100
AcDbSymbolTable
 70
    18
  0
BLOCK_RECORD
  5
1F
330
1
100
AcDbSymbolTableRecord
100
AcDbBlockTableRecord
  2
*Model_Space
340
22
  0
BLOCK_RECORD
  5
1B
330
1
100
AcDbSymbolTableRecord
100
AcDbBlockTableRecord
  2
*Paper_Space
340
1E
  0
BLOCK_RECORD
  5
23
330
1
100
AcDbSymbolTableRecord
100
AcDbBlockTableRecord
  2
*Paper_Space0
340
26
  0
BLOCK_RECORD
  5
146
330
1
100
AcDbSymbolTableRecord
100
AcDbBlockTableRecord
  2
L1_nNn00
340
0
102
{BLKREFS
331
1A0
102
}
  0
BLOCK_RECORD
  5
152
330
1
100
AcDbSymbolTableRecord
100
AcDbBlockTableRecord
  2
Schriftfeld_nNn01
340
0
102
{BLKREFS
331
19D
102
}
  0
BLOCK_RECORD
  5
17E
330
1
100
AcDbSymbolTableRecord
100
AcDbBlockTableRecord
  2
ULTRAREFLEX_nNn02
340
0
102
{BLKREFS
331
196
102
}
  0
BLOCK_RECORD
  5
1A1
330
1
100
AcDbSymbolTableRecord
100
AcDbBlockTableRecord
  2
Reflexwerte_nNn03
340
0
102
{BLKREFS
331
1A5
102
}
  0
BLOCK_RECORD
  5
1A6
330
1
100
AcDbSymbolTableRecord
100
AcDbBlockTableRecord
  2
QS_nNn04
340
0
102
{BLKREFS
331
1AC
102
}
  0
BLOCK_RECORD
  5
1C4
330
1
100
AcDbSymbolTableRecord
100
AcDbBlockTableRecord
  2
L1_nNn05
340
0
102
{BLKREFS
331
3B3
102
}
  0
BLOCK_RECORD
  5
1C7
330
1
100
AcDbSymbolTableRecord
100
AcDbBlockTableRecord
  2
*D7
340
0
  0
BLOCK_RECORD
  5
1D8
330
1
100
AcDbSymbolTableRecord
100
AcDbBlockTableRecord
  2
_CLOSED
340
0
  0
BLOCK_RECORD
  5
1DF
330
1
100
AcDbSymbolTableRecord
100
AcDbBlockTableRecord
  2
*D9
340
0
  0
BLOCK_RECORD
  5
3B6
330
1
100
AcDbSymbolTableRecord
100
AcDbBlockTableRecord
  2
*D10
340
0
  0
BLOCK_RECORD
  5
3C9
330
1
100
AcDbSymbolTableRecord
100
AcDbBlockTableRecord
  2
*D11
340
0
  0
BLOCK_RECORD
  5
3DC
330
1
100
AcDbSymbolTableRecord
100
AcDbBlockTableRecord
  2
*D12
340
0
  0
BLOCK_RECORD
  5
3ED
330
1
100
AcDbSymbolTableRecord
100
AcDbBlockTableRecord
  2
*D13
340
0
  0
BLOCK_RECORD
  5
3FC
330
1
100
AcDbSymbolTableRecord
100
AcDbBlockTableRecord
  2
*D14
340
0
  0
BLOCK_RECORD
  5
40C
330
1
100
AcDbSymbolTableRecord
100
AcDbBlockTableRecord
  2
*D15
340
0
  0
BLOCK_RECORD
  5
426
330
1
100
AcDbSymbolTableRecord
100
AcDbBlockTableRecord
  2
*D16
340
0
  0
BLOCK_RECORD
  5
438
330
1
100
AcDbSymbolTableRecord
100
AcDbBlockTableRecord
  2
*D17
340
0
  0
ENDTAB
  0
ENDSEC
  0
SECTION
  2
BLOCKS
  0
BLOCK
  5
20
330
1F
100
AcDbEntity
  8
0
100
AcDbBlockBegin
  2
*Model_Space
 70
     0
 10
0.0
 20
0.0
 30
0.0
  3
*Model_Space
  1

  0
ENDBLK
  5
21
330
1F
100
AcDbEntity
  8
0
100
AcDbBlockEnd
  0
BLOCK
  5
1C
330
1B
100
AcDbEntity
 67
     1
  8
0
100
AcDbBlockBegin
  2
*Paper_Space
 70
     0
 10
0.0
 20
0.0
 30
0.0
  3
*Paper_Space
  1

  0
ENDBLK
  5
1D
330
1B
100
AcDbEntity
 67
     1
  8
0
100
AcDbBlockEnd
  0
BLOCK
  5
24
330
23
100
AcDbEntity
  8
0
100
AcDbBlockBegin
  2
*Paper_Space0
 70
     0
 10
0.0
 20
0.0
 30
0.0
  3
*Paper_Space0
  1

  0
ENDBLK
  5
25
330
23
100
AcDbEntity
  8
0
100
AcDbBlockEnd
  0
BLOCK
  5
147
330
146
100
AcDbEntity
  8
0
100
AcDbBlockBegin
  2
L1_nNn00
 70
     0
 10
0.0
 20
0.0
 30
0.0
  3
L1_nNn00
  1

  0
LINE
  5
149
330
146
100
AcDbEntity
  8
Layer0
  6
AUSGEZOGEN
 62
     9
370
    18
100
AcDbLine
 10
482.934350221668
 20
8.94835483871
 30
0.0
 11
482.934350221668
 21
143.83835483871
 31
0.0
  0
LINE
  5
14A
330
146
100
AcDbEntity
  8
Layer0
  6
AUSGEZOGEN
 62
    56
370
    18
100
AcDbLine
 10
480.584350221668
 20
6.59835483871
 30
0.0
 11
480.584350221668
 21
146.18835483871
 31
0.0
  0
LINE
  5
14B
330
146
100
AcDbEntity
  8
Layer0
  6
AUSGEZOGEN
 62
     9
370
    18
100
AcDbLine
 10
482.934350221668
 20
143.83835483871
 30
0.0
 11
576.934350221668
 21
143.83835483871
 31
0.0
  0
LINE
  5
14C
330
146
100
AcDbEntity
  8
Layer0
  6
AUSGEZOGEN
 62
    56
370
    18
100
AcDbLine
 10
480.584350221668
 20
146.18835483871
 30
0.0
 11
579.284350221668
 21
146.18835483871
 31
0.0
  0
LINE
  5
14D
330
146
100
AcDbEntity
  8
Layer99
  6
AUSGEZOGEN
 62
     9
370
    18
100
AcDbLine
 10
576.934350221668
 20
8.94835483871
 30
0.0
 11
576.934350221668
 21
143.83835483871
 31
0.0
  0
LINE
  5
14E
330
146
100
AcDbEntity
  8
Layer0
  6
AUSGEZOGEN
 62
    56
370
    18
100
AcDbLine
 10
579.284350221668
 20
6.59835483871
 30
0.0
 11
579.284350221668
 21
146.18835483871
 31
0.0
  0
TEXT
  5
14F
330
146
100
AcDbEntity
  8
Layer99
  6
AUSGEZOGEN
 62
    56
370
    18
100
AcDbText
 10
574.292378786121
 20
11.674878009181
 30
0.0
 40
1.175
  1
Bl.
 41
1.229150265254
  7
Arial
 72
     5
 11
576.645064580087
 21
11.674878009181
 31
0.0
100
AcDbText
  0
LINE
  5
150
330
146
100
AcDbEntity
  8
Layer99
  6
AUSGEZOGEN
 62
     9
370
    18
100
AcDbLine
 10
482.934350221668
 20
8.94835483871
 30
0.0
 11
576.934350221668
 21
8.94835483871
 31
0.0
  0
LINE
  5
151
330
146
100
AcDbEntity
  8
Layer0
  6
AUSGEZOGEN
 62
    56
370
    18
100
AcDbLine
 10
480.584350221668
 20
6.59835483871
 30
0.0
 11
579.284350221668
 21
6.59835483871
 31
0.0
  0
INSERT
  5
19D
330
146
100
AcDbEntity
  8
0
100
AcDbBlockReference
  2
Schriftfeld_nNn01
 10
0.0
 20
0.0
 30
0.0
  0
TEXT
  5
19E
330
146
100
AcDbEntity
  8
Layer50
  6
AUSGEZOGEN
 62
     9
370
    18
100
AcDbText
 10
537.703770092616
 20
22.108527522086
 30
0.0
 40
2.35
  1
Reflektor 35x35 LHE
 41
1.259734251425
  7
Arial
 72
     5
 11
575.827485663781
 21
22.108527522086
 31
0.0
100
AcDbText
  0
TEXT
  5
19F
330
146
100
AcDbEntity
  8
Layer50
  6
AUSGEZOGEN
 62
     9
370
    18
100
AcDbText
 10
545.113785093848
 20
13.118707030151
 30
0.0
 40
2.35
  1
14184501k
 41
1.218898721598
  7
Arial
 72
     5
 11
564.895414336536
 21
13.118707030151
 31
0.0
100
AcDbText
  0
ENDBLK
  5
148
330
146
100
AcDbEntity
  8
0
100
AcDbBlockEnd
  0
BLOCK
  5
153
330
152
100
AcDbEntity
  8
0
100
AcDbBlockBegin
  2
Schriftfeld_nNn01
 70
     0
 10
0.0
 20
0.0
 30
0.0
  3
Schriftfeld_nNn01
  1

  0
LINE
  5
155
330
152
100
AcDbEntity
  8
Layer99
  6
AUSGEZOGEN
 62
    56
370
    18
100
AcDbLine
 10
520.534350221668
 20
26.92585483871
 30
0.0
 11
520.534350221668
 21
18.93585483871
 31
0.0
  0
LINE
  5
156
330
152
100
AcDbEntity
  8
Layer99
  6
AUSGEZOGEN
 62
    56
370
    18
100
AcDbLine
 10
493.650373170887
 20
26.92585483871
 30
0.0
 11
493.650373170887
 21
8.94835483871
 31
0.0
  0
LINE
  5
157
330
152
100
AcDbEntity
  8
Layer99
  6
AUSGEZOGEN
 62
     9
370
    18
100
AcDbLine
 10
570.824350221668
 20
16.93835483871
 30
0.0
 11
570.824350221668
 21
11.227855914454
 31
0.0
  0
LINE
  5
158
330
152
100
AcDbEntity
  8
Layer99
  6
AUSGEZOGEN
 62
    56
370
    18
100
AcDbLine
 10
515.646338747059
 20
10.94585483871
 30
0.0
 11
489.984350221668
 21
10.94585483871
 31
0.0
  0
LINE
  5
159
330
152
100
AcDbEntity
  8
Layer99
  6
AUSGEZOGEN
 62
    56
370
    18
100
AcDbLine
 10
515.646338747059
 20
12.94335483871
 30
0.0
 11
489.984350221668
 21
12.94335483871
 31
0.0
  0
LINE
  5
15A
330
152
100
AcDbEntity
  8
Layer99
  6
AUSGEZOGEN
 62
    56
370
    18
100
AcDbLine
 10
515.646338747059
 20
14.94085483871
 30
0.0
 11
489.984350221668
 21
14.94085483871
 31
0.0
  0
LINE
  5
15B
330
152
100
AcDbEntity
  8
Layer99
  6
AUSGEZOGEN
 62
    56
370
    18
100
AcDbLine
 10
515.646338747059
 20
16.93835483871
 30
0.0
 11
489.984350221668
 21
16.93835483871
 31
0.0
  0
LINE
  5
15C
330
152
100
AcDbEntity
  8
Layer99
  6
AUSGEZOGEN
 62
     9
370
    18
100
AcDbLine
 10
576.934350221668
 20
16.93835483871
 30
0.0
 11
515.646338747059
 21
16.93835483871
 31
0.0
  0
LINE
  5
15D
330
152
100
AcDbEntity
  8
Layer99
  6
AUSGEZOGEN
 62
    56
370
    18
100
AcDbLine
 10
536.420373170887
 20
18.93585483871
 30
0.0
 11
489.984350221668
 21
18.93585483871
 31
0.0
  0
LINE
  5
15E
330
152
100
AcDbEntity
  8
Layer99
  6
AUSGEZOGEN
 62
    56
370
    18
100
AcDbLine
 10
536.420373170887
 20
20.93335483871
 30
0.0
 11
489.984350221668
 21
20.93335483871
 31
0.0
  0
LINE
  5
15F
330
152
100
AcDbEntity
  8
Layer99
  6
AUSGEZOGEN
 62
    56
370
    18
100
AcDbLine
 10
536.420373170887
 20
22.93085483871
 30
0.0
 11
489.984350221668
 21
22.93085483871
 31
0.0
  0
LINE
  5
160
330
152
100
AcDbEntity
  8
Layer99
  6
AUSGEZOGEN
 62
    56
370
    18
100
AcDbLine
 10
536.420373170887
 20
24.92835483871
 30
0.0
 11
489.984350221668
 21
24.92835483871
 31
0.0
  0
LINE
  5
161
330
152
100
AcDbEntity
  8
Layer99
  6
AUSGEZOGEN
 62
     9
370
    18
100
AcDbLine
 10
576.934350221668
 20
26.92585483871
 30
0.0
 11
489.984350221668
 21
26.92585483871
 31
0.0
  0
LINE
  5
162
330
152
100
AcDbEntity
  8
Layer99
  6
AUSGEZOGEN
 62
    56
370
    18
100
AcDbLine
 10
515.646338747059
 20
31.91960483871
 30
0.0
 11
489.984350221668
 21
31.91960483871
 31
0.0
  0
LINE
  5
163
330
152
100
AcDbEntity
  8
Layer99
  6
AUSGEZOGEN
 62
    56
370
    18
100
AcDbLine
 10
576.934350221668
 20
31.91960483871
 30
0.0
 11
536.420373170887
 21
31.91960483871
 31
0.0
  0
LINE
  5
164
330
152
100
AcDbEntity
  8
Layer99
  6
AUSGEZOGEN
 62
    56
370
    18
100
AcDbLine
 10
559.826338747059
 20
34.91585483871
 30
0.0
 11
559.826338747059
 21
31.91960483871
 31
0.0
  0
LINE
  5
165
330
152
100
AcDbEntity
  8
Layer99
  6
AUSGEZOGEN
 62
     9
370
    18
100
AcDbLine
 10
536.420373170887
 20
34.91585483871
 30
0.0
 11
536.420373170887
 21
11.227855914454
 31
0.0
  0
LINE
  5
166
330
152
100
AcDbEntity
  8
Layer99
  6
AUSGEZOGEN
 62
    56
370
    18
100
AcDbLine
 10
527.866338747059
 20
26.92585483871
 30
0.0
 11
527.866338747059
 21
16.93835483871
 31
0.0
  0
LINE
  5
167
330
152
100
AcDbEntity
  8
Layer99
  6
AUSGEZOGEN
 62
     9
370
    18
100
AcDbLine
 10
515.646338747059
 20
34.91585483871
 30
0.0
 11
515.646338747059
 21
8.94835483871
 31
0.0
  0
LINE
  5
168
330
152
100
AcDbEntity
  8
Layer99
  6
AUSGEZOGEN
 62
     9
370
    18
100
AcDbLine
 10
489.984350221668
 20
34.91585483871
 30
0.0
 11
489.984350221668
 21
8.94835483871
 31
0.0
  0
LINE
  5
169
330
152
100
AcDbEntity
  8
Layer99
  6
AUSGEZOGEN
 62
     9
370
    18
100
AcDbLine
 10
576.934350221668
 20
34.91585483871
 30
0.0
 11
489.984350221668
 21
34.91585483871
 31
0.0
  0
TEXT
  5
16A
330
152
100
AcDbEntity
  8
Layer99
  6
AUSGEZOGEN
 62
    56
370
    18
100
AcDbText
 10
515.974053590809
 20
23.377510104518
 30
0.0
 40
0.94
  1
Bearb. 23.05.14   Ms
 41
1.271590688783
  7
Arial
 72
     5
 11
531.461494112096
 21
23.377510104518
 31
0.0
100
AcDbText
  0
TEXT
  5
16B
330
152
100
AcDbEntity
  8
Layer99
  6
AUSGEZOGEN
 62
    56
370
    18
100
AcDbText
 10
516.082775514637
 20
21.419368014674
 30
0.0
 40
0.94
  1
Gepr.
 41
1.215533862924
  7
Arial
 72
     5
 11
520.071598507176
 21
21.419368014674
 31
0.0
100
AcDbText
  0
TEXT
  5
16C
330
152
100
AcDbEntity
  8
Layer99
  6
AUSGEZOGEN
 62
    56
370
    18
100
AcDbText
 10
516.082775514637
 20
19.352446627955
 30
0.0
 40
0.94
  1
Norm
 41
1.171328125812
  7
Arial
 72
     5
 11
519.839552785991
 21
19.352446627955
 31
0.0
100
AcDbText
  0
TEXT
  5
16D
330
152
100
AcDbEntity
  8
Layer99
  6
AUSGEZOGEN
 62
    56
370
    18
100
AcDbText
 10
571.736122682605
 20
15.411145289759
 30
0.0
 40
1.175
  1
Blatt
 41
1.26499927539
  7
Arial
 72
     5
 11
575.887565679599
 21
15.411145289759
 31
0.0
100
AcDbText
  0
TEXT
  5
16E
330
152
100
AcDbEntity
  8
Layer0
  6
AUSGEZOGEN
 62
   136
370
    18
100
AcDbText
 10
517.074870241199
 20
32.799298594813
 30
0.0
 40
1.175
  1
Allgemeintoleranzen
 41
1.263559891189
  7
Arial
 72
     5
 11
535.848685159494
 21
32.799298594813
 31
0.0
100
AcDbText
  0
TEXT
  5
16F
330
152
100
AcDbEntity
  8
Layer0
  6
AUSGEZOGEN
 62
   136
370
    18
100
AcDbText
 10
516.748130739246
 20
30.62042805038
 30
0.0
 40
1.175
  1
Nach: TG5
 41
1.223038375192
  7
Arial
 72
     5
 11
526.446916782398
 21
30.62042805038
 31
0.0
100
AcDbText
  0
TEXT
  5
170
330
152
100
AcDbEntity
  8
Layer0
  6
AUSGEZOGEN
 62
   136
370
    18
100
AcDbText
 10
516.82719079784
 20
28.441550334315
 30
0.0
 40
1.175
  1
DIN: 16742
 41
1.239741037486
  7
Arial
 72
     5
 11
527.111462574307
 21
28.441550334315
 31
0.0
100
AcDbText
  0
TEXT
  5
171
330
152
100
AcDbEntity
  8
Layer0
  6
AUSGEZOGEN
 62
    56
370
    18
100
AcDbText
 10
560.584236696277
 20
32.908242839198
 30
0.0
 40
1.175
  1
Gewicht:
 41
1.240831402125
  7
Arial
 72
     5
 11
568.501051249687
 21
32.908242839198
 31
0.0
100
AcDbText
  0
TEXT
  5
172
330
152
100
AcDbEntity
  8
Layer0
  6
AUSGEZOGEN
 62
    56
370
    18
100
AcDbText
 10
537.037649782215
 20
29.650106395106
 30
0.0
 40
1.175
  1
Werkstoff/Farbe: PMMA glasklar
 41
1.266813667067
  7
Arial
 72
     5
 11
566.94173650359
 21
29.650106395106
 31
0.0
100
AcDbText
  0
TEXT
  5
173
330
152
100
AcDbEntity
  8
Layer0
  6
AUSGEZOGEN
 62
    56
370
    18
100
AcDbText
 10
537.037649782215
 20
27.770106367092
 30
0.0
 40
1.175
  1
         Halterung: PMMA schwarz
 41
1.285614398848
  7
Arial
 72
     5
 11
567.270736511995
 21
27.770106367092
 31
0.0
100
AcDbText
  0
TEXT
  5
174
330
152
100
AcDbEntity
  8
Layer0
  6
AUSGEZOGEN
 62
    56
370
    18
100
AcDbText
 10
537.037649782215
 20
32.918204234462
 30
0.0
 40
1.175
  1
Maßstab:2:1
 41
1.241041547507
  7
Arial
 72
     5
 11
548.350550164748
 21
32.918204234462
 31
0.0
100
AcDbText
  0
TEXT
  5
175
330
152
100
AcDbEntity
  8
Layer0
  6
AUSGEZOGEN
 62
    56
370
    18
100
AcDbText
 10
490.548384645496
 20
32.91835483871
 30
0.0
 40
1.175
  1
Schwindung:
 41
1.234746274162
  7
Arial
 72
     5
 11
502.141942180772
 21
32.91835483871
 31
0.0
100
AcDbText
  0
TEXT
  5
176
330
152
100
AcDbEntity
  8
Layer0
  6
AUSGEZOGEN
 62
    56
370
    18
100
AcDbText
 10
490.605069215808
 20
29.978043559413
 30
0.0
 40
1.175
  1
Diese Zeichnung darf nur
 41
1.271210741346
  7
Arial
 72
     5
 11
514.01241286077
 21
29.978043559413
 31
0.0
100
AcDbText
  0
TEXT
  5
177
330
152
100
AcDbEntity
  8
Layer0
  6
AUSGEZOGEN
 62
    56
370
    18
100
AcDbText
 10
490.605069215808
 20
28.098043531399
 30
0.0
 40
1.175
  1
mit CAD geändert werden
 41
1.255342283876
  7
Arial
 72
     5
 11
514.291055729319
 21
28.098043531399
 31
0.0
100
AcDbText
  0
LINE
  5
178
330
152
100
AcDbEntity
  8
Layer99
  6
AUSGEZOGEN
 62
    56
370
    18
100
AcDbLine
 10
576.934350221668
 20
13.225355914454
 30
0.0
 11
570.824350221668
 21
13.225355914454
 31
0.0
  0
LINE
  5
179
330
152
100
AcDbEntity
  8
Layer99
  6
AUSGEZOGEN
 62
    56
370
    18
100
AcDbLine
 10
576.934350221668
 20
11.227855914454
 30
0.0
 11
515.646338747059
 21
11.227855914454
 31
0.0
  0
LINE
  5
17A
330
152
100
AcDbEntity
  8
Layer99
  6
AUSGEZOGEN
 62
    56
370
    18
100
AcDbLine
 10
507.797246950184
 20
26.92585483871
 30
0.0
 11
507.797246950184
 21
8.94835483871
 31
0.0
  0
TEXT
  5
17B
330
152
100
AcDbEntity
  8
Layer50
  6
AUSGEZOGEN
 62
   136
370
    18
100
AcDbText
 10
492.021638429676
 20
11.377170882563
 30
0.0
 40
0.94
  1
---
 41
1.059139784946
  7
Arial
 72
     5
 11
493.410488429676
 21
11.377170882563
 31
0.0
100
AcDbText
  0
TEXT
  5
17C
330
152
100
AcDbEntity
  8
Layer50
  6
AUSGEZOGEN
 62
   136
370
    18
100
AcDbText
 10
507.90746057323
 20
11.492323069911
 30
0.0
 40
0.94
  1
---
 41
1.059139784946
  7
Arial
 72
     5
 11
509.29631057323
 21
11.492323069911
 31
0.0
100
AcDbText
  0
TEXT
  5
17D
330
152
100
AcDbEntity
  8
Layer0
  6
AUSGEZOGEN
 62
    56
370
    18
100
AcDbText
 10
516.231371706043
 20
9.463062113147
 30
0.0
 40
1.175
  1
Schutzvermerk nach DIN 34 beachten .        Copyright reserved
 41
1.286227457357
  7
Arial
 72
     5
 11
575.558130841349
 21
9.463062113147
 31
0.0
100
AcDbText
  0
INSERT
  5
196
330
152
100
AcDbEntity
  8
0
100
AcDbBlockReference
  2
ULTRAREFLEX_nNn02
 10
0.0
 20
0.0
 30
0.0
  0
TEXT
  5
197
330
152
100
AcDbEntity
  8
Layer50
  6
AUSGEZOGEN
 62
   136
370
    18
100
AcDbText
 10
537.432064370223
 20
17.54664828101
 30
0.0
 40
0.94
  1
---
 41
1.259600656861
  7
Arial
 72
     5
 11
539.083778711566
 21
17.54664828101
 31
0.0
100
AcDbText
  0
TEXT
  5
198
330
152
100
AcDbEntity
  8
Layer99
  6
AUSGEZOGEN
 62
    56
370
    18
100
AcDbText
 10
508.049287992412
 20
9.415205407142
 30
0.0
 40
0.94
  1
Dat./Nam.
 41
1.239717192527
  7
Arial
 72
     5
 11
515.37108252582
 21
9.415205407142
 31
0.0
100
AcDbText
  0
TEXT
  5
199
330
152
100
AcDbEntity
  8
Layer99
  6
AUSGEZOGEN
 62
    56
370
    18
100
AcDbText
 10
490.076868001675
 20
9.413074309741
 30
0.0
 40
0.94
  1
Zust.
 41
1.239906123597
  7
Arial
 72
     5
 11
493.693450981103
 21
9.413074309741
 31
0.0
100
AcDbText
  0
TEXT
  5
19A
330
152
100
AcDbEntity
  8
Layer0
  6
AUSGEZOGEN
 62
    56
370
    18
100
AcDbText
 10
521.310654961308
 20
25.331551097255
 30
0.0
 40
1.175
  1
Datum
 41
1.188171149402
  7
Arial
 72
     5
 11
527.050026585658
 21
25.331551097255
 31
0.0
100
AcDbText
  0
TEXT
  5
19B
330
152
100
AcDbEntity
  8
Layer0
  6
AUSGEZOGEN
 62
    56
370
    18
100
AcDbText
 10
529.613294159864
 20
25.335478753274
 30
0.0
 40
1.175
  1
Name
 41
1.15958716227
  7
Arial
 72
     5
 11
534.685937190895
 21
25.335478753274
 31
0.0
100
AcDbText
  0
TEXT
  5
19C
330
152
100
AcDbEntity
  8
Layer99
  6
AUSGEZOGEN
 62
    56
370
    18
100
AcDbText
 10
494.320630109904
 20
9.413186140619
 30
0.0
 40
0.94
  1
Änderung
 41
1.218204176926
  7
Arial
 72
     5
 11
501.250847487936
 21
9.413186140619
 31
0.0
100
AcDbText
  0
ENDBLK
  5
154
330
152
100
AcDbEntity
  8
0
100
AcDbBlockEnd
  0
BLOCK
  5
17F
330
17E
100
AcDbEntity
  8
0
100
AcDbBlockBegin
  2
ULTRAREFLEX_nNn02
 70
     0
 10
0.0
 20
0.0
 30
0.0
  3
ULTRAREFLEX_nNn02
  1

  0
LINE
  5
181
330
17E
100
AcDbEntity
  8
Layer0
  6
AUSGEZOGEN
 62
    30
370
    18
100
AcDbLine
 10
534.921341604758
 20
15.454810883418
 30
0.0
 11
533.491302723002
 21
15.454810883418
 31
0.0
  0
LINE
  5
182
330
17E
100
AcDbEntity
  8
Layer0
  6
AUSGEZOGEN
 62
    30
370
    18
100
AcDbLine
 10
533.352911863477
 20
15.374910883418
 30
0.0
 11
532.637892422599
 21
14.136460883418
 31
0.0
  0
LINE
  5
183
330
17E
100
AcDbEntity
  8
Layer0
  6
AUSGEZOGEN
 62
    30
370
    18
100
AcDbLine
 10
532.637892422599
 20
13.976660883418
 30
0.0
 11
533.352911863477
 21
12.738210883418
 31
0.0
  0
LINE
  5
184
330
17E
100
AcDbEntity
  8
Layer0
  6
AUSGEZOGEN
 62
    30
370
    18
100
AcDbLine
 10
533.491302723002
 20
12.658310883418
 30
0.0
 11
534.921341604758
 21
12.658310883418
 31
0.0
  0
LINE
  5
185
330
17E
100
AcDbEntity
  8
Layer0
  6
AUSGEZOGEN
 62
    30
370
    18
100
AcDbLine
 10
535.059732464282
 20
12.738210883418
 30
0.0
 11
535.77475190516
 21
13.976660883418
 31
0.0
  0
LINE
  5
186
330
17E
100
AcDbEntity
  8
Layer0
  6
AUSGEZOGEN
 62
    30
370
    18
100
AcDbLine
 10
535.77475190516
 20
14.136460883418
 30
0.0
 11
535.059732464282
 21
15.374910883418
 31
0.0
  0
LINE
  5
187
330
17E
100
AcDbEntity
  8
Layer0
  6
AUSGEZOGEN
 62
    30
370
    18
100
AcDbLine
 10
534.344713023404
 20
14.136460883418
 30
0.0
 11
535.77475190516
 21
14.136460883418
 31
0.0
  0
LINE
  5
188
330
17E
100
AcDbEntity
  8
Layer0
  6
AUSGEZOGEN
 62
    30
370
    18
100
AcDbLine
 10
532.637892422599
 20
14.136460883418
 30
0.0
 11
534.067931304355
 21
14.136460883418
 31
0.0
  0
LINE
  5
189
330
17E
100
AcDbEntity
  8
Layer0
  6
AUSGEZOGEN
 62
    30
370
    18
100
AcDbLine
 10
534.344713023404
 20
13.976660883418
 30
0.0
 11
535.77475190516
 21
13.976660883418
 31
0.0
  0
LINE
  5
18A
330
17E
100
AcDbEntity
  8
Layer0
  6
AUSGEZOGEN
 62
    30
370
    18
100
AcDbLine
 10
532.637892422599
 20
13.976660883418
 30
0.0
 11
534.067931304355
 21
13.976660883418
 31
0.0
  0
LINE
  5
18B
330
17E
100
AcDbEntity
  8
Layer0
  6
AUSGEZOGEN
 62
    30
370
    18
100
AcDbLine
 10
534.344713023404
 20
13.976660883418
 30
0.0
 11
535.059732464282
 21
12.738210883418
 31
0.0
  0
LINE
  5
18C
330
17E
100
AcDbEntity
  8
Layer0
  6
AUSGEZOGEN
 62
    30
370
    18
100
AcDbLine
 10
533.491302723002
 20
15.454810883418
 30
0.0
 11
534.20632216388
 21
14.216360883418
 31
0.0
  0
LINE
  5
18D
330
17E
100
AcDbEntity
  8
Layer0
  6
AUSGEZOGEN
 62
    30
370
    18
100
AcDbLine
 10
534.20632216388
 20
13.896760883418
 30
0.0
 11
534.921341604758
 21
12.658310883418
 31
0.0
  0
LINE
  5
18E
330
17E
100
AcDbEntity
  8
Layer0
  6
AUSGEZOGEN
 62
    30
370
    18
100
AcDbLine
 10
533.352911863477
 20
15.374910883418
 30
0.0
 11
534.067931304355
 21
14.136460883418
 31
0.0
  0
LINE
  5
18F
330
17E
100
AcDbEntity
  8
Layer0
  6
AUSGEZOGEN
 62
    30
370
    18
100
AcDbLine
 10
534.20632216388
 20
13.896760883418
 30
0.0
 11
533.491302723002
 21
12.658310883418
 31
0.0
  0
LINE
  5
190
330
17E
100
AcDbEntity
  8
Layer0
  6
AUSGEZOGEN
 62
    30
370
    18
100
AcDbLine
 10
535.059732464282
 20
15.374910883418
 30
0.0
 11
534.344713023404
 21
14.136460883418
 31
0.0
  0
LINE
  5
191
330
17E
100
AcDbEntity
  8
Layer0
  6
AUSGEZOGEN
 62
    30
370
    18
100
AcDbLine
 10
534.067931304355
 20
13.976660883418
 30
0.0
 11
533.352911863477
 21
12.738210883418
 31
0.0
  0
LINE
  5
192
330
17E
100
AcDbEntity
  8
Layer0
  6
AUSGEZOGEN
 62
    30
370
    18
100
AcDbLine
 10
534.921341604758
 20
15.454810883418
 30
0.0
 11
534.20632216388
 21
14.216360883418
 31
0.0
  0
HATCH
  5
193
330
17E
100
AcDbEntity
  8
Layer0
  6
AUSGEZOGEN
 62
    30
370
    18
100
AcDbHatch
 10
0.0
 20
0.0
 30
0.0
210
0.0
220
0.0
230
1.0
  2
SOLID
 70
     1
 71
     0
 91
        6
 92
        2
 72
     0
 73
     1
 93
        3
 10
534.0679313043549
 20
13.97666088341816
 10
532.6378924225992
 20
13.97666088341816
 10
533.3529118634772
 20
12.73821088341816
 97
        0
 92
        2
 72
     0
 73
     1
 93
        3
 10
534.0679313043549
 20
14.13646088341817
 10
533.3529118634772
 20
15.37491088341817
 10
532.6378924225992
 20
14.13646088341817
 97
        0
 92
        2
 72
     0
 73
     1
 93
        3
 10
534.2063221638798
 20
14.21636088341816
 10
534.9213416047576
 20
15.45481088341816
 10
533.4913027230018
 20
15.45481088341816
 97
        0
 92
        2
 72
     0
 73
     1
 93
        3
 10
534.3447130234044
 20
14.13646088341817
 10
535.7747519051602
 20
14.13646088341817
 10
535.0597324642824
 20
15.37491088341815
 97
        0
 92
        2
 72
     0
 73
     1
 93
        3
 10
535.0597324642824
 20
12.73821088341816
 10
535.7747519051602
 20
13.97666088341816
 10
534.3447130234044
 20
13.97666088341816
 97
        0
 92
        2
 72
     0
 73
     1
 93
        3
 10
534.2063221638798
 20
13.89676088341815
 10
533.4913027230018
 20
12.65831088341817
 10
534.9213416047576
 20
12.65831088341817
 97
        0
 75
     0
 76
     1
 98
        0
  0
TEXT
  5
194
330
17E
100
AcDbEntity
  8
Layer0
  6
AUSGEZOGEN
 62
     7
370
    18
100
AcDbText
 10
524.09747752441
 20
13.156443768161
 30
0.0
 40
1.8377
  1
REFLEX
 41
0.705366510959
  7
Arial Black
 72
     5
 11
531.94765252441
 21
13.156443768161
 31
0.0
100
AcDbText
  0
TEXT
  5
195
330
17E
100
AcDbEntity
  8
Layer0
  6
AUSGEZOGEN
 62
     7
370
    18
100
AcDbText
 10
516.347971505359
 20
13.24313638659
 30
0.0
 40
1.39825
  1
ULTRA
 41
1.159777722278
  7
Arial
 72
     5
 11
523.768684005359
 21
13.24313638659
 31
0.0
100
AcDbText
  0
ENDBLK
  5
180
330
17E
100
AcDbEntity
  8
0
100
AcDbBlockEnd
  0
BLOCK
  5
1A2
330
1A1
100
AcDbEntity
  8
0
100
AcDbBlockBegin
  2
Reflexwerte_nNn03
 70
     0
 10
0.0
 20
0.0
 30
0.0
  3
Reflexwerte_nNn03
  1

  0
TEXT
  5
1A4
330
1A1
100
AcDbEntity
  8
Layer0
  6
AUSGEZOGEN
 62
   136
370
    18
100
AcDbText
 10
489.460400245072
 20
36.61647903123
 30
0.0
 40
1.25
  1
Reflexionswerte werden gesondert vereinbart
 41
1.135633679475
  7
Arial
 72
     5
 11
529.325401020954
 21
36.61647903123
 31
0.0
100
AcDbText
  0
ENDBLK
  5
1A3
330
1A1
100
AcDbEntity
  8
0
100
AcDbBlockEnd
  0
BLOCK
  5
1A7
330
1A6
100
AcDbEntity
  8
0
100
AcDbBlockBegin
  2
QS_nNn04
 70
     0
 10
0.0
 20
0.0
 30
0.0
  3
QS_nNn04
  1

  0
TEXT
  5
1A9
330
1A6
100
AcDbEntity
  8
Layer0
  6
AUSGEZOGEN
 62
   136
370
    18
100
AcDbText
 10
489.428808253336
 20
44.363761545095
 30
0.0
 40
1.25
  1
Teil frei von Rissen, Grat, Blasen, Einfallstellen,
 41
1.13496141796
  7
Arial
 72
     5
 11
531.140059065151
 21
44.363761545095
 31
0.0
100
AcDbText
  0
TEXT
  5
1AA
330
1A6
100
AcDbEntity
  8
Layer0
  6
AUSGEZOGEN
 62
   136
370
    18
100
AcDbText
 10
489.428808253336
 20
42.363761515292
 30
0.0
 40
1.25
  1
Fliesslinien, Einschlüssen, Formbelag, Kratzer, Schlieren
 41
1.134732261281
  7
Arial
 72
     5
 11
539.382559225572
 21
42.363761515292
 31
0.0
100
AcDbText
  0
TEXT
  5
1AB
330
1A6
100
AcDbEntity
  8
Layer0
  6
AUSGEZOGEN
 62
   136
370
    18
100
AcDbText
 10
489.428808253336
 20
40.36376148549
 30
0.0
 40
1.25
  1
Grenzwertmuster werden gesondert vereinbart
 41
1.135456394682
  7
Arial
 72
     5
 11
530.387559050505
 21
40.36376148549
 31
0.0
100
AcDbText
  0
ENDBLK
  5
1A8
330
1A6
100
AcDbEntity
  8
0
100
AcDbBlockEnd
  0
BLOCK
  5
1C5
330
1C4
100
AcDbEntity
  8
0
100
AcDbBlockBegin
  2
L1_nNn05
 70
     0
 10
0.0
 20
0.0
 30
0.0
  3
L1_nNn05
  1

  0
DIMENSION
  5
1D7
330
1C4
100
AcDbEntity
  8
Layer70
  6
AUSGEZOGEN
 62
   136
370
    18
100
AcDbDimension
  2
*D7
 10
551.155975753584
 20
107.220269056543
 30
0.0
 11
550.030975753584
 21
90.602351985251
 31
0.0
 70
   160
 71
     5
 42
-1.0
 53
90.0
  3
ISO-25
100
AcDbAlignedDimension
 13
545.754885588315
 23
75.284233865065
 33
0.0
 14
545.754885588315
 24
107.220269056543
 34
0.0
 50
90.0
100
AcDbRotatedDimension
1001
ACAD
1000
DSTYLE
1002
{
1070
     3
1000
<>
1070
    44
1040
1.25
1070
   280
1070
     0
1070
    77
1070
     1
1070
    78
1070
     8
1070
   179
1070
     1
1070
   271
1070
     1
1070
   344
1005
1D8
1070
   343
1005
1D8
1070
   173
1070
     1
1070
    41
1040
1.75
1070
   147
1040
0.178571428571
1070
   140
1040
1.25
1070
   178
1070
   136
1070
   177
1070
   136
1070
   176
1070
   136
1002
}
  0
DIMENSION
  5
1F1
330
1C4
100
AcDbEntity
  8
Layer70
  6
AUSGEZOGEN
 62
   136
370
    18
100
AcDbDimension
  2
*D9
 10
545.754885302855
 20
56.72822467342
 30
0.0
 11
530.485201156722
 21
57.85322467342
 31
0.0
 70
   160
 71
     5
 42
-1.0
  3
ISO-25
100
AcDbAlignedDimension
 13
513.487879333334
 23
75.28423435949
 33
0.0
 14
545.754885302855
 24
75.28423435949
 34
0.0
100
AcDbRotatedDimension
1001
ACAD
1000
DSTYLE
1002
{
1070
     3
1000
<>
1070
    44
1040
1.25
1070
   280
1070
     0
1070
    77
1070
     1
1070
    78
1070
     8
1070
   179
1070
     1
1070
   271
1070
     1
1070
   344
1005
1D8
1070
   343
1005
1D8
1070
   173
1070
     1
1070
    41
1040
1.75
1070
   147
1040
0.178571428571
1070
   140
1040
1.25
1070
   178
1070
   136
1070
   177
1070
   136
1070
   176
1070
   136
1002
}
  0
LINE
  5
1F2
330
1C4
100
AcDbEntity
  8
Stammform
  6
AUSGEZOGEN
 62
     9
370
    18
100
AcDbLine
 10
545.754885588315
 20
103.228255016314
 30
0.0
 11
543.450092135344
 21
103.228255016314
 31
0.0
  0
LINE
  5
1F3
330
1C4
100
AcDbEntity
  8
Stammform
  6
AUSGEZOGEN
 62
     9
370
    18
100
AcDbLine
 10
542.297709252769
 20
93.248249581262
 30
0.0
 11
543.450092135344
 21
95.244240779765
 31
0.0
  0
LINE
  5
1F4
330
1C4
100
AcDbEntity
  8
Stammform
  6
AUSGEZOGEN
 62
    56
370
    18
100
AcDbLine
 10
542.297709252769
 20
93.248249581262
 30
0.0
 11
541.145310548582
 21
95.244240779765
 31
0.0
  0
LINE
  5
1F5
330
1C4
100
AcDbEntity
  8
Stammform
  6
AUSGEZOGEN
 62
    56
370
    18
100
AcDbLine
 10
541.145310548582
 20
95.244240779765
 30
0.0
 11
542.297709252769
 21
97.24024779988
 31
0.0
  0
LINE
  5
1F6
330
1C4
100
AcDbEntity
  8
Stammform
  6
AUSGEZOGEN
 62
    56
370
    18
100
AcDbLine
 10
541.145310548582
 20
95.244240779765
 30
0.0
 11
538.840532917223
 21
95.244240779765
 31
0.0
  0
LINE
  5
1F7
330
1C4
100
AcDbEntity
  8
Stammform
  6
AUSGEZOGEN
 62
     9
370
    18
100
AcDbLine
 10
539.992915799798
 20
97.24024779988
 30
0.0
 11
538.840532917223
 21
99.236254819994
 31
0.0
  0
LINE
  5
1F8
330
1C4
100
AcDbEntity
  8
Stammform
  6
AUSGEZOGEN
 62
     9
370
    18
100
AcDbLine
 10
542.297709252769
 20
101.232246018498
 30
0.0
 11
543.450092135344
 21
99.236254819994
 31
0.0
  0
LINE
  5
1F9
330
1C4
100
AcDbEntity
  8
Stammform
  6
AUSGEZOGEN
 62
     9
370
    18
100
AcDbLine
 10
543.450092135344
 20
99.236254819994
 30
0.0
 11
542.297709252769
 21
97.24024779988
 31
0.0
  0
LINE
  5
1FA
330
1C4
100
AcDbEntity
  8
Stammform
  6
AUSGEZOGEN
 62
     9
370
    18
100
AcDbLine
 10
542.297709252769
 20
97.24024779988
 30
0.0
 11
539.992915799798
 21
97.24024779988
 31
0.0
  0
LINE
  5
1FB
330
1C4
100
AcDbEntity
  8
Stammform
  6
AUSGEZOGEN
 62
    56
370
    18
100
AcDbLine
 10
542.297709252769
 20
101.232246018498
 30
0.0
 11
541.145310548582
 21
99.236254819994
 31
0.0
  0
LINE
  5
1FC
330
1C4
100
AcDbEntity
  8
Stammform
  6
AUSGEZOGEN
 62
    56
370
    18
100
AcDbLine
 10
541.145310548582
 20
99.236254819994
 30
0.0
 11
542.297709252769
 21
97.24024779988
 31
0.0
  0
LINE
  5
1FD
330
1C4
100
AcDbEntity
  8
Stammform
  6
AUSGEZOGEN
 62
    56
370
    18
100
AcDbLine
 10
541.145310548582
 20
99.236254819994
 30
0.0
 11
538.840532917223
 21
99.236254819994
 31
0.0
  0
LINE
  5
1FE
330
1C4
100
AcDbEntity
  8
Stammform
  6
AUSGEZOGEN
 62
     9
370
    18
100
AcDbLine
 10
543.450092135344
 20
107.220269056543
 30
0.0
 11
542.297709252769
 21
105.224262036428
 31
0.0
  0
LINE
  5
1FF
330
1C4
100
AcDbEntity
  8
Stammform
  6
AUSGEZOGEN
 62
    56
370
    18
100
AcDbLine
 10
541.145310548582
 20
107.220269056543
 30
0.0
 11
542.297709252769
 21
105.224262036428
 31
0.0
  0
LINE
  5
200
330
1C4
100
AcDbEntity
  8
Stammform
  6
AUSGEZOGEN
 62
     9
370
    18
100
AcDbLine
 10
538.840532917223
 20
103.228255016314
 30
0.0
 11
539.992915799798
 21
101.232246018498
 31
0.0
  0
LINE
  5
201
330
1C4
100
AcDbEntity
  8
Stammform
  6
AUSGEZOGEN
 62
     9
370
    18
100
AcDbLine
 10
542.297709252769
 20
101.232246018498
 30
0.0
 11
543.450092135344
 21
103.228255016314
 31
0.0
  0
LINE
  5
202
330
1C4
100
AcDbEntity
  8
Stammform
  6
AUSGEZOGEN
 62
     9
370
    18
100
AcDbLine
 10
543.450092135344
 20
103.228255016314
 30
0.0
 11
542.297709252769
 21
105.224262036428
 31
0.0
  0
LINE
  5
203
330
1C4
100
AcDbEntity
  8
Stammform
  6
AUSGEZOGEN
 62
     9
370
    18
100
AcDbLine
 10
542.297709252769
 20
105.224262036428
 30
0.0
 11
539.992915799798
 21
105.224262036428
 31
0.0
  0
LINE
  5
204
330
1C4
100
AcDbEntity
  8
Stammform
  6
AUSGEZOGEN
 62
     9
370
    18
100
AcDbLine
 10
539.992915799798
 20
101.232246018498
 30
0.0
 11
542.297709252769
 21
101.232246018498
 31
0.0
  0
LINE
  5
205
330
1C4
100
AcDbEntity
  8
Stammform
  6
AUSGEZOGEN
 62
    56
370
    18
100
AcDbLine
 10
542.297709252769
 20
101.232246018498
 30
0.0
 11
541.145310548582
 21
103.228255016314
 31
0.0
  0
LINE
  5
206
330
1C4
100
AcDbEntity
  8
Stammform
  6
AUSGEZOGEN
 62
    56
370
    18
100
AcDbLine
 10
541.145310548582
 20
103.228255016314
 30
0.0
 11
542.297709252769
 21
105.224262036428
 31
0.0
  0
LINE
  5
207
330
1C4
100
AcDbEntity
  8
Stammform
  6
AUSGEZOGEN
 62
    56
370
    18
100
AcDbLine
 10
541.145310548582
 20
103.228255016314
 30
0.0
 11
538.840532917223
 21
103.228255016314
 31
0.0
  0
LINE
  5
208
330
1C4
100
AcDbEntity
  8
Stammform
  6
AUSGEZOGEN
 62
    56
370
    18
100
AcDbLine
 10
542.297709252769
 20
77.280225063568
 30
0.0
 11
541.145310548582
 21
75.284218537879
 31
0.0
  0
LINE
  5
209
330
1C4
100
AcDbEntity
  8
Stammform
  6
AUSGEZOGEN
 62
     9
370
    18
100
AcDbLine
 10
539.992915799798
 20
89.256235541033
 30
0.0
 11
538.840532917223
 21
91.252242561147
 31
0.0
  0
LINE
  5
20A
330
1C4
100
AcDbEntity
  8
Stammform
  6
AUSGEZOGEN
 62
     9
370
    18
100
AcDbLine
 10
538.840532917223
 20
91.252242561147
 30
0.0
 11
539.992915799798
 21
93.248249581262
 31
0.0
  0
LINE
  5
20B
330
1C4
100
AcDbEntity
  8
Stammform
  6
AUSGEZOGEN
 62
     9
370
    18
100
AcDbLine
 10
543.450092135344
 20
91.252242561147
 30
0.0
 11
542.297709252769
 21
89.256235541033
 31
0.0
  0
LINE
  5
20C
330
1C4
100
AcDbEntity
  8
Stammform
  6
AUSGEZOGEN
 62
     9
370
    18
100
AcDbLine
 10
539.992915799798
 20
93.248249581262
 30
0.0
 11
542.297709252769
 21
93.248249581262
 31
0.0
  0
LINE
  5
20D
330
1C4
100
AcDbEntity
  8
Stammform
  6
AUSGEZOGEN
 62
    56
370
    18
100
AcDbLine
 10
542.297709252769
 20
93.248249581262
 30
0.0
 11
541.145310548582
 21
91.252242561147
 31
0.0
  0
LINE
  5
20E
330
1C4
100
AcDbEntity
  8
Stammform
  6
AUSGEZOGEN
 62
    56
370
    18
100
AcDbLine
 10
541.145310548582
 20
91.252242561147
 30
0.0
 11
542.297709252769
 21
89.256235541033
 31
0.0
  0
LINE
  5
20F
330
1C4
100
AcDbEntity
  8
Stammform
  6
AUSGEZOGEN
 62
    56
370
    18
100
AcDbLine
 10
541.145310548582
 20
91.252242561147
 30
0.0
 11
538.840532917223
 21
91.252242561147
 31
0.0
  0
LINE
  5
210
330
1C4
100
AcDbEntity
  8
Stammform
  6
AUSGEZOGEN
 62
     9
370
    18
100
AcDbLine
 10
542.297709252769
 20
89.256235541033
 30
0.0
 11
539.992915799798
 21
89.256235541033
 31
0.0
  0
LINE
  5
211
330
1C4
100
AcDbEntity
  8
Stammform
  6
AUSGEZOGEN
 62
    56
370
    18
100
AcDbLine
 10
542.297709252769
 20
85.264221500804
 30
0.0
 11
541.145310548582
 21
87.260228520918
 31
0.0
  0
LINE
  5
212
330
1C4
100
AcDbEntity
  8
Stammform
  6
AUSGEZOGEN
 62
    56
370
    18
100
AcDbLine
 10
541.145310548582
 20
87.260228520918
 30
0.0
 11
542.297709252769
 21
89.256235541033
 31
0.0
  0
LINE
  5
213
330
1C4
100
AcDbEntity
  8
Stammform
  6
AUSGEZOGEN
 62
    56
370
    18
100
AcDbLine
 10
541.145310548582
 20
87.260228520918
 30
0.0
 11
538.840532917223
 21
87.260228520918
 31
0.0
  0
LINE
  5
214
330
1C4
100
AcDbEntity
  8
Stammform
  6
AUSGEZOGEN
 62
     9
370
    18
100
AcDbLine
 10
539.992915799798
 20
77.280225063568
 30
0.0
 11
542.297709252769
 21
77.280225063568
 31
0.0
  0
LINE
  5
215
330
1C4
100
AcDbEntity
  8
Stammform
  6
AUSGEZOGEN
 62
    56
370
    18
100
AcDbLine
 10
542.297709252769
 20
77.280225063568
 30
0.0
 11
541.145310548582
 21
79.276216262071
 31
0.0
  0
LINE
  5
216
330
1C4
100
AcDbEntity
  8
Stammform
  6
AUSGEZOGEN
 62
    56
370
    18
100
AcDbLine
 10
541.145310548582
 20
79.276216262071
 30
0.0
 11
542.297709252769
 21
81.272223282186
 31
0.0
  0
LINE
  5
217
330
1C4
100
AcDbEntity
  8
Stammform
  6
AUSGEZOGEN
 62
    56
370
    18
100
AcDbLine
 10
541.145310548582
 20
79.276216262071
 30
0.0
 11
538.840532917223
 21
79.276216262071
 31
0.0
  0
LINE
  5
218
330
1C4
100
AcDbEntity
  8
Stammform
  6
AUSGEZOGEN
 62
     9
370
    18
100
AcDbLine
 10
539.992915799798
 20
81.272223282186
 30
0.0
 11
538.840532917223
 21
83.2682303023
 31
0.0
  0
LINE
  5
219
330
1C4
100
AcDbEntity
  8
Stammform
  6
AUSGEZOGEN
 62
     9
370
    18
100
AcDbLine
 10
543.450092135344
 20
83.2682303023
 30
0.0
 11
542.297709252769
 21
81.272223282186
 31
0.0
  0
LINE
  5
21A
330
1C4
100
AcDbEntity
  8
Stammform
  6
AUSGEZOGEN
 62
     9
370
    18
100
AcDbLine
 10
542.297709252769
 20
81.272223282186
 30
0.0
 11
539.992915799798
 21
81.272223282186
 31
0.0
  0
LINE
  5
21B
330
1C4
100
AcDbEntity
  8
Stammform
  6
AUSGEZOGEN
 62
     9
370
    18
100
AcDbLine
 10
539.992915799798
 20
85.264221500804
 30
0.0
 11
542.297709252769
 21
85.264221500804
 31
0.0
  0
LINE
  5
21C
330
1C4
100
AcDbEntity
  8
Stammform
  6
AUSGEZOGEN
 62
    56
370
    18
100
AcDbLine
 10
542.297709252769
 20
85.264221500804
 30
0.0
 11
541.145310548582
 21
83.2682303023
 31
0.0
  0
LINE
  5
21D
330
1C4
100
AcDbEntity
  8
Stammform
  6
AUSGEZOGEN
 62
    56
370
    18
100
AcDbLine
 10
541.145310548582
 20
83.2682303023
 30
0.0
 11
542.297709252769
 21
81.272223282186
 31
0.0
  0
LINE
  5
21E
330
1C4
100
AcDbEntity
  8
Stammform
  6
AUSGEZOGEN
 62
    56
370
    18
100
AcDbLine
 10
541.145310548582
 20
83.2682303023
 30
0.0
 11
538.840532917223
 21
83.2682303023
 31
0.0
  0
LINE
  5
21F
330
1C4
100
AcDbEntity
  8
Stammform
  6
AUSGEZOGEN
 62
     9
370
    18
100
AcDbLine
 10
539.992915799798
 20
93.248233759651
 30
0.0
 11
538.840532917223
 21
95.244240779765
 31
0.0
  0
LINE
  5
220
330
1C4
100
AcDbEntity
  8
Stammform
  6
AUSGEZOGEN
 62
    56
370
    18
100
AcDbLine
 10
538.840532917223
 20
91.252226739536
 30
0.0
 11
537.688130257633
 21
93.248233759651
 31
0.0
  0
LINE
  5
221
330
1C4
100
AcDbEntity
  8
Stammform
  6
AUSGEZOGEN
 62
    56
370
    18
100
AcDbLine
 10
537.688130257633
 20
93.248233759651
 30
0.0
 11
538.840532917223
 21
95.244240779765
 31
0.0
  0
LINE
  5
222
330
1C4
100
AcDbEntity
  8
Stammform
  6
AUSGEZOGEN
 62
    56
370
    18
100
AcDbLine
 10
537.688130257633
 20
93.248233759651
 30
0.0
 11
535.383348670871
 21
93.248233759651
 31
0.0
  0
LINE
  5
223
330
1C4
100
AcDbEntity
  8
Stammform
  6
AUSGEZOGEN
 62
     9
370
    18
100
AcDbLine
 10
539.992915799798
 20
97.24024779988
 30
0.0
 11
538.840532917223
 21
95.244240779765
 31
0.0
  0
LINE
  5
224
330
1C4
100
AcDbEntity
  8
Stammform
  6
AUSGEZOGEN
 62
     9
370
    18
100
AcDbLine
 10
538.840532917223
 20
95.244240779765
 30
0.0
 11
536.535731553446
 21
95.244240779765
 31
0.0
  0
LINE
  5
225
330
1C4
100
AcDbEntity
  8
Stammform
  6
AUSGEZOGEN
 62
    56
370
    18
100
AcDbLine
 10
538.840532917223
 20
99.236254819994
 30
0.0
 11
537.688130257633
 21
97.24024779988
 31
0.0
  0
LINE
  5
226
330
1C4
100
AcDbEntity
  8
Stammform
  6
AUSGEZOGEN
 62
    56
370
    18
100
AcDbLine
 10
537.688130257633
 20
97.24024779988
 30
0.0
 11
538.840532917223
 21
95.244240779765
 31
0.0
  0
LINE
  5
227
330
1C4
100
AcDbEntity
  8
Stammform
  6
AUSGEZOGEN
 62
    56
370
    18
100
AcDbLine
 10
537.688130257633
 20
97.24024779988
 30
0.0
 11
535.383348670871
 21
97.24024779988
 31
0.0
  0
LINE
  5
228
330
1C4
100
AcDbEntity
  8
Stammform
  6
AUSGEZOGEN
 62
     9
370
    18
100
AcDbLine
 10
538.840532917223
 20
107.220253234932
 30
0.0
 11
539.992915799798
 21
105.224262036428
 31
0.0
  0
LINE
  5
229
330
1C4
100
AcDbEntity
  8
Stammform
  6
AUSGEZOGEN
 62
     9
370
    18
100
AcDbLine
 10
539.992915799798
 20
105.224262036428
 30
0.0
 11
538.840532917223
 21
103.228255016314
 31
0.0
  0
LINE
  5
22A
330
1C4
100
AcDbEntity
  8
Stammform
  6
AUSGEZOGEN
 62
    56
370
    18
100
AcDbLine
 10
538.840532917223
 20
107.220253234932
 30
0.0
 11
537.688130257633
 21
105.224262036428
 31
0.0
  0
LINE
  5
22B
330
1C4
100
AcDbEntity
  8
Stammform
  6
AUSGEZOGEN
 62
    56
370
    18
100
AcDbLine
 10
537.688130257633
 20
105.224262036428
 30
0.0
 11
538.840532917223
 21
103.228255016314
 31
0.0
  0
LINE
  5
22C
330
1C4
100
AcDbEntity
  8
Stammform
  6
AUSGEZOGEN
 62
    56
370
    18
100
AcDbLine
 10
537.688130257633
 20
105.224262036428
 30
0.0
 11
535.383348670871
 21
105.224262036428
 31
0.0
  0
LINE
  5
22D
330
1C4
100
AcDbEntity
  8
Stammform
  6
AUSGEZOGEN
 62
     9
370
    18
100
AcDbLine
 10
538.840532917223
 20
99.236254819994
 30
0.0
 11
539.992915799798
 21
101.232246018498
 31
0.0
  0
LINE
  5
22E
330
1C4
100
AcDbEntity
  8
Stammform
  6
AUSGEZOGEN
 62
     9
370
    18
100
AcDbLine
 10
538.840532917223
 20
103.228255016314
 30
0.0
 11
536.535731553446
 21
103.228255016314
 31
0.0
  0
LINE
  5
22F
330
1C4
100
AcDbEntity
  8
Stammform
  6
AUSGEZOGEN
 62
     9
370
    18
100
AcDbLine
 10
536.535731553446
 20
99.236254819994
 30
0.0
 11
538.840532917223
 21
99.236254819994
 31
0.0
  0
LINE
  5
230
330
1C4
100
AcDbEntity
  8
Stammform
  6
AUSGEZOGEN
 62
    56
370
    18
100
AcDbLine
 10
538.840532917223
 20
99.236254819994
 30
0.0
 11
537.688130257633
 21
101.232246018498
 31
0.0
  0
LINE
  5
231
330
1C4
100
AcDbEntity
  8
Stammform
  6
AUSGEZOGEN
 62
    56
370
    18
100
AcDbLine
 10
537.688130257633
 20
101.232246018498
 30
0.0
 11
538.840532917223
 21
103.228255016314
 31
0.0
  0
LINE
  5
232
330
1C4
100
AcDbEntity
  8
Stammform
  6
AUSGEZOGEN
 62
    56
370
    18
100
AcDbLine
 10
537.688130257633
 20
101.232246018498
 30
0.0
 11
535.383348670871
 21
101.232246018498
 31
0.0
  0
LINE
  5
233
330
1C4
100
AcDbEntity
  8
Stammform
  6
AUSGEZOGEN
 62
     9
370
    18
100
AcDbLine
 10
539.992915799798
 20
89.256235541033
 30
0.0
 11
538.840532917223
 21
87.260228520918
 31
0.0
  0
LINE
  5
234
330
1C4
100
AcDbEntity
  8
Stammform
  6
AUSGEZOGEN
 62
     9
370
    18
100
AcDbLine
 10
536.535731553446
 20
91.252226739536
 30
0.0
 11
538.840532917223
 21
91.252226739536
 31
0.0
  0
LINE
  5
235
330
1C4
100
AcDbEntity
  8
Stammform
  6
AUSGEZOGEN
 62
    56
370
    18
100
AcDbLine
 10
538.840532917223
 20
91.252226739536
 30
0.0
 11
537.688130257633
 21
89.256235541033
 31
0.0
  0
LINE
  5
236
330
1C4
100
AcDbEntity
  8
Stammform
  6
AUSGEZOGEN
 62
    56
370
    18
100
AcDbLine
 10
537.688130257633
 20
89.256235541033
 30
0.0
 11
538.840532917223
 21
87.260228520918
 31
0.0
  0
LINE
  5
237
330
1C4
100
AcDbEntity
  8
Stammform
  6
AUSGEZOGEN
 62
    56
370
    18
100
AcDbLine
 10
537.688130257633
 20
89.256235541033
 30
0.0
 11
535.383348670871
 21
89.256235541033
 31
0.0
  0
LINE
  5
238
330
1C4
100
AcDbEntity
  8
Stammform
  6
AUSGEZOGEN
 62
     9
370
    18
100
AcDbLine
 10
538.840532917223
 20
83.2682303023
 30
0.0
 11
539.992915799798
 21
85.264221500804
 31
0.0
  0
LINE
  5
239
330
1C4
100
AcDbEntity
  8
Stammform
  6
AUSGEZOGEN
 62
     9
370
    18
100
AcDbLine
 10
539.992915799798
 20
85.264221500804
 30
0.0
 11
538.840532917223
 21
87.260228520918
 31
0.0
  0
LINE
  5
23A
330
1C4
100
AcDbEntity
  8
Stammform
  6
AUSGEZOGEN
 62
     9
370
    18
100
AcDbLine
 10
538.840532917223
 20
87.260228520918
 30
0.0
 11
536.535731553446
 21
87.260228520918
 31
0.0
  0
LINE
  5
23B
330
1C4
100
AcDbEntity
  8
Stammform
  6
AUSGEZOGEN
 62
    56
370
    18
100
AcDbLine
 10
538.840532917223
 20
83.2682303023
 30
0.0
 11
537.688130257633
 21
85.264221500804
 31
0.0
  0
LINE
  5
23C
330
1C4
100
AcDbEntity
  8
Stammform
  6
AUSGEZOGEN
 62
    56
370
    18
100
AcDbLine
 10
537.688130257633
 20
85.264221500804
 30
0.0
 11
538.840532917223
 21
87.260228520918
 31
0.0
  0
LINE
  5
23D
330
1C4
100
AcDbEntity
  8
Stammform
  6
AUSGEZOGEN
 62
    56
370
    18
100
AcDbLine
 10
537.688130257633
 20
85.264221500804
 30
0.0
 11
535.383348670871
 21
85.264221500804
 31
0.0
  0
LINE
  5
23E
330
1C4
100
AcDbEntity
  8
Stammform
  6
AUSGEZOGEN
 62
     9
370
    18
100
AcDbLine
 10
538.840532917223
 20
75.284202716267
 30
0.0
 11
539.992915799798
 21
77.280209241957
 31
0.0
  0
LINE
  5
23F
330
1C4
100
AcDbEntity
  8
Stammform
  6
AUSGEZOGEN
 62
     9
370
    18
100
AcDbLine
 10
539.992915799798
 20
77.280209241957
 30
0.0
 11
538.840532917223
 21
79.276216262071
 31
0.0
  0
LINE
  5
240
330
1C4
100
AcDbEntity
  8
Stammform
  6
AUSGEZOGEN
 62
    56
370
    18
100
AcDbLine
 10
538.840532917223
 20
75.284202716267
 30
0.0
 11
537.688130257633
 21
77.280209241957
 31
0.0
  0
LINE
  5
241
330
1C4
100
AcDbEntity
  8
Stammform
  6
AUSGEZOGEN
 62
    56
370
    18
100
AcDbLine
 10
537.688130257633
 20
77.280209241957
 30
0.0
 11
538.840532917223
 21
79.276216262071
 31
0.0
  0
LINE
  5
242
330
1C4
100
AcDbEntity
  8
Stammform
  6
AUSGEZOGEN
 62
    56
370
    18
100
AcDbLine
 10
537.688130257633
 20
77.280209241957
 30
0.0
 11
535.383348670871
 21
77.280209241957
 31
0.0
  0
LINE
  5
243
330
1C4
100
AcDbEntity
  8
Stammform
  6
AUSGEZOGEN
 62
     9
370
    18
100
AcDbLine
 10
539.992915799798
 20
81.272223282186
 30
0.0
 11
538.840532917223
 21
79.276216262071
 31
0.0
  0
LINE
  5
244
330
1C4
100
AcDbEntity
  8
Stammform
  6
AUSGEZOGEN
 62
     9
370
    18
100
AcDbLine
 10
538.840532917223
 20
79.276216262071
 30
0.0
 11
536.535731553446
 21
79.276216262071
 31
0.0
  0
LINE
  5
245
330
1C4
100
AcDbEntity
  8
Stammform
  6
AUSGEZOGEN
 62
     9
370
    18
100
AcDbLine
 10
536.535731553446
 20
83.2682303023
 30
0.0
 11
538.840532917223
 21
83.2682303023
 31
0.0
  0
LINE
  5
246
330
1C4
100
AcDbEntity
  8
Stammform
  6
AUSGEZOGEN
 62
    56
370
    18
100
AcDbLine
 10
538.840532917223
 20
83.2682303023
 30
0.0
 11
537.688130257633
 21
81.272223282186
 31
0.0
  0
LINE
  5
247
330
1C4
100
AcDbEntity
  8
Stammform
  6
AUSGEZOGEN
 62
    56
370
    18
100
AcDbLine
 10
537.688130257633
 20
81.272223282186
 30
0.0
 11
538.840532917223
 21
79.276216262071
 31
0.0
  0
LINE
  5
248
330
1C4
100
AcDbEntity
  8
Stammform
  6
AUSGEZOGEN
 62
    56
370
    18
100
AcDbLine
 10
537.688130257633
 20
81.272223282186
 30
0.0
 11
535.383348670871
 21
81.272223282186
 31
0.0
  0
LINE
  5
249
330
1C4
100
AcDbEntity
  8
Stammform
  6
AUSGEZOGEN
 62
     9
370
    18
100
AcDbLine
 10
535.383348670871
 20
93.248249581262
 30
0.0
 11
536.535731553446
 21
95.244240779765
 31
0.0
  0
LINE
  5
24A
330
1C4
100
AcDbEntity
  8
Stammform
  6
AUSGEZOGEN
 62
     9
370
    18
100
AcDbLine
 10
536.535731553446
 20
95.244240779765
 30
0.0
 11
535.383348670871
 21
97.24024779988
 31
0.0
  0
LINE
  5
24B
330
1C4
100
AcDbEntity
  8
Stammform
  6
AUSGEZOGEN
 62
    56
370
    18
100
AcDbLine
 10
535.383348670871
 20
93.248249581262
 30
0.0
 11
534.230949966684
 21
95.244240779765
 31
0.0
  0
LINE
  5
24C
330
1C4
100
AcDbEntity
  8
Stammform
  6
AUSGEZOGEN
 62
    56
370
    18
100
AcDbLine
 10
534.230949966684
 20
95.244240779765
 30
0.0
 11
535.383348670871
 21
97.24024779988
 31
0.0
  0
LINE
  5
24D
330
1C4
100
AcDbEntity
  8
Stammform
  6
AUSGEZOGEN
 62
    56
370
    18
100
AcDbLine
 10
534.230949966684
 20
95.244240779765
 30
0.0
 11
531.926168379922
 21
95.244240779765
 31
0.0
  0
LINE
  5
24E
330
1C4
100
AcDbEntity
  8
Stammform
  6
AUSGEZOGEN
 62
     9
370
    18
100
AcDbLine
 10
535.383348670871
 20
101.232246018498
 30
0.0
 11
536.535731553446
 21
99.236254819994
 31
0.0
  0
LINE
  5
24F
330
1C4
100
AcDbEntity
  8
Stammform
  6
AUSGEZOGEN
 62
     9
370
    18
100
AcDbLine
 10
536.535731553446
 20
99.236254819994
 30
0.0
 11
535.383348670871
 21
97.24024779988
 31
0.0
  0
LINE
  5
250
330
1C4
100
AcDbEntity
  8
Stammform
  6
AUSGEZOGEN
 62
     9
370
    18
100
AcDbLine
 10
535.383348670871
 20
97.24024779988
 30
0.0
 11
533.078551262498
 21
97.24024779988
 31
0.0
  0
LINE
  5
251
330
1C4
100
AcDbEntity
  8
Stammform
  6
AUSGEZOGEN
 62
    56
370
    18
100
AcDbLine
 10
535.383348670871
 20
101.232246018498
 30
0.0
 11
534.230949966684
 21
99.236254819994
 31
0.0
  0
LINE
  5
252
330
1C4
100
AcDbEntity
  8
Stammform
  6
AUSGEZOGEN
 62
    56
370
    18
100
AcDbLine
 10
534.230949966684
 20
99.236254819994
 30
0.0
 11
535.383348670871
 21
97.24024779988
 31
0.0
  0
LINE
  5
253
330
1C4
100
AcDbEntity
  8
Stammform
  6
AUSGEZOGEN
 62
    56
370
    18
100
AcDbLine
 10
534.230949966684
 20
99.236254819994
 30
0.0
 11
531.926168379922
 21
99.236254819994
 31
0.0
  0
LINE
  5
254
330
1C4
100
AcDbEntity
  8
Stammform
  6
AUSGEZOGEN
 62
     9
370
    18
100
AcDbLine
 10
533.078551262498
 20
105.224262036428
 30
0.0
 11
531.926168379922
 21
107.220269056543
 31
0.0
  0
LINE
  5
255
330
1C4
100
AcDbEntity
  8
Stammform
  6
AUSGEZOGEN
 62
     9
370
    18
100
AcDbLine
 10
536.535731553446
 20
107.220269056543
 30
0.0
 11
535.383348670871
 21
105.224262036428
 31
0.0
  0
LINE
  5
256
330
1C4
100
AcDbEntity
  8
Stammform
  6
AUSGEZOGEN
 62
    56
370
    18
100
AcDbLine
 10
534.230949966684
 20
107.220269056543
 30
0.0
 11
535.383348670871
 21
105.224262036428
 31
0.0
  0
LINE
  5
257
330
1C4
100
AcDbEntity
  8
Stammform
  6
AUSGEZOGEN
 62
     9
370
    18
100
AcDbLine
 10
531.926168379922
 20
103.228255016314
 30
0.0
 11
533.078551262498
 21
101.232246018498
 31
0.0
  0
LINE
  5
258
330
1C4
100
AcDbEntity
  8
Stammform
  6
AUSGEZOGEN
 62
     9
370
    18
100
AcDbLine
 10
535.383348670871
 20
101.232246018498
 30
0.0
 11
536.535731553446
 21
103.228255016314
 31
0.0
  0
LINE
  5
259
330
1C4
100
AcDbEntity
  8
Stammform
  6
AUSGEZOGEN
 62
     9
370
    18
100
AcDbLine
 10
536.535731553446
 20
103.228255016314
 30
0.0
 11
535.383348670871
 21
105.224262036428
 31
0.0
  0
LINE
  5
25A
330
1C4
100
AcDbEntity
  8
Stammform
  6
AUSGEZOGEN
 62
     9
370
    18
100
AcDbLine
 10
535.383348670871
 20
105.224262036428
 30
0.0
 11
533.078551262498
 21
105.224262036428
 31
0.0
  0
LINE
  5
25B
330
1C4
100
AcDbEntity
  8
Stammform
  6
AUSGEZOGEN
 62
     9
370
    18
100
AcDbLine
 10
533.078551262498
 20
101.232246018498
 30
0.0
 11
535.383348670871
 21
101.232246018498
 31
0.0
  0
LINE
  5
25C
330
1C4
100
AcDbEntity
  8
Stammform
  6
AUSGEZOGEN
 62
    56
370
    18
100
AcDbLine
 10
535.383348670871
 20
101.232246018498
 30
0.0
 11
534.230949966684
 21
103.228255016314
 31
0.0
  0
LINE
  5
25D
330
1C4
100
AcDbEntity
  8
Stammform
  6
AUSGEZOGEN
 62
    56
370
    18
100
AcDbLine
 10
534.230949966684
 20
103.228255016314
 30
0.0
 11
535.383348670871
 21
105.224262036428
 31
0.0
  0
LINE
  5
25E
330
1C4
100
AcDbEntity
  8
Stammform
  6
AUSGEZOGEN
 62
    56
370
    18
100
AcDbLine
 10
534.230949966684
 20
103.228255016314
 30
0.0
 11
531.926168379922
 21
103.228255016314
 31
0.0
  0
LINE
  5
25F
330
1C4
100
AcDbEntity
  8
Stammform
  6
AUSGEZOGEN
 62
     9
370
    18
100
AcDbLine
 10
531.926168379922
 20
75.284218537879
 30
0.0
 11
533.078551262498
 21
77.280225063568
 31
0.0
  0
LINE
  5
260
330
1C4
100
AcDbEntity
  8
Stammform
  6
AUSGEZOGEN
 62
     9
370
    18
100
AcDbLine
 10
535.383348670871
 20
77.280225063568
 30
0.0
 11
536.535731553446
 21
75.284218537879
 31
0.0
  0
LINE
  5
261
330
1C4
100
AcDbEntity
  8
Stammform
  6
AUSGEZOGEN
 62
    56
370
    18
100
AcDbLine
 10
535.383348670871
 20
77.280225063568
 30
0.0
 11
534.230949966684
 21
75.284218537879
 31
0.0
  0
LINE
  5
262
330
1C4
100
AcDbEntity
  8
Stammform
  6
AUSGEZOGEN
 62
     9
370
    18
100
AcDbLine
 10
533.078551262498
 20
89.256235541033
 30
0.0
 11
531.926168379922
 21
91.252242561147
 31
0.0
  0
LINE
  5
263
330
1C4
100
AcDbEntity
  8
Stammform
  6
AUSGEZOGEN
 62
     9
370
    18
100
AcDbLine
 10
535.383348670871
 20
93.248249581262
 30
0.0
 11
536.535731553446
 21
91.252242561147
 31
0.0
  0
LINE
  5
264
330
1C4
100
AcDbEntity
  8
Stammform
  6
AUSGEZOGEN
 62
     9
370
    18
100
AcDbLine
 10
536.535731553446
 20
91.252242561147
 30
0.0
 11
535.383348670871
 21
89.256235541033
 31
0.0
  0
LINE
  5
265
330
1C4
100
AcDbEntity
  8
Stammform
  6
AUSGEZOGEN
 62
     9
370
    18
100
AcDbLine
 10
533.078551262498
 20
93.248249581262
 30
0.0
 11
535.383348670871
 21
93.248249581262
 31
0.0
  0
LINE
  5
266
330
1C4
100
AcDbEntity
  8
Stammform
  6
AUSGEZOGEN
 62
    56
370
    18
100
AcDbLine
 10
535.383348670871
 20
93.248249581262
 30
0.0
 11
534.230949966684
 21
91.252242561147
 31
0.0
  0
LINE
  5
267
330
1C4
100
AcDbEntity
  8
Stammform
  6
AUSGEZOGEN
 62
    56
370
    18
100
AcDbLine
 10
534.230949966684
 20
91.252242561147
 30
0.0
 11
535.383348670871
 21
89.256235541033
 31
0.0
  0
LINE
  5
268
330
1C4
100
AcDbEntity
  8
Stammform
  6
AUSGEZOGEN
 62
    56
370
    18
100
AcDbLine
 10
534.230949966684
 20
91.252242561147
 30
0.0
 11
531.926168379922
 21
91.252242561147
 31
0.0
  0
LINE
  5
269
330
1C4
100
AcDbEntity
  8
Stammform
  6
AUSGEZOGEN
 62
     9
370
    18
100
AcDbLine
 10
531.926168379922
 20
87.260228520918
 30
0.0
 11
533.078551262498
 21
85.264221500804
 31
0.0
  0
LINE
  5
26A
330
1C4
100
AcDbEntity
  8
Stammform
  6
AUSGEZOGEN
 62
     9
370
    18
100
AcDbLine
 10
535.383348670871
 20
85.264221500804
 30
0.0
 11
536.535731553446
 21
87.260228520918
 31
0.0
  0
LINE
  5
26B
330
1C4
100
AcDbEntity
  8
Stammform
  6
AUSGEZOGEN
 62
     9
370
    18
100
AcDbLine
 10
536.535731553446
 20
87.260228520918
 30
0.0
 11
535.383348670871
 21
89.256235541033
 31
0.0
  0
LINE
  5
26C
330
1C4
100
AcDbEntity
  8
Stammform
  6
AUSGEZOGEN
 62
     9
370
    18
100
AcDbLine
 10
535.383348670871
 20
89.256235541033
 30
0.0
 11
533.078551262498
 21
89.256235541033
 31
0.0
  0
LINE
  5
26D
330
1C4
100
AcDbEntity
  8
Stammform
  6
AUSGEZOGEN
 62
    56
370
    18
100
AcDbLine
 10
535.383348670871
 20
85.264221500804
 30
0.0
 11
534.230949966684
 21
87.260228520918
 31
0.0
  0
LINE
  5
26E
330
1C4
100
AcDbEntity
  8
Stammform
  6
AUSGEZOGEN
 62
    56
370
    18
100
AcDbLine
 10
534.230949966684
 20
87.260228520918
 30
0.0
 11
535.383348670871
 21
89.256235541033
 31
0.0
  0
LINE
  5
26F
330
1C4
100
AcDbEntity
  8
Stammform
  6
AUSGEZOGEN
 62
    56
370
    18
100
AcDbLine
 10
534.230949966684
 20
87.260228520918
 30
0.0
 11
531.926168379922
 21
87.260228520918
 31
0.0
  0
LINE
  5
270
330
1C4
100
AcDbEntity
  8
Stammform
  6
AUSGEZOGEN
 62
     9
370
    18
100
AcDbLine
 10
531.926168379922
 20
79.276216262071
 30
0.0
 11
533.078551262498
 21
77.280225063568
 31
0.0
  0
LINE
  5
271
330
1C4
100
AcDbEntity
  8
Stammform
  6
AUSGEZOGEN
 62
     9
370
    18
100
AcDbLine
 10
535.383348670871
 20
77.280225063568
 30
0.0
 11
536.535731553446
 21
79.276216262071
 31
0.0
  0
LINE
  5
272
330
1C4
100
AcDbEntity
  8
Stammform
  6
AUSGEZOGEN
 62
     9
370
    18
100
AcDbLine
 10
536.535731553446
 20
79.276216262071
 30
0.0
 11
535.383348670871
 21
81.272223282186
 31
0.0
  0
LINE
  5
273
330
1C4
100
AcDbEntity
  8
Stammform
  6
AUSGEZOGEN
 62
     9
370
    18
100
AcDbLine
 10
533.078551262498
 20
77.280225063568
 30
0.0
 11
535.383348670871
 21
77.280225063568
 31
0.0
  0
LINE
  5
274
330
1C4
100
AcDbEntity
  8
Stammform
  6
AUSGEZOGEN
 62
    56
370
    18
100
AcDbLine
 10
535.383348670871
 20
77.280225063568
 30
0.0
 11
534.230949966684
 21
79.276216262071
 31
0.0
  0
LINE
  5
275
330
1C4
100
AcDbEntity
  8
Stammform
  6
AUSGEZOGEN
 62
    56
370
    18
100
AcDbLine
 10
534.230949966684
 20
79.276216262071
 30
0.0
 11
535.383348670871
 21
81.272223282186
 31
0.0
  0
LINE
  5
276
330
1C4
100
AcDbEntity
  8
Stammform
  6
AUSGEZOGEN
 62
    56
370
    18
100
AcDbLine
 10
534.230949966684
 20
79.276216262071
 30
0.0
 11
531.926168379922
 21
79.276216262071
 31
0.0
  0
LINE
  5
277
330
1C4
100
AcDbEntity
  8
Stammform
  6
AUSGEZOGEN
 62
     9
370
    18
100
AcDbLine
 10
535.383348670871
 20
85.264221500804
 30
0.0
 11
536.535731553446
 21
83.2682303023
 31
0.0
  0
LINE
  5
278
330
1C4
100
AcDbEntity
  8
Stammform
  6
AUSGEZOGEN
 62
     9
370
    18
100
AcDbLine
 10
536.535731553446
 20
83.2682303023
 30
0.0
 11
535.383348670871
 21
81.272223282186
 31
0.0
  0
LINE
  5
279
330
1C4
100
AcDbEntity
  8
Stammform
  6
AUSGEZOGEN
 62
     9
370
    18
100
AcDbLine
 10
535.383348670871
 20
81.272223282186
 30
0.0
 11
533.078551262498
 21
81.272223282186
 31
0.0
  0
LINE
  5
27A
330
1C4
100
AcDbEntity
  8
Stammform
  6
AUSGEZOGEN
 62
     9
370
    18
100
AcDbLine
 10
533.078551262498
 20
85.264221500804
 30
0.0
 11
535.383348670871
 21
85.264221500804
 31
0.0
  0
LINE
  5
27B
330
1C4
100
AcDbEntity
  8
Stammform
  6
AUSGEZOGEN
 62
    56
370
    18
100
AcDbLine
 10
535.383348670871
 20
85.264221500804
 30
0.0
 11
534.230949966684
 21
83.2682303023
 31
0.0
  0
LINE
  5
27C
330
1C4
100
AcDbEntity
  8
Stammform
  6
AUSGEZOGEN
 62
    56
370
    18
100
AcDbLine
 10
534.230949966684
 20
83.2682303023
 30
0.0
 11
535.383348670871
 21
81.272223282186
 31
0.0
  0
LINE
  5
27D
330
1C4
100
AcDbEntity
  8
Stammform
  6
AUSGEZOGEN
 62
    56
370
    18
100
AcDbLine
 10
534.230949966684
 20
83.2682303023
 30
0.0
 11
531.926168379922
 21
83.2682303023
 31
0.0
  0
LINE
  5
27E
330
1C4
100
AcDbEntity
  8
Stammform
  6
AUSGEZOGEN
 62
     9
370
    18
100
AcDbLine
 10
531.926168379922
 20
91.252226739536
 30
0.0
 11
533.078551262498
 21
93.248233759651
 31
0.0
  0
LINE
  5
27F
330
1C4
100
AcDbEntity
  8
Stammform
  6
AUSGEZOGEN
 62
     9
370
    18
100
AcDbLine
 10
533.078551262498
 20
93.248233759651
 30
0.0
 11
531.926168379922
 21
95.244240779765
 31
0.0
  0
LINE
  5
280
330
1C4
100
AcDbEntity
  8
Stammform
  6
AUSGEZOGEN
 62
    56
370
    18
100
AcDbLine
 10
531.926168379922
 20
91.252226739536
 30
0.0
 11
530.773769675735
 21
93.248233759651
 31
0.0
  0
LINE
  5
281
330
1C4
100
AcDbEntity
  8
Stammform
  6
AUSGEZOGEN
 62
    56
370
    18
100
AcDbLine
 10
530.773769675735
 20
93.248233759651
 30
0.0
 11
531.926168379922
 21
95.244240779765
 31
0.0
  0
LINE
  5
282
330
1C4
100
AcDbEntity
  8
Stammform
  6
AUSGEZOGEN
 62
    56
370
    18
100
AcDbLine
 10
530.773769675735
 20
93.248233759651
 30
0.0
 11
528.468988088973
 21
93.248233759651
 31
0.0
  0
LINE
  5
283
330
1C4
100
AcDbEntity
  8
Stammform
  6
AUSGEZOGEN
 62
     9
370
    18
100
AcDbLine
 10
531.926168379922
 20
99.236254819994
 30
0.0
 11
533.078551262498
 21
97.24024779988
 31
0.0
  0
LINE
  5
284
330
1C4
100
AcDbEntity
  8
Stammform
  6
AUSGEZOGEN
 62
     9
370
    18
100
AcDbLine
 10
533.078551262498
 20
97.24024779988
 30
0.0
 11
531.926168379922
 21
95.244240779765
 31
0.0
  0
LINE
  5
285
330
1C4
100
AcDbEntity
  8
Stammform
  6
AUSGEZOGEN
 62
     9
370
    18
100
AcDbLine
 10
531.926168379922
 20
95.244240779765
 30
0.0
 11
529.621370971549
 21
95.244240779765
 31
0.0
  0
LINE
  5
286
330
1C4
100
AcDbEntity
  8
Stammform
  6
AUSGEZOGEN
 62
    56
370
    18
100
AcDbLine
 10
531.926168379922
 20
99.236254819994
 30
0.0
 11
530.773769675735
 21
97.24024779988
 31
0.0
  0
LINE
  5
287
330
1C4
100
AcDbEntity
  8
Stammform
  6
AUSGEZOGEN
 62
    56
370
    18
100
AcDbLine
 10
530.773769675735
 20
97.24024779988
 30
0.0
 11
531.926168379922
 21
95.244240779765
 31
0.0
  0
LINE
  5
288
330
1C4
100
AcDbEntity
  8
Stammform
  6
AUSGEZOGEN
 62
    56
370
    18
100
AcDbLine
 10
530.773769675735
 20
97.24024779988
 30
0.0
 11
528.468988088973
 21
97.24024779988
 31
0.0
  0
LINE
  5
289
330
1C4
100
AcDbEntity
  8
Stammform
  6
AUSGEZOGEN
 62
     9
370
    18
100
AcDbLine
 10
533.078551262498
 20
105.224262036428
 30
0.0
 11
531.926168379922
 21
103.228255016314
 31
0.0
  0
LINE
  5
28A
330
1C4
100
AcDbEntity
  8
Stammform
  6
AUSGEZOGEN
 62
    56
370
    18
100
AcDbLine
 10
531.926168379922
 20
107.220253234932
 30
0.0
 11
530.773769675735
 21
105.224262036428
 31
0.0
  0
LINE
  5
28B
330
1C4
100
AcDbEntity
  8
Stammform
  6
AUSGEZOGEN
 62
    56
370
    18
100
AcDbLine
 10
530.773769675735
 20
105.224262036428
 30
0.0
 11
531.926168379922
 21
103.228255016314
 31
0.0
  0
LINE
  5
28C
330
1C4
100
AcDbEntity
  8
Stammform
  6
AUSGEZOGEN
 62
    56
370
    18
100
AcDbLine
 10
530.773769675735
 20
105.224262036428
 30
0.0
 11
528.468988088973
 21
105.224262036428
 31
0.0
  0
LINE
  5
28D
330
1C4
100
AcDbEntity
  8
Stammform
  6
AUSGEZOGEN
 62
     9
370
    18
100
AcDbLine
 10
531.926168379922
 20
99.236254819994
 30
0.0
 11
533.078551262498
 21
101.232246018498
 31
0.0
  0
LINE
  5
28E
330
1C4
100
AcDbEntity
  8
Stammform
  6
AUSGEZOGEN
 62
     9
370
    18
100
AcDbLine
 10
531.926168379922
 20
103.228255016314
 30
0.0
 11
529.621370971549
 21
103.228255016314
 31
0.0
  0
LINE
  5
28F
330
1C4
100
AcDbEntity
  8
Stammform
  6
AUSGEZOGEN
 62
     9
370
    18
100
AcDbLine
 10
529.621370971549
 20
99.236254819994
 30
0.0
 11
531.926168379922
 21
99.236254819994
 31
0.0
  0
LINE
  5
290
330
1C4
100
AcDbEntity
  8
Stammform
  6
AUSGEZOGEN
 62
    56
370
    18
100
AcDbLine
 10
531.926168379922
 20
99.236254819994
 30
0.0
 11
530.773769675735
 21
101.232246018498
 31
0.0
  0
LINE
  5
291
330
1C4
100
AcDbEntity
  8
Stammform
  6
AUSGEZOGEN
 62
    56
370
    18
100
AcDbLine
 10
530.773769675735
 20
101.232246018498
 30
0.0
 11
531.926168379922
 21
103.228255016314
 31
0.0
  0
LINE
  5
292
330
1C4
100
AcDbEntity
  8
Stammform
  6
AUSGEZOGEN
 62
    56
370
    18
100
AcDbLine
 10
530.773769675735
 20
101.232246018498
 30
0.0
 11
528.468988088973
 21
101.232246018498
 31
0.0
  0
LINE
  5
293
330
1C4
100
AcDbEntity
  8
Stammform
  6
AUSGEZOGEN
 62
     9
370
    18
100
AcDbLine
 10
533.078551262498
 20
89.256235541033
 30
0.0
 11
531.926168379922
 21
87.260228520918
 31
0.0
  0
LINE
  5
294
330
1C4
100
AcDbEntity
  8
Stammform
  6
AUSGEZOGEN
 62
     9
370
    18
100
AcDbLine
 10
529.621370971549
 20
91.252226739536
 30
0.0
 11
531.926168379922
 21
91.252226739536
 31
0.0
  0
LINE
  5
295
330
1C4
100
AcDbEntity
  8
Stammform
  6
AUSGEZOGEN
 62
    56
370
    18
100
AcDbLine
 10
531.926168379922
 20
91.252226739536
 30
0.0
 11
530.773769675735
 21
89.256235541033
 31
0.0
  0
LINE
  5
296
330
1C4
100
AcDbEntity
  8
Stammform
  6
AUSGEZOGEN
 62
    56
370
    18
100
AcDbLine
 10
530.773769675735
 20
89.256235541033
 30
0.0
 11
531.926168379922
 21
87.260228520918
 31
0.0
  0
LINE
  5
297
330
1C4
100
AcDbEntity
  8
Stammform
  6
AUSGEZOGEN
 62
    56
370
    18
100
AcDbLine
 10
530.773769675735
 20
89.256235541033
 30
0.0
 11
528.468988088973
 21
89.256235541033
 31
0.0
  0
LINE
  5
298
330
1C4
100
AcDbEntity
  8
Stammform
  6
AUSGEZOGEN
 62
     9
370
    18
100
AcDbLine
 10
531.926168379922
 20
83.2682303023
 30
0.0
 11
533.078551262498
 21
85.264221500804
 31
0.0
  0
LINE
  5
299
330
1C4
100
AcDbEntity
  8
Stammform
  6
AUSGEZOGEN
 62
     9
370
    18
100
AcDbLine
 10
531.926168379922
 20
87.260228520918
 30
0.0
 11
529.621370971549
 21
87.260228520918
 31
0.0
  0
LINE
  5
29A
330
1C4
100
AcDbEntity
  8
Stammform
  6
AUSGEZOGEN
 62
    56
370
    18
100
AcDbLine
 10
531.926168379922
 20
83.2682303023
 30
0.0
 11
530.773769675735
 21
85.264221500804
 31
0.0
  0
LINE
  5
29B
330
1C4
100
AcDbEntity
  8
Stammform
  6
AUSGEZOGEN
 62
    56
370
    18
100
AcDbLine
 10
530.773769675735
 20
85.264221500804
 30
0.0
 11
531.926168379922
 21
87.260228520918
 31
0.0
  0
LINE
  5
29C
330
1C4
100
AcDbEntity
  8
Stammform
  6
AUSGEZOGEN
 62
    56
370
    18
100
AcDbLine
 10
530.773769675735
 20
85.264221500804
 30
0.0
 11
528.468988088973
 21
85.264221500804
 31
0.0
  0
LINE
  5
29D
330
1C4
100
AcDbEntity
  8
Stammform
  6
AUSGEZOGEN
 62
    56
370
    18
100
AcDbLine
 10
531.926168379922
 20
75.284202716267
 30
0.0
 11
530.773769675735
 21
77.280209241957
 31
0.0
  0
LINE
  5
29E
330
1C4
100
AcDbEntity
  8
Stammform
  6
AUSGEZOGEN
 62
    56
370
    18
100
AcDbLine
 10
530.773769675735
 20
77.280209241957
 30
0.0
 11
531.926168379922
 21
79.276216262071
 31
0.0
  0
LINE
  5
29F
330
1C4
100
AcDbEntity
  8
Stammform
  6
AUSGEZOGEN
 62
    56
370
    18
100
AcDbLine
 10
530.773769675735
 20
77.280209241957
 30
0.0
 11
528.468988088973
 21
77.280209241957
 31
0.0
  0
LINE
  5
2A0
330
1C4
100
AcDbEntity
  8
Stammform
  6
AUSGEZOGEN
 62
     9
370
    18
100
AcDbLine
 10
531.926168379922
 20
83.2682303023
 30
0.0
 11
533.078551262498
 21
81.272223282186
 31
0.0
  0
LINE
  5
2A1
330
1C4
100
AcDbEntity
  8
Stammform
  6
AUSGEZOGEN
 62
     9
370
    18
100
AcDbLine
 10
533.078551262498
 20
81.272223282186
 30
0.0
 11
531.926168379922
 21
79.276216262071
 31
0.0
  0
LINE
  5
2A2
330
1C4
100
AcDbEntity
  8
Stammform
  6
AUSGEZOGEN
 62
     9
370
    18
100
AcDbLine
 10
531.926168379922
 20
79.276216262071
 30
0.0
 11
529.621370971549
 21
79.276216262071
 31
0.0
  0
LINE
  5
2A3
330
1C4
100
AcDbEntity
  8
Stammform
  6
AUSGEZOGEN
 62
     9
370
    18
100
AcDbLine
 10
529.621370971549
 20
83.2682303023
 30
0.0
 11
531.926168379922
 21
83.2682303023
 31
0.0
  0
LINE
  5
2A4
330
1C4
100
AcDbEntity
  8
Stammform
  6
AUSGEZOGEN
 62
    56
370
    18
100
AcDbLine
 10
531.926168379922
 20
83.2682303023
 30
0.0
 11
530.773769675735
 21
81.272223282186
 31
0.0
  0
LINE
  5
2A5
330
1C4
100
AcDbEntity
  8
Stammform
  6
AUSGEZOGEN
 62
    56
370
    18
100
AcDbLine
 10
530.773769675735
 20
81.272223282186
 30
0.0
 11
531.926168379922
 21
79.276216262071
 31
0.0
  0
LINE
  5
2A6
330
1C4
100
AcDbEntity
  8
Stammform
  6
AUSGEZOGEN
 62
    56
370
    18
100
AcDbLine
 10
530.773769675735
 20
81.272223282186
 30
0.0
 11
528.468988088973
 21
81.272223282186
 31
0.0
  0
LINE
  5
2A7
330
1C4
100
AcDbEntity
  8
Stammform
  6
AUSGEZOGEN
 62
     9
370
    18
100
AcDbLine
 10
528.468988088973
 20
93.248249581262
 30
0.0
 11
529.621370971549
 21
95.244240779765
 31
0.0
  0
LINE
  5
2A8
330
1C4
100
AcDbEntity
  8
Stammform
  6
AUSGEZOGEN
 62
     9
370
    18
100
AcDbLine
 10
529.621370971549
 20
95.244240779765
 30
0.0
 11
528.468988088973
 21
97.24024779988
 31
0.0
  0
LINE
  5
2A9
330
1C4
100
AcDbEntity
  8
Stammform
  6
AUSGEZOGEN
 62
    56
370
    18
100
AcDbLine
 10
528.468988088973
 20
93.248249581262
 30
0.0
 11
527.316589384787
 21
95.244240779765
 31
0.0
  0
LINE
  5
2AA
330
1C4
100
AcDbEntity
  8
Stammform
  6
AUSGEZOGEN
 62
    56
370
    18
100
AcDbLine
 10
527.316589384787
 20
95.244240779765
 30
0.0
 11
528.468988088973
 21
97.24024779988
 31
0.0
  0
LINE
  5
2AB
330
1C4
100
AcDbEntity
  8
Stammform
  6
AUSGEZOGEN
 62
    56
370
    18
100
AcDbLine
 10
527.316589384787
 20
95.244240779765
 30
0.0
 11
525.011807798025
 21
95.244240779765
 31
0.0
  0
LINE
  5
2AC
330
1C4
100
AcDbEntity
  8
Stammform
  6
AUSGEZOGEN
 62
     9
370
    18
100
AcDbLine
 10
528.468988088973
 20
101.232246018498
 30
0.0
 11
529.621370971549
 21
99.236254819994
 31
0.0
  0
LINE
  5
2AD
330
1C4
100
AcDbEntity
  8
Stammform
  6
AUSGEZOGEN
 62
     9
370
    18
100
AcDbLine
 10
529.621370971549
 20
99.236254819994
 30
0.0
 11
528.468988088973
 21
97.24024779988
 31
0.0
  0
LINE
  5
2AE
330
1C4
100
AcDbEntity
  8
Stammform
  6
AUSGEZOGEN
 62
     9
370
    18
100
AcDbLine
 10
528.468988088973
 20
97.24024779988
 30
0.0
 11
526.1641906806
 21
97.24024779988
 31
0.0
  0
LINE
  5
2AF
330
1C4
100
AcDbEntity
  8
Stammform
  6
AUSGEZOGEN
 62
    56
370
    18
100
AcDbLine
 10
528.468988088973
 20
101.232246018498
 30
0.0
 11
527.316589384787
 21
99.236254819994
 31
0.0
  0
LINE
  5
2B0
330
1C4
100
AcDbEntity
  8
Stammform
  6
AUSGEZOGEN
 62
    56
370
    18
100
AcDbLine
 10
527.316589384787
 20
99.236254819994
 30
0.0
 11
528.468988088973
 21
97.24024779988
 31
0.0
  0
LINE
  5
2B1
330
1C4
100
AcDbEntity
  8
Stammform
  6
AUSGEZOGEN
 62
    56
370
    18
100
AcDbLine
 10
527.316589384787
 20
99.236254819994
 30
0.0
 11
525.011807798025
 21
99.236254819994
 31
0.0
  0
LINE
  5
2B2
330
1C4
100
AcDbEntity
  8
Stammform
  6
AUSGEZOGEN
 62
     9
370
    18
100
AcDbLine
 10
529.621370971549
 20
107.220269056543
 30
0.0
 11
528.468988088973
 21
105.224262036428
 31
0.0
  0
LINE
  5
2B3
330
1C4
100
AcDbEntity
  8
Stammform
  6
AUSGEZOGEN
 62
    56
370
    18
100
AcDbLine
 10
527.316589384787
 20
107.220269056543
 30
0.0
 11
528.468988088973
 21
105.224262036428
 31
0.0
  0
LINE
  5
2B4
330
1C4
100
AcDbEntity
  8
Stammform
  6
AUSGEZOGEN
 62
     9
370
    18
100
AcDbLine
 10
528.468988088973
 20
101.232246018498
 30
0.0
 11
529.621370971549
 21
103.228255016314
 31
0.0
  0
LINE
  5
2B5
330
1C4
100
AcDbEntity
  8
Stammform
  6
AUSGEZOGEN
 62
     9
370
    18
100
AcDbLine
 10
529.621370971549
 20
103.228255016314
 30
0.0
 11
528.468988088973
 21
105.224262036428
 31
0.0
  0
LINE
  5
2B6
330
1C4
100
AcDbEntity
  8
Stammform
  6
AUSGEZOGEN
 62
     9
370
    18
100
AcDbLine
 10
528.468988088973
 20
105.224262036428
 30
0.0
 11
526.1641906806
 21
105.224262036428
 31
0.0
  0
LINE
  5
2B7
330
1C4
100
AcDbEntity
  8
Stammform
  6
AUSGEZOGEN
 62
     9
370
    18
100
AcDbLine
 10
526.1641906806
 20
101.232246018498
 30
0.0
 11
528.468988088973
 21
101.232246018498
 31
0.0
  0
LINE
  5
2B8
330
1C4
100
AcDbEntity
  8
Stammform
  6
AUSGEZOGEN
 62
    56
370
    18
100
AcDbLine
 10
528.468988088973
 20
101.232246018498
 30
0.0
 11
527.316589384787
 21
103.228255016314
 31
0.0
  0
LINE
  5
2B9
330
1C4
100
AcDbEntity
  8
Stammform
  6
AUSGEZOGEN
 62
    56
370
    18
100
AcDbLine
 10
527.316589384787
 20
103.228255016314
 30
0.0
 11
528.468988088973
 21
105.224262036428
 31
0.0
  0
LINE
  5
2BA
330
1C4
100
AcDbEntity
  8
Stammform
  6
AUSGEZOGEN
 62
    56
370
    18
100
AcDbLine
 10
527.316589384787
 20
103.228255016314
 30
0.0
 11
525.011807798025
 21
103.228255016314
 31
0.0
  0
LINE
  5
2BB
330
1C4
100
AcDbEntity
  8
Stammform
  6
AUSGEZOGEN
 62
     9
370
    18
100
AcDbLine
 10
528.468988088973
 20
77.280225063568
 30
0.0
 11
529.621370971549
 21
75.284218537879
 31
0.0
  0
LINE
  5
2BC
330
1C4
100
AcDbEntity
  8
Stammform
  6
AUSGEZOGEN
 62
    56
370
    18
100
AcDbLine
 10
528.468988088973
 20
77.280225063568
 30
0.0
 11
527.316589384787
 21
75.284218537879
 31
0.0
  0
LINE
  5
2BD
330
1C4
100
AcDbEntity
  8
Stammform
  6
AUSGEZOGEN
 62
     9
370
    18
100
AcDbLine
 10
528.468988088973
 20
93.248249581262
 30
0.0
 11
529.621370971549
 21
91.252242561147
 31
0.0
  0
LINE
  5
2BE
330
1C4
100
AcDbEntity
  8
Stammform
  6
AUSGEZOGEN
 62
     9
370
    18
100
AcDbLine
 10
529.621370971549
 20
91.252242561147
 30
0.0
 11
528.468988088973
 21
89.256235541033
 31
0.0
  0
LINE
  5
2BF
330
1C4
100
AcDbEntity
  8
Stammform
  6
AUSGEZOGEN
 62
     9
370
    18
100
AcDbLine
 10
526.1641906806
 20
93.248249581262
 30
0.0
 11
528.468988088973
 21
93.248249581262
 31
0.0
  0
LINE
  5
2C0
330
1C4
100
AcDbEntity
  8
Stammform
  6
AUSGEZOGEN
 62
    56
370
    18
100
AcDbLine
 10
528.468988088973
 20
93.248249581262
 30
0.0
 11
527.316589384787
 21
91.252242561147
 31
0.0
  0
LINE
  5
2C1
330
1C4
100
AcDbEntity
  8
Stammform
  6
AUSGEZOGEN
 62
    56
370
    18
100
AcDbLine
 10
527.316589384787
 20
91.252242561147
 30
0.0
 11
528.468988088973
 21
89.256235541033
 31
0.0
  0
LINE
  5
2C2
330
1C4
100
AcDbEntity
  8
Stammform
  6
AUSGEZOGEN
 62
    56
370
    18
100
AcDbLine
 10
527.316589384787
 20
91.252242561147
 30
0.0
 11
525.011807798025
 21
91.252242561147
 31
0.0
  0
LINE
  5
2C3
330
1C4
100
AcDbEntity
  8
Stammform
  6
AUSGEZOGEN
 62
     9
370
    18
100
AcDbLine
 10
528.468988088973
 20
85.264221500804
 30
0.0
 11
529.621370971549
 21
87.260228520918
 31
0.0
  0
LINE
  5
2C4
330
1C4
100
AcDbEntity
  8
Stammform
  6
AUSGEZOGEN
 62
     9
370
    18
100
AcDbLine
 10
529.621370971549
 20
87.260228520918
 30
0.0
 11
528.468988088973
 21
89.256235541033
 31
0.0
  0
LINE
  5
2C5
330
1C4
100
AcDbEntity
  8
Stammform
  6
AUSGEZOGEN
 62
     9
370
    18
100
AcDbLine
 10
528.468988088973
 20
89.256235541033
 30
0.0
 11
526.1641906806
 21
89.256235541033
 31
0.0
  0
LINE
  5
2C6
330
1C4
100
AcDbEntity
  8
Stammform
  6
AUSGEZOGEN
 62
    56
370
    18
100
AcDbLine
 10
528.468988088973
 20
85.264221500804
 30
0.0
 11
527.316589384787
 21
87.260228520918
 31
0.0
  0
LINE
  5
2C7
330
1C4
100
AcDbEntity
  8
Stammform
  6
AUSGEZOGEN
 62
    56
370
    18
100
AcDbLine
 10
527.316589384787
 20
87.260228520918
 30
0.0
 11
528.468988088973
 21
89.256235541033
 31
0.0
  0
LINE
  5
2C8
330
1C4
100
AcDbEntity
  8
Stammform
  6
AUSGEZOGEN
 62
    56
370
    18
100
AcDbLine
 10
527.316589384787
 20
87.260228520918
 30
0.0
 11
525.011807798025
 21
87.260228520918
 31
0.0
  0
LINE
  5
2C9
330
1C4
100
AcDbEntity
  8
Stammform
  6
AUSGEZOGEN
 62
     9
370
    18
100
AcDbLine
 10
528.468988088973
 20
77.280225063568
 30
0.0
 11
529.621370971549
 21
79.276216262071
 31
0.0
  0
LINE
  5
2CA
330
1C4
100
AcDbEntity
  8
Stammform
  6
AUSGEZOGEN
 62
     9
370
    18
100
AcDbLine
 10
529.621370971549
 20
79.276216262071
 30
0.0
 11
528.468988088973
 21
81.272223282186
 31
0.0
  0
LINE
  5
2CB
330
1C4
100
AcDbEntity
  8
Stammform
  6
AUSGEZOGEN
 62
     9
370
    18
100
AcDbLine
 10
526.1641906806
 20
77.280225063568
 30
0.0
 11
528.468988088973
 21
77.280225063568
 31
0.0
  0
LINE
  5
2CC
330
1C4
100
AcDbEntity
  8
Stammform
  6
AUSGEZOGEN
 62
    56
370
    18
100
AcDbLine
 10
528.468988088973
 20
77.280225063568
 30
0.0
 11
527.316589384787
 21
79.276216262071
 31
0.0
  0
LINE
  5
2CD
330
1C4
100
AcDbEntity
  8
Stammform
  6
AUSGEZOGEN
 62
    56
370
    18
100
AcDbLine
 10
527.316589384787
 20
79.276216262071
 30
0.0
 11
528.468988088973
 21
81.272223282186
 31
0.0
  0
LINE
  5
2CE
330
1C4
100
AcDbEntity
  8
Stammform
  6
AUSGEZOGEN
 62
    56
370
    18
100
AcDbLine
 10
527.316589384787
 20
79.276216262071
 30
0.0
 11
525.011807798025
 21
79.276216262071
 31
0.0
  0
LINE
  5
2CF
330
1C4
100
AcDbEntity
  8
Stammform
  6
AUSGEZOGEN
 62
     9
370
    18
100
AcDbLine
 10
528.468988088973
 20
85.264221500804
 30
0.0
 11
529.621370971549
 21
83.2682303023
 31
0.0
  0
LINE
  5
2D0
330
1C4
100
AcDbEntity
  8
Stammform
  6
AUSGEZOGEN
 62
     9
370
    18
100
AcDbLine
 10
529.621370971549
 20
83.2682303023
 30
0.0
 11
528.468988088973
 21
81.272223282186
 31
0.0
  0
LINE
  5
2D1
330
1C4
100
AcDbEntity
  8
Stammform
  6
AUSGEZOGEN
 62
     9
370
    18
100
AcDbLine
 10
528.468988088973
 20
81.272223282186
 30
0.0
 11
526.1641906806
 21
81.272223282186
 31
0.0
  0
LINE
  5
2D2
330
1C4
100
AcDbEntity
  8
Stammform
  6
AUSGEZOGEN
 62
     9
370
    18
100
AcDbLine
 10
526.1641906806
 20
85.264221500804
 30
0.0
 11
528.468988088973
 21
85.264221500804
 31
0.0
  0
LINE
  5
2D3
330
1C4
100
AcDbEntity
  8
Stammform
  6
AUSGEZOGEN
 62
    56
370
    18
100
AcDbLine
 10
528.468988088973
 20
85.264221500804
 30
0.0
 11
527.316589384787
 21
83.2682303023
 31
0.0
  0
LINE
  5
2D4
330
1C4
100
AcDbEntity
  8
Stammform
  6
AUSGEZOGEN
 62
    56
370
    18
100
AcDbLine
 10
527.316589384787
 20
83.2682303023
 30
0.0
 11
528.468988088973
 21
81.272223282186
 31
0.0
  0
LINE
  5
2D5
330
1C4
100
AcDbEntity
  8
Stammform
  6
AUSGEZOGEN
 62
    56
370
    18
100
AcDbLine
 10
527.316589384787
 20
83.2682303023
 30
0.0
 11
525.011807798025
 21
83.2682303023
 31
0.0
  0
LINE
  5
2D6
330
1C4
100
AcDbEntity
  8
Stammform
  6
AUSGEZOGEN
 62
     9
370
    18
100
AcDbLine
 10
525.011807798025
 20
91.252226739536
 30
0.0
 11
526.1641906806
 21
93.248233759651
 31
0.0
  0
LINE
  5
2D7
330
1C4
100
AcDbEntity
  8
Stammform
  6
AUSGEZOGEN
 62
     9
370
    18
100
AcDbLine
 10
526.1641906806
 20
93.248233759651
 30
0.0
 11
525.011807798025
 21
95.244240779765
 31
0.0
  0
LINE
  5
2D8
330
1C4
100
AcDbEntity
  8
Stammform
  6
AUSGEZOGEN
 62
    56
370
    18
100
AcDbLine
 10
525.011807798025
 20
91.252226739536
 30
0.0
 11
523.859411071539
 21
93.248233759651
 31
0.0
  0
LINE
  5
2D9
330
1C4
100
AcDbEntity
  8
Stammform
  6
AUSGEZOGEN
 62
    56
370
    18
100
AcDbLine
 10
523.859411071539
 20
93.248233759651
 30
0.0
 11
525.011807798025
 21
95.244240779765
 31
0.0
  0
LINE
  5
2DA
330
1C4
100
AcDbEntity
  8
Stammform
  6
AUSGEZOGEN
 62
    56
370
    18
100
AcDbLine
 10
523.859411071539
 20
93.248233759651
 30
0.0
 11
521.554629484777
 21
93.248233759651
 31
0.0
  0
LINE
  5
2DB
330
1C4
100
AcDbEntity
  8
Stammform
  6
AUSGEZOGEN
 62
     9
370
    18
100
AcDbLine
 10
525.011807798025
 20
99.236254819994
 30
0.0
 11
526.1641906806
 21
97.24024779988
 31
0.0
  0
LINE
  5
2DC
330
1C4
100
AcDbEntity
  8
Stammform
  6
AUSGEZOGEN
 62
     9
370
    18
100
AcDbLine
 10
526.1641906806
 20
97.24024779988
 30
0.0
 11
525.011807798025
 21
95.244240779765
 31
0.0
  0
LINE
  5
2DD
330
1C4
100
AcDbEntity
  8
Stammform
  6
AUSGEZOGEN
 62
     9
370
    18
100
AcDbLine
 10
525.011807798025
 20
95.244240779765
 30
0.0
 11
522.707012367352
 21
95.244240779765
 31
0.0
  0
LINE
  5
2DE
330
1C4
100
AcDbEntity
  8
Stammform
  6
AUSGEZOGEN
 62
    56
370
    18
100
AcDbLine
 10
525.011807798025
 20
99.236254819994
 30
0.0
 11
523.859411071539
 21
97.24024779988
 31
0.0
  0
LINE
  5
2DF
330
1C4
100
AcDbEntity
  8
Stammform
  6
AUSGEZOGEN
 62
    56
370
    18
100
AcDbLine
 10
523.859411071539
 20
97.24024779988
 30
0.0
 11
525.011807798025
 21
95.244240779765
 31
0.0
  0
LINE
  5
2E0
330
1C4
100
AcDbEntity
  8
Stammform
  6
AUSGEZOGEN
 62
    56
370
    18
100
AcDbLine
 10
523.859411071539
 20
97.24024779988
 30
0.0
 11
521.554629484777
 21
97.24024779988
 31
0.0
  0
LINE
  5
2E1
330
1C4
100
AcDbEntity
  8
Stammform
  6
AUSGEZOGEN
 62
     9
370
    18
100
AcDbLine
 10
525.011807798025
 20
107.220253234932
 30
0.0
 11
526.1641906806
 21
105.224262036428
 31
0.0
  0
LINE
  5
2E2
330
1C4
100
AcDbEntity
  8
Stammform
  6
AUSGEZOGEN
 62
     9
370
    18
100
AcDbLine
 10
526.1641906806
 20
105.224262036428
 30
0.0
 11
525.011807798025
 21
103.228255016314
 31
0.0
  0
LINE
  5
2E3
330
1C4
100
AcDbEntity
  8
Stammform
  6
AUSGEZOGEN
 62
    56
370
    18
100
AcDbLine
 10
525.011807798025
 20
107.220253234932
 30
0.0
 11
523.859411071539
 21
105.224262036428
 31
0.0
  0
LINE
  5
2E4
330
1C4
100
AcDbEntity
  8
Stammform
  6
AUSGEZOGEN
 62
    56
370
    18
100
AcDbLine
 10
523.859411071539
 20
105.224262036428
 30
0.0
 11
525.011807798025
 21
103.228255016314
 31
0.0
  0
LINE
  5
2E5
330
1C4
100
AcDbEntity
  8
Stammform
  6
AUSGEZOGEN
 62
    56
370
    18
100
AcDbLine
 10
523.859411071539
 20
105.224262036428
 30
0.0
 11
521.554629484777
 21
105.224262036428
 31
0.0
  0
LINE
  5
2E6
330
1C4
100
AcDbEntity
  8
Stammform
  6
AUSGEZOGEN
 62
     9
370
    18
100
AcDbLine
 10
525.011807798025
 20
99.236254819994
 30
0.0
 11
526.1641906806
 21
101.232246018498
 31
0.0
  0
LINE
  5
2E7
330
1C4
100
AcDbEntity
  8
Stammform
  6
AUSGEZOGEN
 62
     9
370
    18
100
AcDbLine
 10
526.1641906806
 20
101.232246018498
 30
0.0
 11
525.011807798025
 21
103.228255016314
 31
0.0
  0
LINE
  5
2E8
330
1C4
100
AcDbEntity
  8
Stammform
  6
AUSGEZOGEN
 62
     9
370
    18
100
AcDbLine
 10
525.011807798025
 20
103.228255016314
 30
0.0
 11
522.707012367352
 21
103.228255016314
 31
0.0
  0
LINE
  5
2E9
330
1C4
100
AcDbEntity
  8
Stammform
  6
AUSGEZOGEN
 62
     9
370
    18
100
AcDbLine
 10
522.707012367352
 20
99.236254819994
 30
0.0
 11
525.011807798025
 21
99.236254819994
 31
0.0
  0
LINE
  5
2EA
330
1C4
100
AcDbEntity
  8
Stammform
  6
AUSGEZOGEN
 62
    56
370
    18
100
AcDbLine
 10
525.011807798025
 20
99.236254819994
 30
0.0
 11
523.859411071539
 21
101.232246018498
 31
0.0
  0
LINE
  5
2EB
330
1C4
100
AcDbEntity
  8
Stammform
  6
AUSGEZOGEN
 62
    56
370
    18
100
AcDbLine
 10
523.859411071539
 20
101.232246018498
 30
0.0
 11
525.011807798025
 21
103.228255016314
 31
0.0
  0
LINE
  5
2EC
330
1C4
100
AcDbEntity
  8
Stammform
  6
AUSGEZOGEN
 62
    56
370
    18
100
AcDbLine
 10
523.859411071539
 20
101.232246018498
 30
0.0
 11
521.554629484777
 21
101.232246018498
 31
0.0
  0
LINE
  5
2ED
330
1C4
100
AcDbEntity
  8
Stammform
  6
AUSGEZOGEN
 62
     9
370
    18
100
AcDbLine
 10
525.011807798025
 20
91.252226739536
 30
0.0
 11
526.1641906806
 21
89.256235541033
 31
0.0
  0
LINE
  5
2EE
330
1C4
100
AcDbEntity
  8
Stammform
  6
AUSGEZOGEN
 62
     9
370
    18
100
AcDbLine
 10
526.1641906806
 20
89.256235541033
 30
0.0
 11
525.011807798025
 21
87.260228520918
 31
0.0
  0
LINE
  5
2EF
330
1C4
100
AcDbEntity
  8
Stammform
  6
AUSGEZOGEN
 62
     9
370
    18
100
AcDbLine
 10
522.707012367352
 20
91.252226739536
 30
0.0
 11
525.011807798025
 21
91.252226739536
 31
0.0
  0
LINE
  5
2F0
330
1C4
100
AcDbEntity
  8
Stammform
  6
AUSGEZOGEN
 62
    56
370
    18
100
AcDbLine
 10
525.011807798025
 20
91.252226739536
 30
0.0
 11
523.859411071539
 21
89.256235541033
 31
0.0
  0
LINE
  5
2F1
330
1C4
100
AcDbEntity
  8
Stammform
  6
AUSGEZOGEN
 62
    56
370
    18
100
AcDbLine
 10
523.859411071539
 20
89.256235541033
 30
0.0
 11
525.011807798025
 21
87.260228520918
 31
0.0
  0
LINE
  5
2F2
330
1C4
100
AcDbEntity
  8
Stammform
  6
AUSGEZOGEN
 62
    56
370
    18
100
AcDbLine
 10
523.859411071539
 20
89.256235541033
 30
0.0
 11
521.554629484777
 21
89.256235541033
 31
0.0
  0
LINE
  5
2F3
330
1C4
100
AcDbEntity
  8
Stammform
  6
AUSGEZOGEN
 62
     9
370
    18
100
AcDbLine
 10
525.011807798025
 20
83.2682303023
 30
0.0
 11
526.1641906806
 21
85.264221500804
 31
0.0
  0
LINE
  5
2F4
330
1C4
100
AcDbEntity
  8
Stammform
  6
AUSGEZOGEN
 62
     9
370
    18
100
AcDbLine
 10
526.1641906806
 20
85.264221500804
 30
0.0
 11
525.011807798025
 21
87.260228520918
 31
0.0
  0
LINE
  5
2F5
330
1C4
100
AcDbEntity
  8
Stammform
  6
AUSGEZOGEN
 62
     9
370
    18
100
AcDbLine
 10
525.011807798025
 20
87.260228520918
 30
0.0
 11
522.707012367352
 21
87.260228520918
 31
0.0
  0
LINE
  5
2F6
330
1C4
100
AcDbEntity
  8
Stammform
  6
AUSGEZOGEN
 62
    56
370
    18
100
AcDbLine
 10
525.011807798025
 20
83.2682303023
 30
0.0
 11
523.859411071539
 21
85.264221500804
 31
0.0
  0
LINE
  5
2F7
330
1C4
100
AcDbEntity
  8
Stammform
  6
AUSGEZOGEN
 62
    56
370
    18
100
AcDbLine
 10
523.859411071539
 20
85.264221500804
 30
0.0
 11
525.011807798025
 21
87.260228520918
 31
0.0
  0
LINE
  5
2F8
330
1C4
100
AcDbEntity
  8
Stammform
  6
AUSGEZOGEN
 62
    56
370
    18
100
AcDbLine
 10
523.859411071539
 20
85.264221500804
 30
0.0
 11
521.554629484777
 21
85.264221500804
 31
0.0
  0
LINE
  5
2F9
330
1C4
100
AcDbEntity
  8
Stammform
  6
AUSGEZOGEN
 62
     9
370
    18
100
AcDbLine
 10
525.011807798025
 20
75.284202716267
 30
0.0
 11
526.1641906806
 21
77.280209241957
 31
0.0
  0
LINE
  5
2FA
330
1C4
100
AcDbEntity
  8
Stammform
  6
AUSGEZOGEN
 62
     9
370
    18
100
AcDbLine
 10
526.1641906806
 20
77.280209241957
 30
0.0
 11
525.011807798025
 21
79.276216262071
 31
0.0
  0
LINE
  5
2FB
330
1C4
100
AcDbEntity
  8
Stammform
  6
AUSGEZOGEN
 62
    56
370
    18
100
AcDbLine
 10
525.011807798025
 20
75.284202716267
 30
0.0
 11
523.859411071539
 21
77.280209241957
 31
0.0
  0
LINE
  5
2FC
330
1C4
100
AcDbEntity
  8
Stammform
  6
AUSGEZOGEN
 62
    56
370
    18
100
AcDbLine
 10
523.859411071539
 20
77.280209241957
 30
0.0
 11
525.011807798025
 21
79.276216262071
 31
0.0
  0
LINE
  5
2FD
330
1C4
100
AcDbEntity
  8
Stammform
  6
AUSGEZOGEN
 62
    56
370
    18
100
AcDbLine
 10
523.859411071539
 20
77.280209241957
 30
0.0
 11
521.554629484777
 21
77.280209241957
 31
0.0
  0
LINE
  5
2FE
330
1C4
100
AcDbEntity
  8
Stammform
  6
AUSGEZOGEN
 62
     9
370
    18
100
AcDbLine
 10
525.011807798025
 20
83.2682303023
 30
0.0
 11
526.1641906806
 21
81.272223282186
 31
0.0
  0
LINE
  5
2FF
330
1C4
100
AcDbEntity
  8
Stammform
  6
AUSGEZOGEN
 62
     9
370
    18
100
AcDbLine
 10
526.1641906806
 20
81.272223282186
 30
0.0
 11
525.011807798025
 21
79.276216262071
 31
0.0
  0
LINE
  5
300
330
1C4
100
AcDbEntity
  8
Stammform
  6
AUSGEZOGEN
 62
     9
370
    18
100
AcDbLine
 10
525.011807798025
 20
79.276216262071
 30
0.0
 11
522.707012367352
 21
79.276216262071
 31
0.0
  0
LINE
  5
301
330
1C4
100
AcDbEntity
  8
Stammform
  6
AUSGEZOGEN
 62
     9
370
    18
100
AcDbLine
 10
522.707012367352
 20
83.2682303023
 30
0.0
 11
525.011807798025
 21
83.2682303023
 31
0.0
  0
LINE
  5
302
330
1C4
100
AcDbEntity
  8
Stammform
  6
AUSGEZOGEN
 62
    56
370
    18
100
AcDbLine
 10
525.011807798025
 20
83.2682303023
 30
0.0
 11
523.859411071539
 21
81.272223282186
 31
0.0
  0
LINE
  5
303
330
1C4
100
AcDbEntity
  8
Stammform
  6
AUSGEZOGEN
 62
    56
370
    18
100
AcDbLine
 10
523.859411071539
 20
81.272223282186
 30
0.0
 11
525.011807798025
 21
79.276216262071
 31
0.0
  0
LINE
  5
304
330
1C4
100
AcDbEntity
  8
Stammform
  6
AUSGEZOGEN
 62
    56
370
    18
100
AcDbLine
 10
523.859411071539
 20
81.272223282186
 30
0.0
 11
521.554629484777
 21
81.272223282186
 31
0.0
  0
LINE
  5
305
330
1C4
100
AcDbEntity
  8
Stammform
  6
AUSGEZOGEN
 62
     9
370
    18
100
AcDbLine
 10
521.554629484777
 20
93.248249581262
 30
0.0
 11
522.707012367352
 21
95.244240779765
 31
0.0
  0
LINE
  5
306
330
1C4
100
AcDbEntity
  8
Stammform
  6
AUSGEZOGEN
 62
     9
370
    18
100
AcDbLine
 10
522.707012367352
 20
95.244240779765
 30
0.0
 11
521.554629484777
 21
97.24024779988
 31
0.0
  0
LINE
  5
307
330
1C4
100
AcDbEntity
  8
Stammform
  6
AUSGEZOGEN
 62
    56
370
    18
100
AcDbLine
 10
521.554629484777
 20
93.248249581262
 30
0.0
 11
520.40223078059
 21
95.244240779765
 31
0.0
  0
LINE
  5
308
330
1C4
100
AcDbEntity
  8
Stammform
  6
AUSGEZOGEN
 62
    56
370
    18
100
AcDbLine
 10
520.40223078059
 20
95.244240779765
 30
0.0
 11
521.554629484777
 21
97.24024779988
 31
0.0
  0
LINE
  5
309
330
1C4
100
AcDbEntity
  8
Stammform
  6
AUSGEZOGEN
 62
    56
370
    18
100
AcDbLine
 10
520.40223078059
 20
95.244240779765
 30
0.0
 11
518.097449193828
 21
95.244240779765
 31
0.0
  0
LINE
  5
30A
330
1C4
100
AcDbEntity
  8
Stammform
  6
AUSGEZOGEN
 62
     9
370
    18
100
AcDbLine
 10
521.554629484777
 20
101.232246018498
 30
0.0
 11
522.707012367352
 21
99.236254819994
 31
0.0
  0
LINE
  5
30B
330
1C4
100
AcDbEntity
  8
Stammform
  6
AUSGEZOGEN
 62
     9
370
    18
100
AcDbLine
 10
522.707012367352
 20
99.236254819994
 30
0.0
 11
521.554629484777
 21
97.24024779988
 31
0.0
  0
LINE
  5
30C
330
1C4
100
AcDbEntity
  8
Stammform
  6
AUSGEZOGEN
 62
     9
370
    18
100
AcDbLine
 10
521.554629484777
 20
97.24024779988
 30
0.0
 11
519.249832076404
 21
97.24024779988
 31
0.0
  0
LINE
  5
30D
330
1C4
100
AcDbEntity
  8
Stammform
  6
AUSGEZOGEN
 62
    56
370
    18
100
AcDbLine
 10
521.554629484777
 20
101.232246018498
 30
0.0
 11
520.40223078059
 21
99.236254819994
 31
0.0
  0
LINE
  5
30E
330
1C4
100
AcDbEntity
  8
Stammform
  6
AUSGEZOGEN
 62
    56
370
    18
100
AcDbLine
 10
520.40223078059
 20
99.236254819994
 30
0.0
 11
521.554629484777
 21
97.24024779988
 31
0.0
  0
LINE
  5
30F
330
1C4
100
AcDbEntity
  8
Stammform
  6
AUSGEZOGEN
 62
    56
370
    18
100
AcDbLine
 10
520.40223078059
 20
99.236254819994
 30
0.0
 11
518.097449193828
 21
99.236254819994
 31
0.0
  0
LINE
  5
310
330
1C4
100
AcDbEntity
  8
Stammform
  6
AUSGEZOGEN
 62
     9
370
    18
100
AcDbLine
 10
522.707012367352
 20
107.220269056543
 30
0.0
 11
521.554629484777
 21
105.224262036428
 31
0.0
  0
LINE
  5
311
330
1C4
100
AcDbEntity
  8
Stammform
  6
AUSGEZOGEN
 62
    56
370
    18
100
AcDbLine
 10
520.40223078059
 20
107.220269056543
 30
0.0
 11
521.554629484777
 21
105.224262036428
 31
0.0
  0
LINE
  5
312
330
1C4
100
AcDbEntity
  8
Stammform
  6
AUSGEZOGEN
 62
     9
370
    18
100
AcDbLine
 10
521.554629484777
 20
101.232246018498
 30
0.0
 11
522.707012367352
 21
103.228255016314
 31
0.0
  0
LINE
  5
313
330
1C4
100
AcDbEntity
  8
Stammform
  6
AUSGEZOGEN
 62
     9
370
    18
100
AcDbLine
 10
522.707012367352
 20
103.228255016314
 30
0.0
 11
521.554629484777
 21
105.224262036428
 31
0.0
  0
LINE
  5
314
330
1C4
100
AcDbEntity
  8
Stammform
  6
AUSGEZOGEN
 62
     9
370
    18
100
AcDbLine
 10
521.554629484777
 20
105.224262036428
 30
0.0
 11
519.249832076404
 21
105.224262036428
 31
0.0
  0
LINE
  5
315
330
1C4
100
AcDbEntity
  8
Stammform
  6
AUSGEZOGEN
 62
     9
370
    18
100
AcDbLine
 10
519.249832076404
 20
101.232246018498
 30
0.0
 11
521.554629484777
 21
101.232246018498
 31
0.0
  0
LINE
  5
316
330
1C4
100
AcDbEntity
  8
Stammform
  6
AUSGEZOGEN
 62
    56
370
    18
100
AcDbLine
 10
521.554629484777
 20
101.232246018498
 30
0.0
 11
520.40223078059
 21
103.228255016314
 31
0.0
  0
LINE
  5
317
330
1C4
100
AcDbEntity
  8
Stammform
  6
AUSGEZOGEN
 62
    56
370
    18
100
AcDbLine
 10
520.40223078059
 20
103.228255016314
 30
0.0
 11
521.554629484777
 21
105.224262036428
 31
0.0
  0
LINE
  5
318
330
1C4
100
AcDbEntity
  8
Stammform
  6
AUSGEZOGEN
 62
    56
370
    18
100
AcDbLine
 10
520.40223078059
 20
103.228255016314
 30
0.0
 11
518.097449193828
 21
103.228255016314
 31
0.0
  0
LINE
  5
319
330
1C4
100
AcDbEntity
  8
Stammform
  6
AUSGEZOGEN
 62
     9
370
    18
100
AcDbLine
 10
521.554629484777
 20
77.280225063568
 30
0.0
 11
522.707012367352
 21
75.284218537879
 31
0.0
  0
LINE
  5
31A
330
1C4
100
AcDbEntity
  8
Stammform
  6
AUSGEZOGEN
 62
    56
370
    18
100
AcDbLine
 10
521.554629484777
 20
77.280225063568
 30
0.0
 11
520.40223078059
 21
75.284218537879
 31
0.0
  0
LINE
  5
31B
330
1C4
100
AcDbEntity
  8
Stammform
  6
AUSGEZOGEN
 62
     9
370
    18
100
AcDbLine
 10
521.554629484777
 20
93.248249581262
 30
0.0
 11
522.707012367352
 21
91.252242561147
 31
0.0
  0
LINE
  5
31C
330
1C4
100
AcDbEntity
  8
Stammform
  6
AUSGEZOGEN
 62
     9
370
    18
100
AcDbLine
 10
522.707012367352
 20
91.252242561147
 30
0.0
 11
521.554629484777
 21
89.256235541033
 31
0.0
  0
LINE
  5
31D
330
1C4
100
AcDbEntity
  8
Stammform
  6
AUSGEZOGEN
 62
     9
370
    18
100
AcDbLine
 10
519.249832076404
 20
93.248249581262
 30
0.0
 11
521.554629484777
 21
93.248249581262
 31
0.0
  0
LINE
  5
31E
330
1C4
100
AcDbEntity
  8
Stammform
  6
AUSGEZOGEN
 62
    56
370
    18
100
AcDbLine
 10
521.554629484777
 20
93.248249581262
 30
0.0
 11
520.40223078059
 21
91.252242561147
 31
0.0
  0
LINE
  5
31F
330
1C4
100
AcDbEntity
  8
Stammform
  6
AUSGEZOGEN
 62
    56
370
    18
100
AcDbLine
 10
520.40223078059
 20
91.252242561147
 30
0.0
 11
521.554629484777
 21
89.256235541033
 31
0.0
  0
LINE
  5
320
330
1C4
100
AcDbEntity
  8
Stammform
  6
AUSGEZOGEN
 62
    56
370
    18
100
AcDbLine
 10
520.40223078059
 20
91.252242561147
 30
0.0
 11
518.097449193828
 21
91.252242561147
 31
0.0
  0
LINE
  5
321
330
1C4
100
AcDbEntity
  8
Stammform
  6
AUSGEZOGEN
 62
     9
370
    18
100
AcDbLine
 10
521.554629484777
 20
85.264221500804
 30
0.0
 11
522.707012367352
 21
87.260228520918
 31
0.0
  0
LINE
  5
322
330
1C4
100
AcDbEntity
  8
Stammform
  6
AUSGEZOGEN
 62
     9
370
    18
100
AcDbLine
 10
522.707012367352
 20
87.260228520918
 30
0.0
 11
521.554629484777
 21
89.256235541033
 31
0.0
  0
LINE
  5
323
330
1C4
100
AcDbEntity
  8
Stammform
  6
AUSGEZOGEN
 62
     9
370
    18
100
AcDbLine
 10
521.554629484777
 20
89.256235541033
 30
0.0
 11
519.249832076404
 21
89.256235541033
 31
0.0
  0
LINE
  5
324
330
1C4
100
AcDbEntity
  8
Stammform
  6
AUSGEZOGEN
 62
    56
370
    18
100
AcDbLine
 10
521.554629484777
 20
85.264221500804
 30
0.0
 11
520.40223078059
 21
87.260228520918
 31
0.0
  0
LINE
  5
325
330
1C4
100
AcDbEntity
  8
Stammform
  6
AUSGEZOGEN
 62
    56
370
    18
100
AcDbLine
 10
520.40223078059
 20
87.260228520918
 30
0.0
 11
521.554629484777
 21
89.256235541033
 31
0.0
  0
LINE
  5
326
330
1C4
100
AcDbEntity
  8
Stammform
  6
AUSGEZOGEN
 62
    56
370
    18
100
AcDbLine
 10
520.40223078059
 20
87.260228520918
 30
0.0
 11
518.097449193828
 21
87.260228520918
 31
0.0
  0
LINE
  5
327
330
1C4
100
AcDbEntity
  8
Stammform
  6
AUSGEZOGEN
 62
     9
370
    18
100
AcDbLine
 10
521.554629484777
 20
77.280225063568
 30
0.0
 11
522.707012367352
 21
79.276216262071
 31
0.0
  0
LINE
  5
328
330
1C4
100
AcDbEntity
  8
Stammform
  6
AUSGEZOGEN
 62
     9
370
    18
100
AcDbLine
 10
522.707012367352
 20
79.276216262071
 30
0.0
 11
521.554629484777
 21
81.272223282186
 31
0.0
  0
LINE
  5
329
330
1C4
100
AcDbEntity
  8
Stammform
  6
AUSGEZOGEN
 62
     9
370
    18
100
AcDbLine
 10
519.249832076404
 20
77.280225063568
 30
0.0
 11
521.554629484777
 21
77.280225063568
 31
0.0
  0
LINE
  5
32A
330
1C4
100
AcDbEntity
  8
Stammform
  6
AUSGEZOGEN
 62
    56
370
    18
100
AcDbLine
 10
521.554629484777
 20
77.280225063568
 30
0.0
 11
520.40223078059
 21
79.276216262071
 31
0.0
  0
LINE
  5
32B
330
1C4
100
AcDbEntity
  8
Stammform
  6
AUSGEZOGEN
 62
    56
370
    18
100
AcDbLine
 10
520.40223078059
 20
79.276216262071
 30
0.0
 11
521.554629484777
 21
81.272223282186
 31
0.0
  0
LINE
  5
32C
330
1C4
100
AcDbEntity
  8
Stammform
  6
AUSGEZOGEN
 62
    56
370
    18
100
AcDbLine
 10
520.40223078059
 20
79.276216262071
 30
0.0
 11
518.097449193828
 21
79.276216262071
 31
0.0
  0
LINE
  5
32D
330
1C4
100
AcDbEntity
  8
Stammform
  6
AUSGEZOGEN
 62
     9
370
    18
100
AcDbLine
 10
521.554629484777
 20
85.264221500804
 30
0.0
 11
522.707012367352
 21
83.2682303023
 31
0.0
  0
LINE
  5
32E
330
1C4
100
AcDbEntity
  8
Stammform
  6
AUSGEZOGEN
 62
     9
370
    18
100
AcDbLine
 10
522.707012367352
 20
83.2682303023
 30
0.0
 11
521.554629484777
 21
81.272223282186
 31
0.0
  0
LINE
  5
32F
330
1C4
100
AcDbEntity
  8
Stammform
  6
AUSGEZOGEN
 62
     9
370
    18
100
AcDbLine
 10
521.554629484777
 20
81.272223282186
 30
0.0
 11
519.249832076404
 21
81.272223282186
 31
0.0
  0
LINE
  5
330
330
1C4
100
AcDbEntity
  8
Stammform
  6
AUSGEZOGEN
 62
     9
370
    18
100
AcDbLine
 10
519.249832076404
 20
85.264221500804
 30
0.0
 11
521.554629484777
 21
85.264221500804
 31
0.0
  0
LINE
  5
331
330
1C4
100
AcDbEntity
  8
Stammform
  6
AUSGEZOGEN
 62
    56
370
    18
100
AcDbLine
 10
521.554629484777
 20
85.264221500804
 30
0.0
 11
520.40223078059
 21
83.2682303023
 31
0.0
  0
LINE
  5
332
330
1C4
100
AcDbEntity
  8
Stammform
  6
AUSGEZOGEN
 62
    56
370
    18
100
AcDbLine
 10
520.40223078059
 20
83.2682303023
 30
0.0
 11
521.554629484777
 21
81.272223282186
 31
0.0
  0
LINE
  5
333
330
1C4
100
AcDbEntity
  8
Stammform
  6
AUSGEZOGEN
 62
    56
370
    18
100
AcDbLine
 10
520.40223078059
 20
83.2682303023
 30
0.0
 11
518.097449193828
 21
83.2682303023
 31
0.0
  0
LINE
  5
334
330
1C4
100
AcDbEntity
  8
Stammform
  6
AUSGEZOGEN
 62
     9
370
    18
100
AcDbLine
 10
518.097449193828
 20
91.252226739536
 30
0.0
 11
519.249832076404
 21
93.248233759651
 31
0.0
  0
LINE
  5
335
330
1C4
100
AcDbEntity
  8
Stammform
  6
AUSGEZOGEN
 62
     9
370
    18
100
AcDbLine
 10
519.249832076404
 20
93.248233759651
 30
0.0
 11
518.097449193828
 21
95.244240779765
 31
0.0
  0
LINE
  5
336
330
1C4
100
AcDbEntity
  8
Stammform
  6
AUSGEZOGEN
 62
    56
370
    18
100
AcDbLine
 10
518.097449193828
 20
91.252226739536
 30
0.0
 11
516.945050489641
 21
93.248233759651
 31
0.0
  0
LINE
  5
337
330
1C4
100
AcDbEntity
  8
Stammform
  6
AUSGEZOGEN
 62
    56
370
    18
100
AcDbLine
 10
516.945050489641
 20
93.248233759651
 30
0.0
 11
518.097449193828
 21
95.244240779765
 31
0.0
  0
LINE
  5
338
330
1C4
100
AcDbEntity
  8
Stammform
  6
AUSGEZOGEN
 62
    56
370
    18
100
AcDbLine
 10
516.945050489641
 20
93.248233759651
 30
0.0
 11
514.640268902879
 21
93.248233759651
 31
0.0
  0
LINE
  5
339
330
1C4
100
AcDbEntity
  8
Stammform
  6
AUSGEZOGEN
 62
     9
370
    18
100
AcDbLine
 10
518.097449193828
 20
99.236254819994
 30
0.0
 11
519.249832076404
 21
97.24024779988
 31
0.0
  0
LINE
  5
33A
330
1C4
100
AcDbEntity
  8
Stammform
  6
AUSGEZOGEN
 62
     9
370
    18
100
AcDbLine
 10
519.249832076404
 20
97.24024779988
 30
0.0
 11
518.097449193828
 21
95.244240779765
 31
0.0
  0
LINE
  5
33B
330
1C4
100
AcDbEntity
  8
Stammform
  6
AUSGEZOGEN
 62
     9
370
    18
100
AcDbLine
 10
518.097449193828
 20
95.244240779765
 30
0.0
 11
515.792651785455
 21
95.244240779765
 31
0.0
  0
LINE
  5
33C
330
1C4
100
AcDbEntity
  8
Stammform
  6
AUSGEZOGEN
 62
    56
370
    18
100
AcDbLine
 10
518.097449193828
 20
99.236254819994
 30
0.0
 11
516.945050489641
 21
97.24024779988
 31
0.0
  0
LINE
  5
33D
330
1C4
100
AcDbEntity
  8
Stammform
  6
AUSGEZOGEN
 62
    56
370
    18
100
AcDbLine
 10
516.945050489641
 20
97.24024779988
 30
0.0
 11
518.097449193828
 21
95.244240779765
 31
0.0
  0
LINE
  5
33E
330
1C4
100
AcDbEntity
  8
Stammform
  6
AUSGEZOGEN
 62
    56
370
    18
100
AcDbLine
 10
516.945050489641
 20
97.24024779988
 30
0.0
 11
514.640268902879
 21
97.24024779988
 31
0.0
  0
LINE
  5
33F
330
1C4
100
AcDbEntity
  8
Stammform
  6
AUSGEZOGEN
 62
     9
370
    18
100
AcDbLine
 10
518.097449193828
 20
107.220253234932
 30
0.0
 11
519.249832076404
 21
105.224262036428
 31
0.0
  0
LINE
  5
340
330
1C4
100
AcDbEntity
  8
Stammform
  6
AUSGEZOGEN
 62
     9
370
    18
100
AcDbLine
 10
519.249832076404
 20
105.224262036428
 30
0.0
 11
518.097449193828
 21
103.228255016314
 31
0.0
  0
LINE
  5
341
330
1C4
100
AcDbEntity
  8
Stammform
  6
AUSGEZOGEN
 62
    56
370
    18
100
AcDbLine
 10
518.097449193828
 20
107.220253234932
 30
0.0
 11
516.945050489641
 21
105.224262036428
 31
0.0
  0
LINE
  5
342
330
1C4
100
AcDbEntity
  8
Stammform
  6
AUSGEZOGEN
 62
    56
370
    18
100
AcDbLine
 10
516.945050489641
 20
105.224262036428
 30
0.0
 11
518.097449193828
 21
103.228255016314
 31
0.0
  0
LINE
  5
343
330
1C4
100
AcDbEntity
  8
Stammform
  6
AUSGEZOGEN
 62
    56
370
    18
100
AcDbLine
 10
516.945050489641
 20
105.224262036428
 30
0.0
 11
514.640268902879
 21
105.224262036428
 31
0.0
  0
LINE
  5
344
330
1C4
100
AcDbEntity
  8
Stammform
  6
AUSGEZOGEN
 62
     9
370
    18
100
AcDbLine
 10
518.097449193828
 20
99.236254819994
 30
0.0
 11
519.249832076404
 21
101.232246018498
 31
0.0
  0
LINE
  5
345
330
1C4
100
AcDbEntity
  8
Stammform
  6
AUSGEZOGEN
 62
     9
370
    18
100
AcDbLine
 10
519.249832076404
 20
101.232246018498
 30
0.0
 11
518.097449193828
 21
103.228255016314
 31
0.0
  0
LINE
  5
346
330
1C4
100
AcDbEntity
  8
Stammform
  6
AUSGEZOGEN
 62
     9
370
    18
100
AcDbLine
 10
518.097449193828
 20
103.228255016314
 30
0.0
 11
515.792651785455
 21
103.228255016314
 31
0.0
  0
LINE
  5
347
330
1C4
100
AcDbEntity
  8
Stammform
  6
AUSGEZOGEN
 62
     9
370
    18
100
AcDbLine
 10
515.792651785455
 20
99.236254819994
 30
0.0
 11
518.097449193828
 21
99.236254819994
 31
0.0
  0
LINE
  5
348
330
1C4
100
AcDbEntity
  8
Stammform
  6
AUSGEZOGEN
 62
    56
370
    18
100
AcDbLine
 10
518.097449193828
 20
99.236254819994
 30
0.0
 11
516.945050489641
 21
101.232246018498
 31
0.0
  0
LINE
  5
349
330
1C4
100
AcDbEntity
  8
Stammform
  6
AUSGEZOGEN
 62
    56
370
    18
100
AcDbLine
 10
516.945050489641
 20
101.232246018498
 30
0.0
 11
518.097449193828
 21
103.228255016314
 31
0.0
  0
LINE
  5
34A
330
1C4
100
AcDbEntity
  8
Stammform
  6
AUSGEZOGEN
 62
    56
370
    18
100
AcDbLine
 10
516.945050489641
 20
101.232246018498
 30
0.0
 11
514.640268902879
 21
101.232246018498
 31
0.0
  0
LINE
  5
34B
330
1C4
100
AcDbEntity
  8
Stammform
  6
AUSGEZOGEN
 62
     9
370
    18
100
AcDbLine
 10
518.097449193828
 20
91.252226739536
 30
0.0
 11
519.249832076404
 21
89.256235541033
 31
0.0
  0
LINE
  5
34C
330
1C4
100
AcDbEntity
  8
Stammform
  6
AUSGEZOGEN
 62
     9
370
    18
100
AcDbLine
 10
519.249832076404
 20
89.256235541033
 30
0.0
 11
518.097449193828
 21
87.260228520918
 31
0.0
  0
LINE
  5
34D
330
1C4
100
AcDbEntity
  8
Stammform
  6
AUSGEZOGEN
 62
     9
370
    18
100
AcDbLine
 10
515.792651785455
 20
91.252226739536
 30
0.0
 11
518.097449193828
 21
91.252226739536
 31
0.0
  0
LINE
  5
34E
330
1C4
100
AcDbEntity
  8
Stammform
  6
AUSGEZOGEN
 62
    56
370
    18
100
AcDbLine
 10
518.097449193828
 20
91.252226739536
 30
0.0
 11
516.945050489641
 21
89.256235541033
 31
0.0
  0
LINE
  5
34F
330
1C4
100
AcDbEntity
  8
Stammform
  6
AUSGEZOGEN
 62
    56
370
    18
100
AcDbLine
 10
516.945050489641
 20
89.256235541033
 30
0.0
 11
518.097449193828
 21
87.260228520918
 31
0.0
  0
LINE
  5
350
330
1C4
100
AcDbEntity
  8
Stammform
  6
AUSGEZOGEN
 62
    56
370
    18
100
AcDbLine
 10
516.945050489641
 20
89.256235541033
 30
0.0
 11
514.640268902879
 21
89.256235541033
 31
0.0
  0
LINE
  5
351
330
1C4
100
AcDbEntity
  8
Stammform
  6
AUSGEZOGEN
 62
     9
370
    18
100
AcDbLine
 10
518.097449193828
 20
83.2682303023
 30
0.0
 11
519.249832076404
 21
85.264221500804
 31
0.0
  0
LINE
  5
352
330
1C4
100
AcDbEntity
  8
Stammform
  6
AUSGEZOGEN
 62
     9
370
    18
100
AcDbLine
 10
519.249832076404
 20
85.264221500804
 30
0.0
 11
518.097449193828
 21
87.260228520918
 31
0.0
  0
LINE
  5
353
330
1C4
100
AcDbEntity
  8
Stammform
  6
AUSGEZOGEN
 62
     9
370
    18
100
AcDbLine
 10
518.097449193828
 20
87.260228520918
 30
0.0
 11
515.792651785455
 21
87.260228520918
 31
0.0
  0
LINE
  5
354
330
1C4
100
AcDbEntity
  8
Stammform
  6
AUSGEZOGEN
 62
    56
370
    18
100
AcDbLine
 10
518.097449193828
 20
83.2682303023
 30
0.0
 11
516.945050489641
 21
85.264221500804
 31
0.0
  0
LINE
  5
355
330
1C4
100
AcDbEntity
  8
Stammform
  6
AUSGEZOGEN
 62
    56
370
    18
100
AcDbLine
 10
516.945050489641
 20
85.264221500804
 30
0.0
 11
518.097449193828
 21
87.260228520918
 31
0.0
  0
LINE
  5
356
330
1C4
100
AcDbEntity
  8
Stammform
  6
AUSGEZOGEN
 62
    56
370
    18
100
AcDbLine
 10
516.945050489641
 20
85.264221500804
 30
0.0
 11
514.640268902879
 21
85.264221500804
 31
0.0
  0
LINE
  5
357
330
1C4
100
AcDbEntity
  8
Stammform
  6
AUSGEZOGEN
 62
     9
370
    18
100
AcDbLine
 10
518.097449193828
 20
75.284202716267
 30
0.0
 11
519.249832076404
 21
77.280209241957
 31
0.0
  0
LINE
  5
358
330
1C4
100
AcDbEntity
  8
Stammform
  6
AUSGEZOGEN
 62
     9
370
    18
100
AcDbLine
 10
519.249832076404
 20
77.280209241957
 30
0.0
 11
518.097449193828
 21
79.276216262071
 31
0.0
  0
LINE
  5
359
330
1C4
100
AcDbEntity
  8
Stammform
  6
AUSGEZOGEN
 62
    56
370
    18
100
AcDbLine
 10
518.097449193828
 20
75.284202716267
 30
0.0
 11
516.945050489641
 21
77.280209241957
 31
0.0
  0
LINE
  5
35A
330
1C4
100
AcDbEntity
  8
Stammform
  6
AUSGEZOGEN
 62
    56
370
    18
100
AcDbLine
 10
516.945050489641
 20
77.280209241957
 30
0.0
 11
518.097449193828
 21
79.276216262071
 31
0.0
  0
LINE
  5
35B
330
1C4
100
AcDbEntity
  8
Stammform
  6
AUSGEZOGEN
 62
    56
370
    18
100
AcDbLine
 10
516.945050489641
 20
77.280209241957
 30
0.0
 11
514.640268902879
 21
77.280209241957
 31
0.0
  0
LINE
  5
35C
330
1C4
100
AcDbEntity
  8
Stammform
  6
AUSGEZOGEN
 62
     9
370
    18
100
AcDbLine
 10
518.097449193828
 20
83.2682303023
 30
0.0
 11
519.249832076404
 21
81.272223282186
 31
0.0
  0
LINE
  5
35D
330
1C4
100
AcDbEntity
  8
Stammform
  6
AUSGEZOGEN
 62
     9
370
    18
100
AcDbLine
 10
519.249832076404
 20
81.272223282186
 30
0.0
 11
518.097449193828
 21
79.276216262071
 31
0.0
  0
LINE
  5
35E
330
1C4
100
AcDbEntity
  8
Stammform
  6
AUSGEZOGEN
 62
     9
370
    18
100
AcDbLine
 10
518.097449193828
 20
79.276216262071
 30
0.0
 11
515.792651785455
 21
79.276216262071
 31
0.0
  0
LINE
  5
35F
330
1C4
100
AcDbEntity
  8
Stammform
  6
AUSGEZOGEN
 62
     9
370
    18
100
AcDbLine
 10
515.792651785455
 20
83.2682303023
 30
0.0
 11
518.097449193828
 21
83.2682303023
 31
0.0
  0
LINE
  5
360
330
1C4
100
AcDbEntity
  8
Stammform
  6
AUSGEZOGEN
 62
    56
370
    18
100
AcDbLine
 10
518.097449193828
 20
83.2682303023
 30
0.0
 11
516.945050489641
 21
81.272223282186
 31
0.0
  0
LINE
  5
361
330
1C4
100
AcDbEntity
  8
Stammform
  6
AUSGEZOGEN
 62
    56
370
    18
100
AcDbLine
 10
516.945050489641
 20
81.272223282186
 30
0.0
 11
518.097449193828
 21
79.276216262071
 31
0.0
  0
LINE
  5
362
330
1C4
100
AcDbEntity
  8
Stammform
  6
AUSGEZOGEN
 62
    56
370
    18
100
AcDbLine
 10
516.945050489641
 20
81.272223282186
 30
0.0
 11
514.640268902879
 21
81.272223282186
 31
0.0
  0
LINE
  5
363
330
1C4
100
AcDbEntity
  8
Stammform
  6
AUSGEZOGEN
 62
     9
370
    18
100
AcDbLine
 10
514.640268902879
 20
93.248249581262
 30
0.0
 11
515.792651785455
 21
95.244240779765
 31
0.0
  0
LINE
  5
364
330
1C4
100
AcDbEntity
  8
Stammform
  6
AUSGEZOGEN
 62
     9
370
    18
100
AcDbLine
 10
515.792651785455
 20
95.244240779765
 30
0.0
 11
514.640268902879
 21
97.24024779988
 31
0.0
  0
LINE
  5
365
330
1C4
100
AcDbEntity
  8
Stammform
  6
AUSGEZOGEN
 62
    56
370
    18
100
AcDbLine
 10
514.640268902879
 20
93.248249581262
 30
0.0
 11
513.487870198693
 21
95.244240779765
 31
0.0
  0
LINE
  5
366
330
1C4
100
AcDbEntity
  8
Stammform
  6
AUSGEZOGEN
 62
    56
370
    18
100
AcDbLine
 10
513.487870198693
 20
95.244240779765
 30
0.0
 11
514.640268902879
 21
97.24024779988
 31
0.0
  0
LINE
  5
367
330
1C4
100
AcDbEntity
  8
Stammform
  6
AUSGEZOGEN
 62
     9
370
    18
100
AcDbLine
 10
514.640268902879
 20
101.232246018498
 30
0.0
 11
515.792651785455
 21
99.236254819994
 31
0.0
  0
LINE
  5
368
330
1C4
100
AcDbEntity
  8
Stammform
  6
AUSGEZOGEN
 62
     9
370
    18
100
AcDbLine
 10
515.792651785455
 20
99.236254819994
 30
0.0
 11
514.640268902879
 21
97.24024779988
 31
0.0
  0
LINE
  5
369
330
1C4
100
AcDbEntity
  8
Stammform
  6
AUSGEZOGEN
 62
     9
370
    18
100
AcDbLine
 10
514.640268902879
 20
97.24024779988
 30
0.0
 11
513.487870198692
 21
97.24024779988
 31
0.0
  0
LINE
  5
36A
330
1C4
100
AcDbEntity
  8
Stammform
  6
AUSGEZOGEN
 62
    56
370
    18
100
AcDbLine
 10
514.640268902879
 20
101.232246018498
 30
0.0
 11
513.487870198693
 21
99.236254819994
 31
0.0
  0
LINE
  5
36B
330
1C4
100
AcDbEntity
  8
Stammform
  6
AUSGEZOGEN
 62
    56
370
    18
100
AcDbLine
 10
513.487870198693
 20
99.236254819994
 30
0.0
 11
514.640268902879
 21
97.24024779988
 31
0.0
  0
LINE
  5
36C
330
1C4
100
AcDbEntity
  8
Stammform
  6
AUSGEZOGEN
 62
     9
370
    18
100
AcDbLine
 10
515.792651785455
 20
107.220269056543
 30
0.0
 11
514.640268902879
 21
105.224262036428
 31
0.0
  0
LINE
  5
36D
330
1C4
100
AcDbEntity
  8
Stammform
  6
AUSGEZOGEN
 62
    56
370
    18
100
AcDbLine
 10
513.487870198693
 20
107.220269056543
 30
0.0
 11
514.640268902879
 21
105.224262036428
 31
0.0
  0
LINE
  5
36E
330
1C4
100
AcDbEntity
  8
Stammform
  6
AUSGEZOGEN
 62
     9
370
    18
100
AcDbLine
 10
514.640268902879
 20
101.232246018498
 30
0.0
 11
515.792651785455
 21
103.228255016314
 31
0.0
  0
LINE
  5
36F
330
1C4
100
AcDbEntity
  8
Stammform
  6
AUSGEZOGEN
 62
     9
370
    18
100
AcDbLine
 10
515.792651785455
 20
103.228255016314
 30
0.0
 11
514.640268902879
 21
105.224262036428
 31
0.0
  0
LINE
  5
370
330
1C4
100
AcDbEntity
  8
Stammform
  6
AUSGEZOGEN
 62
     9
370
    18
100
AcDbLine
 10
514.640268902879
 20
105.224262036428
 30
0.0
 11
513.487870198692
 21
105.224262036428
 31
0.0
  0
LINE
  5
371
330
1C4
100
AcDbEntity
  8
Stammform
  6
AUSGEZOGEN
 62
     9
370
    18
100
AcDbLine
 10
513.487870198692
 20
101.232246018498
 30
0.0
 11
514.640268902879
 21
101.232246018498
 31
0.0
  0
LINE
  5
372
330
1C4
100
AcDbEntity
  8
Stammform
  6
AUSGEZOGEN
 62
    56
370
    18
100
AcDbLine
 10
514.640268902879
 20
101.232246018498
 30
0.0
 11
513.487870198693
 21
103.228255016314
 31
0.0
  0
LINE
  5
373
330
1C4
100
AcDbEntity
  8
Stammform
  6
AUSGEZOGEN
 62
    56
370
    18
100
AcDbLine
 10
513.487870198693
 20
103.228255016314
 30
0.0
 11
514.640268902879
 21
105.224262036428
 31
0.0
  0
LINE
  5
374
330
1C4
100
AcDbEntity
  8
Stammform
  6
AUSGEZOGEN
 62
     9
370
    18
100
AcDbLine
 10
514.640268902879
 20
77.280225063568
 30
0.0
 11
515.792651785455
 21
75.284218537879
 31
0.0
  0
LINE
  5
375
330
1C4
100
AcDbEntity
  8
Stammform
  6
AUSGEZOGEN
 62
     9
370
    18
100
AcDbLine
 10
513.487870198693
 20
77.280225063568
 30
0.0
 11
514.640268902879
 21
77.280225063568
 31
0.0
  0
LINE
  5
376
330
1C4
100
AcDbEntity
  8
Stammform
  6
AUSGEZOGEN
 62
    56
370
    18
100
AcDbLine
 10
514.640268902879
 20
77.280225063568
 30
0.0
 11
513.487870198693
 21
75.284218537879
 31
0.0
  0
LINE
  5
377
330
1C4
100
AcDbEntity
  8
Stammform
  6
AUSGEZOGEN
 62
     9
370
    18
100
AcDbLine
 10
514.640268902879
 20
93.248249581262
 30
0.0
 11
515.792651785455
 21
91.252242561147
 31
0.0
  0
LINE
  5
378
330
1C4
100
AcDbEntity
  8
Stammform
  6
AUSGEZOGEN
 62
     9
370
    18
100
AcDbLine
 10
515.792651785455
 20
91.252242561147
 30
0.0
 11
514.640268902879
 21
89.256235541033
 31
0.0
  0
LINE
  5
379
330
1C4
100
AcDbEntity
  8
Stammform
  6
AUSGEZOGEN
 62
     9
370
    18
100
AcDbLine
 10
513.487870198692
 20
93.248249581262
 30
0.0
 11
514.640268902879
 21
93.248249581262
 31
0.0
  0
LINE
  5
37A
330
1C4
100
AcDbEntity
  8
Stammform
  6
AUSGEZOGEN
 62
    56
370
    18
100
AcDbLine
 10
514.640268902879
 20
93.248249581262
 30
0.0
 11
513.487870198693
 21
91.252242561147
 31
0.0
  0
LINE
  5
37B
330
1C4
100
AcDbEntity
  8
Stammform
  6
AUSGEZOGEN
 62
    56
370
    18
100
AcDbLine
 10
513.487870198693
 20
91.252242561147
 30
0.0
 11
514.640268902879
 21
89.256235541033
 31
0.0
  0
LINE
  5
37C
330
1C4
100
AcDbEntity
  8
Stammform
  6
AUSGEZOGEN
 62
     9
370
    18
100
AcDbLine
 10
514.640268902879
 20
85.264221500804
 30
0.0
 11
515.792651785455
 21
87.260228520918
 31
0.0
  0
LINE
  5
37D
330
1C4
100
AcDbEntity
  8
Stammform
  6
AUSGEZOGEN
 62
     9
370
    18
100
AcDbLine
 10
515.792651785455
 20
87.260228520918
 30
0.0
 11
514.640268902879
 21
89.256235541033
 31
0.0
  0
LINE
  5
37E
330
1C4
100
AcDbEntity
  8
Stammform
  6
AUSGEZOGEN
 62
     9
370
    18
100
AcDbLine
 10
514.640268902879
 20
89.256235541033
 30
0.0
 11
513.487870198693
 21
89.256235541033
 31
0.0
  0
LINE
  5
37F
330
1C4
100
AcDbEntity
  8
Stammform
  6
AUSGEZOGEN
 62
     9
370
    18
100
AcDbLine
 10
513.487870198693
 20
85.264221500804
 30
0.0
 11
514.640268902879
 21
85.264221500804
 31
0.0
  0
LINE
  5
380
330
1C4
100
AcDbEntity
  8
Stammform
  6
AUSGEZOGEN
 62
    56
370
    18
100
AcDbLine
 10
514.640268902879
 20
85.264221500804
 30
0.0
 11
513.487870198693
 21
87.260228520918
 31
0.0
  0
LINE
  5
381
330
1C4
100
AcDbEntity
  8
Stammform
  6
AUSGEZOGEN
 62
    56
370
    18
100
AcDbLine
 10
513.487870198693
 20
87.260228520918
 30
0.0
 11
514.640268902879
 21
89.256235541033
 31
0.0
  0
LINE
  5
382
330
1C4
100
AcDbEntity
  8
Stammform
  6
AUSGEZOGEN
 62
     9
370
    18
100
AcDbLine
 10
514.640268902879
 20
77.280225063568
 30
0.0
 11
515.792651785455
 21
79.276216262071
 31
0.0
  0
LINE
  5
383
330
1C4
100
AcDbEntity
  8
Stammform
  6
AUSGEZOGEN
 62
     9
370
    18
100
AcDbLine
 10
515.792651785455
 20
79.276216262071
 30
0.0
 11
514.640268902879
 21
81.272223282186
 31
0.0
  0
LINE
  5
384
330
1C4
100
AcDbEntity
  8
Stammform
  6
AUSGEZOGEN
 62
     9
370
    18
100
AcDbLine
 10
514.640268902879
 20
81.272223282186
 30
0.0
 11
513.487870198693
 21
81.272223282186
 31
0.0
  0
LINE
  5
385
330
1C4
100
AcDbEntity
  8
Stammform
  6
AUSGEZOGEN
 62
    56
370
    18
100
AcDbLine
 10
514.640268902879
 20
77.280225063568
 30
0.0
 11
513.487870198693
 21
79.276216262071
 31
0.0
  0
LINE
  5
386
330
1C4
100
AcDbEntity
  8
Stammform
  6
AUSGEZOGEN
 62
    56
370
    18
100
AcDbLine
 10
513.487870198693
 20
79.276216262071
 30
0.0
 11
514.640268902879
 21
81.272223282186
 31
0.0
  0
LINE
  5
387
330
1C4
100
AcDbEntity
  8
Stammform
  6
AUSGEZOGEN
 62
     9
370
    18
100
AcDbLine
 10
514.640268902879
 20
85.264221500804
 30
0.0
 11
515.792651785455
 21
83.2682303023
 31
0.0
  0
LINE
  5
388
330
1C4
100
AcDbEntity
  8
Stammform
  6
AUSGEZOGEN
 62
     9
370
    18
100
AcDbLine
 10
515.792651785455
 20
83.2682303023
 30
0.0
 11
514.640268902879
 21
81.272223282186
 31
0.0
  0
LINE
  5
389
330
1C4
100
AcDbEntity
  8
Stammform
  6
AUSGEZOGEN
 62
    56
370
    18
100
AcDbLine
 10
514.640268902879
 20
85.264221500804
 30
0.0
 11
513.487870198693
 21
83.2682303023
 31
0.0
  0
LINE
  5
38A
330
1C4
100
AcDbEntity
  8
Stammform
  6
AUSGEZOGEN
 62
    56
370
    18
100
AcDbLine
 10
513.487870198693
 20
83.2682303023
 30
0.0
 11
514.640268902879
 21
81.272223282186
 31
0.0
  0
LINE
  5
38B
330
1C4
100
AcDbEntity
  8
Stammform
  6
AUSGEZOGEN
 62
     9
370
    18
100
AcDbLine
 10
543.450107956956
 20
79.276216262071
 30
0.0
 11
542.297709252769
 21
77.280225063568
 31
0.0
  0
LINE
  5
38C
330
1C4
100
AcDbEntity
  8
Stammform
  6
AUSGEZOGEN
 62
     9
370
    18
100
AcDbLine
 10
542.297709252769
 20
77.280225063568
 30
0.0
 11
543.450107956956
 21
75.284218537879
 31
0.0
  0
LINE
  5
38D
330
1C4
100
AcDbEntity
  8
Stammform
  6
AUSGEZOGEN
 62
     9
370
    18
100
AcDbLine
 10
542.297709252769
 20
81.272223282186
 30
0.0
 11
543.450107956956
 21
79.276216262071
 31
0.0
  0
LINE
  5
38E
330
1C4
100
AcDbEntity
  8
Stammform
  6
AUSGEZOGEN
 62
     9
370
    18
100
AcDbLine
 10
543.450107956956
 20
79.276216262071
 30
0.0
 11
545.754893499121
 21
79.276216262071
 31
0.0
  0
LINE
  5
38F
330
1C4
100
AcDbEntity
  8
Stammform
  6
AUSGEZOGEN
 62
     9
370
    18
100
AcDbLine
 10
543.450107956956
 20
87.26024434253
 30
0.0
 11
542.297709252769
 21
85.264221500804
 31
0.0
  0
LINE
  5
390
330
1C4
100
AcDbEntity
  8
Stammform
  6
AUSGEZOGEN
 62
     9
370
    18
100
AcDbLine
 10
542.297709252769
 20
85.264221500804
 30
0.0
 11
543.450107956956
 21
83.2682303023
 31
0.0
  0
LINE
  5
391
330
1C4
100
AcDbEntity
  8
Stammform
  6
AUSGEZOGEN
 62
     9
370
    18
100
AcDbLine
 10
543.450107956956
 20
83.2682303023
 30
0.0
 11
545.754893499121
 21
83.2682303023
 31
0.0
  0
LINE
  5
392
330
1C4
100
AcDbEntity
  8
Stammform
  6
AUSGEZOGEN
 62
     9
370
    18
100
AcDbLine
 10
542.297709252769
 20
89.256235541033
 30
0.0
 11
543.450107956956
 21
87.26024434253
 31
0.0
  0
LINE
  5
393
330
1C4
100
AcDbEntity
  8
Stammform
  6
AUSGEZOGEN
 62
     9
370
    18
100
AcDbLine
 10
543.450107956956
 20
87.26024434253
 30
0.0
 11
545.754893499121
 21
87.26024434253
 31
0.0
  0
LINE
  5
394
330
1C4
100
AcDbEntity
  8
Stammform
  6
AUSGEZOGEN
 62
     9
370
    18
100
AcDbLine
 10
542.297709252769
 20
93.248249581262
 30
0.0
 11
543.450107956956
 21
91.252226739536
 31
0.0
  0
LINE
  5
395
330
1C4
100
AcDbEntity
  8
Stammform
  6
AUSGEZOGEN
 62
     9
370
    18
100
AcDbLine
 10
543.450107956956
 20
91.252226739536
 30
0.0
 11
545.754893499121
 21
91.252226739536
 31
0.0
  0
LINE
  5
396
330
1C4
100
AcDbEntity
  8
Stammform
  6
AUSGEZOGEN
 62
     9
370
    18
100
AcDbLine
 10
542.297709252769
 20
97.24024779988
 30
0.0
 11
543.450107956956
 21
95.244240779765
 31
0.0
  0
LINE
  5
397
330
1C4
100
AcDbEntity
  8
Stammform
  6
AUSGEZOGEN
 62
     9
370
    18
100
AcDbLine
 10
543.450107956956
 20
95.244240779765
 30
0.0
 11
545.754893499121
 21
95.244240779765
 31
0.0
  0
LINE
  5
398
330
1C4
100
AcDbEntity
  8
Stammform
  6
AUSGEZOGEN
 62
     9
370
    18
100
AcDbLine
 10
543.450107956956
 20
99.236254819994
 30
0.0
 11
545.754893499121
 21
99.236254819994
 31
0.0
  0
LINE
  5
399
330
1C4
100
AcDbEntity
  8
Stammform
  6
AUSGEZOGEN
 62
     9
370
    18
100
AcDbLine
 10
513.487870198693
 20
75.28423435949
 30
0.0
 11
545.754885588315
 21
75.28423435949
 31
0.0
  0
LINE
  5
39A
330
1C4
100
AcDbEntity
  8
Stammform
  6
AUSGEZOGEN
 62
    56
370
    18
100
AcDbLine
 10
545.754885588315
 20
75.284233865065
 30
0.0
 11
544.602486884128
 21
77.280225063568
 31
0.0
  0
LINE
  5
39B
330
1C4
100
AcDbEntity
  8
Stammform
  6
AUSGEZOGEN
 62
    56
370
    18
100
AcDbLine
 10
544.602486884128
 20
77.280225063568
 30
0.0
 11
545.754885588315
 21
79.276232083683
 31
0.0
  0
LINE
  5
39C
330
1C4
100
AcDbEntity
  8
Stammform
  6
AUSGEZOGEN
 62
    56
370
    18
100
AcDbLine
 10
544.602486884128
 20
77.280225063568
 30
0.0
 11
542.297709252769
 21
77.280225063568
 31
0.0
  0
LINE
  5
39D
330
1C4
100
AcDbEntity
  8
Stammform
  6
AUSGEZOGEN
 62
    56
370
    18
100
AcDbLine
 10
545.754885588315
 20
79.276232083683
 30
0.0
 11
544.602486884128
 21
81.272223282186
 31
0.0
  0
LINE
  5
39E
330
1C4
100
AcDbEntity
  8
Stammform
  6
AUSGEZOGEN
 62
    56
370
    18
100
AcDbLine
 10
544.602486884128
 20
81.272223282186
 30
0.0
 11
545.754885588315
 21
83.2682303023
 31
0.0
  0
LINE
  5
39F
330
1C4
100
AcDbEntity
  8
Stammform
  6
AUSGEZOGEN
 62
    56
370
    18
100
AcDbLine
 10
544.602486884128
 20
81.272223282186
 30
0.0
 11
542.297709252769
 21
81.272223282186
 31
0.0
  0
LINE
  5
3A0
330
1C4
100
AcDbEntity
  8
Stammform
  6
AUSGEZOGEN
 62
    56
370
    18
100
AcDbLine
 10
545.754885588315
 20
83.2682303023
 30
0.0
 11
544.602486884128
 21
85.264221500804
 31
0.0
  0
LINE
  5
3A1
330
1C4
100
AcDbEntity
  8
Stammform
  6
AUSGEZOGEN
 62
    56
370
    18
100
AcDbLine
 10
544.602486884128
 20
85.264221500804
 30
0.0
 11
545.754885588315
 21
87.260228520918
 31
0.0
  0
LINE
  5
3A2
330
1C4
100
AcDbEntity
  8
Stammform
  6
AUSGEZOGEN
 62
    56
370
    18
100
AcDbLine
 10
544.602486884128
 20
85.264221500804
 30
0.0
 11
542.297709252769
 21
85.264221500804
 31
0.0
  0
LINE
  5
3A3
330
1C4
100
AcDbEntity
  8
Stammform
  6
AUSGEZOGEN
 62
    56
370
    18
100
AcDbLine
 10
545.754885588315
 20
87.26024434253
 30
0.0
 11
544.602486884128
 21
89.256235541033
 31
0.0
  0
LINE
  5
3A4
330
1C4
100
AcDbEntity
  8
Stammform
  6
AUSGEZOGEN
 62
    56
370
    18
100
AcDbLine
 10
544.602486884128
 20
89.256235541033
 30
0.0
 11
545.754885588315
 21
91.252242561147
 31
0.0
  0
LINE
  5
3A5
330
1C4
100
AcDbEntity
  8
Stammform
  6
AUSGEZOGEN
 62
    56
370
    18
100
AcDbLine
 10
544.602486884128
 20
89.256235541033
 30
0.0
 11
542.297709252769
 21
89.256235541033
 31
0.0
  0
LINE
  5
3A6
330
1C4
100
AcDbEntity
  8
Stammform
  6
AUSGEZOGEN
 62
    56
370
    18
100
AcDbLine
 10
545.754885588315
 20
91.252258382759
 30
0.0
 11
544.602486884128
 21
93.248249581262
 31
0.0
  0
LINE
  5
3A7
330
1C4
100
AcDbEntity
  8
Stammform
  6
AUSGEZOGEN
 62
    56
370
    18
100
AcDbLine
 10
544.602486884128
 20
93.248249581262
 30
0.0
 11
545.754885588315
 21
95.244256601377
 31
0.0
  0
LINE
  5
3A8
330
1C4
100
AcDbEntity
  8
Stammform
  6
AUSGEZOGEN
 62
    56
370
    18
100
AcDbLine
 10
544.602486884128
 20
93.248249581262
 30
0.0
 11
542.297709252769
 21
93.248249581262
 31
0.0
  0
LINE
  5
3A9
330
1C4
100
AcDbEntity
  8
Stammform
  6
AUSGEZOGEN
 62
    56
370
    18
100
AcDbLine
 10
545.754885588315
 20
95.244256601377
 30
0.0
 11
544.602486884128
 21
97.24024779988
 31
0.0
  0
LINE
  5
3AA
330
1C4
100
AcDbEntity
  8
Stammform
  6
AUSGEZOGEN
 62
    56
370
    18
100
AcDbLine
 10
544.602486884128
 20
97.24024779988
 30
0.0
 11
545.754885588315
 21
99.236254819994
 31
0.0
  0
LINE
  5
3AB
330
1C4
100
AcDbEntity
  8
Stammform
  6
AUSGEZOGEN
 62
    56
370
    18
100
AcDbLine
 10
544.602486884128
 20
97.24024779988
 30
0.0
 11
542.297709252769
 21
97.24024779988
 31
0.0
  0
LINE
  5
3AC
330
1C4
100
AcDbEntity
  8
Stammform
  6
AUSGEZOGEN
 62
    56
370
    18
100
AcDbLine
 10
545.754885588315
 20
99.236254819994
 30
0.0
 11
544.602486884128
 21
101.232246018498
 31
0.0
  0
LINE
  5
3AD
330
1C4
100
AcDbEntity
  8
Stammform
  6
AUSGEZOGEN
 62
    56
370
    18
100
AcDbLine
 10
544.602486884128
 20
101.232246018498
 30
0.0
 11
545.754885588315
 21
103.228253038612
 31
0.0
  0
LINE
  5
3AE
330
1C4
100
AcDbEntity
  8
Stammform
  6
AUSGEZOGEN
 62
    56
370
    18
100
AcDbLine
 10
544.602486884128
 20
101.232246018498
 30
0.0
 11
542.297709252769
 21
101.232246018498
 31
0.0
  0
LINE
  5
3AF
330
1C4
100
AcDbEntity
  8
Stammform
  6
AUSGEZOGEN
 62
    56
370
    18
100
AcDbLine
 10
545.754885588315
 20
103.228270837925
 30
0.0
 11
544.602486884128
 21
105.224262036428
 31
0.0
  0
LINE
  5
3B0
330
1C4
100
AcDbEntity
  8
Stammform
  6
AUSGEZOGEN
 62
    56
370
    18
100
AcDbLine
 10
544.602486884128
 20
105.224262036428
 30
0.0
 11
545.754885588315
 21
107.220269056543
 31
0.0
  0
LINE
  5
3B1
330
1C4
100
AcDbEntity
  8
Stammform
  6
AUSGEZOGEN
 62
    56
370
    18
100
AcDbLine
 10
544.602486884128
 20
105.224262036428
 30
0.0
 11
542.297709252769
 21
105.224262036428
 31
0.0
  0
LINE
  5
3B2
330
1C4
100
AcDbEntity
  8
Stammform
  6
AUSGEZOGEN
 62
     9
370
    18
100
AcDbLine
 10
545.754885588315
 20
75.28423435949
 30
0.0
 11
545.754885588315
 21
107.220269056543
 31
0.0
  0
ENDBLK
  5
1C6
330
1C4
100
AcDbEntity
  8
0
100
AcDbBlockEnd
  0
BLOCK
  5
1C8
330
1C7
100
AcDbEntity
  8
0
100
AcDbBlockBegin
  2
*D7
 70
     1
 10
0.0
 20
0.0
 30
0.0
  3
*D7
  1

  0
LINE
  5
1CA
330
1C7
100
AcDbEntity
  8
Layer70
  6
AUSGEZOGEN
 62
   136
370
    18
100
AcDbLine
 10
550.805975759544
 20
105.470269056543
 30
0.0
 11
551.505975747623
 21
105.470269056543
 31
0.0
  0
LINE
  5
1CB
330
1C7
100
AcDbEntity
  8
Layer70
  6
AUSGEZOGEN
 62
   136
370
    18
100
AcDbLine
 10
550.805975759544
 20
105.470269056543
 30
0.0
 11
551.155975753584
 21
107.220269056543
 31
0.0
  0
LINE
  5
1CC
330
1C7
100
AcDbEntity
  8
Layer70
  6
AUSGEZOGEN
 62
   136
370
    18
100
AcDbLine
 10
551.155975753584
 20
107.220269056543
 30
0.0
 11
551.505975747623
 21
105.470269056543
 31
0.0
  0
LINE
  5
1CD
330
1C7
100
AcDbEntity
  8
Layer70
  6
AUSGEZOGEN
 62
   136
370
    18
100
AcDbLine
 10
551.505975747623
 20
77.034233865065
 30
0.0
 11
550.805975759544
 21
77.034233865065
 31
0.0
  0
LINE
  5
1CE
330
1C7
100
AcDbEntity
  8
Layer70
  6
AUSGEZOGEN
 62
   136
370
    18
100
AcDbLine
 10
551.505975747623
 20
77.034233865065
 30
0.0
 11
551.155975753584
 21
75.284233865065
 31
0.0
  0
LINE
  5
1CF
330
1C7
100
AcDbEntity
  8
Layer70
  6
AUSGEZOGEN
 62
   136
370
    18
100
AcDbLine
 10
551.155975753584
 20
75.284233865065
 30
0.0
 11
550.805975759544
 21
77.034233865065
 31
0.0
  0
LINE
  5
1D0
330
1C7
100
AcDbEntity
  8
Layer70
  6
AUSGEZOGEN
 62
   136
370
    18
100
AcDbLine
 10
551.155975753584
 20
75.284233865065
 30
0.0
 11
551.155975753584
 21
107.220269056543
 31
0.0
  0
LINE
  5
1D1
330
1C7
100
AcDbEntity
  8
Layer70
  6
AUSGEZOGEN
 62
   136
370
    18
100
AcDbLine
 10
545.754885588315
 20
75.284233865065
 30
0.0
 11
546.621377893504
 21
75.284233865065
 31
0.0
  0
LINE
  5
1D2
330
1C7
100
AcDbEntity
  8
Layer70
  6
AUSGEZOGEN
 62
   136
370
    18
100
AcDbLine
 10
547.621377893504
 20
75.284233865065
 30
0.0
 11
551.870261467869
 21
75.284233865065
 31
0.0
  0
LINE
  5
1D3
330
1C7
100
AcDbEntity
  8
Layer70
  6
AUSGEZOGEN
 62
   136
370
    18
100
AcDbLine
 10
545.754885588315
 20
107.220269056543
 30
0.0
 11
546.621377893504
 21
107.220269056543
 31
0.0
  0
LINE
  5
1D4
330
1C7
100
AcDbEntity
  8
Layer70
  6
AUSGEZOGEN
 62
   136
370
    18
100
AcDbLine
 10
547.621377893504
 20
107.220269056543
 30
0.0
 11
551.870261467869
 21
107.220269056543
 31
0.0
  0
WIPEOUT
  5
1D5
330
1C7
100
AcDbEntity
  8
Layer70
  6
AUSGEZOGEN
 62
   136
370
    18
 92
      152
310
98000000040000000C0000000E000000120000000C00000016000000000000C20C00000014000000010000006C0000000700000004000000E44437703F388140F4731C5E192356400000000000000000E44437703F3881408436025CB73757400000000000000000E44437703F2881408436025CB737574000000000000000
310
00E44437703F288140F4731C5E192356400000000000000000
100
AcDbWipeout
 90
        0
 10
549.030975753584
 20
88.548423316752
 30
0.0
 11
4.322143053412432
 21
0.0
 31
0.0
 12
0.0
 22
4.322143053412432
 32
0.0
 13
1.0
 23
1.0
340
0
 70
     7
280
     1
281
    50
282
    50
283
     0
360
0
 71
     2
 91
        5
 14
-0.037266588522
 24
0.5
 14
-0.037266588522
 24
-0.5
 14
-0.5
 24
-0.5
 14
-0.5
 24
0.5
 14
-0.037266588522
 24
0.5
  0
TEXT
  5
1D6
330
1C7
100
AcDbEntity
  8
Layer70
  6
AUSGEZOGEN
 62
   136
370
    18
100
AcDbText
 10
550.655975753584
 20
88.548423316752
 30
0.0
 40
1.25
  1
31.9
 50
90.0
 41
1.209972706038
  7
Arial
 72
     5
 11
550.655975753584
 21
92.65628065375
 31
0.0
100
AcDbText
  0
ENDBLK
  5
1C9
330
1C7
100
AcDbEntity
  8
0
100
AcDbBlockEnd
  0
BLOCK
  5
1D9
330
1D8
100
AcDbEntity
  8
0
100
AcDbBlockBegin
  2
_CLOSED
 70
     0
 10
0.0
 20
0.0
 30
0.0
  3
_CLOSED
  1

  0
LINE
  5
1DB
330
1D8
100
AcDbEntity
  8
0
  6
ByBlock
 62
     0
370
    -2
100
AcDbLine
 10
-1.0
 20
0.166667
 30
0.0
 11
0.0
 21
0.0
 31
0.0
  0
LINE
  5
1DC
330
1D8
100
AcDbEntity
  8
0
  6
ByBlock
 62
     0
370
    -2
100
AcDbLine
 10
0.0
 20
0.0
 30
0.0
 11
-1.0
 21
-0.166667
 31
0.0
  0
LINE
  5
1DD
330
1D8
100
AcDbEntity
  8
0
  6
ByBlock
 62
     0
370
    -2
100
AcDbLine
 10
-1.0
 20
0.166667
 30
0.0
 11
-1.0
 21
-0.166667
 31
0.0
  0
LINE
  5
1DE
330
1D8
100
AcDbEntity
  8
0
  6
ByBlock
 62
     0
370
    -2
100
AcDbLine
 10
0.0
 20
0.0
 30
0.0
 11
-1.0
 21
0.0
 31
0.0
  0
ENDBLK
  5
1DA
330
1D8
100
AcDbEntity
  8
0
100
AcDbBlockEnd
  0
BLOCK
  5
1E0
330
1DF
100
AcDbEntity
  8
0
100
AcDbBlockBegin
  2
*D9
 70
     1
 10
0.0
 20
0.0
 30
0.0
  3
*D9
  1

  0
LINE
  5
1E2
330
1DF
100
AcDbEntity
  8
Layer70
  6
AUSGEZOGEN
 62
   136
370
    18
100
AcDbLine
 10
544.004885302855
 20
57.07822466746
 30
0.0
 11
544.004885302855
 21
56.378224679381
 31
0.0
  0
LINE
  5
1E3
330
1DF
100
AcDbEntity
  8
Layer70
  6
AUSGEZOGEN
 62
   136
370
    18
100
AcDbLine
 10
544.004885302855
 20
57.07822466746
 30
0.0
 11
545.754885302855
 21
56.72822467342
 31
0.0
  0
LINE
  5
1E4
330
1DF
100
AcDbEntity
  8
Layer70
  6
AUSGEZOGEN
 62
   136
370
    18
100
AcDbLine
 10
545.754885302855
 20
56.72822467342
 30
0.0
 11
544.004885302855
 21
56.378224679381
 31
0.0
  0
LINE
  5
1E5
330
1DF
100
AcDbEntity
  8
Layer70
  6
AUSGEZOGEN
 62
   136
370
    18
100
AcDbLine
 10
515.237879333334
 20
56.378224679381
 30
0.0
 11
515.237879333334
 21
57.07822466746
 31
0.0
  0
LINE
  5
1E6
330
1DF
100
AcDbEntity
  8
Layer70
  6
AUSGEZOGEN
 62
   136
370
    18
100
AcDbLine
 10
515.237879333334
 20
56.378224679381
 30
0.0
 11
513.487879333334
 21
56.72822467342
 31
0.0
  0
LINE
  5
1E7
330
1DF
100
AcDbEntity
  8
Layer70
  6
AUSGEZOGEN
 62
   136
370
    18
100
AcDbLine
 10
513.487879333334
 20
56.72822467342
 30
0.0
 11
515.237879333334
 21
57.07822466746
 31
0.0
  0
LINE
  5
1E8
330
1DF
100
AcDbEntity
  8
Layer70
  6
AUSGEZOGEN
 62
   136
370
    18
100
AcDbLine
 10
513.487879333334
 20
56.72822467342
 30
0.0
 11
545.754885302855
 21
56.72822467342
 31
0.0
  0
LINE
  5
1E9
330
1DF
100
AcDbEntity
  8
Layer70
  6
AUSGEZOGEN
 62
   136
370
    18
100
AcDbLine
 10
513.487879333334
 20
75.28423435949
 30
0.0
 11
513.487879333334
 21
74.252226739536
 31
0.0
  0
LINE
  5
1EA
330
1DF
100
AcDbEntity
  8
Layer70
  6
AUSGEZOGEN
 62
   136
370
    18
100
AcDbLine
 10
513.487879333334
 20
73.252226739536
 30
0.0
 11
513.487879333334
 21
67.523958125995
 31
0.0
  0
LINE
  5
1EB
330
1DF
100
AcDbEntity
  8
Layer70
  6
AUSGEZOGEN
 62
   136
370
    18
100
AcDbLine
 10
513.487879333334
 20
66.523958125995
 30
0.0
 11
513.487879333334
 21
56.013938959135
 31
0.0
  0
LINE
  5
1EC
330
1DF
100
AcDbEntity
  8
Layer70
  6
AUSGEZOGEN
 62
   136
370
    18
100
AcDbLine
 10
545.754885302855
 20
75.28423435949
 30
0.0
 11
545.754885302855
 21
74.252226739536
 31
0.0
  0
LINE
  5
1ED
330
1DF
100
AcDbEntity
  8
Layer70
  6
AUSGEZOGEN
 62
   136
370
    18
100
AcDbLine
 10
545.754885302855
 20
73.252226739536
 30
0.0
 11
545.754885302855
 21
67.52396262751
 31
0.0
  0
LINE
  5
1EE
330
1DF
100
AcDbEntity
  8
Layer70
  6
AUSGEZOGEN
 62
   136
370
    18
100
AcDbLine
 10
545.754885302855
 20
66.52396262751
 30
0.0
 11
545.754885302855
 21
56.013938959135
 31
0.0
  0
WIPEOUT
  5
1EF
330
1DF
100
AcDbEntity
  8
Layer70
  6
AUSGEZOGEN
 62
   136
370
    18
 92
      152
310
98000000040000000C0000000E000000120000000C00000016000000000000C20C00000014000000010000006C0000000700000004000000A784FD3E738380408A3D5277366D4C400000000000000000F93CBAFE06A680408A3D5277366D4C400000000000000000F93CBAFE06A680408A3D5277366D4D4000000000000000
310
00A784FD3E738380408A3D5277366D4D400000000000000000
100
AcDbWipeout
 90
        0
 10
528.431272488223
 20
56.85322467342
 30
0.0
 11
4.322143053412447
 21
0.0
 31
0.0
 12
0.0
 22
4.322143053412447
 32
0.0
 13
1.0
 23
1.0
340
0
 70
     7
280
     1
281
    50
282
    50
283
     0
360
0
 71
     2
 91
        5
 14
-0.5
 24
0.5
 14
0.5
 24
0.5
 14
0.5
 24
0.037266588522
 14
-0.5
 24
0.037266588522
 14
-0.5
 24
0.5
  0
TEXT
  5
1F0
330
1DF
100
AcDbEntity
  8
Layer70
  6
AUSGEZOGEN
 62
   136
370
    18
100
AcDbText
 10
528.431272488223
 20
57.22822467342
 30
0.0
 40
1.25
  1
32.3
 41
1.209972706038
  7
Arial
 72
     5
 11
532.539129825221
 21
57.22822467342
 31
0.0
100
AcDbText
  0
ENDBLK
  5
1E1
330
1DF
100
AcDbEntity
  8
0
100
AcDbBlockEnd
  0
BLOCK
  5
3B7
330
3B6
100
AcDbEntity
  8
0
100
AcDbBlockBegin
  2
*D10
 70
     1
 10
0.0
 20
0.0
 30
0.0
  3
*D10
  1

  0
LINE
  5
3B9
330
3B6
100
AcDbEntity
  8
Layer70
  6
AUSGEZOGEN
 62
   136
370
    18
100
AcDbLine
 10
535.871377893504
 20
62.741530452584
 30
0.0
 11
535.871377893504
 21
62.041530464505
 31
0.0
  0
LINE
  5
3BA
330
3B6
100
AcDbEntity
  8
Layer70
  6
AUSGEZOGEN
 62
   136
370
    18
100
AcDbLine
 10
535.871377893504
 20
62.741530452584
 30
0.0
 11
537.621377893504
 21
62.391530458544
 31
0.0
  0
LINE
  5
3BB
330
3B6
100
AcDbEntity
  8
Layer70
  6
AUSGEZOGEN
 62
   136
370
    18
100
AcDbLine
 10
537.621377893504
 20
62.391530458544
 30
0.0
 11
535.871377893504
 21
62.041530464505
 31
0.0
  0
LINE
  5
3BC
330
3B6
100
AcDbEntity
  8
Layer70
  6
AUSGEZOGEN
 62
   136
370
    18
100
AcDbLine
 10
523.371377893504
 20
62.041530464505
 30
0.0
 11
523.371377893504
 21
62.741530452584
 31
0.0
  0
LINE
  5
3BD
330
3B6
100
AcDbEntity
  8
Layer70
  6
AUSGEZOGEN
 62
   136
370
    18
100
AcDbLine
 10
523.371377893504
 20
62.041530464505
 30
0.0
 11
521.621377893504
 21
62.391530458544
 31
0.0
  0
LINE
  5
3BE
330
3B6
100
AcDbEntity
  8
Layer70
  6
AUSGEZOGEN
 62
   136
370
    18
100
AcDbLine
 10
521.621377893504
 20
62.391530458544
 30
0.0
 11
523.371377893504
 21
62.741530452584
 31
0.0
  0
LINE
  5
3BF
330
3B6
100
AcDbEntity
  8
Layer70
  6
AUSGEZOGEN
 62
   136
370
    18
100
AcDbLine
 10
521.621377893504
 20
62.391530458544
 30
0.0
 11
537.621377893504
 21
62.391530458544
 31
0.0
  0
LINE
  5
3C0
330
3B6
100
AcDbEntity
  8
Layer70
  6
AUSGEZOGEN
 62
   136
370
    18
100
AcDbLine
 10
521.621377893504
 20
70.252226739536
 30
0.0
 11
521.621377893504
 21
68.952226739536
 31
0.0
  0
LINE
  5
3C1
330
3B6
100
AcDbEntity
  8
Layer70
  6
AUSGEZOGEN
 62
   136
370
    18
100
AcDbLine
 10
521.621377893504
 20
67.952226739536
 30
0.0
 11
521.621377893504
 21
67.252226739536
 31
0.0
  0
LINE
  5
3C2
330
3B6
100
AcDbEntity
  8
Layer70
  6
AUSGEZOGEN
 62
   136
370
    18
100
AcDbLine
 10
521.621377893504
 20
66.252226739536
 30
0.0
 11
521.621377893504
 21
61.677244744259
 31
0.0
  0
LINE
  5
3C3
330
3B6
100
AcDbEntity
  8
Layer70
  6
AUSGEZOGEN
 62
   136
370
    18
100
AcDbLine
 10
537.621377893504
 20
70.252226739536
 30
0.0
 11
537.621377893504
 21
68.952226739536
 31
0.0
  0
LINE
  5
3C4
330
3B6
100
AcDbEntity
  8
Layer70
  6
AUSGEZOGEN
 62
   136
370
    18
100
AcDbLine
 10
537.621377893504
 20
67.952226739536
 30
0.0
 11
537.621377893504
 21
67.252226739536
 31
0.0
  0
LINE
  5
3C5
330
3B6
100
AcDbEntity
  8
Layer70
  6
AUSGEZOGEN
 62
   136
370
    18
100
AcDbLine
 10
537.621377893504
 20
66.252226739536
 30
0.0
 11
537.621377893504
 21
61.677244744259
 31
0.0
  0
WIPEOUT
  5
3C6
330
3B6
100
AcDbEntity
  8
Layer70
  6
AUSGEZOGEN
 62
   136
370
    18
 92
      152
310
98000000040000000C0000000E000000120000000C00000016000000000000C20C00000014000000010000006C0000000700000004000000A784FD3E73838040FC6A89AB1D424F400000000000000000B15B2500B8968040FC6A89AB1D424F400000000000000000B15B2500B89680407EB5C4D50E21504000000000000000
310
00A784FD3E738380407EB5C4D50E2150400000000000000000
100
AcDbWipeout
 90
        0
 10
528.431272488223
 20
62.516530458544
 30
0.0
 11
2.408571540117237
 21
0.0
 31
0.0
 12
0.0
 22
2.408571540117237
 32
0.0
 13
1.0
 23
1.0
340
0
 70
     7
280
     1
281
    50
282
    50
283
     0
360
0
 71
     2
 91
        5
 14
-0.5
 24
0.5
 14
0.5
 24
0.5
 14
0.5
 24
-0.330367695826
 14
-0.5
 24
-0.330367695826
 14
-0.5
 24
0.5
  0
TEXT
  5
3C7
330
3B6
100
AcDbEntity
  8
Layer70
  6
AUSGEZOGEN
 62
   136
370
    18
100
AcDbText
 10
528.431272488223
 20
62.891530458544
 30
0.0
 40
1.25
  1
16
 41
1.131075166857
  7
Arial
 72
     5
 11
530.625558311926
 21
62.891530458544
 31
0.0
100
AcDbText
  0
ENDBLK
  5
3B8
330
3B6
100
AcDbEntity
  8
0
100
AcDbBlockEnd
  0
BLOCK
  5
3CA
330
3C9
100
AcDbEntity
  8
0
100
AcDbBlockBegin
  2
*D11
 70
     1
 10
0.0
 20
0.0
 30
0.0
  3
*D11
  1

  0
LINE
  5
3CC
330
3C9
100
AcDbEntity
  8
Layer70
  6
AUSGEZOGEN
 62
   136
370
    18
100
AcDbLine
 10
540.371377893504
 20
59.972803179857
 30
0.0
 11
540.371377893504
 21
59.272803191778
 31
0.0
  0
LINE
  5
3CD
330
3C9
100
AcDbEntity
  8
Layer70
  6
AUSGEZOGEN
 62
   136
370
    18
100
AcDbLine
 10
540.371377893504
 20
59.972803179857
 30
0.0
 11
542.121377893504
 21
59.622803185817
 31
0.0
  0
LINE
  5
3CE
330
3C9
100
AcDbEntity
  8
Layer70
  6
AUSGEZOGEN
 62
   136
370
    18
100
AcDbLine
 10
542.121377893504
 20
59.622803185817
 30
0.0
 11
540.371377893504
 21
59.272803191778
 31
0.0
  0
LINE
  5
3CF
330
3C9
100
AcDbEntity
  8
Layer70
  6
AUSGEZOGEN
 62
   136
370
    18
100
AcDbLine
 10
518.871377893504
 20
59.272803191778
 30
0.0
 11
518.871377893504
 21
59.972803179857
 31
0.0
  0
LINE
  5
3D0
330
3C9
100
AcDbEntity
  8
Layer70
  6
AUSGEZOGEN
 62
   136
370
    18
100
AcDbLine
 10
518.871377893504
 20
59.272803191778
 30
0.0
 11
517.121377893504
 21
59.622803185817
 31
0.0
  0
LINE
  5
3D1
330
3C9
100
AcDbEntity
  8
Layer70
  6
AUSGEZOGEN
 62
   136
370
    18
100
AcDbLine
 10
517.121377893504
 20
59.622803185817
 30
0.0
 11
518.871377893504
 21
59.972803179857
 31
0.0
  0
LINE
  5
3D2
330
3C9
100
AcDbEntity
  8
Layer70
  6
AUSGEZOGEN
 62
   136
370
    18
100
AcDbLine
 10
517.121377893504
 20
59.622803185817
 30
0.0
 11
542.121377893504
 21
59.622803185817
 31
0.0
  0
LINE
  5
3D3
330
3C9
100
AcDbEntity
  8
Layer70
  6
AUSGEZOGEN
 62
   136
370
    18
100
AcDbLine
 10
517.121377893504
 20
70.252226739536
 30
0.0
 11
517.121377893504
 21
68.952226739536
 31
0.0
  0
LINE
  5
3D4
330
3C9
100
AcDbEntity
  8
Layer70
  6
AUSGEZOGEN
 62
   136
370
    18
100
AcDbLine
 10
517.121377893504
 20
67.952226739536
 30
0.0
 11
517.121377893504
 21
67.252226739536
 31
0.0
  0
LINE
  5
3D5
330
3C9
100
AcDbEntity
  8
Layer70
  6
AUSGEZOGEN
 62
   136
370
    18
100
AcDbLine
 10
517.121377893504
 20
66.252226739536
 30
0.0
 11
517.121377893504
 21
58.908517471531
 31
0.0
  0
LINE
  5
3D6
330
3C9
100
AcDbEntity
  8
Layer70
  6
AUSGEZOGEN
 62
   136
370
    18
100
AcDbLine
 10
542.121377893504
 20
70.252226739536
 30
0.0
 11
542.121377893504
 21
68.952226739536
 31
0.0
  0
LINE
  5
3D7
330
3C9
100
AcDbEntity
  8
Layer70
  6
AUSGEZOGEN
 62
   136
370
    18
100
AcDbLine
 10
542.121377893504
 20
67.952226739536
 30
0.0
 11
542.121377893504
 21
67.252226739536
 31
0.0
  0
LINE
  5
3D8
330
3C9
100
AcDbEntity
  8
Layer70
  6
AUSGEZOGEN
 62
   136
370
    18
100
AcDbLine
 10
542.121377893504
 20
66.252226739536
 30
0.0
 11
542.121377893504
 21
58.908517471531
 31
0.0
  0
WIPEOUT
  5
3D9
330
3C9
100
AcDbEntity
  8
Layer70
  6
AUSGEZOGEN
 62
   136
370
    18
 92
      152
310
98000000040000000C0000000E000000120000000C00000016000000000000C20C00000014000000010000006C0000000700000004000000A784FD3E73838040E676C903B8DF4D400000000000000000B15B2500B8968040E676C903B8DF4D400000000000000000B15B2500B8968040E676C903B8DF4E4000000000000000
310
00A784FD3E73838040E676C903B8DF4E400000000000000000
100
AcDbWipeout
 90
        0
 10
528.431272488223
 20
59.747803185817
 30
0.0
 11
2.408571540117237
 21
0.0
 31
0.0
 12
0.0
 22
2.408571540117237
 32
0.0
 13
1.0
 23
1.0
340
0
 70
     7
280
     1
281
    50
282
    50
283
     0
360
0
 71
     2
 91
        5
 14
-0.5
 24
0.5
 14
0.5
 24
0.5
 14
0.5
 24
-0.330367695826
 14
-0.5
 24
-0.330367695826
 14
-0.5
 24
0.5
  0
TEXT
  5
3DA
330
3C9
100
AcDbEntity
  8
Layer70
  6
AUSGEZOGEN
 62
   136
370
    18
100
AcDbText
 10
528.431272488223
 20
60.122803185817
 30
0.0
 40
1.25
  1
25
 41
1.131075166857
  7
Arial
 72
     5
 11
530.625558311926
 21
60.122803185817
 31
0.0
100
AcDbText
  0
ENDBLK
  5
3CB
330
3C9
100
AcDbEntity
  8
0
100
AcDbBlockEnd
  0
BLOCK
  5
3DD
330
3DC
100
AcDbEntity
  8
0
100
AcDbBlockBegin
  2
*D12
 70
     1
 10
0.0
 20
0.0
 30
0.0
  3
*D12
  1

  0
LINE
  5
3DF
330
3DC
100
AcDbEntity
  8
Layer70
  6
AUSGEZOGEN
 62
   136
370
    18
100
AcDbLine
 10
545.371377893504
 20
54.183646155063
 30
0.0
 11
545.371377893504
 21
53.483646166984
 31
0.0
  0
LINE
  5
3E0
330
3DC
100
AcDbEntity
  8
Layer70
  6
AUSGEZOGEN
 62
   136
370
    18
100
AcDbLine
 10
545.371377893504
 20
54.183646155063
 30
0.0
 11
547.121377893504
 21
53.833646161024
 31
0.0
  0
LINE
  5
3E1
330
3DC
100
AcDbEntity
  8
Layer70
  6
AUSGEZOGEN
 62
   136
370
    18
100
AcDbLine
 10
547.121377893504
 20
53.833646161024
 30
0.0
 11
545.371377893504
 21
53.483646166984
 31
0.0
  0
LINE
  5
3E2
330
3DC
100
AcDbEntity
  8
Layer70
  6
AUSGEZOGEN
 62
   136
370
    18
100
AcDbLine
 10
513.871377893504
 20
53.483646166984
 30
0.0
 11
513.871377893504
 21
54.183646155063
 31
0.0
  0
LINE
  5
3E3
330
3DC
100
AcDbEntity
  8
Layer70
  6
AUSGEZOGEN
 62
   136
370
    18
100
AcDbLine
 10
513.871377893504
 20
53.483646166984
 30
0.0
 11
512.121377893504
 21
53.833646161024
 31
0.0
  0
LINE
  5
3E4
330
3DC
100
AcDbEntity
  8
Layer70
  6
AUSGEZOGEN
 62
   136
370
    18
100
AcDbLine
 10
512.121377893504
 20
53.833646161024
 30
0.0
 11
513.871377893504
 21
54.183646155063
 31
0.0
  0
LINE
  5
3E5
330
3DC
100
AcDbEntity
  8
Layer70
  6
AUSGEZOGEN
 62
   136
370
    18
100
AcDbLine
 10
512.121377893504
 20
53.833646161024
 30
0.0
 11
547.121377893504
 21
53.833646161024
 31
0.0
  0
LINE
  5
3E6
330
3DC
100
AcDbEntity
  8
Layer70
  6
AUSGEZOGEN
 62
   136
370
    18
100
AcDbLine
 10
512.121377893504
 20
73.752226739536
 30
0.0
 11
512.121377893504
 21
69.752226739536
 31
0.0
  0
LINE
  5
3E7
330
3DC
100
AcDbEntity
  8
Layer70
  6
AUSGEZOGEN
 62
   136
370
    18
100
AcDbLine
 10
512.121377893504
 20
68.752226739536
 30
0.0
 11
512.121377893504
 21
53.119360446738
 31
0.0
  0
LINE
  5
3E8
330
3DC
100
AcDbEntity
  8
Layer70
  6
AUSGEZOGEN
 62
   136
370
    18
100
AcDbLine
 10
547.121377893504
 20
73.752226739536
 30
0.0
 11
547.121377893504
 21
69.752226739536
 31
0.0
  0
LINE
  5
3E9
330
3DC
100
AcDbEntity
  8
Layer70
  6
AUSGEZOGEN
 62
   136
370
    18
100
AcDbLine
 10
547.121377893504
 20
68.752226739536
 30
0.0
 11
547.121377893504
 21
53.119360446738
 31
0.0
  0
WIPEOUT
  5
3EA
330
3DC
100
AcDbEntity
  8
Layer70
  6
AUSGEZOGEN
 62
   136
370
    18
 92
      152
310
98000000040000000C0000000E000000120000000C00000016000000000000C20C00000014000000010000006C0000000700000004000000A784FD3E738380402D04DBEAB4FA4A400000000000000000B15B2500B89680402D04DBEAB4FA4A400000000000000000B15B2500B89680402D04DBEAB4FA4B4000000000000000
310
00A784FD3E738380402D04DBEAB4FA4B400000000000000000
100
AcDbWipeout
 90
        0
 10
528.431272488223
 20
53.958646161024
 30
0.0
 11
2.408571540117237
 21
0.0
 31
0.0
 12
0.0
 22
2.408571540117237
 32
0.0
 13
1.0
 23
1.0
340
0
 70
     7
280
     1
281
    50
282
    50
283
     0
360
0
 71
     2
 91
        5
 14
-0.5
 24
0.5
 14
0.5
 24
0.5
 14
0.5
 24
-0.330367695826
 14
-0.5
 24
-0.330367695826
 14
-0.5
 24
0.5
  0
TEXT
  5
3EB
330
3DC
100
AcDbEntity
  8
Layer70
  6
AUSGEZOGEN
 62
   136
370
    18
100
AcDbText
 10
528.431272488223
 20
54.333646161024
 30
0.0
 40
1.25
  1
35
 41
1.131075166857
  7
Arial
 72
     5
 11
530.625558311926
 21
54.333646161024
 31
0.0
100
AcDbText
  0
ENDBLK
  5
3DE
330
3DC
100
AcDbEntity
  8
0
100
AcDbBlockEnd
  0
BLOCK
  5
3EE
330
3ED
100
AcDbEntity
  8
0
100
AcDbBlockBegin
  2
*D13
 70
     1
 10
0.0
 20
0.0
 30
0.0
  3
*D13
  1

  0
LINE
  5
3F0
330
3ED
100
AcDbEntity
  8
Layer70
  6
AUSGEZOGEN
 62
   136
370
    18
100
AcDbLine
 10
553.305975759544
 20
107.002226739536
 30
0.0
 11
554.005975747623
 21
107.002226739536
 31
0.0
  0
LINE
  5
3F1
330
3ED
100
AcDbEntity
  8
Layer70
  6
AUSGEZOGEN
 62
   136
370
    18
100
AcDbLine
 10
553.305975759544
 20
107.002226739536
 30
0.0
 11
553.655975753584
 21
108.752226739536
 31
0.0
  0
LINE
  5
3F2
330
3ED
100
AcDbEntity
  8
Layer70
  6
AUSGEZOGEN
 62
   136
370
    18
100
AcDbLine
 10
553.655975753584
 20
108.752226739536
 30
0.0
 11
554.005975747623
 21
107.002226739536
 31
0.0
  0
LINE
  5
3F3
330
3ED
100
AcDbEntity
  8
Layer70
  6
AUSGEZOGEN
 62
   136
370
    18
100
AcDbLine
 10
554.005975747623
 20
75.502226739536
 30
0.0
 11
553.305975759544
 21
75.502226739536
 31
0.0
  0
LINE
  5
3F4
330
3ED
100
AcDbEntity
  8
Layer70
  6
AUSGEZOGEN
 62
   136
370
    18
100
AcDbLine
 10
554.005975747623
 20
75.502226739536
 30
0.0
 11
553.655975753584
 21
73.752226739536
 31
0.0
  0
LINE
  5
3F5
330
3ED
100
AcDbEntity
  8
Layer70
  6
AUSGEZOGEN
 62
   136
370
    18
100
AcDbLine
 10
553.655975753584
 20
73.752226739536
 30
0.0
 11
553.305975759544
 21
75.502226739536
 31
0.0
  0
LINE
  5
3F6
330
3ED
100
AcDbEntity
  8
Layer70
  6
AUSGEZOGEN
 62
   136
370
    18
100
AcDbLine
 10
553.655975753584
 20
73.752226739536
 30
0.0
 11
553.655975753584
 21
108.752226739536
 31
0.0
  0
LINE
  5
3F7
330
3ED
100
AcDbEntity
  8
Layer70
  6
AUSGEZOGEN
 62
   136
370
    18
100
AcDbLine
 10
547.121377893504
 20
73.752226739536
 30
0.0
 11
554.370261467869
 21
73.752226739536
 31
0.0
  0
LINE
  5
3F8
330
3ED
100
AcDbEntity
  8
Layer70
  6
AUSGEZOGEN
 62
   136
370
    18
100
AcDbLine
 10
547.121377893504
 20
108.752226739536
 30
0.0
 11
554.370261467869
 21
108.752226739536
 31
0.0
  0
WIPEOUT
  5
3F9
330
3ED
100
AcDbEntity
  8
Layer70
  6
AUSGEZOGEN
 62
   136
370
    18
 92
      152
310
98000000040000000C0000000E000000120000000C00000016000000000000C20C00000014000000010000006C0000000700000004000000E44437703F4C8140F5731C5E192356400000000000000000E44437703F4C8140472C5B673FBD56400000000000000000E44437703F3C8140472C5B673FBD564000000000000000
310
00E44437703F3C8140F5731C5E192356400000000000000000
100
AcDbWipeout
 90
        0
 10
551.530975753584
 20
88.548423316752
 30
0.0
 11
2.408571540117265
 21
0.0
 31
0.0
 12
0.0
 22
2.408571540117265
 32
0.0
 13
1.0
 23
1.0
340
0
 70
     7
280
     1
281
    50
282
    50
283
     0
360
0
 71
     2
 91
        5
 14
0.330367695826
 24
0.5
 14
0.330367695826
 24
-0.5
 14
-0.5
 24
-0.5
 14
-0.5
 24
0.5
 14
0.330367695826
 24
0.5
  0
TEXT
  5
3FA
330
3ED
100
AcDbEntity
  8
Layer70
  6
AUSGEZOGEN
 62
   136
370
    18
100
AcDbText
 10
553.155975753584
 20
88.548423316752
 30
0.0
 40
1.25
  1
35
 50
90.0
 41
1.131075166857
  7
Arial
 72
     5
 11
553.155975753584
 21
90.742709140454
 31
0.0
100
AcDbText
  0
ENDBLK
  5
3EF
330
3ED
100
AcDbEntity
  8
0
100
AcDbBlockEnd
  0
BLOCK
  5
3FD
330
3FC
100
AcDbEntity
  8
0
100
AcDbBlockBegin
  2
*D14
 70
     1
 10
0.0
 20
0.0
 30
0.0
  3
*D14
  1

  0
LINE
  5
3FF
330
3FC
100
AcDbEntity
  8
Layer70
  6
AUSGEZOGEN
 62
   136
370
    18
100
AcDbLine
 10
508.973647254717
 20
72.002226739536
 30
0.0
 11
508.273647266638
 21
72.002226739536
 31
0.0
  0
LINE
  5
400
330
3FC
100
AcDbEntity
  8
Layer70
  6
AUSGEZOGEN
 62
   136
370
    18
100
AcDbLine
 10
508.973647254717
 20
72.002226739536
 30
0.0
 11
508.623647260677
 21
70.252226739536
 31
0.0
  0
LINE
  5
401
330
3FC
100
AcDbEntity
  8
Layer70
  6
AUSGEZOGEN
 62
   136
370
    18
100
AcDbLine
 10
508.623647260677
 20
70.252226739536
 30
0.0
 11
508.273647266638
 21
72.002226739536
 31
0.0
  0
LINE
  5
402
330
3FC
100
AcDbEntity
  8
Layer70
  6
AUSGEZOGEN
 62
   136
370
    18
100
AcDbLine
 10
508.273647266638
 20
89.502226739536
 30
0.0
 11
508.973647254717
 21
89.502226739536
 31
0.0
  0
LINE
  5
403
330
3FC
100
AcDbEntity
  8
Layer70
  6
AUSGEZOGEN
 62
   136
370
    18
100
AcDbLine
 10
508.273647266638
 20
89.502226739536
 30
0.0
 11
508.623647260677
 21
91.252226739536
 31
0.0
  0
LINE
  5
404
330
3FC
100
AcDbEntity
  8
Layer70
  6
AUSGEZOGEN
 62
   136
370
    18
100
AcDbLine
 10
508.623647260677
 20
91.252226739536
 30
0.0
 11
508.973647254717
 21
89.502226739536
 31
0.0
  0
LINE
  5
405
330
3FC
100
AcDbEntity
  8
Layer70
  6
AUSGEZOGEN
 62
   136
370
    18
100
AcDbLine
 10
508.623647260677
 20
91.252226739536
 30
0.0
 11
508.623647260677
 21
70.252226739536
 31
0.0
  0
LINE
  5
406
330
3FC
100
AcDbEntity
  8
Layer70
  6
AUSGEZOGEN
 62
   136
370
    18
100
AcDbLine
 10
510.744067889286
 20
91.252226739536
 30
0.0
 11
507.909361546392
 21
91.252226739536
 31
0.0
  0
LINE
  5
407
330
3FC
100
AcDbEntity
  8
Layer70
  6
AUSGEZOGEN
 62
   136
370
    18
100
AcDbLine
 10
514.840981561346
 20
70.252226739536
 30
0.0
 11
512.621377893504
 21
70.252226739536
 31
0.0
  0
LINE
  5
408
330
3FC
100
AcDbEntity
  8
Layer70
  6
AUSGEZOGEN
 62
   136
370
    18
100
AcDbLine
 10
511.621377893504
 20
70.252226739536
 30
0.0
 11
507.909361546392
 21
70.252226739536
 31
0.0
  0
WIPEOUT
  5
409
330
3FC
100
AcDbEntity
  8
Layer70
  6
AUSGEZOGEN
 62
   136
370
    18
 92
      152
310
98000000040000000C0000000E000000120000000C00000016000000000000C20C00000014000000010000006C000000070000000400000096CD8C75FAC77F40D8037C08900A5440000000000000000096CD8C75FAC77F402ABCBA11B6A45440000000000000000096CD8C75FAA77F402ABCBA11B6A4544000000000000000
310
0096CD8C75FAA77F40D8037C08900A54400000000000000000
100
AcDbWipeout
 90
        0
 10
506.498647260677
 20
80.165041085347
 30
0.0
 11
2.408571540117265
 21
0.0
 31
0.0
 12
0.0
 22
2.408571540117265
 32
0.0
 13
1.0
 23
1.0
340
0
 70
     7
280
     1
281
    50
282
    50
283
     0
360
0
 71
     2
 91
        5
 14
0.330367695826
 24
0.5
 14
0.330367695826
 24
-0.5
 14
-0.5
 24
-0.5
 14
-0.5
 24
0.5
 14
0.330367695826
 24
0.5
  0
TEXT
  5
40A
330
3FC
100
AcDbEntity
  8
Layer70
  6
AUSGEZOGEN
 62
   136
370
    18
100
AcDbText
 10
508.123647260677
 20
80.165041085347
 30
0.0
 40
1.25
  1
21
 50
90.0
 41
1.131075166857
  7
Arial
 72
     5
 11
508.123647260677
 21
82.359326909049
 31
0.0
100
AcDbText
  0
ENDBLK
  5
3FE
330
3FC
100
AcDbEntity
  8
0
100
AcDbBlockEnd
  0
BLOCK
  5
40D
330
40C
100
AcDbEntity
  8
0
100
AcDbBlockBegin
  2
*D15
 70
     1
 10
0.0
 20
0.0
 30
0.0
  3
*D15
  1

  0
LINE
  5
40F
330
40C
100
AcDbEntity
  8
Layer70
  6
AUSGEZOGEN
 62
   136
370
    18
100
AcDbLine
 10
505.793016311803
 20
68.502226739536
 30
0.0
 11
505.093016323724
 21
68.502226739536
 31
0.0
  0
LINE
  5
410
330
40C
100
AcDbEntity
  8
Layer70
  6
AUSGEZOGEN
 62
   136
370
    18
100
AcDbLine
 10
505.793016311803
 20
68.502226739536
 30
0.0
 11
505.443016317764
 21
66.752226739536
 31
0.0
  0
LINE
  5
411
330
40C
100
AcDbEntity
  8
Layer70
  6
AUSGEZOGEN
 62
   136
370
    18
100
AcDbLine
 10
505.443016317764
 20
66.752226739536
 30
0.0
 11
505.093016323724
 21
68.502226739536
 31
0.0
  0
LINE
  5
412
330
40C
100
AcDbEntity
  8
Layer70
  6
AUSGEZOGEN
 62
   136
370
    18
100
AcDbLine
 10
505.093016323724
 20
107.002226739536
 30
0.0
 11
505.793016311803
 21
107.002226739536
 31
0.0
  0
LINE
  5
413
330
40C
100
AcDbEntity
  8
Layer70
  6
AUSGEZOGEN
 62
   136
370
    18
100
AcDbLine
 10
505.093016323724
 20
107.002226739536
 30
0.0
 11
505.443016317764
 21
108.752226739536
 31
0.0
  0
LINE
  5
414
330
40C
100
AcDbEntity
  8
Layer70
  6
AUSGEZOGEN
 62
   136
370
    18
100
AcDbLine
 10
505.443016317764
 20
108.752226739536
 30
0.0
 11
505.793016311803
 21
107.002226739536
 31
0.0
  0
LINE
  5
415
330
40C
100
AcDbEntity
  8
Layer70
  6
AUSGEZOGEN
 62
   136
370
    18
100
AcDbLine
 10
505.443016317764
 20
108.752226739536
 30
0.0
 11
505.443016317764
 21
66.752226739536
 31
0.0
  0
LINE
  5
416
330
40C
100
AcDbEntity
  8
Layer70
  6
AUSGEZOGEN
 62
   136
370
    18
100
AcDbLine
 10
512.121377893504
 20
108.752226739536
 30
0.0
 11
504.728730603478
 21
108.752226739536
 31
0.0
  0
LINE
  5
417
330
40C
100
AcDbEntity
  8
Layer70
  6
AUSGEZOGEN
 62
   136
370
    18
100
AcDbLine
 10
514.621377893504
 20
66.752226739536
 30
0.0
 11
504.728730603478
 21
66.752226739536
 31
0.0
  0
WIPEOUT
  5
418
330
40C
100
AcDbEntity
  8
Layer70
  6
AUSGEZOGEN
 62
   136
370
    18
 92
      152
310
98000000040000000C0000000E000000120000000C00000016000000000000C20C00000014000000010000006C00000007000000040000003A46479816957F40F5731C5E1923564000000000000000003A46479816957F40472C5B673FBD564000000000000000003A46479816757F40472C5B673FBD564000000000000000
310
003A46479816757F40F5731C5E192356400000000000000000
100
AcDbWipeout
 90
        0
 10
503.318016317764
 20
88.548423316752
 30
0.0
 11
2.408571540117265
 21
0.0
 31
0.0
 12
0.0
 22
2.408571540117265
 32
0.0
 13
1.0
 23
1.0
340
0
 70
     7
280
     1
281
    50
282
    50
283
     0
360
0
 71
     2
 91
        5
 14
0.330367695826
 24
0.5
 14
0.330367695826
 24
-0.5
 14
-0.5
 24
-0.5
 14
-0.5
 24
0.5
 14
0.330367695826
 24
0.5
  0
TEXT
  5
419
330
40C
100
AcDbEntity
  8
Layer70
  6
AUSGEZOGEN
 62
   136
370
    18
100
AcDbText
 10
504.943016317764
 20
88.548423316752
 30
0.0
 40
1.25
  1
42
 50
90.0
 41
1.131075166857
  7
Arial
 72
     5
 11
504.943016317764
 21
90.742709140454
 31
0.0
100
AcDbText
  0
ENDBLK
  5
40E
330
40C
100
AcDbEntity
  8
0
100
AcDbBlockEnd
  0
BLOCK
  5
427
330
426
100
AcDbEntity
  8
0
100
AcDbBlockBegin
  2
*D16
 70
     1
 10
0.0
 20
0.0
 30
0.0
  3
*D16
  1

  0
LINE
  5
429
330
426
100
AcDbEntity
  8
Layer70
  6
AUSGEZOGEN
 62
   136
370
    18
100
AcDbLine
 10
550.859782083156
 20
116.75
 30
0.0
 11
551.559782071235
 21
116.75
 31
0.0
  0
LINE
  5
42A
330
426
100
AcDbEntity
  8
Layer70
  6
AUSGEZOGEN
 62
   136
370
    18
100
AcDbLine
 10
550.859782083156
 20
116.75
 30
0.0
 11
551.209782077195
 21
118.5
 31
0.0
  0
LINE
  5
42B
330
426
100
AcDbEntity
  8
Layer70
  6
AUSGEZOGEN
 62
   136
370
    18
100
AcDbLine
 10
551.209782077195
 20
118.5
 30
0.0
 11
551.559782071235
 21
116.75
 31
0.0
  0
LINE
  5
42C
330
426
100
AcDbEntity
  8
Layer70
  6
AUSGEZOGEN
 62
   136
370
    18
100
AcDbLine
 10
551.559782071235
 20
123.75
 30
0.0
 11
550.859782083156
 21
123.75
 31
0.0
  0
LINE
  5
42D
330
426
100
AcDbEntity
  8
Layer70
  6
AUSGEZOGEN
 62
   136
370
    18
100
AcDbLine
 10
551.559782071235
 20
123.75
 30
0.0
 11
551.209782077195
 21
122.0
 31
0.0
  0
LINE
  5
42E
330
426
100
AcDbEntity
  8
Layer70
  6
AUSGEZOGEN
 62
   136
370
    18
100
AcDbLine
 10
551.209782077195
 20
122.0
 30
0.0
 11
550.859782083156
 21
123.75
 31
0.0
  0
LINE
  5
42F
330
426
100
AcDbEntity
  8
Layer70
  6
AUSGEZOGEN
 62
   136
370
    18
100
AcDbLine
 10
551.209782077195
 20
122.0
 30
0.0
 11
551.209782077195
 21
118.5
 31
0.0
  0
LINE
  5
430
330
426
100
AcDbEntity
  8
Layer70
  6
AUSGEZOGEN
 62
   136
370
    18
100
AcDbLine
 10
551.209782077195
 20
118.5
 30
0.0
 11
551.209782077195
 21
114.5
 31
0.0
  0
LINE
  5
431
330
426
100
AcDbEntity
  8
Layer70
  6
AUSGEZOGEN
 62
   136
370
    18
100
AcDbLine
 10
551.209782077195
 20
122.0
 30
0.0
 11
551.209782077195
 21
126.0
 31
0.0
  0
LINE
  5
432
330
426
100
AcDbEntity
  8
Layer70
  6
AUSGEZOGEN
 62
   136
370
    18
100
AcDbLine
 10
551.209782077195
 20
118.5
 30
0.0
 11
551.209782077195
 21
113.763326532706
 31
0.0
  0
LINE
  5
433
330
426
100
AcDbEntity
  8
Layer70
  6
AUSGEZOGEN
 62
   136
370
    18
100
AcDbLine
 10
547.121377893504
 20
122.0
 30
0.0
 11
551.924067791481
 21
122.0
 31
0.0
  0
LINE
  5
434
330
426
100
AcDbEntity
  8
Layer70
  6
AUSGEZOGEN
 62
   136
370
    18
100
AcDbLine
 10
547.121377893504
 20
118.5
 30
0.0
 11
551.924067791481
 21
118.5
 31
0.0
  0
WIPEOUT
  5
435
330
426
100
AcDbEntity
  8
Layer70
  6
AUSGEZOGEN
 62
   136
370
    18
 92
      152
310
98000000040000000C0000000E000000120000000C00000016000000000000C20C00000014000000010000006C0000000700000004000000B8C639A2AD388140ED883FC5B5775C400000000000000000B8C639A2AD38814053EF85BE403F5D400000000000000000B8C639A2AD28814053EF85BE403F5D4000000000000000
310
00B8C639A2AD288140ED883FC5B5775C400000000000000000
100
AcDbWipeout
 90
        0
 10
549.084782077195
 20
113.870469390913
 30
0.0
 11
3.1178572833538
 21
0.0
 31
0.0
 12
0.0
 22
3.1178572833538
 32
0.0
 13
1.0
 23
1.0
340
0
 70
     7
280
     1
281
    50
282
    50
283
     0
360
0
 71
     2
 91
        5
 14
0.141466179571
 24
0.5
 14
0.141466179571
 24
-0.5
 14
-0.5
 24
-0.5
 14
-0.5
 24
0.5
 14
0.141466179571
 24
0.5
  0
TEXT
  5
436
330
426
100
AcDbEntity
  8
Layer70
  6
AUSGEZOGEN
 62
   136
370
    18
100
AcDbText
 10
550.709782077195
 20
113.870469390913
 30
0.0
 40
1.25
  1
3.5
 50
90.0
 41
1.197349099769
  7
Arial
 72
     5
 11
550.709782077195
 21
116.774040957852
 31
0.0
100
AcDbText
  0
ENDBLK
  5
428
330
426
100
AcDbEntity
  8
0
100
AcDbBlockEnd
  0
BLOCK
  5
439
330
438
100
AcDbEntity
  8
0
100
AcDbBlockBegin
  2
*D17
 70
     1
 10
0.0
 20
0.0
 30
0.0
  3
*D17
  1

  0
LINE
  5
43B
330
438
100
AcDbEntity
  8
Layer70
  6
AUSGEZOGEN
 62
   136
370
    18
100
AcDbLine
 10
555.754186270611
 20
124.75
 30
0.0
 11
556.45418625869
 21
124.75
 31
0.0
  0
LINE
  5
43C
330
438
100
AcDbEntity
  8
Layer70
  6
AUSGEZOGEN
 62
   136
370
    18
100
AcDbLine
 10
555.754186270611
 20
124.75
 30
0.0
 11
556.104186264651
 21
126.5
 31
0.0
  0
LINE
  5
43D
330
438
100
AcDbEntity
  8
Layer70
  6
AUSGEZOGEN
 62
   136
370
    18
100
AcDbLine
 10
556.104186264651
 20
126.5
 30
0.0
 11
556.45418625869
 21
124.75
 31
0.0
  0
LINE
  5
43E
330
438
100
AcDbEntity
  8
Layer70
  6
AUSGEZOGEN
 62
   136
370
    18
100
AcDbLine
 10
556.45418625869
 20
120.25
 30
0.0
 11
555.754186270611
 21
120.25
 31
0.0
  0
LINE
  5
43F
330
438
100
AcDbEntity
  8
Layer70
  6
AUSGEZOGEN
 62
   136
370
    18
100
AcDbLine
 10
556.45418625869
 20
120.25
 30
0.0
 11
556.104186264651
 21
118.5
 31
0.0
  0
LINE
  5
440
330
438
100
AcDbEntity
  8
Layer70
  6
AUSGEZOGEN
 62
   136
370
    18
100
AcDbLine
 10
556.104186264651
 20
118.5
 30
0.0
 11
555.754186270611
 21
120.25
 31
0.0
  0
LINE
  5
441
330
438
100
AcDbEntity
  8
Layer70
  6
AUSGEZOGEN
 62
   136
370
    18
100
AcDbLine
 10
556.104186264651
 20
118.5
 30
0.0
 11
556.104186264651
 21
126.5
 31
0.0
  0
LINE
  5
442
330
438
100
AcDbEntity
  8
Layer70
  6
AUSGEZOGEN
 62
   136
370
    18
100
AcDbLine
 10
547.121377893504
 20
118.5
 30
0.0
 11
550.709782077195
 21
118.5
 31
0.0
  0
LINE
  5
443
330
438
100
AcDbEntity
  8
Layer70
  6
AUSGEZOGEN
 62
   136
370
    18
100
AcDbLine
 10
551.709782077195
 20
118.5
 30
0.0
 11
556.818471978937
 21
118.5
 31
0.0
  0
LINE
  5
444
330
438
100
AcDbEntity
  8
Layer70
  6
AUSGEZOGEN
 62
   136
370
    18
100
AcDbLine
 10
547.121377893504
 20
126.5
 30
0.0
 11
556.818471978937
 21
126.5
 31
0.0
  0
WIPEOUT
  5
445
330
438
100
AcDbEntity
  8
Layer70
  6
AUSGEZOGEN
 62
   136
370
    18
 92
      152
310
98000000040000000C0000000E000000120000000C00000016000000000000C20C00000014000000010000006C0000000700000004000000F2BA9B5FD55F8140C97533676C3B5E400000000000000000F2BA9B5FD55F81401D592105E2595F400000000000000000F2BA9B5FD54F81401D592105E2595F4000000000000000
310
00F2BA9B5FD54F8140C97533676C3B5E400000000000000000
100
AcDbWipeout
 90
        0
 10
553.979186264651
 20
120.928491401915
 30
0.0
 11
4.475928766548634
 21
0.0
 31
0.0
 12
0.0
 22
4.475928766548634
 32
0.0
 13
1.0
 23
1.0
340
0
 70
     7
280
     1
281
    50
282
    50
283
     0
360
0
 71
     2
 91
        5
 14
-0.05316536426
 24
0.5
 14
-0.05316536426
 24
-0.5
 14
-0.5
 24
-0.5
 14
-0.5
 24
0.5
 14
-0.05316536426
 24
0.5
  0
TEXT
  5
446
330
438
100
AcDbEntity
  8
Layer70
  6
AUSGEZOGEN
 62
   136
370
    18
100
AcDbText
 10
555.604186264651
 20
120.928491401915
 30
0.0
 40
1.25
  1
8
 50
90.0
 41
1.020618612004
  7
Arial
 72
     5
 11
555.604186264651
 21
121.918491455559
 31
0.0
100
AcDbText
  0
WIPEOUT
  5
447
330
438
100
AcDbEntity
  8
Layer70
  6
AUSGEZOGEN
 62
   136
370
    18
 92
      152
310
98000000040000000C0000000E000000120000000C00000016000000000000C20C00000014000000010000006C00000007000000040000008C5435F96E5D8140F2D1D26B7F885E4000000000000000008C5435F96E5D814046B5C009F5A65F400000000000000000592102C63B52814046B5C009F5A65F4000000000000000
310
00592102C63B528140F2D1D26B7F885E400000000000000000
100
AcDbWipeout
 90
        0
 10
554.279186264651
 20
122.132777171973
 30
0.0
 11
4.475928766548634
 21
0.0
 31
0.0
 12
0.0
 22
4.475928766548634
 32
0.0
 13
1.0
 23
1.0
340
0
 70
     7
280
     1
281
    50
282
    50
283
     0
360
0
 71
     2
 91
        5
 14
-0.187215754982
 24
0.5
 14
-0.187215754982
 24
-0.5
 14
-0.5
 24
-0.5
 14
-0.5
 24
0.5
 14
-0.187215754982
 24
0.5
  0
TEXT
  5
448
330
438
100
AcDbEntity
  8
Layer70
  6
AUSGEZOGEN
 62
   136
370
    18
100
AcDbText
 10
555.416686264651
 20
122.132777171973
 30
0.0
 40
0.875
  1
%%p0,3
 50
90.0
 41
1.291250039099
  7
Arial
 72
     5
 11
555.416686264651
 21
125.190134452049
 31
0.0
100
AcDbText
  0
ENDBLK
  5
43A
330
438
100
AcDbEntity
  8
0
100
AcDbBlockEnd
  0
ENDSEC
  0
SECTION
  2
ENTITIES
  0
INSERT
  5
1A0
330
1F
100
AcDbEntity
  8
0
100
AcDbBlockReference
  2
L1_nNn00
 10
0.0
 20
0.0
 30
0.0
  0
INSERT
  5
1A5
330
1F
100
AcDbEntity
  8
0
100
AcDbBlockReference
  2
Reflexwerte_nNn03
 10
0.0
 20
0.0
 30
0.0
  0
INSERT
  5
1AC
330
1F
100
AcDbEntity
  8
0
100
AcDbBlockReference
  2
QS_nNn04
 10
0.0
 20
0.0
 30
0.0
  0
LINE
  5
1AD
330
1F
100
AcDbEntity
  8
Stammform
  6
AUSGEZOGEN
 62
     9
370
    18
100
AcDbLine
 10
512.121377893504
 20
108.752226739536
 30
0.0
 11
512.121377893504
 21
69.252226739536
 31
0.0
  0
LINE
  5
1AE
330
1F
100
AcDbEntity
  8
Stammform
  6
AUSGEZOGEN
 62
     9
370
    18
100
AcDbLine
 10
512.121377893504
 20
73.752226739536
 30
0.0
 11
547.121377893504
 21
73.752226739536
 31
0.0
  0
LINE
  5
1AF
330
1F
100
AcDbEntity
  8
Stammform
  6
AUSGEZOGEN
 62
     9
370
    18
100
AcDbLine
 10
512.121377893504
 20
108.752226739536
 30
0.0
 11
547.121377893504
 21
108.752226739536
 31
0.0
  0
LINE
  5
1B0
330
1F
100
AcDbEntity
  8
Stammform
  6
AUSGEZOGEN
 62
     9
370
    18
100
AcDbLine
 10
547.121377893504
 20
108.752226739536
 30
0.0
 11
547.121377893504
 21
69.252226739536
 31
0.0
  0
LINE
  5
1B1
330
1F
100
AcDbEntity
  8
Stammform
  6
AUSGEZOGEN
 62
     9
370
    18
100
AcDbLine
 10
514.621377893504
 20
66.752226739536
 30
0.0
 11
544.621377893504
 21
66.752226739536
 31
0.0
  0
ARC
  5
1B2
330
1F
100
AcDbEntity
  8
Stammform
  6
AUSGEZOGEN
 62
     9
370
    18
100
AcDbCircle
 10
514.621377893504
 20
69.252226739536
 30
0.0
 40
2.5
100
AcDbArc
 50
180.0
 51
270.0
  0
ARC
  5
1B3
330
1F
100
AcDbEntity
  8
Stammform
  6
AUSGEZOGEN
 62
     9
370
    18
100
AcDbCircle
 10
544.621377893504
 20
69.252226739536
 30
0.0
 40
2.5
100
AcDbArc
 50
270.0
 51
0.0
  0
LINE
  5
1B4
330
1F
100
AcDbEntity
  8
Stammform
  6
DASHDOT
 62
    56
370
    18
100
AcDbLine
 10
529.621377893504
 20
65.228427152759
 30
0.0
 11
529.621377893504
 21
110.79352331697
 31
0.0
  0
LINE
  5
1B5
330
1F
100
AcDbEntity
  8
Stammform
  6
DASHDOT
 62
    56
370
    18
100
AcDbLine
 10
510.744067889286
 20
91.252226739536
 30
0.0
 11
548.676036912182
 21
91.252226739536
 31
0.0
  0
LINE
  5
1B6
330
1F
100
AcDbEntity
  8
Stammform
  6
DASHDOT
 62
    56
370
    18
100
AcDbLine
 10
535.246526267386
 20
70.252226739536
 30
0.0
 11
544.463887570924
 21
70.252226739536
 31
0.0
  0
LINE
  5
1B7
330
1F
100
AcDbEntity
  8
Stammform
  6
DASHDOT
 62
    56
370
    18
100
AcDbLine
 10
514.840981561346
 20
70.252226739536
 30
0.0
 11
524.018687033546
 21
70.252226739536
 31
0.0
  0
LINE
  5
1B8
330
1F
100
AcDbEntity
  8
Stammform
  6
DASHDOT
 62
    56
370
    18
100
AcDbLine
 10
517.121377893504
 20
69.037175086644
 30
0.0
 11
517.121377893504
 21
71.731323846974
 31
0.0
  0
LINE
  5
1B9
330
1F
100
AcDbEntity
  8
Stammform
  6
DASHDOT
 62
    56
370
    18
100
AcDbLine
 10
542.121377893504
 20
68.997555251933
 30
0.0
 11
542.121377893504
 21
71.295505665156
 31
0.0
  0
ARC
  5
1BA
330
1F
100
AcDbEntity
  8
Stammform
  6
AUSGEZOGEN
 62
     9
370
    18
100
AcDbCircle
 10
517.121377893504
 20
70.252226739536
 30
0.0
 40
1.8
100
AcDbArc
 50
90.0
 51
270.0
  0
ARC
  5
1BB
330
1F
100
AcDbEntity
  8
Stammform
  6
AUSGEZOGEN
 62
     9
370
    18
100
AcDbCircle
 10
542.121377893504
 20
70.252226739536
 30
0.0
 40
1.8
100
AcDbArc
 50
270.0
 51
90.0
  0
LINE
  5
1BC
330
1F
100
AcDbEntity
  8
Stammform
  6
DASHDOT
 62
    56
370
    18
100
AcDbLine
 10
521.621377893504
 20
68.997555251933
 30
0.0
 11
521.621377893504
 21
71.810563516396
 31
0.0
  0
ARC
  5
1BD
330
1F
100
AcDbEntity
  8
Stammform
  6
AUSGEZOGEN
 62
     9
370
    18
100
AcDbCircle
 10
521.621377893504
 20
70.252226739536
 30
0.0
 40
1.799999999999997
100
AcDbArc
 50
270.0
 51
90.0
  0
LINE
  5
1BE
330
1F
100
AcDbEntity
  8
Stammform
  6
DASHDOT
 62
    56
370
    18
100
AcDbLine
 10
537.621377893504
 20
69.116414756065
 30
0.0
 11
537.621377893504
 21
71.295505665156
 31
0.0
  0
ARC
  5
1BF
330
1F
100
AcDbEntity
  8
Stammform
  6
AUSGEZOGEN
 62
     9
370
    18
100
AcDbCircle
 10
537.621377893504
 20
70.252226739536
 30
0.0
 40
1.799999999999997
100
AcDbArc
 50
90.0
 51
270.0
  0
LINE
  5
1C0
330
1F
100
AcDbEntity
  8
Stammform
  6
AUSGEZOGEN
 62
     9
370
    18
100
AcDbLine
 10
517.121377893504
 20
72.052226739536
 30
0.0
 11
521.621377893504
 21
72.052226739536
 31
0.0
  0
LINE
  5
1C1
330
1F
100
AcDbEntity
  8
Stammform
  6
AUSGEZOGEN
 62
     9
370
    18
100
AcDbLine
 10
517.121377893504
 20
68.452226739536
 30
0.0
 11
521.621377893504
 21
68.452226739536
 31
0.0
  0
LINE
  5
1C2
330
1F
100
AcDbEntity
  8
Stammform
  6
AUSGEZOGEN
 62
     9
370
    18
100
AcDbLine
 10
537.621377893504
 20
72.052226739536
 30
0.0
 11
542.121377893504
 21
72.052226739536
 31
0.0
  0
LINE
  5
1C3
330
1F
100
AcDbEntity
  8
Stammform
  6
AUSGEZOGEN
 62
     9
370
    18
100
AcDbLine
 10
542.121377893504
 20
68.452226739536
 30
0.0
 11
537.621377893504
 21
68.452226739536
 31
0.0
  0
INSERT
  5
3B3
330
1F
100
AcDbEntity
  8
0
100
AcDbBlockReference
  2
L1_nNn05
 10
0.0
 20
0.0
 30
0.0
  0
LINE
  5
3B4
330
1F
100
AcDbEntity
  8
Stammform
  6
AUSGEZOGEN
 62
     9
370
    18
100
AcDbLine
 10
513.487870198693
 20
75.28423435949
 30
0.0
 11
513.487870198692
 21
107.220269056543
 31
0.0
  0
LINE
  5
3B5
330
1F
100
AcDbEntity
  8
Stammform
  6
AUSGEZOGEN
 62
     9
370
    18
100
AcDbLine
 10
513.487870198692
 20
107.220269056543
 30
0.0
 11
545.754885588315
 21
107.220269056543
 31
0.0
  0
DIMENSION
  5
3C8
330
1F
100
AcDbEntity
  8
Layer70
  6
AUSGEZOGEN
 62
   136
370
    18
100
AcDbDimension
  2
*D10
 10
537.621377893504
 20
62.391530458544
 30
0.0
 11
529.528415400074
 21
63.516530458544
 31
0.0
 70
   160
 71
     5
 42
-1.0
  3
ISO-25
100
AcDbAlignedDimension
 13
521.621377893504
 23
70.252226739536
 33
0.0
 14
537.621377893504
 24
70.252226739536
 34
0.0
100
AcDbRotatedDimension
1001
ACAD
1000
DSTYLE
1002
{
1070
     3
1000
<>
1070
    44
1040
1.25
1070
   280
1070
     0
1070
    77
1070
     1
1070
    78
1070
     8
1070
   179
1070
     2
1070
   271
1070
     2
1070
   344
1005
1D8
1070
   343
1005
1D8
1070
   173
1070
     1
1070
    41
1040
1.75
1070
   147
1040
0.178571428571
1070
   140
1040
1.25
1070
   178
1070
   136
1070
   177
1070
   136
1070
   176
1070
   136
1002
}
  0
DIMENSION
  5
3DB
330
1F
100
AcDbEntity
  8
Layer70
  6
AUSGEZOGEN
 62
   136
370
    18
100
AcDbDimension
  2
*D11
 10
542.121377893504
 20
59.622803185817
 30
0.0
 11
529.528415400074
 21
60.747803185817
 31
0.0
 70
   160
 71
     5
 42
-1.0
  3
ISO-25
100
AcDbAlignedDimension
 13
517.121377893504
 23
70.252226739536
 33
0.0
 14
542.121377893504
 24
70.252226739536
 34
0.0
100
AcDbRotatedDimension
1001
ACAD
1000
DSTYLE
1002
{
1070
     3
1000
<>
1070
    44
1040
1.25
1070
   280
1070
     0
1070
    77
1070
     1
1070
    78
1070
     8
1070
   179
1070
     2
1070
   271
1070
     2
1070
   344
1005
1D8
1070
   343
1005
1D8
1070
   173
1070
     1
1070
    41
1040
1.75
1070
   147
1040
0.178571428571
1070
   140
1040
1.25
1070
   178
1070
   136
1070
   177
1070
   136
1070
   176
1070
   136
1002
}
  0
DIMENSION
  5
3EC
330
1F
100
AcDbEntity
  8
Layer70
  6
AUSGEZOGEN
 62
   136
370
    18
100
AcDbDimension
  2
*D12
 10
547.121377893504
 20
53.833646161024
 30
0.0
 11
529.528415400074
 21
54.958646161024
 31
0.0
 70
   160
 71
     5
 42
-1.0
  3
ISO-25
100
AcDbAlignedDimension
 13
512.121377893504
 23
73.752226739536
 33
0.0
 14
547.121377893504
 24
73.752226739536
 34
0.0
100
AcDbRotatedDimension
1001
ACAD
1000
DSTYLE
1002
{
1070
     3
1000
<>
1070
    44
1040
1.25
1070
   280
1070
     0
1070
    77
1070
     1
1070
    78
1070
     8
1070
   179
1070
     2
1070
   271
1070
     2
1070
   344
1005
1D8
1070
   343
1005
1D8
1070
   173
1070
     1
1070
    41
1040
1.75
1070
   147
1040
0.178571428571
1070
   140
1040
1.25
1070
   178
1070
   136
1070
   177
1070
   136
1070
   176
1070
   136
1002
}
  0
DIMENSION
  5
3FB
330
1F
100
AcDbEntity
  8
Layer70
  6
AUSGEZOGEN
 62
   136
370
    18
100
AcDbDimension
  2
*D13
 10
553.655975753584
 20
108.752226739536
 30
0.0
 11
552.530975753584
 21
89.645566228603
 31
0.0
 70
   160
 71
     5
 42
-1.0
 53
90.0
  3
ISO-25
100
AcDbAlignedDimension
 13
547.121377893504
 23
73.752226739536
 33
0.0
 14
547.121377893504
 24
108.752226739536
 34
0.0
 50
90.0
100
AcDbRotatedDimension
1001
ACAD
1000
DSTYLE
1002
{
1070
     3
1000
<>
1070
    44
1040
1.25
1070
   280
1070
     0
1070
    77
1070
     1
1070
    78
1070
     8
1070
   179
1070
     2
1070
   271
1070
     2
1070
   344
1005
1D8
1070
   343
1005
1D8
1070
   173
1070
     1
1070
    41
1040
1.75
1070
   147
1040
0.178571428571
1070
   140
1040
1.25
1070
   178
1070
   136
1070
   177
1070
   136
1070
   176
1070
   136
1002
}
  0
DIMENSION
  5
40B
330
1F
100
AcDbEntity
  8
Layer70
  6
AUSGEZOGEN
 62
   136
370
    18
100
AcDbDimension
  2
*D14
 10
508.623647260677
 20
70.252226739536
 30
0.0
 11
507.498647260677
 21
81.262183997198
 31
0.0
 70
   160
 71
     5
 42
-1.0
 53
90.0
  3
ISO-25
100
AcDbAlignedDimension
 13
510.744067889286
 23
91.252226739536
 33
0.0
 14
514.840981561346
 24
70.252226739536
 34
0.0
 50
-90.0
100
AcDbRotatedDimension
1001
ACAD
1000
DSTYLE
1002
{
1070
     3
1000
<>
1070
    44
1040
1.25
1070
   280
1070
     0
1070
    77
1070
     1
1070
    78
1070
     8
1070
   179
1070
     2
1070
   271
1070
     2
1070
   344
1005
1D8
1070
   343
1005
1D8
1070
   173
1070
     1
1070
    41
1040
1.75
1070
   147
1040
0.178571428571
1070
   140
1040
1.25
1070
   178
1070
   136
1070
   177
1070
   136
1070
   176
1070
   136
1002
}
  0
DIMENSION
  5
41A
330
1F
100
AcDbEntity
  8
Layer70
  6
AUSGEZOGEN
 62
   136
370
    18
100
AcDbDimension
  2
*D15
 10
505.443016317764
 20
66.752226739536
 30
0.0
 11
504.318016317764
 21
89.645566228603
 31
0.0
 70
   160
 71
     5
 42
-1.0
 53
90.0
  3
ISO-25
100
AcDbAlignedDimension
 13
512.121377893504
 23
108.752226739536
 33
0.0
 14
514.621377893504
 24
66.752226739536
 34
0.0
 50
-90.0
100
AcDbRotatedDimension
1001
ACAD
1000
DSTYLE
1002
{
1070
     3
1000
<>
1070
    44
1040
1.25
1070
   280
1070
     0
1070
    77
1070
     1
1070
    78
1070
     8
1070
   179
1070
     2
1070
   271
1070
     2
1070
   344
1005
1D8
1070
   343
1005
1D8
1070
   173
1070
     1
1070
    41
1040
1.75
1070
   147
1040
0.178571428571
1070
   140
1040
1.25
1070
   178
1070
   136
1070
   177
1070
   136
1070
   176
1070
   136
1002
}
  0
LINE
  5
41B
330
1F
100
AcDbEntity
  8
Stammform
  6
DASHDOT
 62
    56
370
    18
100
AcDbLine
 10
529.621377893504
 20
117.170998376876
 30
0.0
 11
529.621377893504
 21
127.837952004057
 31
0.0
  0
LINE
  5
41C
330
1F
100
AcDbEntity
  8
Layer0
  6
AUSGEZOGEN
 62
     9
370
    18
100
AcDbLine
 10
512.121377893504
 20
118.5
 30
0.0
 11
547.121377893504
 21
118.5
 31
0.0
  0
LINE
  5
41D
330
1F
100
AcDbEntity
  8
Layer0
  6
AUSGEZOGEN
 62
     9
370
    18
100
AcDbLine
 10
512.121377893504
 20
126.5
 30
0.0
 11
547.121377893504
 21
126.5
 31
0.0
  0
LINE
  5
41E
330
1F
100
AcDbEntity
  8
Layer0
  6
AUSGEZOGEN
 62
     9
370
    18
100
AcDbLine
 10
532.621377893504
 20
122.0
 30
0.0
 11
547.121377893504
 21
122.0
 31
0.0
  0
LINE
  5
41F
330
1F
100
AcDbEntity
  8
Layer0
  6
AUSGEZOGEN
 62
     9
370
    18
100
AcDbLine
 10
512.121377893504
 20
122.0
 30
0.0
 11
526.621377893504
 21
122.0
 31
0.0
  0
LINE
  5
420
330
1F
100
AcDbEntity
  8
Layer0
  6
AUSGEZOGEN
 62
     9
370
    18
100
AcDbLine
 10
512.121377893504
 20
118.5
 30
0.0
 11
512.121377893504
 21
126.5
 31
0.0
  0
LINE
  5
421
330
1F
100
AcDbEntity
  8
Layer0
  6
AUSGEZOGEN
 62
     9
370
    18
100
AcDbLine
 10
547.121377893504
 20
118.5
 30
0.0
 11
547.121377893504
 21
126.5
 31
0.0
  0
LINE
  5
422
330
1F
100
AcDbEntity
  8
Layer0
  6
DASHED
 62
   136
370
    18
100
AcDbLine
 10
517.121377893504
 20
118.5
 30
0.0
 11
517.121377893504
 21
122.0
 31
0.0
  0
LINE
  5
423
330
1F
100
AcDbEntity
  8
Layer0
  6
DASHED
 62
   136
370
    18
100
AcDbLine
 10
521.621377893504
 20
118.5
 30
0.0
 11
521.621377893504
 21
122.0
 31
0.0
  0
LINE
  5
424
330
1F
100
AcDbEntity
  8
Layer0
  6
DASHED
 62
   136
370
    18
100
AcDbLine
 10
537.621377893504
 20
118.5
 30
0.0
 11
537.621377893504
 21
122.0
 31
0.0
  0
LINE
  5
425
330
1F
100
AcDbEntity
  8
Layer0
  6
DASHED
 62
   136
370
    18
100
AcDbLine
 10
542.121377893504
 20
118.5
 30
0.0
 11
542.121377893504
 21
122.0
 31
0.0
  0
DIMENSION
  5
437
330
1F
100
AcDbEntity
  8
Layer70
  6
AUSGEZOGEN
 62
   136
370
    18
100
AcDbDimension
  2
*D16
 10
551.209782077195
 20
118.5
 30
0.0
 11
550.084782077195
 21
115.322255174382
 31
0.0
 70
   160
 71
     5
 42
-1.0
 53
90.0
  3
ISO-25
100
AcDbAlignedDimension
 13
547.121377893504
 23
122.0
 33
0.0
 14
547.121377893504
 24
118.5
 34
0.0
 50
-90.0
100
AcDbRotatedDimension
1001
ACAD
1000
DSTYLE
1002
{
1070
     3
1000
<>
1070
    44
1040
1.25
1070
   280
1070
     0
1070
    77
1070
     1
1070
    78
1070
     8
1070
   179
1070
     2
1070
   271
1070
     2
1070
   344
1005
1D8
1070
   343
1005
1D8
1070
   173
1070
     1
1070
    41
1040
1.75
1070
   147
1040
0.178571428571
1070
   140
1040
1.25
1070
   178
1070
   136
1070
   177
1070
   136
1070
   176
1070
   136
1002
}
  0
DIMENSION
  5
449
330
1F
100
AcDbEntity
  8
Layer70
  6
AUSGEZOGEN
 62
   136
370
    18
100
AcDbDimension
  2
*D17
 10
556.104186264651
 20
126.5
 30
0.0
 11
554.979186264651
 21
123.059312926982
 31
0.0
 70
   160
 71
     5
 42
-1.0
 53
90.0
  3
ISO-25
100
AcDbAlignedDimension
 13
547.121377893504
 23
118.5
 33
0.0
 14
547.121377893504
 24
126.5
 34
0.0
 50
90.0
100
AcDbRotatedDimension
1001
ACAD
1000
DSTYLE
1002
{
1070
     3
1000
<>\S%%p0,3
1070
    44
1040
1.25
1070
   280
1070
     0
1070
    77
1070
     1
1070
    78
1070
     8
1070
   179
1070
     2
1070
   271
1070
     2
1070
   344
1005
1D8
1070
   343
1005
1D8
1070
   173
1070
     1
1070
    41
1040
1.75
1070
   147
1040
0.178571428571
1070
   140
1040
1.25
1070
   178
1070
   136
1070
   177
1070
   136
1070
   176
1070
   136
1002
}
  0
LINE
  5
44A
330
1F
100
AcDbEntity
  8
Stammform
  6
AUSGEZOGEN
 62
     9
370
    18
100
AcDbLine
 10
512.121377893504
 20
123.6
 30
0.0
 11
547.121377893504
 21
123.6
 31
0.0
  0
LINE
  5
44B
330
1F
100
AcDbEntity
  8
Stammform
  6
AUSGEZOGEN
 62
     9
370
    18
100
AcDbLine
 10
527.121377893504
 20
122.5
 30
0.0
 11
532.121377893504
 21
122.5
 31
0.0
  0
LINE
  5
44C
330
1F
100
AcDbEntity
  8
Stammform
  6
AUSGEZOGEN
 62
     9
370
    18
100
AcDbLine
 10
526.621377893504
 20
122.0
 30
0.0
 11
527.121377893504
 21
122.5
 31
0.0
  0
LINE
  5
44D
330
1F
100
AcDbEntity
  8
Stammform
  6
AUSGEZOGEN
 62
     9
370
    18
100
AcDbLine
 10
532.621377893504
 20
122.0
 30
0.0
 11
532.121377893504
 21
122.5
 31
0.0
  0
LINE
  5
44E
330
1F
100
AcDbEntity
  8
Layer0
  6
DASHED
 62
   136
370
    18
100
AcDbLine
 10
524.098265139327
 20
121.0
 30
0.0
 11
535.14449064768
 21
121.0
 31
0.0
  0
LINE
  5
44F
330
1F
100
AcDbEntity
  8
Layer0
  6
DASHED
 62
   136
370
    18
100
AcDbLine
 10
535.821377893504
 20
118.5
 30
0.0
 11
535.642587996726
 21
120.543577871374
 31
0.0
  0
LINE
  5
450
330
1F
100
AcDbEntity
  8
Layer0
  6
DASHED
 62
   136
370
    18
100
AcDbLine
 10
523.421377893504
 20
118.5
 30
0.0
 11
523.600167790281
 21
120.543577871374
 31
0.0
  0
ARC
  5
451
330
1F
100
AcDbEntity
  8
Layer0
  6
DASHED
 62
   136
370
    18
100
AcDbCircle
 10
524.098265139327
 20
120.5
 30
0.0
 40
0.5
100
AcDbArc
 50
90.0
 51
175.0
  0
ARC
  5
452
330
1F
100
AcDbEntity
  8
Layer0
  6
DASHED
 62
   136
370
    18
100
AcDbCircle
 10
535.14449064768
 20
120.5
 30
0.0
 40
0.5
100
AcDbArc
 50
5.000000000001
 51
90.0
  0
LINE
  5
453
330
1F
100
AcDbEntity
  8
Stammform
  6
AUSGEZOGEN
 62
     9
370
    18
100
AcDbLine
 10
527.121377893504
 20
73.752226739536
 30
0.0
 11
527.121377893504
 21
66.752226739536
 31
0.0
  0
LINE
  5
454
330
1F
100
AcDbEntity
  8
Stammform
  6
AUSGEZOGEN
 62
     9
370
    18
100
AcDbLine
 10
532.121377893504
 20
73.752226739536
 30
0.0
 11
532.121377893504
 21
66.752226739536
 31
0.0
  0
ENDSEC
  0
SECTION
  2
OBJECTS
  0
DICTIONARY
  5
C
330
0
100
AcDbDictionary
281
     1
  3
ACAD_GROUP
350
D
  3
ACAD_LAYOUT
350
1A
  3
ACAD_MATERIAL
350
3B
  3
ACAD_MLEADERSTYLE
350
47C
  3
ACAD_MLINESTYLE
350
17
  3
ACAD_PLOTSETTINGS
350
19
  3
ACAD_PLOTSTYLENAME
350
E
  3
ACAD_TABLESTYLE
350
47B
  3
ACAD_VISUALSTYLE
350
2A
  3
ACAD_WIPEOUT_VARS
350
3F
  0
DICTIONARY
  5
D
102
{ACAD_REACTORS
330
C
102
}
330
C
100
AcDbDictionary
281
     1
  0
DICTIONARY
  5
1A
102
{ACAD_REACTORS
330
C
102
}
330
C
100
AcDbDictionary
281
     1
  3
Layout1
350
1E
  3
Layout2
350
26
  3
Model
350
22
  0
DICTIONARY
  5
3B
102
{ACAD_REACTORS
330
C
102
}
330
C
100
AcDbDictionary
281
     1
  3
ByBlock
350
3D
  3
ByLayer
350
3C
  3
Global
350
3E
  0
DICTIONARY
  5
47C
102
{ACAD_REACTORS
330
C
102
}
330
C
100
AcDbDictionary
281
     1
  0
DICTIONARY
  5
17
102
{ACAD_REACTORS
330
C
102
}
330
C
100
AcDbDictionary
281
     1
  3
Standard
350
18
  0
DICTIONARY
  5
19
102
{ACAD_REACTORS
330
C
102
}
330
C
100
AcDbDictionary
281
     1
  0
ACDBDICTIONARYWDFLT
  5
E
102
{ACAD_REACTORS
330
C
102
}
330
C
100
AcDbDictionary
281
     1
  3
Normal
350
F
100
AcDbDictionaryWithDefault
340
F
  0
DICTIONARY
  5
47B
102
{ACAD_REACTORS
330
C
102
}
330
C
100
AcDbDictionary
281
     1
  0
DICTIONARY
  5
2A
102
{ACAD_REACTORS
330
C
102
}
330
C
100
AcDbDictionary
281
     1
  3
2dWireframe
350
2F
  3
3D Hidden
350
31
  3
3dWireframe
350
30
  3
Basic
350
32
  3
Brighten
350
36
  3
ColorChange
350
3A
  3
Conceptual
350
34
  3
Dim
350
35
  3
Facepattern
350
39
  3
Flat
350
2B
  3
FlatWithEdges
350
2C
  3
Gouraud
350
2D
  3
GouraudWithEdges
350
2E
  3
Linepattern
350
38
  3
Realistic
350
33
  3
Thicken
350
37
  0
WIPEOUTVARIABLES
  5
3F
102
{ACAD_REACTORS
330
C
102
}
330
C
100
AcDbWipeoutVariables
 70
     0
  0
LAYOUT
  5
1E
102
{ACAD_REACTORS
330
1A
102
}
330
1A
100
AcDbPlotSettings
  1

  2
none_device
  4

  6

 40
0.0
 41
0.0
 42
0.0
 43
0.0
 44
0.0
 45
0.0
 46
0.0
 47
0.0
 48
0.0
 49
0.0
140
0.0
141
0.0
142
1.0
143
1.0
 70
   688
 72
     0
 73
     0
 74
     5
  7

 75
    16
 76
     0
 77
     2
 78
   300
147
1.0
148
0.0
149
0.0
100
AcDbLayout
  1
Layout1
 70
     1
 71
     1
 10
0.0
 20
0.0
 11
420.0
 21
297.0
 12
0.0
 22
0.0
 32
0.0
 14
1.000000000000E+20
 24
1.000000000000E+20
 34
1.000000000000E+20
 15
-1.000000000000E+20
 25
-1.000000000000E+20
 35
-1.000000000000E+20
146
0.0
 13
0.0
 23
0.0
 33
0.0
 16
1.0
 26
0.0
 36
0.0
 17
0.0
 27
1.0
 37
0.0
 76
     0
330
1B
  0
LAYOUT
  5
26
102
{ACAD_REACTORS
330
1A
102
}
330
1A
100
AcDbPlotSettings
  1

  2
none_device
  4

  6

 40
0.0
 41
0.0
 42
0.0
 43
0.0
 44
0.0
 45
0.0
 46
0.0
 47
0.0
 48
0.0
 49
0.0
140
0.0
141
0.0
142
1.0
143
1.0
 70
   688
 72
     0
 73
     0
 74
     5
  7

 75
    16
 76
     0
 77
     2
 78
   300
147
1.0
148
0.0
149
0.0
100
AcDbLayout
  1
Layout2
 70
     1
 71
     2
 10
0.0
 20
0.0
 11
0.0
 21
0.0
 12
0.0
 22
0.0
 32
0.0
 14
0.0
 24
0.0
 34
0.0
 15
0.0
 25
0.0
 35
0.0
146
0.0
 13
0.0
 23
0.0
 33
0.0
 16
1.0
 26
0.0
 36
0.0
 17
0.0
 27
1.0
 37
0.0
 76
     0
330
23
  0
LAYOUT
  5
22
102
{ACAD_REACTORS
330
1A
102
}
330
1A
100
AcDbPlotSettings
  1

  2
none_device
  4

  6

 40
0.0
 41
0.0
 42
0.0
 43
0.0
 44
0.0
 45
0.0
 46
0.0
 47
0.0
 48
0.0
 49
0.0
140
0.0
141
0.0
142
1.0
143
1.0
 70
  1712
 72
     0
 73
     0
 74
     0
  7

 75
     0
 76
     0
 77
     2
 78
   300
147
1.0
148
0.0
149
0.0
100
AcDbLayout
  1
Model
 70
     1
 71
     0
 10
0.0
 20
0.0
 11
420.0
 21
297.0
 12
0.0
 22
0.0
 32
0.0
 14
318.074538794638
 24
-0.38114516129
 34
0.0
 15
741.794161648698
 25
153.16785483871
 35
0.0
146
0.0
 13
0.0
 23
0.0
 33
0.0
 16
1.0
 26
0.0
 36
0.0
 17
0.0
 27
1.0
 37
0.0
 76
     0
330
1F
331
29
  0
MATERIAL
  5
3D
102
{ACAD_REACTORS
330
3B
102
}
102
{ACAD_XDICTIONARY
360
477
102
}
330
3B
100
AcDbMaterial
  1
ByBlock
  0
MATERIAL
  5
3C
102
{ACAD_REACTORS
330
3B
102
}
102
{ACAD_XDICTIONARY
360
475
102
}
330
3B
100
AcDbMaterial
  1
ByLayer
  0
MATERIAL
  5
3E
102
{ACAD_REACTORS
330
3B
102
}
102
{ACAD_XDICTIONARY
360
479
102
}
330
3B
100
AcDbMaterial
  1
Global
  0
MLINESTYLE
  5
18
102
{ACAD_REACTORS
330
17
102
}
330
17
100
AcDbMlineStyle
  2
Standard
 70
     0
  3

 62
   256
 51
90.0
 52
90.0
 71
     2
 49
0.5
 62
   256
  6
BYLAYER
 49
-0.5
 62
   256
  6
BYLAYER
  0
ACDBPLACEHOLDER
  5
F
102
{ACAD_REACTORS
330
E
102
}
330
E
  0
VISUALSTYLE
  5
2F
102
{ACAD_REACTORS
330
2A
102
}
102
{ACAD_XDICTIONARY
360
45D
102
}
330
2A
100
AcDbVisualStyle
  2
2dWireframe
 70
     4
 71
     0
 72
     2
 73
     0
 90
        0
 40
-0.6
 41
-30.0
 62
     5
 63
     7
421
 16777215
 74
     1
 91
        4
 64
     7
 65
   257
 75
     1
175
     1
 42
1.0
 92
        0
 66
   257
 43
1.0
 76
     1
 77
     6
 78
     2
 67
     7
 79
     5
170
     0
171
     0
290
     0
174
     0
 93
        1
 44
0.0
173
     0
291
     0
 45
0.0
1001
ACAD
1000
AcDbSavedByObjectVersion
1070
     0
  0
VISUALSTYLE
  5
31
102
{ACAD_REACTORS
330
2A
102
}
102
{ACAD_XDICTIONARY
360
461
102
}
330
2A
100
AcDbVisualStyle
  2
3D Hidden
 70
     6
 71
     1
 72
     2
 73
     2
 90
        0
 40
-0.6
 41
-30.0
 62
     5
 63
     7
421
 16777215
 74
     2
 91
        2
 64
     7
 65
   257
 75
     2
175
     1
 42
40.0
 92
        0
 66
   257
 43
1.0
 76
     1
 77
     6
 78
     2
 67
     7
 79
     3
170
     0
171
     0
290
     0
174
     0
 93
        1
 44
0.0
173
     0
291
     0
 45
0.0
1001
ACAD
1000
AcDbSavedByObjectVersion
1070
     0
  0
VISUALSTYLE
  5
30
102
{ACAD_REACTORS
330
2A
102
}
102
{ACAD_XDICTIONARY
360
45F
102
}
330
2A
100
AcDbVisualStyle
  2
3dWireframe
 70
     5
 71
     0
 72
     2
 73
     0
 90
        0
 40
-0.6
 41
-30.0
 62
     5
 63
     7
421
 16777215
 74
     1
 91
        4
 64
     7
 65
   257
 75
     1
175
     1
 42
1.0
 92
        0
 66
   257
 43
1.0
 76
     1
 77
     6
 78
     2
 67
     7
 79
     5
170
     0
171
     0
290
     0
174
     0
 93
        1
 44
0.0
173
     0
291
     0
 45
0.0
1001
ACAD
1000
AcDbSavedByObjectVersion
1070
     0
  0
VISUALSTYLE
  5
32
102
{ACAD_REACTORS
330
2A
102
}
102
{ACAD_XDICTIONARY
360
463
102
}
330
2A
100
AcDbVisualStyle
  2
Basic
 70
     7
 71
     1
 72
     0
 73
     1
 90
        0
 40
-0.6
 41
-30.0
 62
     5
 63
     7
421
 16777215
 74
     0
 91
        4
 64
     7
 65
   257
 75
     1
175
     1
 42
1.0
 92
        8
 66
     7
 43
1.0
 76
     1
 77
     6
 78
     2
 67
     7
 79
     5
170
     0
171
     0
290
     0
174
     0
 93
        1
 44
0.0
173
     0
291
     1
 45
0.0
1001
ACAD
1000
AcDbSavedByObjectVersion
1070
     0
  0
VISUALSTYLE
  5
36
102
{ACAD_REACTORS
330
2A
102
}
102
{ACAD_XDICTIONARY
360
46B
102
}
330
2A
100
AcDbVisualStyle
  2
Brighten
 70
    12
 71
     2
 72
     2
 73
     0
 90
        0
 40
-0.6
 41
-30.0
 62
     5
 63
     7
421
 16777215
 74
     1
 91
        4
 64
     7
 65
   257
 75
     1
175
     1
 42
1.0
 92
        8
 66
     7
 43
1.0
 76
     1
 77
     6
 78
     2
 67
     7
 79
     5
170
     0
171
     0
290
     0
174
     0
 93
        1
 44
50.0
173
     0
291
     1
 45
0.0
1001
ACAD
1000
AcDbSavedByObjectVersion
1070
     0
  0
VISUALSTYLE
  5
3A
102
{ACAD_REACTORS
330
2A
102
}
102
{ACAD_XDICTIONARY
360
473
102
}
330
2A
100
AcDbVisualStyle
  2
ColorChange
 70
    16
 71
     2
 72
     2
 73
     3
 90
        0
 40
-0.6
 41
-30.0
 62
     5
 63
     8
421
  8421504
 74
     1
 91
        4
 64
     7
 65
   257
 75
     1
175
     1
 42
1.0
 92
        8
 66
     8
424
  8421504
 43
1.0
 76
     1
 77
     6
 78
     2
 67
     7
 79
     5
170
     0
171
     0
290
     0
174
     0
 93
        1
 44
0.0
173
     0
291
     1
 45
0.0
1001
ACAD
1000
AcDbSavedByObjectVersion
1070
     0
  0
VISUALSTYLE
  5
34
102
{ACAD_REACTORS
330
2A
102
}
102
{ACAD_XDICTIONARY
360
467
102
}
330
2A
100
AcDbVisualStyle
  2
Conceptual
 70
     9
 71
     3
 72
     2
 73
     0
 90
        0
 40
-0.6
 41
-30.0
 62
     5
 63
     7
421
 16777215
 74
     2
 91
        2
 64
     7
 65
   257
 75
     1
175
     1
 42
40.0
 92
        8
 66
     7
 43
1.0
 76
     1
 77
     6
 78
     2
 67
     7
 79
     3
170
     0
171
     0
290
     0
174
     0
 93
        1
 44
0.0
173
     0
291
     0
 45
0.0
1001
ACAD
1000
AcDbSavedByObjectVersion
1070
     0
  0
VISUALSTYLE
  5
35
102
{ACAD_REACTORS
330
2A
102
}
102
{ACAD_XDICTIONARY
360
469
102
}
330
2A
100
AcDbVisualStyle
  2
Dim
 70
    11
 71
     2
 72
     2
 73
     0
 90
        0
 40
-0.6
 41
-30.0
 62
     5
 63
     7
421
 16777215
 74
     1
 91
        4
 64
     7
 65
   257
 75
     1
175
     1
 42
1.0
 92
        8
 66
     7
 43
1.0
 76
     1
 77
     6
 78
     2
 67
     7
 79
     5
170
     0
171
     0
290
     0
174
     0
 93
        1
 44
-50.0
173
     0
291
     1
 45
0.0
1001
ACAD
1000
AcDbSavedByObjectVersion
1070
     0
  0
VISUALSTYLE
  5
39
102
{ACAD_REACTORS
330
2A
102
}
102
{ACAD_XDICTIONARY
360
471
102
}
330
2A
100
AcDbVisualStyle
  2
Facepattern
 70
    15
 71
     2
 72
     2
 73
     0
 90
        0
 40
-0.6
 41
-30.0
 62
     5
 63
     7
421
 16777215
 74
     1
 91
        4
 64
     7
 65
   257
 75
     1
175
     1
 42
1.0
 92
        8
 66
     7
 43
1.0
 76
     1
 77
     6
 78
     2
 67
     7
 79
     5
170
     0
171
     0
290
     0
174
     0
 93
        1
 44
0.0
173
     0
291
     1
 45
0.0
1001
ACAD
1000
AcDbSavedByObjectVersion
1070
     0
  0
VISUALSTYLE
  5
2B
102
{ACAD_REACTORS
330
2A
102
}
102
{ACAD_XDICTIONARY
360
455
102
}
330
2A
100
AcDbVisualStyle
  2
Flat
 70
     0
 71
     2
 72
     1
 73
     1
 90
        2
 40
-0.6
 41
30.0
 62
     5
 63
     7
421
 16777215
 74
     0
 91
        4
 64
     7
 65
   257
 75
     1
175
     1
 42
1.0
 92
        8
 66
     7
 43
1.0
 76
     1
 77
     6
 78
     2
 67
     7
 79
     5
170
     0
171
     0
290
     0
174
     0
 93
       13
 44
0.0
173
     0
291
     1
 45
0.0
1001
ACAD
1000
AcDbSavedByObjectVersion
1070
     0
  0
VISUALSTYLE
  5
2C
102
{ACAD_REACTORS
330
2A
102
}
102
{ACAD_XDICTIONARY
360
457
102
}
330
2A
100
AcDbVisualStyle
  2
FlatWithEdges
 70
     1
 71
     2
 72
     1
 73
     1
 90
        2
 40
-0.6
 41
30.0
 62
     5
 63
     7
421
 16777215
 74
     1
 91
        4
 64
     7
 65
   257
 75
     1
175
     1
 42
1.0
 92
        0
 66
   257
 43
1.0
 76
     1
 77
     6
 78
     2
 67
     7
 79
     5
170
     0
171
     0
290
     0
174
     0
 93
       13
 44
0.0
173
     0
291
     1
 45
0.0
1001
ACAD
1000
AcDbSavedByObjectVersion
1070
     0
  0
VISUALSTYLE
  5
2D
102
{ACAD_REACTORS
330
2A
102
}
102
{ACAD_XDICTIONARY
360
459
102
}
330
2A
100
AcDbVisualStyle
  2
Gouraud
 70
     2
 71
     2
 72
     2
 73
     1
 90
        2
 40
-0.6
 41
30.0
 62
     5
 63
     7
421
 16777215
 74
     0
 91
        4
 64
     7
 65
   257
 75
     1
175
     1
 42
1.0
 92
        0
 66
     7
 43
1.0
 76
     1
 77
     6
 78
     2
 67
     7
 79
     5
170
     0
171
     0
290
     0
174
     0
 93
       13
 44
0.0
173
     0
291
     1
 45
0.0
1001
ACAD
1000
AcDbSavedByObjectVersion
1070
     0
  0
VISUALSTYLE
  5
2E
102
{ACAD_REACTORS
330
2A
102
}
102
{ACAD_XDICTIONARY
360
45B
102
}
330
2A
100
AcDbVisualStyle
  2
GouraudWithEdges
 70
     3
 71
     2
 72
     2
 73
     1
 90
        2
 40
-0.6
 41
30.0
 62
     5
 63
     7
421
 16777215
 74
     1
 91
        4
 64
     7
 65
   257
 75
     1
175
     1
 42
1.0
 92
        0
 66
   257
 43
1.0
 76
     1
 77
     6
 78
     2
 67
     7
 79
     5
170
     0
171
     0
290
     0
174
     0
 93
       13
 44
0.0
173
     0
291
     1
 45
0.0
1001
ACAD
1000
AcDbSavedByObjectVersion
1070
     0
  0
VISUALSTYLE
  5
38
102
{ACAD_REACTORS
330
2A
102
}
102
{ACAD_XDICTIONARY
360
46F
102
}
330
2A
100
AcDbVisualStyle
  2
Linepattern
 70
    14
 71
     2
 72
     2
 73
     0
 90
        0
 40
-0.6
 41
-30.0
 62
     5
 63
     7
421
 16777215
 74
     1
 91
        4
 64
     7
 65
   257
 75
     7
175
     7
 42
1.0
 92
        8
 66
     7
 43
1.0
 76
     1
 77
     6
 78
     2
 67
     7
 79
     5
170
     0
171
     0
290
     0
174
     0
 93
        1
 44
0.0
173
     0
291
     1
 45
0.0
1001
ACAD
1000
AcDbSavedByObjectVersion
1070
     0
  0
VISUALSTYLE
  5
33
102
{ACAD_REACTORS
330
2A
102
}
102
{ACAD_XDICTIONARY
360
465
102
}
330
2A
100
AcDbVisualStyle
  2
Realistic
 70
     8
 71
     2
 72
     2
 73
     0
 90
        0
 40
-0.6
 41
-30.0
 62
     5
 63
     7
421
 16777215
 74
     1
 91
        0
 64
     7
 65
   257
 75
     1
175
     1
 42
1.0
 92
        8
 66
     8
424
  7895160
 43
1.0
 76
     1
 77
     6
 78
     2
 67
     7
 79
     5
170
     0
171
     0
290
     0
174
     0
 93
       13
 44
0.0
173
     0
291
     0
 45
0.0
1001
ACAD
1000
AcDbSavedByObjectVersion
1070
     0
  0
VISUALSTYLE
  5
37
102
{ACAD_REACTORS
330
2A
102
}
102
{ACAD_XDICTIONARY
360
46D
102
}
330
2A
100
AcDbVisualStyle
  2
Thicken
 70
    13
 71
     2
 72
     2
 73
     0
 90
        0
 40
-0.6
 41
-30.0
 62
     5
 63
     7
421
 16777215
 74
     1
 91
        4
 64
     7
 65
   257
 75
     1
175
     1
 42
1.0
 92
       12
 66
     7
 43
1.0
 76
     1
 77
     6
 78
     2
 67
     7
 79
     5
170
     0
171
     0
290
     0
174
     0
 93
        1
 44
0.0
173
     0
291
     1
 45
0.0
1001
ACAD
1000
AcDbSavedByObjectVersion
1070
     0
  0
DICTIONARY
  5
477
330
3D
100
AcDbDictionary
280
     1
281
     1
  3
ACAD_XREC_ROUNDTRIP
360
478
  0
DICTIONARY
  5
475
330
3C
100
AcDbDictionary
280
     1
281
     1
  3
ACAD_XREC_ROUNDTRIP
360
476
  0
DICTIONARY
  5
479
330
3E
100
AcDbDictionary
280
     1
281
     1
  3
ACAD_XREC_ROUNDTRIP
360
47A
  0
DICTIONARY
  5
45D
330
2F
100
AcDbDictionary
280
     1
281
     1
  3
ACAD_XREC_ROUNDTRIP
360
45E
  0
DICTIONARY
  5
461
330
31
100
AcDbDictionary
280
     1
281
     1
  3
ACAD_XREC_ROUNDTRIP
360
462
  0
DICTIONARY
  5
45F
330
30
100
AcDbDictionary
280
     1
281
     1
  3
ACAD_XREC_ROUNDTRIP
360
460
  0
DICTIONARY
  5
463
330
32
100
AcDbDictionary
280
     1
281
     1
  3
ACAD_XREC_ROUNDTRIP
360
464
  0
DICTIONARY
  5
46B
330
36
100
AcDbDictionary
280
     1
281
     1
  3
ACAD_XREC_ROUNDTRIP
360
46C
  0
DICTIONARY
  5
473
330
3A
100
AcDbDictionary
280
     1
281
     1
  3
ACAD_XREC_ROUNDTRIP
360
474
  0
DICTIONARY
  5
467
330
34
100
AcDbDictionary
280
     1
281
     1
  3
ACAD_XREC_ROUNDTRIP
360
468
  0
DICTIONARY
  5
469
330
35
100
AcDbDictionary
280
     1
281
     1
  3
ACAD_XREC_ROUNDTRIP
360
46A
  0
DICTIONARY
  5
471
330
39
100
AcDbDictionary
280
     1
281
     1
  3
ACAD_XREC_ROUNDTRIP
360
472
  0
DICTIONARY
  5
455
330
2B
100
AcDbDictionary
280
     1
281
     1
  3
ACAD_XREC_ROUNDTRIP
360
456
  0
DICTIONARY
  5
457
330
2C
100
AcDbDictionary
280
     1
281
     1
  3
ACAD_XREC_ROUNDTRIP
360
458
  0
DICTIONARY
  5
459
330
2D
100
AcDbDictionary
280
     1
281
     1
  3
ACAD_XREC_ROUNDTRIP
360
45A
  0
DICTIONARY
  5
45B
330
2E
100
AcDbDictionary
280
     1
281
     1
  3
ACAD_XREC_ROUNDTRIP
360
45C
  0
DICTIONARY
  5
46F
330
38
100
AcDbDictionary
280
     1
281
     1
  3
ACAD_XREC_ROUNDTRIP
360
470
  0
DICTIONARY
  5
465
330
33
100
AcDbDictionary
280
     1
281
     1
  3
ACAD_XREC_ROUNDTRIP
360
466
  0
DICTIONARY
  5
46D
330
37
100
AcDbDictionary
280
     1
281
     1
  3
ACAD_XREC_ROUNDTRIP
360
46E
  0
XRECORD
  5
478
102
{ACAD_REACTORS
330
477
102
}
330
477
100
AcDbXrecord
280
     1
102
MATERIAL
148
0.0
149
0.0
149
0.0
 93
        0
 94
      127
282
     0
 72
     1
 77
     1
171
     1
175
     1
179
     1
273
     0
  0
XRECORD
  5
476
102
{ACAD_REACTORS
330
475
102
}
330
475
100
AcDbXrecord
280
     1
102
MATERIAL
148
0.0
149
0.0
149
0.0
 93
        0
 94
      127
282
     0
 72
     1
 77
     1
171
     1
175
     1
179
     1
273
     0
  0
XRECORD
  5
47A
102
{ACAD_REACTORS
330
479
102
}
330
479
100
AcDbXrecord
280
     1
102
MATERIAL
148
0.0
149
0.0
149
0.0
 93
        0
 94
      127
282
     0
 72
     1
 77
     1
171
     1
175
     1
179
     1
273
     0
  0
XRECORD
  5
45E
102
{ACAD_REACTORS
330
45D
102
}
330
45D
100
AcDbXrecord
280
     1
102
RTVSPropertyOp0
 70
     1
102
RTVSPropertyOp1
 70
     1
102
RTVSPropertyOp2
 70
     1
102
RTVSPropertyOp3
 70
     1
102
RTVSPropertyOp4
 70
     1
102
RTVSPropertyOp5
 70
     1
102
RTVSPropertyOp6
 70
     1
102
RTVSPropertyOp7
 70
     1
102
RTVSPropertyOp8
 70
     1
102
RTVSPropertyOp9
 70
     1
102
RTVSPropertyOp10
 70
     1
102
RTVSPropertyOp11
 70
     1
102
RTVSPropertyOp12
 70
     1
102
RTVSPropertyOp13
 70
     1
102
RTVSPropertyOp14
 70
     1
102
RTVSPropertyOp15
 70
     1
102
RTVSPropertyOp16
 70
     1
102
RTVSPropertyOp17
 70
     1
102
RTVSPropertyOp18
 70
     1
102
RTVSPropertyOp19
 70
     1
102
RTVSPropertyOp20
 70
     1
102
RTVSPropertyOp21
 70
     1
102
RTVSPropertyOp22
 70
     1
102
RTVSPropertyOp23
 70
     1
102
RTVSPropertyOp24
 70
     1
102
RTVSPropertyOp25
 70
     1
102
RTVSPropertyOp26
 70
     1
102
RTVSPropertyOp27
 70
     1
102
RTVSPropertyOp28
 70
     1
102
RTVSPropertyOp29
 70
     1
102
RTVSPropertyOp30
 70
     1
102
RTVSPropertyOp31
 70
     1
102
RTVSPropertyOp32
 70
     1
  0
XRECORD
  5
462
102
{ACAD_REACTORS
330
461
102
}
330
461
100
AcDbXrecord
280
     1
102
RTVSPropertyOp0
 70
     1
102
RTVSPropertyOp1
 70
     1
102
RTVSPropertyOp2
 70
     1
102
RTVSPropertyOp3
 70
     1
102
RTVSPropertyOp4
 70
     1
102
RTVSPropertyOp5
 70
     1
102
RTVSPropertyOp6
 70
     1
102
RTVSPropertyOp7
 70
     1
102
RTVSPropertyOp8
 70
     1
102
RTVSPropertyOp9
 70
     1
102
RTVSPropertyOp10
 70
     1
102
RTVSPropertyOp11
 70
     1
102
RTVSPropertyOp12
 70
     1
102
RTVSPropertyOp13
 70
     1
102
RTVSPropertyOp14
 70
     1
102
RTVSPropertyOp15
 70
     1
102
RTVSPropertyOp16
 70
     1
102
RTVSPropertyOp17
 70
     1
102
RTVSPropertyOp18
 70
     1
102
RTVSPropertyOp19
 70
     1
102
RTVSPropertyOp20
 70
     1
102
RTVSPropertyOp21
 70
     1
102
RTVSPropertyOp22
 70
     1
102
RTVSPropertyOp23
 70
     1
102
RTVSPropertyOp24
 70
     1
102
RTVSPropertyOp25
 70
     1
102
RTVSPropertyOp26
 70
     1
102
RTVSPropertyOp27
 70
     1
102
RTVSPropertyOp28
 70
     1
102
RTVSPropertyOp29
 70
     1
102
RTVSPropertyOp30
 70
     1
102
RTVSPropertyOp31
 70
     1
102
RTVSPropertyOp32
 70
     1
  0
XRECORD
  5
460
102
{ACAD_REACTORS
330
45F
102
}
330
45F
100
AcDbXrecord
280
     1
102
RTVSPropertyOp0
 70
     1
102
RTVSPropertyOp1
 70
     1
102
RTVSPropertyOp2
 70
     1
102
RTVSPropertyOp3
 70
     1
102
RTVSPropertyOp4
 70
     1
102
RTVSPropertyOp5
 70
     1
102
RTVSPropertyOp6
 70
     1
102
RTVSPropertyOp7
 70
     1
102
RTVSPropertyOp8
 70
     1
102
RTVSPropertyOp9
 70
     1
102
RTVSPropertyOp10
 70
     1
102
RTVSPropertyOp11
 70
     1
102
RTVSPropertyOp12
 70
     1
102
RTVSPropertyOp13
 70
     1
102
RTVSPropertyOp14
 70
     1
102
RTVSPropertyOp15
 70
     1
102
RTVSPropertyOp16
 70
     1
102
RTVSPropertyOp17
 70
     1
102
RTVSPropertyOp18
 70
     1
102
RTVSPropertyOp19
 70
     1
102
RTVSPropertyOp20
 70
     1
102
RTVSPropertyOp21
 70
     1
102
RTVSPropertyOp22
 70
     1
102
RTVSPropertyOp23
 70
     1
102
RTVSPropertyOp24
 70
     1
102
RTVSPropertyOp25
 70
     1
102
RTVSPropertyOp26
 70
     1
102
RTVSPropertyOp27
 70
     1
102
RTVSPropertyOp28
 70
     1
102
RTVSPropertyOp29
 70
     1
102
RTVSPropertyOp30
 70
     1
102
RTVSPropertyOp31
 70
     1
102
RTVSPropertyOp32
 70
     1
  0
XRECORD
  5
464
102
{ACAD_REACTORS
330
463
102
}
330
463
100
AcDbXrecord
280
     1
102
RTVSPropertyOp0
 70
     1
102
RTVSPropertyOp1
 70
     1
102
RTVSPropertyOp2
 70
     1
102
RTVSPropertyOp3
 70
     1
102
RTVSPropertyOp4
 70
     1
102
RTVSPropertyOp5
 70
     1
102
RTVSPropertyOp6
 70
     1
102
RTVSPropertyOp7
 70
     1
102
RTVSPropertyOp8
 70
     1
102
RTVSPropertyOp9
 70
     1
102
RTVSPropertyOp10
 70
     1
102
RTVSPropertyOp11
 70
     1
102
RTVSPropertyOp12
 70
     1
102
RTVSPropertyOp13
 70
     1
102
RTVSPropertyOp14
 70
     1
102
RTVSPropertyOp15
 70
     1
102
RTVSPropertyOp16
 70
     1
102
RTVSPropertyOp17
 70
     1
102
RTVSPropertyOp18
 70
     1
102
RTVSPropertyOp19
 70
     1
102
RTVSPropertyOp20
 70
     1
102
RTVSPropertyOp21
 70
     1
102
RTVSPropertyOp22
 70
     1
102
RTVSPropertyOp23
 70
     1
102
RTVSPropertyOp24
 70
     1
102
RTVSPropertyOp25
 70
     1
102
RTVSPropertyOp26
 70
     1
102
RTVSPropertyOp27
 70
     1
102
RTVSPropertyOp28
 70
     1
102
RTVSPropertyOp29
 70
     1
102
RTVSPropertyOp30
 70
     1
102
RTVSPropertyOp31
 70
     1
102
RTVSPropertyOp32
 70
     1
  0
XRECORD
  5
46C
102
{ACAD_REACTORS
330
46B
102
}
330
46B
100
AcDbXrecord
280
     1
102
RTVSPropertyOp0
 70
     1
102
RTVSPropertyOp1
 70
     1
102
RTVSPropertyOp2
 70
     1
102
RTVSPropertyOp3
 70
     1
102
RTVSPropertyOp4
 70
     1
102
RTVSPropertyOp5
 70
     1
102
RTVSPropertyOp6
 70
     1
102
RTVSPropertyOp7
 70
     1
102
RTVSPropertyOp8
 70
     1
102
RTVSPropertyOp9
 70
     1
102
RTVSPropertyOp10
 70
     1
102
RTVSPropertyOp11
 70
     1
102
RTVSPropertyOp12
 70
     1
102
RTVSPropertyOp13
 70
     1
102
RTVSPropertyOp14
 70
     1
102
RTVSPropertyOp15
 70
     1
102
RTVSPropertyOp16
 70
     1
102
RTVSPropertyOp17
 70
     1
102
RTVSPropertyOp18
 70
     1
102
RTVSPropertyOp19
 70
     1
102
RTVSPropertyOp20
 70
     1
102
RTVSPropertyOp21
 70
     1
102
RTVSPropertyOp22
 70
     1
102
RTVSPropertyOp23
 70
     1
102
RTVSPropertyOp24
 70
     1
102
RTVSPropertyOp25
 70
     1
102
RTVSPropertyOp26
 70
     1
102
RTVSPropertyOp27
 70
     1
102
RTVSPropertyOp28
 70
     1
102
RTVSPropertyOp29
 70
     1
102
RTVSPropertyOp30
 70
     1
102
RTVSPropertyOp31
 70
     1
102
RTVSPropertyOp32
 70
     1
  0
XRECORD
  5
474
102
{ACAD_REACTORS
330
473
102
}
330
473
100
AcDbXrecord
280
     1
102
RTVSPropertyOp0
 70
     1
102
RTVSPropertyOp1
 70
     1
102
RTVSPropertyOp2
 70
     1
102
RTVSPropertyOp3
 70
     1
102
RTVSPropertyOp4
 70
     1
102
RTVSPropertyOp5
 70
     1
102
RTVSPropertyOp6
 70
     1
102
RTVSPropertyOp7
 70
     1
102
RTVSPropertyOp8
 70
     1
102
RTVSPropertyOp9
 70
     1
102
RTVSPropertyOp10
 70
     1
102
RTVSPropertyOp11
 70
     1
102
RTVSPropertyOp12
 70
     1
102
RTVSPropertyOp13
 70
     1
102
RTVSPropertyOp14
 70
     1
102
RTVSPropertyOp15
 70
     1
102
RTVSPropertyOp16
 70
     1
102
RTVSPropertyOp17
 70
     1
102
RTVSPropertyOp18
 70
     1
102
RTVSPropertyOp19
 70
     1
102
RTVSPropertyOp20
 70
     1
102
RTVSPropertyOp21
 70
     1
102
RTVSPropertyOp22
 70
     1
102
RTVSPropertyOp23
 70
     1
102
RTVSPropertyOp24
 70
     1
102
RTVSPropertyOp25
 70
     1
102
RTVSPropertyOp26
 70
     1
102
RTVSPropertyOp27
 70
     1
102
RTVSPropertyOp28
 70
     1
102
RTVSPropertyOp29
 70
     1
102
RTVSPropertyOp30
 70
     1
102
RTVSPropertyOp31
 70
     1
102
RTVSPropertyOp32
 70
     1
  0
XRECORD
  5
468
102
{ACAD_REACTORS
330
467
102
}
330
467
100
AcDbXrecord
280
     1
102
RTVSPropertyOp0
 70
     1
102
RTVSPropertyOp1
 70
     1
102
RTVSPropertyOp2
 70
     1
102
RTVSPropertyOp3
 70
     1
102
RTVSPropertyOp4
 70
     1
102
RTVSPropertyOp5
 70
     1
102
RTVSPropertyOp6
 70
     1
102
RTVSPropertyOp7
 70
     1
102
RTVSPropertyOp8
 70
     1
102
RTVSPropertyOp9
 70
     1
102
RTVSPropertyOp10
 70
     1
102
RTVSPropertyOp11
 70
     1
102
RTVSPropertyOp12
 70
     1
102
RTVSPropertyOp13
 70
     1
102
RTVSPropertyOp14
 70
     1
102
RTVSPropertyOp15
 70
     1
102
RTVSPropertyOp16
 70
     1
102
RTVSPropertyOp17
 70
     1
102
RTVSPropertyOp18
 70
     1
102
RTVSPropertyOp19
 70
     1
102
RTVSPropertyOp20
 70
     1
102
RTVSPropertyOp21
 70
     1
102
RTVSPropertyOp22
 70
     1
102
RTVSPropertyOp23
 70
     1
102
RTVSPropertyOp24
 70
     1
102
RTVSPropertyOp25
 70
     1
102
RTVSPropertyOp26
 70
     1
102
RTVSPropertyOp27
 70
     1
102
RTVSPropertyOp28
 70
     1
102
RTVSPropertyOp29
 70
     1
102
RTVSPropertyOp30
 70
     1
102
RTVSPropertyOp31
 70
     1
102
RTVSPropertyOp32
 70
     1
  0
XRECORD
  5
46A
102
{ACAD_REACTORS
330
469
102
}
330
469
100
AcDbXrecord
280
     1
102
RTVSPropertyOp0
 70
     1
102
RTVSPropertyOp1
 70
     1
102
RTVSPropertyOp2
 70
     1
102
RTVSPropertyOp3
 70
     1
102
RTVSPropertyOp4
 70
     1
102
RTVSPropertyOp5
 70
     1
102
RTVSPropertyOp6
 70
     1
102
RTVSPropertyOp7
 70
     1
102
RTVSPropertyOp8
 70
     1
102
RTVSPropertyOp9
 70
     1
102
RTVSPropertyOp10
 70
     1
102
RTVSPropertyOp11
 70
     1
102
RTVSPropertyOp12
 70
     1
102
RTVSPropertyOp13
 70
     1
102
RTVSPropertyOp14
 70
     1
102
RTVSPropertyOp15
 70
     1
102
RTVSPropertyOp16
 70
     1
102
RTVSPropertyOp17
 70
     1
102
RTVSPropertyOp18
 70
     1
102
RTVSPropertyOp19
 70
     1
102
RTVSPropertyOp20
 70
     1
102
RTVSPropertyOp21
 70
     1
102
RTVSPropertyOp22
 70
     1
102
RTVSPropertyOp23
 70
     1
102
RTVSPropertyOp24
 70
     1
102
RTVSPropertyOp25
 70
     1
102
RTVSPropertyOp26
 70
     1
102
RTVSPropertyOp27
 70
     1
102
RTVSPropertyOp28
 70
     1
102
RTVSPropertyOp29
 70
     1
102
RTVSPropertyOp30
 70
     1
102
RTVSPropertyOp31
 70
     1
102
RTVSPropertyOp32
 70
     1
  0
XRECORD
  5
472
102
{ACAD_REACTORS
330
471
102
}
330
471
100
AcDbXrecord
280
     1
102
RTVSPropertyOp0
 70
     1
102
RTVSPropertyOp1
 70
     1
102
RTVSPropertyOp2
 70
     1
102
RTVSPropertyOp3
 70
     1
102
RTVSPropertyOp4
 70
     1
102
RTVSPropertyOp5
 70
     1
102
RTVSPropertyOp6
 70
     1
102
RTVSPropertyOp7
 70
     1
102
RTVSPropertyOp8
 70
     1
102
RTVSPropertyOp9
 70
     1
102
RTVSPropertyOp10
 70
     1
102
RTVSPropertyOp11
 70
     1
102
RTVSPropertyOp12
 70
     1
102
RTVSPropertyOp13
 70
     1
102
RTVSPropertyOp14
 70
     1
102
RTVSPropertyOp15
 70
     1
102
RTVSPropertyOp16
 70
     1
102
RTVSPropertyOp17
 70
     1
102
RTVSPropertyOp18
 70
     1
102
RTVSPropertyOp19
 70
     1
102
RTVSPropertyOp20
 70
     1
102
RTVSPropertyOp21
 70
     1
102
RTVSPropertyOp22
 70
     1
102
RTVSPropertyOp23
 70
     1
102
RTVSPropertyOp24
 70
     1
102
RTVSPropertyOp25
 70
     1
102
RTVSPropertyOp26
 70
     1
102
RTVSPropertyOp27
 70
     1
102
RTVSPropertyOp28
 70
     1
102
RTVSPropertyOp29
 70
     1
102
RTVSPropertyOp30
 70
     1
102
RTVSPropertyOp31
 70
     1
102
RTVSPropertyOp32
 70
     1
  0
XRECORD
  5
456
102
{ACAD_REACTORS
330
455
102
}
330
455
100
AcDbXrecord
280
     1
102
RTVSPropertyOp0
 70
     1
102
RTVSPropertyOp1
 70
     1
102
RTVSPropertyOp2
 70
     1
102
RTVSPropertyOp3
 70
     1
102
RTVSPropertyOp4
 70
     1
102
RTVSPropertyOp5
 70
     1
102
RTVSPropertyOp6
 70
     1
102
RTVSPropertyOp7
 70
     1
102
RTVSPropertyOp8
 70
     1
102
RTVSPropertyOp9
 70
     1
102
RTVSPropertyOp10
 70
     1
102
RTVSPropertyOp11
 70
     1
102
RTVSPropertyOp12
 70
     1
102
RTVSPropertyOp13
 70
     1
102
RTVSPropertyOp14
 70
     1
102
RTVSPropertyOp15
 70
     1
102
RTVSPropertyOp16
 70
     1
102
RTVSPropertyOp17
 70
     1
102
RTVSPropertyOp18
 70
     1
102
RTVSPropertyOp19
 70
     1
102
RTVSPropertyOp20
 70
     1
102
RTVSPropertyOp21
 70
     1
102
RTVSPropertyOp22
 70
     1
102
RTVSPropertyOp23
 70
     1
102
RTVSPropertyOp24
 70
     1
102
RTVSPropertyOp25
 70
     1
102
RTVSPropertyOp26
 70
     1
102
RTVSPropertyOp27
 70
     1
102
RTVSPropertyOp28
 70
     1
102
RTVSPropertyOp29
 70
     1
102
RTVSPropertyOp30
 70
     1
102
RTVSPropertyOp31
 70
     1
102
RTVSPropertyOp32
 70
     1
  0
XRECORD
  5
458
102
{ACAD_REACTORS
330
457
102
}
330
457
100
AcDbXrecord
280
     1
102
RTVSPropertyOp0
 70
     1
102
RTVSPropertyOp1
 70
     1
102
RTVSPropertyOp2
 70
     1
102
RTVSPropertyOp3
 70
     1
102
RTVSPropertyOp4
 70
     1
102
RTVSPropertyOp5
 70
     1
102
RTVSPropertyOp6
 70
     1
102
RTVSPropertyOp7
 70
     1
102
RTVSPropertyOp8
 70
     1
102
RTVSPropertyOp9
 70
     1
102
RTVSPropertyOp10
 70
     1
102
RTVSPropertyOp11
 70
     1
102
RTVSPropertyOp12
 70
     1
102
RTVSPropertyOp13
 70
     1
102
RTVSPropertyOp14
 70
     1
102
RTVSPropertyOp15
 70
     1
102
RTVSPropertyOp16
 70
     1
102
RTVSPropertyOp17
 70
     1
102
RTVSPropertyOp18
 70
     1
102
RTVSPropertyOp19
 70
     1
102
RTVSPropertyOp20
 70
     1
102
RTVSPropertyOp21
 70
     1
102
RTVSPropertyOp22
 70
     1
102
RTVSPropertyOp23
 70
     1
102
RTVSPropertyOp24
 70
     1
102
RTVSPropertyOp25
 70
     1
102
RTVSPropertyOp26
 70
     1
102
RTVSPropertyOp27
 70
     1
102
RTVSPropertyOp28
 70
     1
102
RTVSPropertyOp29
 70
     1
102
RTVSPropertyOp30
 70
     1
102
RTVSPropertyOp31
 70
     1
102
RTVSPropertyOp32
 70
     1
  0
XRECORD
  5
45A
102
{ACAD_REACTORS
330
459
102
}
330
459
100
AcDbXrecord
280
     1
102
RTVSPropertyOp0
 70
     1
102
RTVSPropertyOp1
 70
     1
102
RTVSPropertyOp2
 70
     1
102
RTVSPropertyOp3
 70
     1
102
RTVSPropertyOp4
 70
     1
102
RTVSPropertyOp5
 70
     1
102
RTVSPropertyOp6
 70
     1
102
RTVSPropertyOp7
 70
     1
102
RTVSPropertyOp8
 70
     1
102
RTVSPropertyOp9
 70
     1
102
RTVSPropertyOp10
 70
     1
102
RTVSPropertyOp11
 70
     1
102
RTVSPropertyOp12
 70
     1
102
RTVSPropertyOp13
 70
     1
102
RTVSPropertyOp14
 70
     1
102
RTVSPropertyOp15
 70
     1
102
RTVSPropertyOp16
 70
     1
102
RTVSPropertyOp17
 70
     1
102
RTVSPropertyOp18
 70
     1
102
RTVSPropertyOp19
 70
     1
102
RTVSPropertyOp20
 70
     1
102
RTVSPropertyOp21
 70
     1
102
RTVSPropertyOp22
 70
     1
102
RTVSPropertyOp23
 70
     1
102
RTVSPropertyOp24
 70
     1
102
RTVSPropertyOp25
 70
     1
102
RTVSPropertyOp26
 70
     1
102
RTVSPropertyOp27
 70
     1
102
RTVSPropertyOp28
 70
     1
102
RTVSPropertyOp29
 70
     1
102
RTVSPropertyOp30
 70
     1
102
RTVSPropertyOp31
 70
     1
102
RTVSPropertyOp32
 70
     1
  0
XRECORD
  5
45C
102
{ACAD_REACTORS
330
45B
102
}
330
45B
100
AcDbXrecord
280
     1
102
RTVSPropertyOp0
 70
     1
102
RTVSPropertyOp1
 70
     1
102
RTVSPropertyOp2
 70
     1
102
RTVSPropertyOp3
 70
     1
102
RTVSPropertyOp4
 70
     1
102
RTVSPropertyOp5
 70
     1
102
RTVSPropertyOp6
 70
     1
102
RTVSPropertyOp7
 70
     1
102
RTVSPropertyOp8
 70
     1
102
RTVSPropertyOp9
 70
     1
102
RTVSPropertyOp10
 70
     1
102
RTVSPropertyOp11
 70
     1
102
RTVSPropertyOp12
 70
     1
102
RTVSPropertyOp13
 70
     1
102
RTVSPropertyOp14
 70
     1
102
RTVSPropertyOp15
 70
     1
102
RTVSPropertyOp16
 70
     1
102
RTVSPropertyOp17
 70
     1
102
RTVSPropertyOp18
 70
     1
102
RTVSPropertyOp19
 70
     1
102
RTVSPropertyOp20
 70
     1
102
RTVSPropertyOp21
 70
     1
102
RTVSPropertyOp22
 70
     1
102
RTVSPropertyOp23
 70
     1
102
RTVSPropertyOp24
 70
     1
102
RTVSPropertyOp25
 70
     1
102
RTVSPropertyOp26
 70
     1
102
RTVSPropertyOp27
 70
     1
102
RTVSPropertyOp28
 70
     1
102
RTVSPropertyOp29
 70
     1
102
RTVSPropertyOp30
 70
     1
102
RTVSPropertyOp31
 70
     1
102
RTVSPropertyOp32
 70
     1
  0
XRECORD
  5
470
102
{ACAD_REACTORS
330
46F
102
}
330
46F
100
AcDbXrecord
280
     1
102
RTVSPropertyOp0
 70
     1
102
RTVSPropertyOp1
 70
     1
102
RTVSPropertyOp2
 70
     1
102
RTVSPropertyOp3
 70
     1
102
RTVSPropertyOp4
 70
     1
102
RTVSPropertyOp5
 70
     1
102
RTVSPropertyOp6
 70
     1
102
RTVSPropertyOp7
 70
     1
102
RTVSPropertyOp8
 70
     1
102
RTVSPropertyOp9
 70
     1
102
RTVSPropertyOp10
 70
     1
102
RTVSPropertyOp11
 70
     1
102
RTVSPropertyOp12
 70
     1
102
RTVSPropertyOp13
 70
     1
102
RTVSPropertyOp14
 70
     1
102
RTVSPropertyOp15
 70
     1
102
RTVSPropertyOp16
 70
     1
102
RTVSPropertyOp17
 70
     1
102
RTVSPropertyOp18
 70
     1
102
RTVSPropertyOp19
 70
     1
102
RTVSPropertyOp20
 70
     1
102
RTVSPropertyOp21
 70
     1
102
RTVSPropertyOp22
 70
     1
102
RTVSPropertyOp23
 70
     1
102
RTVSPropertyOp24
 70
     1
102
RTVSPropertyOp25
 70
     1
102
RTVSPropertyOp26
 70
     1
102
RTVSPropertyOp27
 70
     1
102
RTVSPropertyOp28
 70
     1
102
RTVSPropertyOp29
 70
     1
102
RTVSPropertyOp30
 70
     1
102
RTVSPropertyOp31
 70
     1
102
RTVSPropertyOp32
 70
     1
  0
XRECORD
  5
466
102
{ACAD_REACTORS
330
465
102
}
330
465
100
AcDbXrecord
280
     1
102
RTVSPropertyOp0
 70
     1
102
RTVSPropertyOp1
 70
     1
102
RTVSPropertyOp2
 70
     1
102
RTVSPropertyOp3
 70
     1
102
RTVSPropertyOp4
 70
     1
102
RTVSPropertyOp5
 70
     1
102
RTVSPropertyOp6
 70
     1
102
RTVSPropertyOp7
 70
     1
102
RTVSPropertyOp8
 70
     1
102
RTVSPropertyOp9
 70
     1
102
RTVSPropertyOp10
 70
     1
102
RTVSPropertyOp11
 70
     1
102
RTVSPropertyOp12
 70
     1
102
RTVSPropertyOp13
 70
     1
102
RTVSPropertyOp14
 70
     1
102
RTVSPropertyOp15
 70
     1
102
RTVSPropertyOp16
 70
     1
102
RTVSPropertyOp17
 70
     1
102
RTVSPropertyOp18
 70
     1
102
RTVSPropertyOp19
 70
     1
102
RTVSPropertyOp20
 70
     1
102
RTVSPropertyOp21
 70
     1
102
RTVSPropertyOp22
 70
     1
102
RTVSPropertyOp23
 70
     1
102
RTVSPropertyOp24
 70
     1
102
RTVSPropertyOp25
 70
     1
102
RTVSPropertyOp26
 70
     1
102
RTVSPropertyOp27
 70
     1
102
RTVSPropertyOp28
 70
     1
102
RTVSPropertyOp29
 70
     1
102
RTVSPropertyOp30
 70
     1
102
RTVSPropertyOp31
 70
     1
102
RTVSPropertyOp32
 70
     1
  0
XRECORD
  5
46E
102
{ACAD_REACTORS
330
46D
102
}
330
46D
100
AcDbXrecord
280
     1
102
RTVSPropertyOp0
 70
     1
102
RTVSPropertyOp1
 70
     1
102
RTVSPropertyOp2
 70
     1
102
RTVSPropertyOp3
 70
     1
102
RTVSPropertyOp4
 70
     1
102
RTVSPropertyOp5
 70
     1
102
RTVSPropertyOp6
 70
     1
102
RTVSPropertyOp7
 70
     1
102
RTVSPropertyOp8
 70
     1
102
RTVSPropertyOp9
 70
     1
102
RTVSPropertyOp10
 70
     1
102
RTVSPropertyOp11
 70
     1
102
RTVSPropertyOp12
 70
     1
102
RTVSPropertyOp13
 70
     1
102
RTVSPropertyOp14
 70
     1
102
RTVSPropertyOp15
 70
     1
102
RTVSPropertyOp16
 70
     1
102
RTVSPropertyOp17
 70
     1
102
RTVSPropertyOp18
 70
     1
102
RTVSPropertyOp19
 70
     1
102
RTVSPropertyOp20
 70
     1
102
RTVSPropertyOp21
 70
     1
102
RTVSPropertyOp22
 70
     1
102
RTVSPropertyOp23
 70
     1
102
RTVSPropertyOp24
 70
     1
102
RTVSPropertyOp25
 70
     1
102
RTVSPropertyOp26
 70
     1
102
RTVSPropertyOp27
 70
     1
102
RTVSPropertyOp28
 70
     1
102
RTVSPropertyOp29
 70
     1
102
RTVSPropertyOp30
 70
     1
102
RTVSPropertyOp31
 70
     1
102
RTVSPropertyOp32
 70
     1
  0
ENDSEC
  0
EOF
