  0
SECTION
  2
HEADER
  9
$ACADVER
  1
AC1018
  9
$ACADMAINTVER
 70
     0
  9
$DWGCODEPAGE
  3
ANSI_1252
  9
$INSBASE
 10
0.0
 20
0.0
 30
0.0
  9
$EXTMIN
 10
246.668474214482
 20
96.506129422918
 30
0.0
  9
$EXTMAX
 10
1020.20427621939
 20
410.138129422917
 30
0.0
  9
$LIMMIN
 10
0.0
 20
0.0
  9
$LIMMAX
 10
420.0
 20
297.0
  9
$ORTHOMODE
 70
     0
  9
$REGENMODE
 70
     1
  9
$FILLMODE
 70
     1
  9
$QTEXTMODE
 70
     0
  9
$MIRRTEXT
 70
     1
  9
$LTSCALE
 40
5.0
  9
$ATTMODE
 70
     1
  9
$TEXTSIZE
 40
2.5
  9
$TRACEWID
 40
1.0
  9
$TEXTSTYLE
  7
Standard
  9
$CLAYER
  8
0
  9
$CELTYPE
  6
ByLayer
  9
$CECOLOR
 62
   256
  9
$CELTSCALE
 40
1.0
  9
$DISPSILH
 70
     0
  9
$DIMSCALE
 40
1.0
  9
$DIMASZ
 40
2.5
  9
$DIMEXO
 40
0.625
  9
$DIMDLI
 40
3.75
  9
$DIMRND
 40
0.0
  9
$DIMDLE
 40
0.0
  9
$DIMEXE
 40
1.25
  9
$DIMTP
 40
0.0
  9
$DIMTM
 40
0.0
  9
$DIMTXT
 40
2.5
  9
$DIMCEN
 40
2.5
  9
$DIMTSZ
 40
0.0
  9
$DIMTOL
 70
     0
  9
$DIMLIM
 70
     0
  9
$DIMTIH
 70
     0
  9
$DIMTOH
 70
     0
  9
$DIMSE1
 70
     0
  9
$DIMSE2
 70
     0
  9
$DIMTAD
 70
     1
  9
$DIMZIN
 70
     8
  9
$DIMBLK
  1

  9
$DIMASO
 70
     1
  9
$DIMSHO
 70
     1
  9
$DIMPOST
  1

  9
$DIMAPOST
  1

  9
$DIMALT
 70
     0
  9
$DIMALTD
 70
     3
  9
$DIMALTF
 40
0.03937007874
  9
$DIMLFAC
 40
1.0
  9
$DIMTOFL
 70
     1
  9
$DIMTVP
 40
0.0
  9
$DIMTIX
 70
     0
  9
$DIMSOXD
 70
     0
  9
$DIMSAH
 70
     0
  9
$DIMBLK1
  1

  9
$DIMBLK2
  1

  9
$DIMSTYLE
  2
ISO-25
  9
$DIMCLRD
 70
     0
  9
$DIMCLRE
 70
     0
  9
$DIMCLRT
 70
     0
  9
$DIMTFAC
 40
1.0
  9
$DIMGAP
 40
0.625
  9
$DIMJUST
 70
     0
  9
$DIMSD1
 70
     0
  9
$DIMSD2
 70
     0
  9
$DIMTOLJ
 70
     0
  9
$DIMTZIN
 70
     8
  9
$DIMALTZ
 70
     0
  9
$DIMALTTZ
 70
     0
  9
$DIMUPT
 70
     0
  9
$DIMDEC
 70
     2
  9
$DIMTDEC
 70
     2
  9
$DIMALTU
 70
     2
  9
$DIMALTTD
 70
     3
  9
$DIMTXSTY
  7
Standard
  9
$DIMAUNIT
 70
     0
  9
$DIMADEC
 70
     0
  9
$DIMALTRND
 40
0.0
  9
$DIMAZIN
 70
     0
  9
$DIMDSEP
 70
    44
  9
$DIMATFIT
 70
     3
  9
$DIMFRAC
 70
     0
  9
$DIMLDRBLK
  1

  9
$DIMLUNIT
 70
     2
  9
$DIMLWD
 70
    -2
  9
$DIMLWE
 70
    -2
  9
$DIMTMOVE
 70
     0
  9
$LUNITS
 70
     2
  9
$LUPREC
 70
     4
  9
$SKETCHINC
 40
1.0
  9
$FILLETRAD
 40
10.0
  9
$AUNITS
 70
     0
  9
$AUPREC
 70
     0
  9
$MENU
  1
.
  9
$ELEVATION
 40
0.0
  9
$PELEVATION
 40
0.0
  9
$THICKNESS
 40
0.0
  9
$LIMCHECK
 70
     0
  9
$CHAMFERA
 40
10.0
  9
$CHAMFERB
 40
10.0
  9
$CHAMFERC
 40
20.0
  9
$CHAMFERD
 40
0.0
  9
$SKPOLY
 70
     0
  9
$TDCREATE
 40
2459251.690665428
  9
$TDUCREATE
 40
2459251.648998762
  9
$TDUPDATE
 40
2459251.690669201
  9
$TDUUPDATE
 40
2459251.649002535
  9
$TDINDWG
 40
0.0000000116
  9
$TDUSRTIMER
 40
0.0000000116
  9
$USRTIMER
 70
     1
  9
$ANGBASE
 50
0.0
  9
$ANGDIR
 70
     0
  9
$PDMODE
 70
     2
  9
$PDSIZE
 40
1.0
  9
$PLINEWID
 40
0.0
  9
$SPLFRAME
 70
     0
  9
$SPLINETYPE
 70
     6
  9
$SPLINESEGS
 70
     8
  9
$HANDSEED
  5
28A
  9
$SURFTAB1
 70
     6
  9
$SURFTAB2
 70
     6
  9
$SURFTYPE
 70
     6
  9
$SURFU
 70
     6
  9
$SURFV
 70
     6
  9
$UCSBASE
  2

  9
$UCSNAME
  2

  9
$UCSORG
 10
0.0
 20
0.0
 30
0.0
  9
$UCSXDIR
 10
1.0
 20
0.0
 30
0.0
  9
$UCSYDIR
 10
0.0
 20
1.0
 30
0.0
  9
$UCSORTHOREF
  2

  9
$UCSORTHOVIEW
 70
     0
  9
$UCSORGTOP
 10
0.0
 20
0.0
 30
0.0
  9
$UCSORGBOTTOM
 10
0.0
 20
0.0
 30
0.0
  9
$UCSORGLEFT
 10
0.0
 20
0.0
 30
0.0
  9
$UCSORGRIGHT
 10
0.0
 20
0.0
 30
0.0
  9
$UCSORGFRONT
 10
0.0
 20
0.0
 30
0.0
  9
$UCSORGBACK
 10
0.0
 20
0.0
 30
0.0
  9
$PUCSBASE
  2

  9
$PUCSNAME
  2

  9
$PUCSORG
 10
0.0
 20
0.0
 30
0.0
  9
$PUCSXDIR
 10
1.0
 20
0.0
 30
0.0
  9
$PUCSYDIR
 10
0.0
 20
1.0
 30
0.0
  9
$PUCSORTHOREF
  2

  9
$PUCSORTHOVIEW
 70
     0
  9
$PUCSORGTOP
 10
0.0
 20
0.0
 30
0.0
  9
$PUCSORGBOTTOM
 10
0.0
 20
0.0
 30
0.0
  9
$PUCSORGLEFT
 10
0.0
 20
0.0
 30
0.0
  9
$PUCSORGRIGHT
 10
0.0
 20
0.0
 30
0.0
  9
$PUCSORGFRONT
 10
0.0
 20
0.0
 30
0.0
  9
$PUCSORGBACK
 10
0.0
 20
0.0
 30
0.0
  9
$USERI1
 70
     0
  9
$USERI2
 70
     0
  9
$USERI3
 70
     0
  9
$USERI4
 70
     0
  9
$USERI5
 70
     0
  9
$USERR1
 40
0.0
  9
$USERR2
 40
0.0
  9
$USERR3
 40
0.0
  9
$USERR4
 40
0.0
  9
$USERR5
 40
0.0
  9
$WORLDVIEW
 70
     1
  9
$SHADEDGE
 70
     3
  9
$SHADEDIF
 70
    70
  9
$TILEMODE
 70
     1
  9
$MAXACTVP
 70
    64
  9
$PINSBASE
 10
0.0
 20
0.0
 30
0.0
  9
$PLIMCHECK
 70
     0
  9
$PEXTMIN
 10
1.000000000000E+20
 20
1.000000000000E+20
 30
1.000000000000E+20
  9
$PEXTMAX
 10
-1.000000000000E+20
 20
-1.000000000000E+20
 30
-1.000000000000E+20
  9
$PLIMMIN
 10
0.0
 20
0.0
  9
$PLIMMAX
 10
420.0
 20
297.0
  9
$UNITMODE
 70
     0
  9
$VISRETAIN
 70
     1
  9
$PLINEGEN
 70
     0
  9
$PSLTSCALE
 70
     1
  9
$TREEDEPTH
 70
  3020
  9
$CMLSTYLE
  2
Standard
  9
$CMLJUST
 70
     0
  9
$CMLSCALE
 40
20.0
  9
$PROXYGRAPHICS
 70
     1
  9
$MEASUREMENT
 70
     1
  9
$CELWEIGHT
370
    -1
  9
$ENDCAPS
280
     0
  9
$JOINSTYLE
280
     0
  9
$LWDISPLAY
290
     0
  9
$INSUNITS
 70
     4
  9
$HYPERLINKBASE
  1

  9
$STYLESHEET
  1

  9
$XEDIT
290
     1
  9
$CEPSNTYPE
380
     0
  9
$PSTYLEMODE
290
     1
  9
$FINGERPRINTGUID
  2
{68ADFC82-1F13-45A4-9CFD-F8E332CBF6B7}
  9
$VERSIONGUID
  2
{FAEB1C32-E019-11D5-929B-00C0DF256EC4}
  9
$EXTNAMES
290
     1
  9
$PSVPSCALE
 40
0.0
  9
$OLESTARTUP
290
     0
  9
$SORTENTS
280
   127
  9
$INDEXCTL
280
     0
  9
$HIDETEXT
280
     1
  9
$XCLIPFRAME
290
     0
  9
$HALOGAP
280
     0
  9
$OBSCOLOR
 70
   257
  9
$OBSLTYPE
280
     0
  9
$INTERSECTIONDISPLAY
280
     0
  9
$INTERSECTIONCOLOR
 70
   257
  9
$DIMASSOC
280
     2
  9
$PROJECTNAME
  1

  0
ENDSEC
  0
SECTION
  2
CLASSES
  0
CLASS
  1
ACDBDICTIONARYWDFLT
  2
AcDbDictionaryWithDefault
  3
ObjectDBX Classes
 90
        0
 91
        4
280
     0
281
     0
  0
CLASS
  1
VISUALSTYLE
  2
AcDbVisualStyle
  3
ObjectDBX Classes
 90
     4095
 91
        4
280
     0
281
     0
  0
CLASS
  1
MATERIAL
  2
AcDbMaterial
  3
ObjectDBX Classes
 90
     1153
 91
        4
280
     0
281
     0
  0
CLASS
  1
WIPEOUTVARIABLES
  2
AcDbWipeoutVariables
  3
WipeOut|AutoCAD Express Tool|expresstools@autodesk.com
 90
        0
 91
        4
280
     0
281
     0
  0
CLASS
  1
WIPEOUT
  2
AcDbWipeout
  3
WipeOut|AutoCAD Express Tool|expresstools@autodesk.com
 90
      127
 91
        4
280
     0
281
     1
  0
ENDSEC
  0
SECTION
  2
TABLES
  0
TABLE
  2
VPORT
  5
8
330
0
100
AcDbSymbolTable
 70
     1
  0
VPORT
  5
29
330
8
100
AcDbSymbolTableRecord
100
AcDbViewportTableRecord
  2
*Active
 70
     0
 10
0.0
 20
0.0
 11
1.0
 21
1.0
 12
633.436375216936
 22
253.322129422918
 13
0.0
 23
0.0
 14
10.0
 24
10.0
 15
10.0
 25
10.0
 16
0.0
 26
0.0
 36
1.0
 17
0.0
 27
0.0
 37
0.0
 40
313.632
 41
2.466380350235
 42
50.0
 43
0.0
 44
0.0
 50
0.0
 51
0.0
 71
     0
 72
   100
 73
     1
 74
     3
 75
     0
 76
     0
 77
     0
 78
     0
281
     0
 65
     1
110
0.0
120
0.0
130
0.0
111
1.0
121
0.0
131
0.0
112
0.0
122
1.0
132
0.0
 79
     0
146
0.0
  0
ENDTAB
  0
TABLE
  2
LTYPE
  5
5
330
0
100
AcDbSymbolTable
 70
     3
  0
LTYPE
  5
14
330
5
100
AcDbSymbolTableRecord
100
AcDbLinetypeTableRecord
  2
ByBlock
 70
     0
  3

 72
    65
 73
     0
 40
0.0
  0
LTYPE
  5
15
330
5
100
AcDbSymbolTableRecord
100
AcDbLinetypeTableRecord
  2
ByLayer
 70
     0
  3

 72
    65
 73
     0
 40
0.0
  0
LTYPE
  5
16
330
5
100
AcDbSymbolTableRecord
100
AcDbLinetypeTableRecord
  2
Continuous
 70
     0
  3
Solid line
 72
    65
 73
     0
 40
0.0
  0
LTYPE
  5
40
330
5
100
AcDbSymbolTableRecord
100
AcDbLinetypeTableRecord
  2
AUSGEZOGEN
 70
     0
  3

 72
    65
 73
     0
 40
0.0
  0
LTYPE
  5
43
330
5
100
AcDbSymbolTableRecord
100
AcDbLinetypeTableRecord
  2
DASHDOT
 70
     0
  3

 72
    65
 73
     4
 40
1.0
 49
0.5
 74
     0
 49
-0.25
 74
     0
 49
0.0
 74
     0
 49
-0.25
 74
     0
  0
ENDTAB
  0
TABLE
  2
LAYER
  5
2
330
0
100
AcDbSymbolTable
 70
   256
  0
LAYER
  5
10
330
2
100
AcDbSymbolTableRecord
100
AcDbLayerTableRecord
  2
0
 70
     0
 62
     7
  6
Continuous
370
    -3
390
F
  0
LAYER
  5
45
330
2
100
AcDbSymbolTableRecord
100
AcDbLayerTableRecord
  2
FORMAT
 70
     0
 62
     7
  6
Continuous
370
    -3
390
F
  0
LAYER
  5
46
330
2
100
AcDbSymbolTableRecord
100
AcDbLayerTableRecord
  2
Layer2
 70
     0
 62
     7
  6
Continuous
370
    -3
390
F
  0
LAYER
  5
47
330
2
100
AcDbSymbolTableRecord
100
AcDbLayerTableRecord
  2
Layer3
 70
     0
 62
     7
  6
Continuous
370
    -3
390
F
  0
LAYER
  5
48
330
2
100
AcDbSymbolTableRecord
100
AcDbLayerTableRecord
  2
Layer4
 70
     0
 62
     7
  6
Continuous
370
    -3
390
F
  0
LAYER
  5
49
330
2
100
AcDbSymbolTableRecord
100
AcDbLayerTableRecord
  2
Layer5
 70
     0
 62
     7
  6
Continuous
370
    -3
390
F
  0
LAYER
  5
4A
330
2
100
AcDbSymbolTableRecord
100
AcDbLayerTableRecord
  2
Layer6
 70
     0
 62
     7
  6
Continuous
370
    -3
390
F
  0
LAYER
  5
4B
330
2
100
AcDbSymbolTableRecord
100
AcDbLayerTableRecord
  2
Layer7
 70
     0
 62
     7
  6
Continuous
370
    -3
390
F
  0
LAYER
  5
4C
330
2
100
AcDbSymbolTableRecord
100
AcDbLayerTableRecord
  2
Layer8
 70
     0
 62
     7
  6
Continuous
370
    -3
390
F
  0
LAYER
  5
4D
330
2
100
AcDbSymbolTableRecord
100
AcDbLayerTableRecord
  2
Layer9
 70
     0
 62
     7
  6
Continuous
370
    -3
390
F
  0
LAYER
  5
4E
330
2
100
AcDbSymbolTableRecord
100
AcDbLayerTableRecord
  2
Layer10
 70
     0
 62
     7
  6
Continuous
370
    -3
390
F
  0
LAYER
  5
4F
330
2
100
AcDbSymbolTableRecord
100
AcDbLayerTableRecord
  2
Layer11
 70
     0
 62
     7
  6
Continuous
370
    -3
390
F
  0
LAYER
  5
50
330
2
100
AcDbSymbolTableRecord
100
AcDbLayerTableRecord
  2
Layer12
 70
     0
 62
     7
  6
Continuous
370
    -3
390
F
  0
LAYER
  5
51
330
2
100
AcDbSymbolTableRecord
100
AcDbLayerTableRecord
  2
Layer13
 70
     0
 62
     7
  6
Continuous
370
    -3
390
F
  0
LAYER
  5
52
330
2
100
AcDbSymbolTableRecord
100
AcDbLayerTableRecord
  2
Layer14
 70
     0
 62
     7
  6
Continuous
370
    -3
390
F
  0
LAYER
  5
53
330
2
100
AcDbSymbolTableRecord
100
AcDbLayerTableRecord
  2
Layer15
 70
     0
 62
     7
  6
Continuous
370
    -3
390
F
  0
LAYER
  5
54
330
2
100
AcDbSymbolTableRecord
100
AcDbLayerTableRecord
  2
Layer16
 70
     0
 62
     7
  6
Continuous
370
    -3
390
F
  0
LAYER
  5
55
330
2
100
AcDbSymbolTableRecord
100
AcDbLayerTableRecord
  2
Layer17
 70
     0
 62
     7
  6
Continuous
370
    -3
390
F
  0
LAYER
  5
56
330
2
100
AcDbSymbolTableRecord
100
AcDbLayerTableRecord
  2
Layer18
 70
     0
 62
     7
  6
Continuous
370
    -3
390
F
  0
LAYER
  5
57
330
2
100
AcDbSymbolTableRecord
100
AcDbLayerTableRecord
  2
Layer19
 70
     0
 62
     7
  6
Continuous
370
    -3
390
F
  0
LAYER
  5
58
330
2
100
AcDbSymbolTableRecord
100
AcDbLayerTableRecord
  2
Layer20
 70
     0
 62
     7
  6
Continuous
370
    -3
390
F
  0
LAYER
  5
59
330
2
100
AcDbSymbolTableRecord
100
AcDbLayerTableRecord
  2
Layer21
 70
     0
 62
     7
  6
Continuous
370
    -3
390
F
  0
LAYER
  5
5A
330
2
100
AcDbSymbolTableRecord
100
AcDbLayerTableRecord
  2
Layer22
 70
     0
 62
     7
  6
Continuous
370
    -3
390
F
  0
LAYER
  5
5B
330
2
100
AcDbSymbolTableRecord
100
AcDbLayerTableRecord
  2
Layer23
 70
     0
 62
     7
  6
Continuous
370
    -3
390
F
  0
LAYER
  5
5C
330
2
100
AcDbSymbolTableRecord
100
AcDbLayerTableRecord
  2
Layer24
 70
     0
 62
     7
  6
Continuous
370
    -3
390
F
  0
LAYER
  5
5D
330
2
100
AcDbSymbolTableRecord
100
AcDbLayerTableRecord
  2
Layer25
 70
     0
 62
     7
  6
Continuous
370
    -3
390
F
  0
LAYER
  5
5E
330
2
100
AcDbSymbolTableRecord
100
AcDbLayerTableRecord
  2
Layer26
 70
     0
 62
     7
  6
Continuous
370
    -3
390
F
  0
LAYER
  5
5F
330
2
100
AcDbSymbolTableRecord
100
AcDbLayerTableRecord
  2
Layer27
 70
     0
 62
     7
  6
Continuous
370
    -3
390
F
  0
LAYER
  5
60
330
2
100
AcDbSymbolTableRecord
100
AcDbLayerTableRecord
  2
Layer28
 70
     0
 62
     7
  6
Continuous
370
    -3
390
F
  0
LAYER
  5
61
330
2
100
AcDbSymbolTableRecord
100
AcDbLayerTableRecord
  2
Layer29
 70
     0
 62
     7
  6
Continuous
370
    -3
390
F
  0
LAYER
  5
62
330
2
100
AcDbSymbolTableRecord
100
AcDbLayerTableRecord
  2
Layer30
 70
     0
 62
     7
  6
Continuous
370
    -3
390
F
  0
LAYER
  5
63
330
2
100
AcDbSymbolTableRecord
100
AcDbLayerTableRecord
  2
Layer31
 70
     0
 62
     7
  6
Continuous
370
    -3
390
F
  0
LAYER
  5
64
330
2
100
AcDbSymbolTableRecord
100
AcDbLayerTableRecord
  2
Layer32
 70
     0
 62
     7
  6
Continuous
370
    -3
390
F
  0
LAYER
  5
65
330
2
100
AcDbSymbolTableRecord
100
AcDbLayerTableRecord
  2
Layer33
 70
     0
 62
     7
  6
Continuous
370
    -3
390
F
  0
LAYER
  5
66
330
2
100
AcDbSymbolTableRecord
100
AcDbLayerTableRecord
  2
Layer34
 70
     0
 62
     7
  6
Continuous
370
    -3
390
F
  0
LAYER
  5
67
330
2
100
AcDbSymbolTableRecord
100
AcDbLayerTableRecord
  2
Layer35
 70
     0
 62
     7
  6
Continuous
370
    -3
390
F
  0
LAYER
  5
68
330
2
100
AcDbSymbolTableRecord
100
AcDbLayerTableRecord
  2
Layer36
 70
     0
 62
     7
  6
Continuous
370
    -3
390
F
  0
LAYER
  5
69
330
2
100
AcDbSymbolTableRecord
100
AcDbLayerTableRecord
  2
Layer37
 70
     0
 62
     7
  6
Continuous
370
    -3
390
F
  0
LAYER
  5
6A
330
2
100
AcDbSymbolTableRecord
100
AcDbLayerTableRecord
  2
Layer38
 70
     0
 62
     7
  6
Continuous
370
    -3
390
F
  0
LAYER
  5
6B
330
2
100
AcDbSymbolTableRecord
100
AcDbLayerTableRecord
  2
Layer39
 70
     0
 62
     7
  6
Continuous
370
    -3
390
F
  0
LAYER
  5
6C
330
2
100
AcDbSymbolTableRecord
100
AcDbLayerTableRecord
  2
Layer40
 70
     0
 62
     7
  6
Continuous
370
    -3
390
F
  0
LAYER
  5
6D
330
2
100
AcDbSymbolTableRecord
100
AcDbLayerTableRecord
  2
Layer41
 70
     0
 62
     7
  6
Continuous
370
    -3
390
F
  0
LAYER
  5
6E
330
2
100
AcDbSymbolTableRecord
100
AcDbLayerTableRecord
  2
Layer42
 70
     0
 62
     7
  6
Continuous
370
    -3
390
F
  0
LAYER
  5
6F
330
2
100
AcDbSymbolTableRecord
100
AcDbLayerTableRecord
  2
Layer43
 70
     0
 62
     7
  6
Continuous
370
    -3
390
F
  0
LAYER
  5
70
330
2
100
AcDbSymbolTableRecord
100
AcDbLayerTableRecord
  2
Layer44
 70
     0
 62
     7
  6
Continuous
370
    -3
390
F
  0
LAYER
  5
71
330
2
100
AcDbSymbolTableRecord
100
AcDbLayerTableRecord
  2
Layer45
 70
     0
 62
     7
  6
Continuous
370
    -3
390
F
  0
LAYER
  5
72
330
2
100
AcDbSymbolTableRecord
100
AcDbLayerTableRecord
  2
Layer46
 70
     0
 62
     7
  6
Continuous
370
    -3
390
F
  0
LAYER
  5
73
330
2
100
AcDbSymbolTableRecord
100
AcDbLayerTableRecord
  2
Layer47
 70
     0
 62
     7
  6
Continuous
370
    -3
390
F
  0
LAYER
  5
74
330
2
100
AcDbSymbolTableRecord
100
AcDbLayerTableRecord
  2
Layer48
 70
     0
 62
     7
  6
Continuous
370
    -3
390
F
  0
LAYER
  5
75
330
2
100
AcDbSymbolTableRecord
100
AcDbLayerTableRecord
  2
Layer49
 70
     0
 62
     7
  6
Continuous
370
    -3
390
F
  0
LAYER
  5
76
330
2
100
AcDbSymbolTableRecord
100
AcDbLayerTableRecord
  2
Layer50
 70
     0
 62
     7
  6
Continuous
370
    -3
390
F
  0
LAYER
  5
77
330
2
100
AcDbSymbolTableRecord
100
AcDbLayerTableRecord
  2
Layer51
 70
     0
 62
     7
  6
Continuous
370
    -3
390
F
  0
LAYER
  5
78
330
2
100
AcDbSymbolTableRecord
100
AcDbLayerTableRecord
  2
Layer52
 70
     0
 62
     7
  6
Continuous
370
    -3
390
F
  0
LAYER
  5
79
330
2
100
AcDbSymbolTableRecord
100
AcDbLayerTableRecord
  2
Layer53
 70
     0
 62
     7
  6
Continuous
370
    -3
390
F
  0
LAYER
  5
7A
330
2
100
AcDbSymbolTableRecord
100
AcDbLayerTableRecord
  2
Layer54
 70
     0
 62
     7
  6
Continuous
370
    -3
390
F
  0
LAYER
  5
7B
330
2
100
AcDbSymbolTableRecord
100
AcDbLayerTableRecord
  2
Layer55
 70
     0
 62
     7
  6
Continuous
370
    -3
390
F
  0
LAYER
  5
7C
330
2
100
AcDbSymbolTableRecord
100
AcDbLayerTableRecord
  2
Layer56
 70
     0
 62
     7
  6
Continuous
370
    -3
390
F
  0
LAYER
  5
7D
330
2
100
AcDbSymbolTableRecord
100
AcDbLayerTableRecord
  2
Layer57
 70
     0
 62
     7
  6
Continuous
370
    -3
390
F
  0
LAYER
  5
7E
330
2
100
AcDbSymbolTableRecord
100
AcDbLayerTableRecord
  2
Layer58
 70
     0
 62
     7
  6
Continuous
370
    -3
390
F
  0
LAYER
  5
7F
330
2
100
AcDbSymbolTableRecord
100
AcDbLayerTableRecord
  2
Layer59
 70
     0
 62
     7
  6
Continuous
370
    -3
390
F
  0
LAYER
  5
80
330
2
100
AcDbSymbolTableRecord
100
AcDbLayerTableRecord
  2
Layer60
 70
     0
 62
     7
  6
Continuous
370
    -3
390
F
  0
LAYER
  5
81
330
2
100
AcDbSymbolTableRecord
100
AcDbLayerTableRecord
  2
Layer61
 70
     0
 62
     7
  6
Continuous
370
    -3
390
F
  0
LAYER
  5
82
330
2
100
AcDbSymbolTableRecord
100
AcDbLayerTableRecord
  2
Layer62
 70
     0
 62
     7
  6
Continuous
370
    -3
390
F
  0
LAYER
  5
83
330
2
100
AcDbSymbolTableRecord
100
AcDbLayerTableRecord
  2
Layer63
 70
     0
 62
     7
  6
Continuous
370
    -3
390
F
  0
LAYER
  5
84
330
2
100
AcDbSymbolTableRecord
100
AcDbLayerTableRecord
  2
Layer64
 70
     0
 62
     7
  6
Continuous
370
    -3
390
F
  0
LAYER
  5
85
330
2
100
AcDbSymbolTableRecord
100
AcDbLayerTableRecord
  2
Layer65
 70
     0
 62
     7
  6
Continuous
370
    -3
390
F
  0
LAYER
  5
86
330
2
100
AcDbSymbolTableRecord
100
AcDbLayerTableRecord
  2
Layer66
 70
     0
 62
     7
  6
Continuous
370
    -3
390
F
  0
LAYER
  5
87
330
2
100
AcDbSymbolTableRecord
100
AcDbLayerTableRecord
  2
Layer67
 70
     0
 62
     7
  6
Continuous
370
    -3
390
F
  0
LAYER
  5
88
330
2
100
AcDbSymbolTableRecord
100
AcDbLayerTableRecord
  2
Layer68
 70
     0
 62
     7
  6
Continuous
370
    -3
390
F
  0
LAYER
  5
89
330
2
100
AcDbSymbolTableRecord
100
AcDbLayerTableRecord
  2
Layer69
 70
     0
 62
     7
  6
Continuous
370
    -3
390
F
  0
LAYER
  5
8A
330
2
100
AcDbSymbolTableRecord
100
AcDbLayerTableRecord
  2
Layer70
 70
     0
 62
     7
  6
Continuous
370
    -3
390
F
  0
LAYER
  5
8B
330
2
100
AcDbSymbolTableRecord
100
AcDbLayerTableRecord
  2
Layer71
 70
     0
 62
     7
  6
Continuous
370
    -3
390
F
  0
LAYER
  5
8C
330
2
100
AcDbSymbolTableRecord
100
AcDbLayerTableRecord
  2
Layer72
 70
     0
 62
     7
  6
Continuous
370
    -3
390
F
  0
LAYER
  5
8D
330
2
100
AcDbSymbolTableRecord
100
AcDbLayerTableRecord
  2
Layer73
 70
     0
 62
     7
  6
Continuous
370
    -3
390
F
  0
LAYER
  5
8E
330
2
100
AcDbSymbolTableRecord
100
AcDbLayerTableRecord
  2
Layer74
 70
     0
 62
     7
  6
Continuous
370
    -3
390
F
  0
LAYER
  5
8F
330
2
100
AcDbSymbolTableRecord
100
AcDbLayerTableRecord
  2
Layer75
 70
     0
 62
     7
  6
Continuous
370
    -3
390
F
  0
LAYER
  5
90
330
2
100
AcDbSymbolTableRecord
100
AcDbLayerTableRecord
  2
Layer76
 70
     0
 62
     7
  6
Continuous
370
    -3
390
F
  0
LAYER
  5
91
330
2
100
AcDbSymbolTableRecord
100
AcDbLayerTableRecord
  2
Layer77
 70
     0
 62
     7
  6
Continuous
370
    -3
390
F
  0
LAYER
  5
92
330
2
100
AcDbSymbolTableRecord
100
AcDbLayerTableRecord
  2
Layer78
 70
     0
 62
     7
  6
Continuous
370
    -3
390
F
  0
LAYER
  5
93
330
2
100
AcDbSymbolTableRecord
100
AcDbLayerTableRecord
  2
Layer79
 70
     0
 62
     7
  6
Continuous
370
    -3
390
F
  0
LAYER
  5
94
330
2
100
AcDbSymbolTableRecord
100
AcDbLayerTableRecord
  2
Layer80
 70
     0
 62
     7
  6
Continuous
370
    -3
390
F
  0
LAYER
  5
95
330
2
100
AcDbSymbolTableRecord
100
AcDbLayerTableRecord
  2
Layer81
 70
     0
 62
     7
  6
Continuous
370
    -3
390
F
  0
LAYER
  5
96
330
2
100
AcDbSymbolTableRecord
100
AcDbLayerTableRecord
  2
Layer82
 70
     0
 62
     7
  6
Continuous
370
    -3
390
F
  0
LAYER
  5
97
330
2
100
AcDbSymbolTableRecord
100
AcDbLayerTableRecord
  2
Layer83
 70
     0
 62
     7
  6
Continuous
370
    -3
390
F
  0
LAYER
  5
98
330
2
100
AcDbSymbolTableRecord
100
AcDbLayerTableRecord
  2
Layer84
 70
     0
 62
     7
  6
Continuous
370
    -3
390
F
  0
LAYER
  5
99
330
2
100
AcDbSymbolTableRecord
100
AcDbLayerTableRecord
  2
Layer85
 70
     0
 62
     7
  6
Continuous
370
    -3
390
F
  0
LAYER
  5
9A
330
2
100
AcDbSymbolTableRecord
100
AcDbLayerTableRecord
  2
Layer86
 70
     0
 62
     7
  6
Continuous
370
    -3
390
F
  0
LAYER
  5
9B
330
2
100
AcDbSymbolTableRecord
100
AcDbLayerTableRecord
  2
Layer87
 70
     0
 62
     7
  6
Continuous
370
    -3
390
F
  0
LAYER
  5
9C
330
2
100
AcDbSymbolTableRecord
100
AcDbLayerTableRecord
  2
Layer88
 70
     0
 62
     7
  6
Continuous
370
    -3
390
F
  0
LAYER
  5
9D
330
2
100
AcDbSymbolTableRecord
100
AcDbLayerTableRecord
  2
Layer89
 70
     0
 62
     7
  6
Continuous
370
    -3
390
F
  0
LAYER
  5
9E
330
2
100
AcDbSymbolTableRecord
100
AcDbLayerTableRecord
  2
Layer90
 70
     0
 62
     7
  6
Continuous
370
    -3
390
F
  0
LAYER
  5
9F
330
2
100
AcDbSymbolTableRecord
100
AcDbLayerTableRecord
  2
Layer91
 70
     0
 62
     7
  6
Continuous
370
    -3
390
F
  0
LAYER
  5
A0
330
2
100
AcDbSymbolTableRecord
100
AcDbLayerTableRecord
  2
Layer92
 70
     0
 62
     7
  6
Continuous
370
    -3
390
F
  0
LAYER
  5
A1
330
2
100
AcDbSymbolTableRecord
100
AcDbLayerTableRecord
  2
Layer93
 70
     0
 62
     7
  6
Continuous
370
    -3
390
F
  0
LAYER
  5
A2
330
2
100
AcDbSymbolTableRecord
100
AcDbLayerTableRecord
  2
Layer94
 70
     0
 62
     7
  6
Continuous
370
    -3
390
F
  0
LAYER
  5
A3
330
2
100
AcDbSymbolTableRecord
100
AcDbLayerTableRecord
  2
Layer95
 70
     0
 62
     7
  6
Continuous
370
    -3
390
F
  0
LAYER
  5
A4
330
2
100
AcDbSymbolTableRecord
100
AcDbLayerTableRecord
  2
Layer96
 70
     0
 62
     7
  6
Continuous
370
    -3
390
F
  0
LAYER
  5
A5
330
2
100
AcDbSymbolTableRecord
100
AcDbLayerTableRecord
  2
Layer97
 70
     0
 62
     7
  6
Continuous
370
    -3
390
F
  0
LAYER
  5
A6
330
2
100
AcDbSymbolTableRecord
100
AcDbLayerTableRecord
  2
Layer98
 70
     0
 62
     7
  6
Continuous
370
    -3
390
F
  0
LAYER
  5
A7
330
2
100
AcDbSymbolTableRecord
100
AcDbLayerTableRecord
  2
Layer99
 70
     0
 62
     7
  6
Continuous
370
    -3
390
F
  0
LAYER
  5
A8
330
2
100
AcDbSymbolTableRecord
100
AcDbLayerTableRecord
  2
Layer100
 70
     0
 62
     7
  6
Continuous
370
    -3
390
F
  0
LAYER
  5
A9
330
2
100
AcDbSymbolTableRecord
100
AcDbLayerTableRecord
  2
Layer101
 70
     0
 62
     7
  6
Continuous
370
    -3
390
F
  0
LAYER
  5
AA
330
2
100
AcDbSymbolTableRecord
100
AcDbLayerTableRecord
  2
Layer102
 70
     0
 62
     7
  6
Continuous
370
    -3
390
F
  0
LAYER
  5
AB
330
2
100
AcDbSymbolTableRecord
100
AcDbLayerTableRecord
  2
Layer103
 70
     0
 62
     7
  6
Continuous
370
    -3
390
F
  0
LAYER
  5
AC
330
2
100
AcDbSymbolTableRecord
100
AcDbLayerTableRecord
  2
Layer104
 70
     0
 62
     7
  6
Continuous
370
    -3
390
F
  0
LAYER
  5
AD
330
2
100
AcDbSymbolTableRecord
100
AcDbLayerTableRecord
  2
Layer105
 70
     0
 62
     7
  6
Continuous
370
    -3
390
F
  0
LAYER
  5
AE
330
2
100
AcDbSymbolTableRecord
100
AcDbLayerTableRecord
  2
Layer106
 70
     0
 62
     7
  6
Continuous
370
    -3
390
F
  0
LAYER
  5
AF
330
2
100
AcDbSymbolTableRecord
100
AcDbLayerTableRecord
  2
Layer107
 70
     0
 62
     7
  6
Continuous
370
    -3
390
F
  0
LAYER
  5
B0
330
2
100
AcDbSymbolTableRecord
100
AcDbLayerTableRecord
  2
Layer108
 70
     0
 62
     7
  6
Continuous
370
    -3
390
F
  0
LAYER
  5
B1
330
2
100
AcDbSymbolTableRecord
100
AcDbLayerTableRecord
  2
Layer109
 70
     0
 62
     7
  6
Continuous
370
    -3
390
F
  0
LAYER
  5
B2
330
2
100
AcDbSymbolTableRecord
100
AcDbLayerTableRecord
  2
Layer110
 70
     0
 62
     7
  6
Continuous
370
    -3
390
F
  0
LAYER
  5
B3
330
2
100
AcDbSymbolTableRecord
100
AcDbLayerTableRecord
  2
Layer111
 70
     0
 62
     7
  6
Continuous
370
    -3
390
F
  0
LAYER
  5
B4
330
2
100
AcDbSymbolTableRecord
100
AcDbLayerTableRecord
  2
Layer112
 70
     0
 62
     7
  6
Continuous
370
    -3
390
F
  0
LAYER
  5
B5
330
2
100
AcDbSymbolTableRecord
100
AcDbLayerTableRecord
  2
Layer113
 70
     0
 62
     7
  6
Continuous
370
    -3
390
F
  0
LAYER
  5
B6
330
2
100
AcDbSymbolTableRecord
100
AcDbLayerTableRecord
  2
Layer114
 70
     0
 62
     7
  6
Continuous
370
    -3
390
F
  0
LAYER
  5
B7
330
2
100
AcDbSymbolTableRecord
100
AcDbLayerTableRecord
  2
Layer115
 70
     0
 62
     7
  6
Continuous
370
    -3
390
F
  0
LAYER
  5
B8
330
2
100
AcDbSymbolTableRecord
100
AcDbLayerTableRecord
  2
Layer116
 70
     0
 62
     7
  6
Continuous
370
    -3
390
F
  0
LAYER
  5
B9
330
2
100
AcDbSymbolTableRecord
100
AcDbLayerTableRecord
  2
Layer117
 70
     0
 62
     7
  6
Continuous
370
    -3
390
F
  0
LAYER
  5
BA
330
2
100
AcDbSymbolTableRecord
100
AcDbLayerTableRecord
  2
Layer118
 70
     0
 62
     7
  6
Continuous
370
    -3
390
F
  0
LAYER
  5
BB
330
2
100
AcDbSymbolTableRecord
100
AcDbLayerTableRecord
  2
Layer119
 70
     0
 62
     7
  6
Continuous
370
    -3
390
F
  0
LAYER
  5
BC
330
2
100
AcDbSymbolTableRecord
100
AcDbLayerTableRecord
  2
Layer120
 70
     0
 62
     7
  6
Continuous
370
    -3
390
F
  0
LAYER
  5
BD
330
2
100
AcDbSymbolTableRecord
100
AcDbLayerTableRecord
  2
Layer121
 70
     0
 62
     7
  6
Continuous
370
    -3
390
F
  0
LAYER
  5
BE
330
2
100
AcDbSymbolTableRecord
100
AcDbLayerTableRecord
  2
Layer122
 70
     0
 62
     7
  6
Continuous
370
    -3
390
F
  0
LAYER
  5
BF
330
2
100
AcDbSymbolTableRecord
100
AcDbLayerTableRecord
  2
Layer123
 70
     0
 62
     7
  6
Continuous
370
    -3
390
F
  0
LAYER
  5
C0
330
2
100
AcDbSymbolTableRecord
100
AcDbLayerTableRecord
  2
Layer124
 70
     0
 62
     7
  6
Continuous
370
    -3
390
F
  0
LAYER
  5
C1
330
2
100
AcDbSymbolTableRecord
100
AcDbLayerTableRecord
  2
Layer125
 70
     0
 62
     7
  6
Continuous
370
    -3
390
F
  0
LAYER
  5
C2
330
2
100
AcDbSymbolTableRecord
100
AcDbLayerTableRecord
  2
Layer126
 70
     0
 62
     7
  6
Continuous
370
    -3
390
F
  0
LAYER
  5
C3
330
2
100
AcDbSymbolTableRecord
100
AcDbLayerTableRecord
  2
Layer127
 70
     0
 62
     7
  6
Continuous
370
    -3
390
F
  0
LAYER
  5
C4
330
2
100
AcDbSymbolTableRecord
100
AcDbLayerTableRecord
  2
Layer128
 70
     0
 62
     7
  6
Continuous
370
    -3
390
F
  0
LAYER
  5
C5
330
2
100
AcDbSymbolTableRecord
100
AcDbLayerTableRecord
  2
Layer129
 70
     0
 62
     7
  6
Continuous
370
    -3
390
F
  0
LAYER
  5
C6
330
2
100
AcDbSymbolTableRecord
100
AcDbLayerTableRecord
  2
Layer130
 70
     0
 62
     7
  6
Continuous
370
    -3
390
F
  0
LAYER
  5
C7
330
2
100
AcDbSymbolTableRecord
100
AcDbLayerTableRecord
  2
Layer131
 70
     0
 62
     7
  6
Continuous
370
    -3
390
F
  0
LAYER
  5
C8
330
2
100
AcDbSymbolTableRecord
100
AcDbLayerTableRecord
  2
Layer132
 70
     0
 62
     7
  6
Continuous
370
    -3
390
F
  0
LAYER
  5
C9
330
2
100
AcDbSymbolTableRecord
100
AcDbLayerTableRecord
  2
Layer133
 70
     0
 62
     7
  6
Continuous
370
    -3
390
F
  0
LAYER
  5
CA
330
2
100
AcDbSymbolTableRecord
100
AcDbLayerTableRecord
  2
Layer134
 70
     0
 62
     7
  6
Continuous
370
    -3
390
F
  0
LAYER
  5
CB
330
2
100
AcDbSymbolTableRecord
100
AcDbLayerTableRecord
  2
Layer135
 70
     0
 62
     7
  6
Continuous
370
    -3
390
F
  0
LAYER
  5
CC
330
2
100
AcDbSymbolTableRecord
100
AcDbLayerTableRecord
  2
Layer136
 70
     0
 62
     7
  6
Continuous
370
    -3
390
F
  0
LAYER
  5
CD
330
2
100
AcDbSymbolTableRecord
100
AcDbLayerTableRecord
  2
Layer137
 70
     0
 62
     7
  6
Continuous
370
    -3
390
F
  0
LAYER
  5
CE
330
2
100
AcDbSymbolTableRecord
100
AcDbLayerTableRecord
  2
Layer138
 70
     0
 62
     7
  6
Continuous
370
    -3
390
F
  0
LAYER
  5
CF
330
2
100
AcDbSymbolTableRecord
100
AcDbLayerTableRecord
  2
Layer139
 70
     0
 62
     7
  6
Continuous
370
    -3
390
F
  0
LAYER
  5
D0
330
2
100
AcDbSymbolTableRecord
100
AcDbLayerTableRecord
  2
Layer140
 70
     0
 62
     7
  6
Continuous
370
    -3
390
F
  0
LAYER
  5
D1
330
2
100
AcDbSymbolTableRecord
100
AcDbLayerTableRecord
  2
Layer141
 70
     0
 62
     7
  6
Continuous
370
    -3
390
F
  0
LAYER
  5
D2
330
2
100
AcDbSymbolTableRecord
100
AcDbLayerTableRecord
  2
Layer142
 70
     0
 62
     7
  6
Continuous
370
    -3
390
F
  0
LAYER
  5
D3
330
2
100
AcDbSymbolTableRecord
100
AcDbLayerTableRecord
  2
Layer143
 70
     0
 62
     7
  6
Continuous
370
    -3
390
F
  0
LAYER
  5
D4
330
2
100
AcDbSymbolTableRecord
100
AcDbLayerTableRecord
  2
Layer144
 70
     0
 62
     7
  6
Continuous
370
    -3
390
F
  0
LAYER
  5
D5
330
2
100
AcDbSymbolTableRecord
100
AcDbLayerTableRecord
  2
Layer145
 70
     0
 62
     7
  6
Continuous
370
    -3
390
F
  0
LAYER
  5
D6
330
2
100
AcDbSymbolTableRecord
100
AcDbLayerTableRecord
  2
Layer146
 70
     0
 62
     7
  6
Continuous
370
    -3
390
F
  0
LAYER
  5
D7
330
2
100
AcDbSymbolTableRecord
100
AcDbLayerTableRecord
  2
Layer147
 70
     0
 62
     7
  6
Continuous
370
    -3
390
F
  0
LAYER
  5
D8
330
2
100
AcDbSymbolTableRecord
100
AcDbLayerTableRecord
  2
Layer148
 70
     0
 62
     7
  6
Continuous
370
    -3
390
F
  0
LAYER
  5
D9
330
2
100
AcDbSymbolTableRecord
100
AcDbLayerTableRecord
  2
Layer149
 70
     0
 62
     7
  6
Continuous
370
    -3
390
F
  0
LAYER
  5
DA
330
2
100
AcDbSymbolTableRecord
100
AcDbLayerTableRecord
  2
Layer150
 70
     0
 62
     7
  6
Continuous
370
    -3
390
F
  0
LAYER
  5
DB
330
2
100
AcDbSymbolTableRecord
100
AcDbLayerTableRecord
  2
Layer151
 70
     0
 62
     7
  6
Continuous
370
    -3
390
F
  0
LAYER
  5
DC
330
2
100
AcDbSymbolTableRecord
100
AcDbLayerTableRecord
  2
Layer152
 70
     0
 62
     7
  6
Continuous
370
    -3
390
F
  0
LAYER
  5
DD
330
2
100
AcDbSymbolTableRecord
100
AcDbLayerTableRecord
  2
Layer153
 70
     0
 62
     7
  6
Continuous
370
    -3
390
F
  0
LAYER
  5
DE
330
2
100
AcDbSymbolTableRecord
100
AcDbLayerTableRecord
  2
Layer154
 70
     0
 62
     7
  6
Continuous
370
    -3
390
F
  0
LAYER
  5
DF
330
2
100
AcDbSymbolTableRecord
100
AcDbLayerTableRecord
  2
Layer155
 70
     0
 62
     7
  6
Continuous
370
    -3
390
F
  0
LAYER
  5
E0
330
2
100
AcDbSymbolTableRecord
100
AcDbLayerTableRecord
  2
Layer156
 70
     0
 62
     7
  6
Continuous
370
    -3
390
F
  0
LAYER
  5
E1
330
2
100
AcDbSymbolTableRecord
100
AcDbLayerTableRecord
  2
Layer157
 70
     0
 62
     7
  6
Continuous
370
    -3
390
F
  0
LAYER
  5
E2
330
2
100
AcDbSymbolTableRecord
100
AcDbLayerTableRecord
  2
Layer158
 70
     0
 62
     7
  6
Continuous
370
    -3
390
F
  0
LAYER
  5
E3
330
2
100
AcDbSymbolTableRecord
100
AcDbLayerTableRecord
  2
Layer159
 70
     0
 62
     7
  6
Continuous
370
    -3
390
F
  0
LAYER
  5
E4
330
2
100
AcDbSymbolTableRecord
100
AcDbLayerTableRecord
  2
Layer160
 70
     0
 62
     7
  6
Continuous
370
    -3
390
F
  0
LAYER
  5
E5
330
2
100
AcDbSymbolTableRecord
100
AcDbLayerTableRecord
  2
Layer161
 70
     0
 62
     7
  6
Continuous
370
    -3
390
F
  0
LAYER
  5
E6
330
2
100
AcDbSymbolTableRecord
100
AcDbLayerTableRecord
  2
Layer162
 70
     0
 62
     7
  6
Continuous
370
    -3
390
F
  0
LAYER
  5
E7
330
2
100
AcDbSymbolTableRecord
100
AcDbLayerTableRecord
  2
Layer163
 70
     0
 62
     7
  6
Continuous
370
    -3
390
F
  0
LAYER
  5
E8
330
2
100
AcDbSymbolTableRecord
100
AcDbLayerTableRecord
  2
Layer164
 70
     0
 62
     7
  6
Continuous
370
    -3
390
F
  0
LAYER
  5
E9
330
2
100
AcDbSymbolTableRecord
100
AcDbLayerTableRecord
  2
Layer165
 70
     0
 62
     7
  6
Continuous
370
    -3
390
F
  0
LAYER
  5
EA
330
2
100
AcDbSymbolTableRecord
100
AcDbLayerTableRecord
  2
Layer166
 70
     0
 62
     7
  6
Continuous
370
    -3
390
F
  0
LAYER
  5
EB
330
2
100
AcDbSymbolTableRecord
100
AcDbLayerTableRecord
  2
Layer167
 70
     0
 62
     7
  6
Continuous
370
    -3
390
F
  0
LAYER
  5
EC
330
2
100
AcDbSymbolTableRecord
100
AcDbLayerTableRecord
  2
Layer168
 70
     0
 62
     7
  6
Continuous
370
    -3
390
F
  0
LAYER
  5
ED
330
2
100
AcDbSymbolTableRecord
100
AcDbLayerTableRecord
  2
Layer169
 70
     0
 62
     7
  6
Continuous
370
    -3
390
F
  0
LAYER
  5
EE
330
2
100
AcDbSymbolTableRecord
100
AcDbLayerTableRecord
  2
Layer170
 70
     0
 62
     7
  6
Continuous
370
    -3
390
F
  0
LAYER
  5
EF
330
2
100
AcDbSymbolTableRecord
100
AcDbLayerTableRecord
  2
Layer171
 70
     0
 62
     7
  6
Continuous
370
    -3
390
F
  0
LAYER
  5
F0
330
2
100
AcDbSymbolTableRecord
100
AcDbLayerTableRecord
  2
Layer172
 70
     0
 62
     7
  6
Continuous
370
    -3
390
F
  0
LAYER
  5
F1
330
2
100
AcDbSymbolTableRecord
100
AcDbLayerTableRecord
  2
Layer173
 70
     0
 62
     7
  6
Continuous
370
    -3
390
F
  0
LAYER
  5
F2
330
2
100
AcDbSymbolTableRecord
100
AcDbLayerTableRecord
  2
Layer174
 70
     0
 62
     7
  6
Continuous
370
    -3
390
F
  0
LAYER
  5
F3
330
2
100
AcDbSymbolTableRecord
100
AcDbLayerTableRecord
  2
Layer175
 70
     0
 62
     7
  6
Continuous
370
    -3
390
F
  0
LAYER
  5
F4
330
2
100
AcDbSymbolTableRecord
100
AcDbLayerTableRecord
  2
Layer176
 70
     0
 62
     7
  6
Continuous
370
    -3
390
F
  0
LAYER
  5
F5
330
2
100
AcDbSymbolTableRecord
100
AcDbLayerTableRecord
  2
Layer177
 70
     0
 62
     7
  6
Continuous
370
    -3
390
F
  0
LAYER
  5
F6
330
2
100
AcDbSymbolTableRecord
100
AcDbLayerTableRecord
  2
Layer178
 70
     0
 62
     7
  6
Continuous
370
    -3
390
F
  0
LAYER
  5
F7
330
2
100
AcDbSymbolTableRecord
100
AcDbLayerTableRecord
  2
Layer179
 70
     0
 62
     7
  6
Continuous
370
    -3
390
F
  0
LAYER
  5
F8
330
2
100
AcDbSymbolTableRecord
100
AcDbLayerTableRecord
  2
Layer180
 70
     0
 62
     7
  6
Continuous
370
    -3
390
F
  0
LAYER
  5
F9
330
2
100
AcDbSymbolTableRecord
100
AcDbLayerTableRecord
  2
Layer181
 70
     0
 62
     7
  6
Continuous
370
    -3
390
F
  0
LAYER
  5
FA
330
2
100
AcDbSymbolTableRecord
100
AcDbLayerTableRecord
  2
Layer182
 70
     0
 62
     7
  6
Continuous
370
    -3
390
F
  0
LAYER
  5
FB
330
2
100
AcDbSymbolTableRecord
100
AcDbLayerTableRecord
  2
Layer183
 70
     0
 62
     7
  6
Continuous
370
    -3
390
F
  0
LAYER
  5
FC
330
2
100
AcDbSymbolTableRecord
100
AcDbLayerTableRecord
  2
Layer184
 70
     0
 62
     7
  6
Continuous
370
    -3
390
F
  0
LAYER
  5
FD
330
2
100
AcDbSymbolTableRecord
100
AcDbLayerTableRecord
  2
Layer185
 70
     0
 62
     7
  6
Continuous
370
    -3
390
F
  0
LAYER
  5
FE
330
2
100
AcDbSymbolTableRecord
100
AcDbLayerTableRecord
  2
Layer186
 70
     0
 62
     7
  6
Continuous
370
    -3
390
F
  0
LAYER
  5
FF
330
2
100
AcDbSymbolTableRecord
100
AcDbLayerTableRecord
  2
Layer187
 70
     0
 62
     7
  6
Continuous
370
    -3
390
F
  0
LAYER
  5
100
330
2
100
AcDbSymbolTableRecord
100
AcDbLayerTableRecord
  2
Layer188
 70
     0
 62
     7
  6
Continuous
370
    -3
390
F
  0
LAYER
  5
101
330
2
100
AcDbSymbolTableRecord
100
AcDbLayerTableRecord
  2
Layer189
 70
     0
 62
     7
  6
Continuous
370
    -3
390
F
  0
LAYER
  5
102
330
2
100
AcDbSymbolTableRecord
100
AcDbLayerTableRecord
  2
Layer190
 70
     0
 62
     7
  6
Continuous
370
    -3
390
F
  0
LAYER
  5
103
330
2
100
AcDbSymbolTableRecord
100
AcDbLayerTableRecord
  2
Layer191
 70
     0
 62
     7
  6
Continuous
370
    -3
390
F
  0
LAYER
  5
104
330
2
100
AcDbSymbolTableRecord
100
AcDbLayerTableRecord
  2
Layer192
 70
     0
 62
     7
  6
Continuous
370
    -3
390
F
  0
LAYER
  5
105
330
2
100
AcDbSymbolTableRecord
100
AcDbLayerTableRecord
  2
Layer193
 70
     0
 62
     7
  6
Continuous
370
    -3
390
F
  0
LAYER
  5
106
330
2
100
AcDbSymbolTableRecord
100
AcDbLayerTableRecord
  2
Layer194
 70
     0
 62
     7
  6
Continuous
370
    -3
390
F
  0
LAYER
  5
107
330
2
100
AcDbSymbolTableRecord
100
AcDbLayerTableRecord
  2
Layer195
 70
     0
 62
     7
  6
Continuous
370
    -3
390
F
  0
LAYER
  5
108
330
2
100
AcDbSymbolTableRecord
100
AcDbLayerTableRecord
  2
Layer196
 70
     0
 62
     7
  6
Continuous
370
    -3
390
F
  0
LAYER
  5
109
330
2
100
AcDbSymbolTableRecord
100
AcDbLayerTableRecord
  2
Layer197
 70
     0
 62
     7
  6
Continuous
370
    -3
390
F
  0
LAYER
  5
10A
330
2
100
AcDbSymbolTableRecord
100
AcDbLayerTableRecord
  2
Layer198
 70
     0
 62
     7
  6
Continuous
370
    -3
390
F
  0
LAYER
  5
10B
330
2
100
AcDbSymbolTableRecord
100
AcDbLayerTableRecord
  2
Layer199
 70
     0
 62
     7
  6
Continuous
370
    -3
390
F
  0
LAYER
  5
10C
330
2
100
AcDbSymbolTableRecord
100
AcDbLayerTableRecord
  2
Layer200
 70
     0
 62
     7
  6
Continuous
370
    -3
390
F
  0
LAYER
  5
10D
330
2
100
AcDbSymbolTableRecord
100
AcDbLayerTableRecord
  2
Layer201
 70
     0
 62
     7
  6
Continuous
370
    -3
390
F
  0
LAYER
  5
10E
330
2
100
AcDbSymbolTableRecord
100
AcDbLayerTableRecord
  2
Layer202
 70
     0
 62
     7
  6
Continuous
370
    -3
390
F
  0
LAYER
  5
10F
330
2
100
AcDbSymbolTableRecord
100
AcDbLayerTableRecord
  2
Layer203
 70
     0
 62
     7
  6
Continuous
370
    -3
390
F
  0
LAYER
  5
110
330
2
100
AcDbSymbolTableRecord
100
AcDbLayerTableRecord
  2
Layer204
 70
     0
 62
     7
  6
Continuous
370
    -3
390
F
  0
LAYER
  5
111
330
2
100
AcDbSymbolTableRecord
100
AcDbLayerTableRecord
  2
Layer205
 70
     0
 62
     7
  6
Continuous
370
    -3
390
F
  0
LAYER
  5
112
330
2
100
AcDbSymbolTableRecord
100
AcDbLayerTableRecord
  2
Layer206
 70
     0
 62
     7
  6
Continuous
370
    -3
390
F
  0
LAYER
  5
113
330
2
100
AcDbSymbolTableRecord
100
AcDbLayerTableRecord
  2
Layer207
 70
     0
 62
     7
  6
Continuous
370
    -3
390
F
  0
LAYER
  5
114
330
2
100
AcDbSymbolTableRecord
100
AcDbLayerTableRecord
  2
Layer208
 70
     0
 62
     7
  6
Continuous
370
    -3
390
F
  0
LAYER
  5
115
330
2
100
AcDbSymbolTableRecord
100
AcDbLayerTableRecord
  2
Layer209
 70
     0
 62
     7
  6
Continuous
370
    -3
390
F
  0
LAYER
  5
116
330
2
100
AcDbSymbolTableRecord
100
AcDbLayerTableRecord
  2
Layer210
 70
     0
 62
     7
  6
Continuous
370
    -3
390
F
  0
LAYER
  5
117
330
2
100
AcDbSymbolTableRecord
100
AcDbLayerTableRecord
  2
Layer211
 70
     0
 62
     7
  6
Continuous
370
    -3
390
F
  0
LAYER
  5
118
330
2
100
AcDbSymbolTableRecord
100
AcDbLayerTableRecord
  2
Layer212
 70
     0
 62
     7
  6
Continuous
370
    -3
390
F
  0
LAYER
  5
119
330
2
100
AcDbSymbolTableRecord
100
AcDbLayerTableRecord
  2
Layer213
 70
     0
 62
     7
  6
Continuous
370
    -3
390
F
  0
LAYER
  5
11A
330
2
100
AcDbSymbolTableRecord
100
AcDbLayerTableRecord
  2
Layer214
 70
     0
 62
     7
  6
Continuous
370
    -3
390
F
  0
LAYER
  5
11B
330
2
100
AcDbSymbolTableRecord
100
AcDbLayerTableRecord
  2
Layer215
 70
     0
 62
     7
  6
Continuous
370
    -3
390
F
  0
LAYER
  5
11C
330
2
100
AcDbSymbolTableRecord
100
AcDbLayerTableRecord
  2
Layer216
 70
     0
 62
     7
  6
Continuous
370
    -3
390
F
  0
LAYER
  5
11D
330
2
100
AcDbSymbolTableRecord
100
AcDbLayerTableRecord
  2
Layer217
 70
     0
 62
     7
  6
Continuous
370
    -3
390
F
  0
LAYER
  5
11E
330
2
100
AcDbSymbolTableRecord
100
AcDbLayerTableRecord
  2
Layer218
 70
     0
 62
     7
  6
Continuous
370
    -3
390
F
  0
LAYER
  5
11F
330
2
100
AcDbSymbolTableRecord
100
AcDbLayerTableRecord
  2
Layer219
 70
     0
 62
     7
  6
Continuous
370
    -3
390
F
  0
LAYER
  5
120
330
2
100
AcDbSymbolTableRecord
100
AcDbLayerTableRecord
  2
Layer220
 70
     0
 62
     7
  6
Continuous
370
    -3
390
F
  0
LAYER
  5
121
330
2
100
AcDbSymbolTableRecord
100
AcDbLayerTableRecord
  2
Layer221
 70
     0
 62
     7
  6
Continuous
370
    -3
390
F
  0
LAYER
  5
122
330
2
100
AcDbSymbolTableRecord
100
AcDbLayerTableRecord
  2
Layer222
 70
     0
 62
     7
  6
Continuous
370
    -3
390
F
  0
LAYER
  5
123
330
2
100
AcDbSymbolTableRecord
100
AcDbLayerTableRecord
  2
Layer223
 70
     0
 62
     7
  6
Continuous
370
    -3
390
F
  0
LAYER
  5
124
330
2
100
AcDbSymbolTableRecord
100
AcDbLayerTableRecord
  2
Layer224
 70
     0
 62
     7
  6
Continuous
370
    -3
390
F
  0
LAYER
  5
125
330
2
100
AcDbSymbolTableRecord
100
AcDbLayerTableRecord
  2
Layer225
 70
     0
 62
     7
  6
Continuous
370
    -3
390
F
  0
LAYER
  5
126
330
2
100
AcDbSymbolTableRecord
100
AcDbLayerTableRecord
  2
Layer226
 70
     0
 62
     7
  6
Continuous
370
    -3
390
F
  0
LAYER
  5
127
330
2
100
AcDbSymbolTableRecord
100
AcDbLayerTableRecord
  2
Layer227
 70
     0
 62
     7
  6
Continuous
370
    -3
390
F
  0
LAYER
  5
128
330
2
100
AcDbSymbolTableRecord
100
AcDbLayerTableRecord
  2
Layer228
 70
     0
 62
     7
  6
Continuous
370
    -3
390
F
  0
LAYER
  5
129
330
2
100
AcDbSymbolTableRecord
100
AcDbLayerTableRecord
  2
Layer229
 70
     0
 62
     7
  6
Continuous
370
    -3
390
F
  0
LAYER
  5
12A
330
2
100
AcDbSymbolTableRecord
100
AcDbLayerTableRecord
  2
Layer230
 70
     0
 62
     7
  6
Continuous
370
    -3
390
F
  0
LAYER
  5
12B
330
2
100
AcDbSymbolTableRecord
100
AcDbLayerTableRecord
  2
Layer231
 70
     0
 62
     7
  6
Continuous
370
    -3
390
F
  0
LAYER
  5
12C
330
2
100
AcDbSymbolTableRecord
100
AcDbLayerTableRecord
  2
Layer232
 70
     0
 62
     7
  6
Continuous
370
    -3
390
F
  0
LAYER
  5
12D
330
2
100
AcDbSymbolTableRecord
100
AcDbLayerTableRecord
  2
Layer233
 70
     0
 62
     7
  6
Continuous
370
    -3
390
F
  0
LAYER
  5
12E
330
2
100
AcDbSymbolTableRecord
100
AcDbLayerTableRecord
  2
Layer234
 70
     0
 62
     7
  6
Continuous
370
    -3
390
F
  0
LAYER
  5
12F
330
2
100
AcDbSymbolTableRecord
100
AcDbLayerTableRecord
  2
Layer235
 70
     0
 62
     7
  6
Continuous
370
    -3
390
F
  0
LAYER
  5
130
330
2
100
AcDbSymbolTableRecord
100
AcDbLayerTableRecord
  2
Layer236
 70
     0
 62
     7
  6
Continuous
370
    -3
390
F
  0
LAYER
  5
131
330
2
100
AcDbSymbolTableRecord
100
AcDbLayerTableRecord
  2
Layer237
 70
     0
 62
     7
  6
Continuous
370
    -3
390
F
  0
LAYER
  5
132
330
2
100
AcDbSymbolTableRecord
100
AcDbLayerTableRecord
  2
Layer238
 70
     0
 62
     7
  6
Continuous
370
    -3
390
F
  0
LAYER
  5
133
330
2
100
AcDbSymbolTableRecord
100
AcDbLayerTableRecord
  2
Layer239
 70
     0
 62
     7
  6
Continuous
370
    -3
390
F
  0
LAYER
  5
134
330
2
100
AcDbSymbolTableRecord
100
AcDbLayerTableRecord
  2
Layer240
 70
     0
 62
     7
  6
Continuous
370
    -3
390
F
  0
LAYER
  5
135
330
2
100
AcDbSymbolTableRecord
100
AcDbLayerTableRecord
  2
Layer241
 70
     0
 62
     7
  6
Continuous
370
    -3
390
F
  0
LAYER
  5
136
330
2
100
AcDbSymbolTableRecord
100
AcDbLayerTableRecord
  2
Layer242
 70
     0
 62
     7
  6
Continuous
370
    -3
390
F
  0
LAYER
  5
137
330
2
100
AcDbSymbolTableRecord
100
AcDbLayerTableRecord
  2
Layer243
 70
     0
 62
     7
  6
Continuous
370
    -3
390
F
  0
LAYER
  5
138
330
2
100
AcDbSymbolTableRecord
100
AcDbLayerTableRecord
  2
Layer244
 70
     0
 62
     7
  6
Continuous
370
    -3
390
F
  0
LAYER
  5
139
330
2
100
AcDbSymbolTableRecord
100
AcDbLayerTableRecord
  2
Layer245
 70
     0
 62
     7
  6
Continuous
370
    -3
390
F
  0
LAYER
  5
13A
330
2
100
AcDbSymbolTableRecord
100
AcDbLayerTableRecord
  2
Layer246
 70
     0
 62
     7
  6
Continuous
370
    -3
390
F
  0
LAYER
  5
13B
330
2
100
AcDbSymbolTableRecord
100
AcDbLayerTableRecord
  2
Layer247
 70
     0
 62
     7
  6
Continuous
370
    -3
390
F
  0
LAYER
  5
13C
330
2
100
AcDbSymbolTableRecord
100
AcDbLayerTableRecord
  2
Layer248
 70
     0
 62
     7
  6
Continuous
370
    -3
390
F
  0
LAYER
  5
13D
330
2
100
AcDbSymbolTableRecord
100
AcDbLayerTableRecord
  2
Layer249
 70
     0
 62
     7
  6
Continuous
370
    -3
390
F
  0
LAYER
  5
13E
330
2
100
AcDbSymbolTableRecord
100
AcDbLayerTableRecord
  2
Layer250
 70
     0
 62
     7
  6
Continuous
370
    -3
390
F
  0
LAYER
  5
13F
330
2
100
AcDbSymbolTableRecord
100
AcDbLayerTableRecord
  2
Layer251
 70
     0
 62
     7
  6
Continuous
370
    -3
390
F
  0
LAYER
  5
140
330
2
100
AcDbSymbolTableRecord
100
AcDbLayerTableRecord
  2
Layer252
 70
     0
 62
     7
  6
Continuous
370
    -3
390
F
  0
LAYER
  5
141
330
2
100
AcDbSymbolTableRecord
100
AcDbLayerTableRecord
  2
Layer253
 70
     0
 62
     7
  6
Continuous
370
    -3
390
F
  0
LAYER
  5
142
330
2
100
AcDbSymbolTableRecord
100
AcDbLayerTableRecord
  2
Layer254
 70
     0
 62
     7
  6
Continuous
370
    -3
390
F
  0
LAYER
  5
143
330
2
100
AcDbSymbolTableRecord
100
AcDbLayerTableRecord
  2
Layer255
 70
     0
 62
     7
  6
Continuous
370
    -3
390
F
  0
ENDTAB
  0
TABLE
  2
STYLE
  5
3
330
0
100
AcDbSymbolTable
 70
     4
  0
STYLE
  5
11
330
3
100
AcDbSymbolTableRecord
100
AcDbTextStyleTableRecord
  2
Standard
 70
     0
 40
0.0
 41
1.0
 50
0.0
 71
     0
 42
2.5
  3
txt
  4

  0
STYLE
  5
41
330
3
100
AcDbSymbolTableRecord
100
AcDbTextStyleTableRecord
  2
Arial
 70
     0
 40
0.0
 41
1.0
 50
0.0
 71
     0
 42
0.2
  3
arial.ttf
  4

1001
ACAD
1000
Arial
1071
       34
  0
STYLE
  5
42
330
3
100
AcDbSymbolTableRecord
100
AcDbTextStyleTableRecord
  2
Arial Black
 70
     0
 40
0.0
 41
1.0
 50
0.0
 71
     0
 42
0.2
  3
ariblk.ttf
  4

1001
ACAD
1000
Arial Black
1071
       34
  0
STYLE
  5
44
330
3
100
AcDbSymbolTableRecord
100
AcDbTextStyleTableRecord
  2
Toleranzfont
 70
     0
 40
0.0
 41
1.0
 50
0.0
 71
     0
 42
0.2
  3
IGES1003.SHX
  4

  0
ENDTAB
  0
TABLE
  2
VIEW
  5
6
330
0
100
AcDbSymbolTable
 70
     0
  0
ENDTAB
  0
TABLE
  2
UCS
  5
7
330
0
100
AcDbSymbolTable
 70
     0
  0
ENDTAB
  0
TABLE
  2
APPID
  5
9
330
0
100
AcDbSymbolTable
 70
     1
  0
APPID
  5
12
330
9
100
AcDbSymbolTableRecord
100
AcDbRegAppTableRecord
  2
ACAD
 70
     0
  0
ENDTAB
  0
TABLE
  2
DIMSTYLE
  5
A
330
0
100
AcDbSymbolTable
 70
     1
100
AcDbDimStyleTable
  0
DIMSTYLE
105
27
102
{ACAD_REACTORS
330
230
330
23B
330
247
330
255
330
261
102
}
330
A
100
AcDbSymbolTableRecord
100
AcDbDimStyleTableRecord
  2
ISO-25
 70
     0
 41
2.5
 42
0.625
 43
3.75
 44
1.25
 73
     0
 74
     0
 77
     1
 78
     8
140
2.5
141
2.5
143
0.03937007874
147
0.625
171
     3
172
     1
178
     0
271
     2
272
     2
274
     3
278
    44
283
     0
284
     8
340
11
  0
ENDTAB
  0
TABLE
  2
BLOCK_RECORD
  5
1
330
0
100
AcDbSymbolTable
 70
    10
  0
BLOCK_RECORD
  5
1F
330
1
100
AcDbSymbolTableRecord
100
AcDbBlockTableRecord
  2
*Model_Space
340
22
  0
BLOCK_RECORD
  5
1B
330
1
100
AcDbSymbolTableRecord
100
AcDbBlockTableRecord
  2
*Paper_Space
340
1E
  0
BLOCK_RECORD
  5
23
330
1
100
AcDbSymbolTableRecord
100
AcDbBlockTableRecord
  2
*Paper_Space0
340
26
  0
BLOCK_RECORD
  5
146
330
1
100
AcDbSymbolTableRecord
100
AcDbBlockTableRecord
  2
A3_nNn00
340
0
102
{BLKREFS
331
1B2
102
}
  0
BLOCK_RECORD
  5
154
330
1
100
AcDbSymbolTableRecord
100
AcDbBlockTableRecord
  2
Schriftfeld_nNn01
340
0
102
{BLKREFS
331
189
102
}
  0
BLOCK_RECORD
  5
18A
330
1
100
AcDbSymbolTableRecord
100
AcDbBlockTableRecord
  2
L1_nNn02
340
0
102
{BLKREFS
331
1B1
102
}
  0
BLOCK_RECORD
  5
18E
330
1
100
AcDbSymbolTableRecord
100
AcDbBlockTableRecord
  2
ULTRAREFLEX_nNn03
340
0
102
{BLKREFS
331
1A6
102
}
  0
BLOCK_RECORD
  5
226
330
1
100
AcDbSymbolTableRecord
100
AcDbBlockTableRecord
  2
*D5
340
0
  0
BLOCK_RECORD
  5
231
330
1
100
AcDbSymbolTableRecord
100
AcDbBlockTableRecord
  2
*D6
340
0
  0
BLOCK_RECORD
  5
23C
330
1
100
AcDbSymbolTableRecord
100
AcDbBlockTableRecord
  2
*D7
340
0
  0
BLOCK_RECORD
  5
248
330
1
100
AcDbSymbolTableRecord
100
AcDbBlockTableRecord
  2
*D8
340
0
  0
BLOCK_RECORD
  5
256
330
1
100
AcDbSymbolTableRecord
100
AcDbBlockTableRecord
  2
*D9
340
0
  0
ENDTAB
  0
ENDSEC
  0
SECTION
  2
BLOCKS
  0
BLOCK
  5
20
330
1F
100
AcDbEntity
  8
0
100
AcDbBlockBegin
  2
*Model_Space
 70
     0
 10
0.0
 20
0.0
 30
0.0
  3
*Model_Space
  1

  0
ENDBLK
  5
21
330
1F
100
AcDbEntity
  8
0
100
AcDbBlockEnd
  0
BLOCK
  5
1C
330
1B
100
AcDbEntity
 67
     1
  8
0
100
AcDbBlockBegin
  2
*Paper_Space
 70
     0
 10
0.0
 20
0.0
 30
0.0
  3
*Paper_Space
  1

  0
ENDBLK
  5
1D
330
1B
100
AcDbEntity
 67
     1
  8
0
100
AcDbBlockEnd
  0
BLOCK
  5
24
330
23
100
AcDbEntity
  8
0
100
AcDbBlockBegin
  2
*Paper_Space0
 70
     0
 10
0.0
 20
0.0
 30
0.0
  3
*Paper_Space0
  1

  0
ENDBLK
  5
25
330
23
100
AcDbEntity
  8
0
100
AcDbBlockEnd
  0
BLOCK
  5
147
330
146
100
AcDbEntity
  8
0
100
AcDbBlockBegin
  2
A3_nNn00
 70
     0
 10
0.0
 20
0.0
 30
0.0
  3
A3_nNn00
  1

  0
LINE
  5
149
330
146
100
AcDbEntity
  8
Layer99
  6
AUSGEZOGEN
 62
     9
370
    18
100
AcDbLine
 10
436.636375216936
 20
115.562129422918
 30
0.0
 11
830.236375216936
 21
115.562129422918
 31
0.0
  0
LINE
  5
14A
330
146
100
AcDbEntity
  8
Layer99
  6
AUSGEZOGEN
 62
     9
370
    18
100
AcDbLine
 10
830.236375216936
 20
115.562129422918
 30
0.0
 11
830.236375216936
 21
391.082129422918
 31
0.0
  0
LINE
  5
14B
330
146
100
AcDbEntity
  8
0
  6
AUSGEZOGEN
 62
     9
370
    18
100
AcDbLine
 10
436.636375216936
 20
115.562129422918
 30
0.0
 11
436.636375216936
 21
391.082129422918
 31
0.0
  0
LINE
  5
14C
330
146
100
AcDbEntity
  8
0
  6
AUSGEZOGEN
 62
     9
370
    18
100
AcDbLine
 10
436.636375216936
 20
391.082129422918
 30
0.0
 11
830.236375216936
 21
391.082129422918
 31
0.0
  0
LINE
  5
14D
330
146
100
AcDbEntity
  8
0
  6
AUSGEZOGEN
 62
    56
370
    18
100
AcDbLine
 10
431.836375216936
 20
395.882129422918
 30
0.0
 11
835.036375216936
 21
395.882129422918
 31
0.0
  0
LINE
  5
14E
330
146
100
AcDbEntity
  8
0
  6
AUSGEZOGEN
 62
    56
370
    18
100
AcDbLine
 10
431.836375216936
 20
110.762129422918
 30
0.0
 11
431.836375216936
 21
395.882129422918
 31
0.0
  0
LINE
  5
14F
330
146
100
AcDbEntity
  8
0
  6
AUSGEZOGEN
 62
    56
370
    18
100
AcDbLine
 10
431.836375216936
 20
110.762129422918
 30
0.0
 11
835.036375216936
 21
110.762129422918
 31
0.0
  0
LINE
  5
150
330
146
100
AcDbEntity
  8
0
  6
AUSGEZOGEN
 62
    56
370
    18
100
AcDbLine
 10
835.036375216936
 20
110.762129422918
 30
0.0
 11
835.036375216936
 21
395.882129422918
 31
0.0
  0
LINE
  5
151
330
146
100
AcDbEntity
  8
0
  6
AUSGEZOGEN
 62
    56
370
    18
100
AcDbLine
 10
551.836375216936
 20
391.082129422918
 30
0.0
 11
551.836375216936
 21
395.882129422918
 31
0.0
  0
LINE
  5
152
330
146
100
AcDbEntity
  8
0
  6
AUSGEZOGEN
 62
    56
370
    18
100
AcDbLine
 10
652.636375216936
 20
391.082129422918
 30
0.0
 11
652.636375216936
 21
395.882129422918
 31
0.0
  0
LINE
  5
153
330
146
100
AcDbEntity
  8
0
  6
AUSGEZOGEN
 62
    56
370
    18
100
AcDbLine
 10
551.836375216936
 20
115.562129422918
 30
0.0
 11
551.836375216936
 21
110.762129422918
 31
0.0
  0
INSERT
  5
189
330
146
100
AcDbEntity
  8
0
100
AcDbBlockReference
  2
Schriftfeld_nNn01
 10
0.0
 20
0.0
 30
0.0
  0
INSERT
  5
1B1
330
146
100
AcDbEntity
  8
0
100
AcDbBlockReference
  2
L1_nNn02
 10
0.0
 20
0.0
 30
0.0
  0
ENDBLK
  5
148
330
146
100
AcDbEntity
  8
0
100
AcDbBlockEnd
  0
BLOCK
  5
155
330
154
100
AcDbEntity
  8
0
100
AcDbBlockBegin
  2
Schriftfeld_nNn01
 70
     0
 10
0.0
 20
0.0
 30
0.0
  3
Schriftfeld_nNn01
  1

  0
LINE
  5
157
330
154
100
AcDbEntity
  8
Layer99
  6
AUSGEZOGEN
 62
    56
370
    18
100
AcDbLine
 10
715.036375216936
 20
152.282129422918
 30
0.0
 11
715.036375216936
 21
135.962129422918
 31
0.0
  0
LINE
  5
158
330
154
100
AcDbEntity
  8
Layer99
  6
AUSGEZOGEN
 62
    56
370
    18
100
AcDbLine
 10
660.124422091936
 20
152.282129422918
 30
0.0
 11
660.124422091936
 21
115.562129422918
 31
0.0
  0
LINE
  5
159
330
154
100
AcDbEntity
  8
Layer99
  6
AUSGEZOGEN
 62
     9
370
    18
100
AcDbLine
 10
817.756375216936
 20
131.882129422918
 30
0.0
 11
817.756375216936
 21
120.218131620183
 31
0.0
  0
LINE
  5
15A
330
154
100
AcDbEntity
  8
Layer99
  6
AUSGEZOGEN
 62
    56
370
    18
100
AcDbLine
 10
705.052351779436
 20
119.642129422918
 30
0.0
 11
652.636375216936
 21
119.642129422918
 31
0.0
  0
LINE
  5
15B
330
154
100
AcDbEntity
  8
Layer99
  6
AUSGEZOGEN
 62
    56
370
    18
100
AcDbLine
 10
705.052351779436
 20
123.722129422918
 30
0.0
 11
652.636375216936
 21
123.722129422918
 31
0.0
  0
LINE
  5
15C
330
154
100
AcDbEntity
  8
Layer99
  6
AUSGEZOGEN
 62
    56
370
    18
100
AcDbLine
 10
705.052351779436
 20
127.802129422918
 30
0.0
 11
652.636375216936
 21
127.802129422918
 31
0.0
  0
LINE
  5
15D
330
154
100
AcDbEntity
  8
Layer99
  6
AUSGEZOGEN
 62
    56
370
    18
100
AcDbLine
 10
705.052351779436
 20
131.882129422918
 30
0.0
 11
652.636375216936
 21
131.882129422918
 31
0.0
  0
LINE
  5
15E
330
154
100
AcDbEntity
  8
Layer99
  6
AUSGEZOGEN
 62
     9
370
    18
100
AcDbLine
 10
830.236375216936
 20
131.882129422918
 30
0.0
 11
747.484422091936
 21
131.882129422918
 31
0.0
  0
LINE
  5
15F
330
154
100
AcDbEntity
  8
Layer99
  6
AUSGEZOGEN
 62
    56
370
    18
100
AcDbLine
 10
747.484422091936
 20
135.962129422918
 30
0.0
 11
652.636375216936
 21
135.962129422918
 31
0.0
  0
LINE
  5
160
330
154
100
AcDbEntity
  8
Layer99
  6
AUSGEZOGEN
 62
    56
370
    18
100
AcDbLine
 10
747.484422091936
 20
140.042129422918
 30
0.0
 11
652.636375216936
 21
140.042129422918
 31
0.0
  0
LINE
  5
161
330
154
100
AcDbEntity
  8
Layer99
  6
AUSGEZOGEN
 62
    56
370
    18
100
AcDbLine
 10
747.484422091936
 20
144.122129422918
 30
0.0
 11
652.636375216936
 21
144.122129422918
 31
0.0
  0
LINE
  5
162
330
154
100
AcDbEntity
  8
Layer99
  6
AUSGEZOGEN
 62
    56
370
    18
100
AcDbLine
 10
747.484422091936
 20
148.202129422918
 30
0.0
 11
652.636375216936
 21
148.202129422918
 31
0.0
  0
LINE
  5
163
330
154
100
AcDbEntity
  8
Layer99
  6
AUSGEZOGEN
 62
     9
370
    18
100
AcDbLine
 10
830.236375216936
 20
152.282129422918
 30
0.0
 11
652.636375216936
 21
152.282129422918
 31
0.0
  0
LINE
  5
164
330
154
100
AcDbEntity
  8
Layer99
  6
AUSGEZOGEN
 62
    56
370
    18
100
AcDbLine
 10
705.052351779436
 20
162.482129422918
 30
0.0
 11
652.636375216936
 21
162.482129422918
 31
0.0
  0
LINE
  5
165
330
154
100
AcDbEntity
  8
Layer99
  6
AUSGEZOGEN
 62
    56
370
    18
100
AcDbLine
 10
830.236375216936
 20
162.482129422918
 30
0.0
 11
747.484422091936
 21
162.482129422918
 31
0.0
  0
LINE
  5
166
330
154
100
AcDbEntity
  8
Layer99
  6
AUSGEZOGEN
 62
    56
370
    18
100
AcDbLine
 10
795.292351779436
 20
168.602129422918
 30
0.0
 11
795.292351779436
 21
162.482129422918
 31
0.0
  0
LINE
  5
167
330
154
100
AcDbEntity
  8
Layer99
  6
AUSGEZOGEN
 62
     9
370
    18
100
AcDbLine
 10
747.484422091936
 20
168.602129422918
 30
0.0
 11
747.484422091936
 21
120.218131620183
 31
0.0
  0
LINE
  5
168
330
154
100
AcDbEntity
  8
Layer99
  6
AUSGEZOGEN
 62
    56
370
    18
100
AcDbLine
 10
730.012351779436
 20
152.282129422918
 30
0.0
 11
730.012351779436
 21
135.962129422918
 31
0.0
  0
LINE
  5
169
330
154
100
AcDbEntity
  8
Layer99
  6
AUSGEZOGEN
 62
     9
370
    18
100
AcDbLine
 10
705.052351779436
 20
168.602129422918
 30
0.0
 11
705.052351779436
 21
115.562129422918
 31
0.0
  0
LINE
  5
16A
330
154
100
AcDbEntity
  8
Layer99
  6
AUSGEZOGEN
 62
     9
370
    18
100
AcDbLine
 10
652.636375216936
 20
168.602129422918
 30
0.0
 11
652.636375216936
 21
115.562129422918
 31
0.0
  0
LINE
  5
16B
330
154
100
AcDbEntity
  8
Layer99
  6
AUSGEZOGEN
 62
     9
370
    18
100
AcDbLine
 10
830.236375216936
 20
168.602129422918
 30
0.0
 11
652.636375216936
 21
168.602129422918
 31
0.0
  0
TEXT
  5
16C
330
154
100
AcDbEntity
  8
Layer99
  6
AUSGEZOGEN
 62
    56
370
    18
100
AcDbText
 10
705.721726779436
 20
145.034446561589
 30
0.0
 40
1.92
  1
Bearb. 05.02.21   MS
 41
1.267237127053
  7
Arial
 72
     5
 11
737.814253574633
 21
145.034446561589
 31
0.0
100
AcDbText
  0
TEXT
  5
16D
330
154
100
AcDbEntity
  8
Layer99
  6
AUSGEZOGEN
 62
    56
370
    18
100
AcDbText
 10
705.943797091936
 20
141.034837186589
 30
0.0
 40
1.92
  1
Gepr.
 41
1.215533862924
  7
Arial
 72
     5
 11
714.091180225634
 21
141.034837186589
 31
0.0
100
AcDbText
  0
TEXT
  5
16E
330
154
100
AcDbEntity
  8
Layer99
  6
AUSGEZOGEN
 62
    56
370
    18
100
AcDbText
 10
705.943797091936
 20
136.813040311589
 30
0.0
 40
1.92
  1
Norm
 41
1.171328125812
  7
Arial
 72
     5
 11
713.617214497256
 21
136.813040311589
 31
0.0
100
AcDbText
  0
TEXT
  5
16F
330
154
100
AcDbEntity
  8
Layer99
  6
AUSGEZOGEN
 62
    56
370
    18
100
AcDbText
 10
819.618718966936
 20
128.762722684636
 30
0.0
 40
2.4
  1
Blatt
 41
1.26499927539
  7
Arial
 72
     5
 11
828.098262109732
 21
128.762722684636
 31
0.0
100
AcDbText
  0
TEXT
  5
170
330
154
100
AcDbEntity
  8
0
  6
AUSGEZOGEN
 62
   136
370
    18
100
AcDbText
 10
707.970203341936
 20
164.27895071198
 30
0.0
 40
2.4
  1
Allgemeintoleranzen
 41
1.263559891189
  7
Arial
 72
     5
 11
746.316718919729
 21
164.27895071198
 31
0.0
100
AcDbText
  0
TEXT
  5
171
330
154
100
AcDbEntity
  8
0
  6
AUSGEZOGEN
 62
   136
370
    18
100
AcDbText
 10
707.302820529436
 20
159.828491727605
 30
0.0
 40
2.4
  1
Nach: m
 41
1.218725130011
  7
Arial
 72
     5
 11
722.503735331034
 21
159.828491727605
 31
0.0
100
AcDbText
  0
TEXT
  5
172
330
154
100
AcDbEntity
  8
0
  6
AUSGEZOGEN
 62
   136
370
    18
100
AcDbText
 10
707.464304904436
 20
155.378018094793
 30
0.0
 40
2.4
  1
DIN: 2768
 41
1.239519910988
  7
Arial
 72
     5
 11
726.158248393988
 21
155.378018094793
 31
0.0
100
AcDbText
  0
TEXT
  5
173
330
154
100
AcDbEntity
  8
0
  6
AUSGEZOGEN
 62
    56
370
    18
100
AcDbText
 10
796.840398654436
 20
164.501475126043
 30
0.0
 40
2.4
  1
Gewicht:
 41
1.240831402125
  7
Arial
 72
     5
 11
813.010913486933
 21
164.501475126043
 31
0.0
100
AcDbText
  0
TEXT
  5
174
330
154
100
AcDbEntity
  8
0
  6
AUSGEZOGEN
 62
    56
370
    18
100
AcDbText
 10
748.745242404436
 20
157.846558133855
 30
0.0
 40
2.4
  1
Werkstoff/Farbe: Aluminium silber
 41
1.281191849386
  7
Arial
 72
     5
 11
813.142044568514
 21
157.846558133855
 31
0.0
100
AcDbText
  0
TEXT
  5
175
330
154
100
AcDbEntity
  8
0
  6
AUSGEZOGEN
 62
    56
370
    18
100
AcDbText
 10
748.745242404436
 20
164.52182180573
 30
0.0
 40
2.4
  1
Maßstab: 1:1, 1:2
 41
1.272746445757
  7
Arial
 72
     5
 11
781.924214949583
 21
164.52182180573
 31
0.0
100
AcDbText
  0
TEXT
  5
176
330
154
100
AcDbEntity
  8
0
  6
AUSGEZOGEN
 62
    56
370
    18
100
AcDbText
 10
653.788445529436
 20
164.522129422918
 30
0.0
 40
2.4
  1
Schwindung:
 41
1.234746274162
  7
Arial
 72
     5
 11
677.46890347383
 21
164.522129422918
 31
0.0
100
AcDbText
  0
TEXT
  5
177
330
154
100
AcDbEntity
  8
0
  6
AUSGEZOGEN
 62
    56
370
    18
100
AcDbText
 10
653.904226779436
 20
158.516387235418
 30
0.0
 40
2.4
  1
Diese Zeichnung darf nur
 41
1.271210741346
  7
Arial
 72
     5
 11
701.714971245741
 21
158.516387235418
 31
0.0
100
AcDbText
  0
TEXT
  5
178
330
154
100
AcDbEntity
  8
0
  6
AUSGEZOGEN
 62
    56
370
    18
100
AcDbText
 10
653.904226779436
 20
154.676387178197
 30
0.0
 40
2.4
  1
mit CAD geändert werden
 41
1.255342283876
  7
Arial
 72
     5
 11
702.284114126181
 21
154.676387178197
 31
0.0
100
AcDbText
  0
LINE
  5
179
330
154
100
AcDbEntity
  8
Layer99
  6
AUSGEZOGEN
 62
    56
370
    18
100
AcDbLine
 10
830.236375216936
 20
120.218131620183
 30
0.0
 11
747.484422091936
 21
120.218131620183
 31
0.0
  0
LINE
  5
17A
330
154
100
AcDbEntity
  8
Layer99
  6
AUSGEZOGEN
 62
    56
370
    18
100
AcDbLine
 10
830.236375216936
 20
124.298131620183
 30
0.0
 11
817.756375216936
 21
124.298131620183
 31
0.0
  0
TEXT
  5
17B
330
154
100
AcDbEntity
  8
Layer99
  6
AUSGEZOGEN
 62
    56
370
    18
100
AcDbText
 10
824.840008029436
 20
121.131198026433
 30
0.0
 40
2.4
  1
Bl.
 41
1.229150265254
  7
Arial
 72
     5
 11
829.645493906473
 21
121.131198026433
 31
0.0
100
AcDbText
  0
LINE
  5
17C
330
154
100
AcDbEntity
  8
Layer99
  6
AUSGEZOGEN
 62
    56
370
    18
100
AcDbLine
 10
689.020164279436
 20
152.282129422918
 30
0.0
 11
689.020164279436
 21
115.562129422918
 31
0.0
  0
TEXT
  5
17D
330
154
100
AcDbEntity
  8
Layer50
  6
AUSGEZOGEN
 62
   136
370
    18
100
AcDbText
 10
656.797644748186
 20
120.523115384832
 30
0.0
 40
1.92
  1
-  ---
 41
1.340992890965
  7
Arial
 72
     5
 11
663.584570688509
 21
120.523115384832
 31
0.0
100
AcDbText
  0
TEXT
  5
17E
330
154
100
AcDbEntity
  8
Layer50
  6
AUSGEZOGEN
 62
   136
370
    18
100
AcDbText
 10
689.245281466936
 20
120.758319852605
 30
0.0
 40
1.92
  1
--.--.--/--
 41
1.366444411798
  7
Arial
 72
     5
 11
702.058813320803
 21
120.758319852605
 31
0.0
100
AcDbText
  0
TEXT
  5
17F
330
154
100
AcDbEntity
  8
0
  6
AUSGEZOGEN
 62
    56
370
    18
100
AcDbText
 10
706.247312716936
 20
116.613446409002
 30
0.0
 40
2.4
  1
Schutzvermerk nach DIN 34 beachten .        Copyright reserved
 41
1.286227457357
  7
Arial
 72
     5
 11
827.425373929476
 21
116.613446409002
 31
0.0
100
AcDbText
  0
TEXT
  5
180
330
154
100
AcDbEntity
  8
Layer50
  6
AUSGEZOGEN
 62
     9
370
    18
100
AcDbText
 10
750.11865544369
 20
145.655920114717
 30
0.0
 40
3.5
  1
MK Alu 100D
 41
1.228957148012
  7
Arial
 72
     5
 11
785.488656642041
 21
145.655920114717
 31
0.0
100
AcDbText
  0
TEXT
  5
181
330
154
100
AcDbEntity
  8
Layer50
  6
AUSGEZOGEN
 62
     9
370
    18
100
AcDbText
 10
750.11865544369
 20
140.055920031271
 30
0.0
 40
3.5
  1
mit spitzem Schaft
 41
1.275353646588
  7
Arial
 72
     5
 11
801.018657155833
 21
140.055920031271
 31
0.0
100
AcDbText
  0
TEXT
  5
182
330
154
100
AcDbEntity
  8
Layer50
  6
AUSGEZOGEN
 62
     9
370
    18
100
AcDbText
 10
764.162051507328
 20
123.780852681196
 30
0.0
 40
4.8
  1
21034200k
 41
1.218898721598
  7
Arial
 72
     5
 11
804.567081449841
 21
123.780852681196
 31
0.0
100
AcDbText
  0
TEXT
  5
183
330
154
100
AcDbEntity
  8
Layer50
  6
AUSGEZOGEN
 62
   136
370
    18
100
AcDbText
 10
749.550855179943
 20
133.12460113485
 30
0.0
 40
1.92
  1
---
 41
1.259600656861
  7
Arial
 72
     5
 11
752.924569579281
 21
133.12460113485
 31
0.0
100
AcDbText
  0
TEXT
  5
184
330
154
100
AcDbEntity
  8
Layer99
  6
AUSGEZOGEN
 62
    56
370
    18
100
AcDbText
 10
689.534971514627
 20
116.515696541418
 30
0.0
 40
1.92
  1
Dat./Nam.
 41
1.239717192527
  7
Arial
 72
     5
 11
704.490126306269
 21
116.515696541418
 31
0.0
100
AcDbText
  0
TEXT
  5
185
330
154
100
AcDbEntity
  8
Layer99
  6
AUSGEZOGEN
 62
    56
370
    18
100
AcDbText
 10
652.825347703759
 20
116.51134366162
 30
0.0
 40
1.92
  1
Zust.
 41
1.239906123597
  7
Arial
 72
     5
 11
660.212410810677
 21
116.51134366162
 31
0.0
100
AcDbText
  0
TEXT
  5
186
330
154
100
AcDbEntity
  8
0
  6
AUSGEZOGEN
 62
    56
370
    18
100
AcDbText
 10
716.622018940456
 20
149.025679227605
 30
0.0
 40
2.4
  1
Datum
 41
1.188171149402
  7
Arial
 72
     5
 11
728.344990768917
 21
149.025679227605
 31
0.0
100
AcDbText
  0
TEXT
  5
187
330
154
100
AcDbEntity
  8
0
  6
AUSGEZOGEN
 62
    56
370
    18
100
AcDbText
 10
733.580601133252
 20
149.033701673943
 30
0.0
 40
2.4
  1
Name
 41
1.15958716227
  7
Arial
 72
     5
 11
743.94174434557
 21
149.033701673943
 31
0.0
100
AcDbText
  0
TEXT
  5
188
330
154
100
AcDbEntity
  8
Layer99
  6
AUSGEZOGEN
 62
    56
370
    18
100
AcDbText
 10
661.493457541843
 20
116.511572082136
 30
0.0
 40
1.92
  1
Änderung
 41
1.218204176926
  7
Arial
 72
     5
 11
675.648795165058
 21
116.511572082136
 31
0.0
100
AcDbText
  0
ENDBLK
  5
156
330
154
100
AcDbEntity
  8
0
100
AcDbBlockEnd
  0
BLOCK
  5
18B
330
18A
100
AcDbEntity
  8
0
100
AcDbBlockBegin
  2
L1_nNn02
 70
     0
 10
0.0
 20
0.0
 30
0.0
  3
L1_nNn02
  1

  0
LINE
  5
18D
330
18A
100
AcDbEntity
  8
Layer99
  6
AUSGEZOGEN
 62
    56
370
    18
100
AcDbLine
 10
747.484422091936
 20
120.218131620183
 30
0.0
 11
705.052351779436
 21
120.218131620183
 31
0.0
  0
INSERT
  5
1A6
330
18A
100
AcDbEntity
  8
0
100
AcDbBlockReference
  2
ULTRAREFLEX_nNn03
 10
0.0
 20
0.0
 30
0.0
  0
LINE
  5
1A7
330
18A
100
AcDbEntity
  8
Layer99
  6
AUSGEZOGEN
 62
     9
370
    18
100
AcDbLine
 10
747.484422091936
 20
127.747622883001
 30
0.0
 11
705.052351779436
 21
127.747622883001
 31
0.0
  0
TEXT
  5
1A8
330
18A
100
AcDbEntity
  8
Layer99
  6
AUSGEZOGEN
 62
    56
370
    18
100
AcDbText
 10
706.004551191653
 20
133.154411590333
 30
0.0
 40
1.5
  1
Projektionsmethode
 41
1.255938429073
  7
Arial
 72
     5
 11
729.242551975573
 21
133.154411590333
 31
0.0
100
AcDbText
  0
LINE
  5
1A9
330
18A
100
AcDbEntity
  8
0
  6
AUSGEZOGEN
 62
     9
370
    18
100
AcDbLine
 10
731.054903826267
 20
130.581340707547
 30
0.0
 11
731.054903826267
 21
132.581340707547
 31
0.0
  0
LINE
  5
1AA
330
18A
100
AcDbEntity
  8
0
  6
AUSGEZOGEN
 62
     9
370
    18
100
AcDbLine
 10
736.054903826267
 20
129.699705804004
 30
0.0
 11
736.054903826267
 21
133.462975611089
 31
0.0
  0
LINE
  5
1AB
330
18A
100
AcDbEntity
  8
0
  6
DASHDOT
 62
    56
370
    18
100
AcDbLine
 10
730.049494454225
 20
131.581340707547
 30
0.0
 11
742.114406918729
 21
131.581340707547
 31
0.0
  0
LINE
  5
1AC
330
18A
100
AcDbEntity
  8
0
  6
AUSGEZOGEN
 62
     9
370
    18
100
AcDbLine
 10
736.054903826267
 20
133.462975611089
 30
0.0
 11
731.054903826267
 21
132.581340707547
 31
0.0
  0
LINE
  5
1AD
330
18A
100
AcDbEntity
  8
0
  6
AUSGEZOGEN
 62
     9
370
    18
100
AcDbLine
 10
736.054903826267
 20
129.699705804004
 30
0.0
 11
731.054903826267
 21
130.581340707547
 31
0.0
  0
LINE
  5
1AE
330
18A
100
AcDbEntity
  8
0
  6
DASHDOT
 62
    56
370
    18
100
AcDbLine
 10
739.43331525995
 20
128.941252214763
 30
0.0
 11
739.43331525995
 21
134.347147699986
 31
0.0
  0
CIRCLE
  5
1AF
330
18A
100
AcDbEntity
  8
0
  6
AUSGEZOGEN
 62
     9
370
    18
100
AcDbCircle
 10
739.43331525995
 20
131.581340707547
 30
0.0
 40
1.0
  0
CIRCLE
  5
1B0
330
18A
100
AcDbEntity
  8
0
  6
AUSGEZOGEN
 62
     9
370
    18
100
AcDbCircle
 10
739.43331525995
 20
131.581340707547
 30
0.0
 40
1.881634903542341
  0
ENDBLK
  5
18C
330
18A
100
AcDbEntity
  8
0
100
AcDbBlockEnd
  0
BLOCK
  5
18F
330
18E
100
AcDbEntity
  8
0
100
AcDbBlockBegin
  2
ULTRAREFLEX_nNn03
 70
     0
 10
0.0
 20
0.0
 30
0.0
  3
ULTRAREFLEX_nNn03
  1

  0
LINE
  5
191
330
18E
100
AcDbEntity
  8
0
  6
AUSGEZOGEN
 62
    30
370
    18
100
AcDbLine
 10
743.602357494834
 20
126.587305887204
 30
0.0
 11
740.742279731323
 21
126.587305887204
 31
0.0
  0
LINE
  5
192
330
18E
100
AcDbEntity
  8
0
  6
AUSGEZOGEN
 62
    30
370
    18
100
AcDbLine
 10
740.465498012273
 20
126.427505887204
 30
0.0
 11
739.035459130518
 21
123.950605887204
 31
0.0
  0
LINE
  5
193
330
18E
100
AcDbEntity
  8
0
  6
AUSGEZOGEN
 62
    30
370
    18
100
AcDbLine
 10
739.035459130518
 20
123.631005887204
 30
0.0
 11
740.465498012273
 21
121.154105887204
 31
0.0
  0
LINE
  5
194
330
18E
100
AcDbEntity
  8
0
  6
AUSGEZOGEN
 62
    30
370
    18
100
AcDbLine
 10
740.742279731323
 20
120.994305887204
 30
0.0
 11
743.602357494834
 21
120.994305887204
 31
0.0
  0
LINE
  5
195
330
18E
100
AcDbEntity
  8
0
  6
AUSGEZOGEN
 62
    30
370
    18
100
AcDbLine
 10
743.879139213884
 20
121.154105887204
 30
0.0
 11
745.30917809564
 21
123.631005887204
 31
0.0
  0
LINE
  5
196
330
18E
100
AcDbEntity
  8
0
  6
AUSGEZOGEN
 62
    30
370
    18
100
AcDbLine
 10
745.30917809564
 20
123.950605887204
 30
0.0
 11
743.879139213884
 21
126.427505887204
 31
0.0
  0
LINE
  5
197
330
18E
100
AcDbEntity
  8
0
  6
AUSGEZOGEN
 62
    30
370
    18
100
AcDbLine
 10
742.449100332128
 20
123.950605887204
 30
0.0
 11
745.30917809564
 21
123.950605887204
 31
0.0
  0
LINE
  5
198
330
18E
100
AcDbEntity
  8
0
  6
AUSGEZOGEN
 62
    30
370
    18
100
AcDbLine
 10
739.035459130518
 20
123.950605887204
 30
0.0
 11
741.895536894029
 21
123.950605887204
 31
0.0
  0
LINE
  5
199
330
18E
100
AcDbEntity
  8
0
  6
AUSGEZOGEN
 62
    30
370
    18
100
AcDbLine
 10
742.449100332128
 20
123.631005887204
 30
0.0
 11
745.30917809564
 21
123.631005887204
 31
0.0
  0
LINE
  5
19A
330
18E
100
AcDbEntity
  8
0
  6
AUSGEZOGEN
 62
    30
370
    18
100
AcDbLine
 10
739.035459130518
 20
123.631005887204
 30
0.0
 11
741.895536894029
 21
123.631005887204
 31
0.0
  0
LINE
  5
19B
330
18E
100
AcDbEntity
  8
0
  6
AUSGEZOGEN
 62
    30
370
    18
100
AcDbLine
 10
742.449100332128
 20
123.631005887204
 30
0.0
 11
743.879139213884
 21
121.154105887204
 31
0.0
  0
LINE
  5
19C
330
18E
100
AcDbEntity
  8
0
  6
AUSGEZOGEN
 62
    30
370
    18
100
AcDbLine
 10
740.742279731323
 20
126.587305887204
 30
0.0
 11
742.172318613079
 21
124.110405887204
 31
0.0
  0
LINE
  5
19D
330
18E
100
AcDbEntity
  8
0
  6
AUSGEZOGEN
 62
    30
370
    18
100
AcDbLine
 10
742.172318613079
 20
123.471205887204
 30
0.0
 11
743.602357494834
 21
120.994305887204
 31
0.0
  0
LINE
  5
19E
330
18E
100
AcDbEntity
  8
0
  6
AUSGEZOGEN
 62
    30
370
    18
100
AcDbLine
 10
740.465498012273
 20
126.427505887204
 30
0.0
 11
741.895536894029
 21
123.950605887204
 31
0.0
  0
LINE
  5
19F
330
18E
100
AcDbEntity
  8
0
  6
AUSGEZOGEN
 62
    30
370
    18
100
AcDbLine
 10
742.172318613079
 20
123.471205887204
 30
0.0
 11
740.742279731323
 21
120.994305887204
 31
0.0
  0
LINE
  5
1A0
330
18E
100
AcDbEntity
  8
0
  6
AUSGEZOGEN
 62
    30
370
    18
100
AcDbLine
 10
743.879139213884
 20
126.427505887204
 30
0.0
 11
742.449100332128
 21
123.950605887204
 31
0.0
  0
LINE
  5
1A1
330
18E
100
AcDbEntity
  8
0
  6
AUSGEZOGEN
 62
    30
370
    18
100
AcDbLine
 10
741.895536894029
 20
123.631005887204
 30
0.0
 11
740.465498012273
 21
121.154105887204
 31
0.0
  0
LINE
  5
1A2
330
18E
100
AcDbEntity
  8
0
  6
AUSGEZOGEN
 62
    30
370
    18
100
AcDbLine
 10
743.602357494834
 20
126.587305887204
 30
0.0
 11
742.172318613079
 21
124.110405887204
 31
0.0
  0
HATCH
  5
1A3
330
18E
100
AcDbEntity
  8
0
  6
AUSGEZOGEN
 62
    30
370
    18
100
AcDbHatch
 10
0.0
 20
0.0
 30
0.0
210
0.0
220
0.0
230
1.0
  2
SOLID
 70
     1
 71
     0
 91
        6
 92
        2
 72
     0
 73
     1
 93
        3
 10
741.8955368940292
 20
123.6310058872041
 10
739.0354591305176
 20
123.6310058872041
 10
740.4654980122734
 20
121.1541058872041
 97
        0
 92
        2
 72
     0
 73
     1
 93
        3
 10
741.8955368940292
 20
123.9506058872041
 10
740.4654980122734
 20
126.4275058872041
 10
739.0354591305176
 20
123.9506058872041
 97
        0
 92
        2
 72
     0
 73
     1
 93
        3
 10
742.1723186130787
 20
124.1104058872041
 10
743.6023574948345
 20
126.5873058872041
 10
740.7422797313229
 20
126.5873058872041
 97
        0
 92
        2
 72
     0
 73
     1
 93
        3
 10
742.4491003321282
 20
123.9506058872041
 10
745.3091780956397
 20
123.9506058872041
 10
743.8791392138841
 20
126.4275058872041
 97
        0
 92
        2
 72
     0
 73
     1
 93
        3
 10
743.8791392138841
 20
121.1541058872041
 10
745.3091780956397
 20
123.6310058872041
 10
742.4491003321282
 20
123.6310058872041
 97
        0
 92
        2
 72
     0
 73
     1
 93
        3
 10
742.1723186130787
 20
123.4712058872041
 10
740.7422797313229
 20
120.9943058872041
 10
743.6023574948345
 20
120.9943058872041
 97
        0
 75
     0
 76
     1
 98
        0
  0
TEXT
  5
1A4
330
18E
100
AcDbEntity
  8
0
  6
AUSGEZOGEN
 62
     9
370
    70
100
AcDbText
 10
721.954629334139
 20
121.99057165669
 30
0.0
 40
3.6754
  1
REFLEX
 41
0.705366510959
  7
Arial Black
 72
     5
 11
737.654979334139
 21
121.99057165669
 31
0.0
100
AcDbText
  0
TEXT
  5
1A5
330
18E
100
AcDbEntity
  8
0
  6
AUSGEZOGEN
 62
     9
370
    18
100
AcDbText
 10
706.455617296037
 20
122.163956893549
 30
0.0
 40
2.7965
  1
ULTRA
 41
1.159777722278
  7
Arial
 72
     5
 11
721.297042296037
 21
122.163956893549
 31
0.0
100
AcDbText
  0
ENDBLK
  5
190
330
18E
100
AcDbEntity
  8
0
100
AcDbBlockEnd
  0
BLOCK
  5
227
330
226
100
AcDbEntity
  8
0
100
AcDbBlockBegin
  2
*D5
 70
     1
 10
0.0
 20
0.0
 30
0.0
  3
*D5
  1

  0
HATCH
  5
229
330
226
100
AcDbEntity
  8
Layer6
  6
AUSGEZOGEN
 62
   136
370
    18
100
AcDbHatch
 10
0.0
 20
0.0
 30
0.0
210
0.0
220
0.0
230
1.0
  2
SOLID
 70
     1
 71
     0
 91
        1
 92
        2
 72
     0
 73
     1
 93
        3
 10
502.1773386975905
 20
243.1531937030173
 10
502.5523386975905
 20
245.6531937030173
 10
501.8023386975905
 20
245.6531937030173
 97
        0
 75
     0
 76
     1
 98
        0
  0
HATCH
  5
22A
330
226
100
AcDbEntity
  8
Layer6
  6
AUSGEZOGEN
 62
   136
370
    18
100
AcDbHatch
 10
0.0
 20
0.0
 30
0.0
210
0.0
220
0.0
230
1.0
  2
SOLID
 70
     1
 71
     0
 91
        1
 92
        2
 72
     0
 73
     1
 93
        3
 10
502.1773386975905
 20
343.1531937030173
 10
501.8023386975905
 20
340.6531937030173
 10
502.5523386975905
 20
340.6531937030173
 97
        0
 75
     0
 76
     1
 98
        0
  0
LINE
  5
22B
330
226
100
AcDbEntity
  8
Layer6
  6
AUSGEZOGEN
 62
   136
370
    18
100
AcDbLine
 10
502.17733869759
 20
340.653193703017
 30
0.0
 11
502.17733869759
 21
245.653193703017
 31
0.0
  0
LINE
  5
22C
330
226
100
AcDbEntity
  8
Layer6
  6
AUSGEZOGEN
 62
   136
370
    18
100
AcDbLine
 10
563.311151260316
 20
343.153193703017
 30
0.0
 11
500.748767269019
 21
343.153193703017
 31
0.0
  0
LINE
  5
22D
330
226
100
AcDbEntity
  8
Layer6
  6
AUSGEZOGEN
 62
   136
370
    18
100
AcDbLine
 10
563.311151260316
 20
243.153193703017
 30
0.0
 11
500.748767269019
 21
243.153193703017
 31
0.0
  0
WIPEOUT
  5
22E
330
226
100
AcDbEntity
  8
Layer6
  6
AUSGEZOGEN
 62
   136
370
    18
 92
      152
310
98000000040000000C0000000E000000120000000C00000016000000000000C20C00000014000000010000006C000000070000000400000076271A61D66A7F40AEFBFE8EFE847240000000000000000076271A61D66A7F405C431006BD257240000000000000000076271A61D6AA7F405C431006BD25724000000000000000
310
0076271A61D6AA7F40AEFBFE8EFE8472400000000000000000
100
AcDbWipeout
 90
        0
 10
502.67733869759
 20
290.358648360756
 30
0.0
 11
5.953499729633336
 21
0.0
 31
0.0
 12
0.0
 22
5.953499729633336
 32
0.0
 13
1.0
 23
1.0
340
0
 70
     7
280
     1
281
    50
282
    50
283
     0
360
0
 71
     2
 91
        5
 14
-0.5
 24
-0.5
 14
-0.5
 24
0.5
 14
0.171873718259
 24
0.5
 14
0.171873718259
 24
-0.5
 14
-0.5
 24
-0.5
  0
TEXT
  5
22F
330
226
100
AcDbEntity
  8
Layer6
  6
AUSGEZOGEN
 62
   136
370
    18
100
AcDbText
 10
503.42733869759
 20
296.312148090389
 30
0.0
 40
2.5
  1
100
 50
270.0
 41
1.022938097875
  7
Arial
 72
     5
 11
503.42733869759
 21
290.358648360756
 31
0.0
100
AcDbText
  0
ENDBLK
  5
228
330
226
100
AcDbEntity
  8
0
100
AcDbBlockEnd
  0
BLOCK
  5
232
330
231
100
AcDbEntity
  8
0
100
AcDbBlockBegin
  2
*D6
 70
     1
 10
0.0
 20
0.0
 30
0.0
  3
*D6
  1

  0
HATCH
  5
234
330
231
100
AcDbEntity
  8
Layer6
  6
AUSGEZOGEN
 62
   136
370
    18
100
AcDbHatch
 10
0.0
 20
0.0
 30
0.0
210
0.0
220
0.0
230
1.0
  2
SOLID
 70
     1
 71
     0
 91
        1
 92
        2
 72
     0
 73
     1
 93
        3
 10
732.9902519915163
 20
232.2103006253942
 10
735.4902519915163
 20
231.8353006253942
 10
735.4902519915163
 20
232.5853006253942
 97
        0
 75
     0
 76
     1
 98
        0
  0
HATCH
  5
235
330
231
100
AcDbEntity
  8
Layer6
  6
AUSGEZOGEN
 62
   136
370
    18
100
AcDbHatch
 10
0.0
 20
0.0
 30
0.0
210
0.0
220
0.0
230
1.0
  2
SOLID
 70
     1
 71
     0
 91
        1
 92
        2
 72
     0
 73
     1
 93
        3
 10
751.190251991512
 20
232.2103006253942
 10
748.690251991512
 20
232.5853006253942
 10
748.690251991512
 20
231.8353006253942
 97
        0
 75
     0
 76
     1
 98
        0
  0
LINE
  5
236
330
231
100
AcDbEntity
  8
Layer6
  6
AUSGEZOGEN
 62
   136
370
    18
100
AcDbLine
 10
748.690251991512
 20
232.210300625394
 30
0.0
 11
735.490251991516
 21
232.210300625394
 31
0.0
  0
LINE
  5
237
330
231
100
AcDbEntity
  8
Layer6
  6
AUSGEZOGEN
 62
   136
370
    18
100
AcDbLine
 10
751.190251991512
 20
293.153193703017
 30
0.0
 11
751.190251991512
 21
230.781729196823
 31
0.0
  0
LINE
  5
238
330
231
100
AcDbEntity
  8
Layer6
  6
AUSGEZOGEN
 62
   136
370
    18
100
AcDbLine
 10
732.990251991516
 20
243.153193703017
 30
0.0
 11
732.990251991516
 21
230.781729196823
 31
0.0
  0
WIPEOUT
  5
239
330
231
100
AcDbEntity
  8
Layer6
  6
AUSGEZOGEN
 62
   136
370
    18
 92
      152
310
98000000040000000C0000000E000000120000000C00000016000000000000C20C00000014000000010000006C00000007000000040000004E3BDA6C17098740AC8C60C8BA166D400000000000000000D2261052A8408740AC8C60C8BA166D400000000000000000D2261052A8408740AC8C60C8BA966D4000000000000000
310
004E3BDA6C17098740AC8C60C8BA966D400000000000000000
100
AcDbWipeout
 90
        0
 10
737.136438088355
 20
232.710300625394
 30
0.0
 11
6.945749684572206
 21
0.0
 31
0.0
 12
0.0
 22
6.945749684572206
 32
0.0
 13
1.0
 23
1.0
340
0
 70
     7
280
     1
281
    50
282
    50
283
     0
360
0
 71
     2
 91
        5
 14
-0.5
 24
0.5
 14
0.5
 24
0.5
 14
0.5
 24
-0.075891758507
 14
-0.5
 24
-0.075891758507
 14
-0.5
 24
0.5
  0
TEXT
  5
23A
330
231
100
AcDbEntity
  8
Layer6
  6
AUSGEZOGEN
 62
   136
370
    18
100
AcDbText
 10
737.136438088355
 20
233.460300625394
 30
0.0
 40
2.5
  1
18.2
 41
1.022938097875
  7
Arial
 72
     5
 11
744.082187772927
 21
233.460300625394
 31
0.0
100
AcDbText
  0
ENDBLK
  5
233
330
231
100
AcDbEntity
  8
0
100
AcDbBlockEnd
  0
BLOCK
  5
23D
330
23C
100
AcDbEntity
  8
0
100
AcDbBlockBegin
  2
*D7
 70
     1
 10
0.0
 20
0.0
 30
0.0
  3
*D7
  1

  0
HATCH
  5
23F
330
23C
100
AcDbEntity
  8
Layer6
  6
AUSGEZOGEN
 62
   136
370
    18
100
AcDbHatch
 10
0.0
 20
0.0
 30
0.0
210
0.0
220
0.0
230
1.0
  2
SOLID
 70
     1
 71
     0
 91
        1
 92
        2
 72
     0
 73
     1
 93
        3
 10
732.9902519915163
 20
232.2103006253942
 10
730.4902519915163
 20
232.5853006253942
 10
730.4902519915163
 20
231.8353006253942
 97
        0
 75
     0
 76
     1
 98
        0
  0
HATCH
  5
240
330
23C
100
AcDbEntity
  8
Layer6
  6
AUSGEZOGEN
 62
   136
370
    18
100
AcDbHatch
 10
0.0
 20
0.0
 30
0.0
210
0.0
220
0.0
230
1.0
  2
SOLID
 70
     1
 71
     0
 91
        1
 92
        2
 72
     0
 73
     1
 93
        3
 10
663.4902519915163
 20
232.2103006253942
 10
665.9902519915163
 20
231.8353006253942
 10
665.9902519915163
 20
232.5853006253942
 97
        0
 75
     0
 76
     1
 98
        0
  0
LINE
  5
241
330
23C
100
AcDbEntity
  8
Layer6
  6
AUSGEZOGEN
 62
   136
370
    18
100
AcDbLine
 10
665.990251991516
 20
232.210300625394
 30
0.0
 11
730.490251991516
 21
232.210300625394
 31
0.0
  0
LINE
  5
242
330
23C
100
AcDbEntity
  8
Layer6
  6
AUSGEZOGEN
 62
   136
370
    18
100
AcDbLine
 10
663.490251991516
 20
293.153193703017
 30
0.0
 11
663.490251991516
 21
291.357523886017
 31
0.0
  0
LINE
  5
243
330
23C
100
AcDbEntity
  8
Layer6
  6
AUSGEZOGEN
 62
   136
370
    18
100
AcDbLine
 10
663.490251991516
 20
290.357523886017
 30
0.0
 11
663.490251991516
 21
230.781729196823
 31
0.0
  0
LINE
  5
244
330
23C
100
AcDbEntity
  8
Layer6
  6
AUSGEZOGEN
 62
   136
370
    18
100
AcDbLine
 10
732.990251991516
 20
243.153193703017
 30
0.0
 11
732.990251991516
 21
230.781729196823
 31
0.0
  0
WIPEOUT
  5
245
330
23C
100
AcDbEntity
  8
Layer6
  6
AUSGEZOGEN
 62
   136
370
    18
 92
      152
310
98000000040000000C0000000E000000120000000C00000016000000000000C20C00000014000000010000006C000000070000000400000054C19A894AA28540AC8C60C8BA166D400000000000000000D8ACD06EDBD98540AC8C60C8BA166D400000000000000000D8ACD06EDBD98540AC8C60C8BA966D4000000000000000
310
0054C19A894AA28540AC8C60C8BA966D400000000000000000
100
AcDbWipeout
 90
        0
 10
692.286395272279
 20
232.710300625394
 30
0.0
 11
6.945749684572206
 21
0.0
 31
0.0
 12
0.0
 22
6.945749684572206
 32
0.0
 13
1.0
 23
1.0
340
0
 70
     7
280
     1
281
    50
282
    50
283
     0
360
0
 71
     2
 91
        5
 14
-0.5
 24
0.5
 14
0.5
 24
0.5
 14
0.5
 24
-0.075891758507
 14
-0.5
 24
-0.075891758507
 14
-0.5
 24
0.5
  0
TEXT
  5
246
330
23C
100
AcDbEntity
  8
Layer6
  6
AUSGEZOGEN
 62
   136
370
    18
100
AcDbText
 10
692.286395272279
 20
233.460300625394
 30
0.0
 40
2.5
  1
69.5
 41
1.022938097875
  7
Arial
 72
     5
 11
699.232144956851
 21
233.460300625394
 31
0.0
100
AcDbText
  0
ENDBLK
  5
23E
330
23C
100
AcDbEntity
  8
0
100
AcDbBlockEnd
  0
BLOCK
  5
249
330
248
100
AcDbEntity
  8
0
100
AcDbBlockBegin
  2
*D8
 70
     1
 10
0.0
 20
0.0
 30
0.0
  3
*D8
  1

  0
HATCH
  5
24B
330
248
100
AcDbEntity
  8
Layer6
  6
AUSGEZOGEN
 62
   136
370
    18
100
AcDbHatch
 10
0.0
 20
0.0
 30
0.0
210
0.0
220
0.0
230
1.0
  2
SOLID
 70
     1
 71
     0
 91
        1
 92
        2
 72
     0
 73
     1
 93
        3
 10
656.4944455166174
 20
289.8586154660173
 10
656.1194455166174
 20
287.3586154660173
 10
656.8694455166174
 20
287.3586154660173
 97
        0
 75
     0
 76
     1
 98
        0
  0
HATCH
  5
24C
330
248
100
AcDbEntity
  8
Layer6
  6
AUSGEZOGEN
 62
   136
370
    18
100
AcDbHatch
 10
0.0
 20
0.0
 30
0.0
210
0.0
220
0.0
230
1.0
  2
SOLID
 70
     1
 71
     0
 91
        1
 92
        2
 72
     0
 73
     1
 93
        3
 10
656.4944455166174
 20
296.4477719402174
 10
656.8694455166174
 20
298.9477719402174
 10
656.1194455166174
 20
298.9477719402174
 97
        0
 75
     0
 76
     1
 98
        0
  0
LINE
  5
24D
330
248
100
AcDbEntity
  8
Layer6
  6
AUSGEZOGEN
 62
   136
370
    18
100
AcDbLine
 10
656.494445516617
 20
296.447771940217
 30
0.0
 11
656.494445516617
 21
289.858615466017
 31
0.0
  0
LINE
  5
24E
330
248
100
AcDbEntity
  8
Layer6
  6
AUSGEZOGEN
 62
   136
370
    18
100
AcDbLine
 10
656.494445516617
 20
287.358615466017
 30
0.0
 11
656.494445516617
 21
284.858615466017
 31
0.0
  0
LINE
  5
24F
330
248
100
AcDbEntity
  8
Layer6
  6
AUSGEZOGEN
 62
   136
370
    18
100
AcDbLine
 10
656.494445516617
 20
298.947771940217
 30
0.0
 11
656.494445516617
 21
301.447771940217
 31
0.0
  0
LINE
  5
250
330
248
100
AcDbEntity
  8
Layer6
  6
AUSGEZOGEN
 62
   136
370
    18
100
AcDbLine
 10
656.494445516617
 20
287.358615466017
 30
0.0
 11
656.494445516617
 21
278.161591759009
 31
0.0
  0
LINE
  5
251
330
248
100
AcDbEntity
  8
Layer6
  6
AUSGEZOGEN
 62
   136
370
    18
100
AcDbLine
 10
664.443540446716
 20
296.447771940217
 30
0.0
 11
655.065874088046
 21
296.447771940217
 31
0.0
  0
LINE
  5
252
330
248
100
AcDbEntity
  8
Layer6
  6
AUSGEZOGEN
 62
   136
370
    18
100
AcDbLine
 10
664.443540446716
 20
289.858615466017
 30
0.0
 11
655.065874088046
 21
289.858615466017
 31
0.0
  0
WIPEOUT
  5
253
330
248
100
AcDbEntity
  8
Layer6
  6
AUSGEZOGEN
 62
   136
370
    18
 92
      152
310
98000000040000000C0000000E000000120000000C00000016000000000000C20C00000014000000010000006C000000070000000400000034DCD99FF48784404A3C84D0BDD47140000000000000000034DCD99FF4878440F8833DE195627140000000000000000034DCD99FF4A78440F8833DE19562714000000000000000
310
0034DCD99FF4A784404A3C84D0BDD471400000000000000000
100
AcDbWipeout
 90
        0
 10
656.994445516617
 20
278.161591759009
 30
0.0
 11
7.134749675989156
 21
0.0
 31
0.0
 12
0.0
 22
7.134749675989156
 32
0.0
 13
1.0
 23
1.0
340
0
 70
     7
280
     1
281
    50
282
    50
283
     0
360
0
 71
     2
 91
        5
 14
-0.5
 24
-0.5
 14
-0.5
 24
0.5
 14
0.060636347686
 24
0.5
 14
0.060636347686
 24
-0.5
 14
-0.5
 24
-0.5
  0
TEXT
  5
254
330
248
100
AcDbEntity
  8
Layer6
  6
AUSGEZOGEN
 62
   136
370
    18
100
AcDbText
 10
657.744445516617
 20
285.296341434998
 30
0.0
 40
2.5
  1
%%c6.6
 50
270.0
 41
0.943126196429
  7
Arial
 72
     5
 11
657.744445516617
 21
278.161591759009
 31
0.0
100
AcDbText
  0
ENDBLK
  5
24A
330
248
100
AcDbEntity
  8
0
100
AcDbBlockEnd
  0
BLOCK
  5
257
330
256
100
AcDbEntity
  8
0
100
AcDbBlockBegin
  2
*D9
 70
     1
 10
0.0
 20
0.0
 30
0.0
  3
*D9
  1

  0
HATCH
  5
259
330
256
100
AcDbEntity
  8
Layer6
  6
AUSGEZOGEN
 62
   136
370
    18
100
AcDbHatch
 10
0.0
 20
0.0
 30
0.0
210
0.0
220
0.0
230
1.0
  2
SOLID
 70
     1
 71
     0
 91
        1
 92
        2
 72
     0
 73
     1
 93
        3
 10
649.7847638300123
 20
286.7156350006172
 10
650.1597638300123
 20
289.2156350006172
 10
649.4097638300123
 20
289.2156350006172
 97
        0
 75
     0
 76
     1
 98
        0
  0
HATCH
  5
25A
330
256
100
AcDbEntity
  8
Layer6
  6
AUSGEZOGEN
 62
   136
370
    18
100
AcDbHatch
 10
0.0
 20
0.0
 30
0.0
210
0.0
220
0.0
230
1.0
  2
SOLID
 70
     1
 71
     0
 91
        1
 92
        2
 72
     0
 73
     1
 93
        3
 10
649.7847638300123
 20
299.5907524054172
 10
649.4097638300123
 20
297.0907524054172
 10
650.1597638300123
 20
297.0907524054172
 97
        0
 75
     0
 76
     1
 98
        0
  0
LINE
  5
25B
330
256
100
AcDbEntity
  8
Layer6
  6
AUSGEZOGEN
 62
   136
370
    18
100
AcDbLine
 10
649.784763830012
 20
297.090752405417
 30
0.0
 11
649.784763830012
 21
289.215635000617
 31
0.0
  0
LINE
  5
25C
330
256
100
AcDbEntity
  8
Layer6
  6
AUSGEZOGEN
 62
   136
370
    18
100
AcDbLine
 10
649.784763830012
 20
297.090752405417
 30
0.0
 11
649.784763830012
 21
297.726168045873
 31
0.0
  0
LINE
  5
25D
330
256
100
AcDbEntity
  8
Layer6
  6
AUSGEZOGEN
 62
   136
370
    18
100
AcDbLine
 10
731.654968857916
 20
299.590752405417
 30
0.0
 11
648.356192401441
 21
299.590752405417
 31
0.0
  0
LINE
  5
25E
330
256
100
AcDbEntity
  8
Layer6
  6
AUSGEZOGEN
 62
   136
370
    18
100
AcDbLine
 10
731.654968857916
 20
286.715635000617
 30
0.0
 11
648.356192401441
 21
286.715635000617
 31
0.0
  0
WIPEOUT
  5
25F
330
256
100
AcDbEntity
  8
Layer6
  6
AUSGEZOGEN
 62
   136
370
    18
 92
      152
310
98000000040000000C0000000E000000120000000C00000016000000000000C20C00000014000000010000006C0000000700000004000000E447423247528440D48662629E9B72400000000000000000E447423247528440109121F0B50972400000000000000000E447423247728440109121F0B509724000000000000000
310
00E447423247728440D48662629E9B72400000000000000000
100
AcDbWipeout
 90
        0
 10
650.284763830012
 20
288.606918460007
 30
0.0
 11
9.119249585866953
 21
0.0
 31
0.0
 12
0.0
 22
9.119249585866953
 32
0.0
 13
1.0
 23
1.0
340
0
 70
     7
280
     1
281
    50
282
    50
283
     0
360
0
 71
     2
 91
        5
 14
-0.5
 24
-0.5
 14
-0.5
 24
0.5
 14
-0.061367417095
 24
0.5
 14
-0.061367417095
 24
-0.5
 14
-0.5
 24
-0.5
  0
TEXT
  5
260
330
256
100
AcDbEntity
  8
Layer6
  6
AUSGEZOGEN
 62
   136
370
    18
100
AcDbText
 10
651.034763830012
 20
297.726168045873
 30
0.0
 40
2.5
  1
%%c12.9
 50
270.0
 41
0.959416053221
  7
Arial
 72
     5
 11
651.034763830012
 21
288.606918460007
 31
0.0
100
AcDbText
  0
ENDBLK
  5
258
330
256
100
AcDbEntity
  8
0
100
AcDbBlockEnd
  0
ENDSEC
  0
SECTION
  2
ENTITIES
  0
WIPEOUT
  5
144
330
1F
100
AcDbEntity
  8
Layer5
  6
AUSGEZOGEN
 62
   136
370
    18
 92
      152
310
98000000040000000C0000000E000000120000000C00000016000000000000C20C00000014000000010000006C00000007000000040000001E296100829C8840801337F9337B6D400000000000000000B8C23AD086008940801337F9337B6D400000000000000000B8C23AD086008940B3466A2C672E6E4000000000000000
310
001E296100829C8840B3466A2C672E6E400000000000000000
100
AcDbWipeout
 90
        0
 10
787.563477286403
 20
235.850094420977
 30
0.0
 11
12.50234956741338
 21
0.0
 31
0.0
 12
0.0
 22
12.50234956741338
 32
0.0
 13
1.0
 23
1.0
340
0
 70
     7
280
     1
281
    50
282
    50
283
     0
360
0
 71
     2
 91
        5
 14
-0.5
 24
0.5
 14
0.5
 24
0.5
 14
0.5
 24
0.052084192671
 14
-0.5
 24
0.052084192671
 14
-0.5
 24
0.5
  0
TEXT
  5
145
330
1F
100
AcDbEntity
  8
Layer5
  6
AUSGEZOGEN
 62
   136
370
    18
100
AcDbText
 10
787.563477286403
 20
236.900094420977
 30
0.0
 40
3.5
  1
M 1:2
 41
1.023231130451
  7
Arial
 72
     5
 11
800.065826853816
 21
236.900094420977
 31
0.0
100
AcDbText
  0
INSERT
  5
1B2
330
1F
100
AcDbEntity
  8
0
100
AcDbBlockReference
  2
A3_nNn00
 10
0.0
 20
0.0
 30
0.0
  0
LINE
  5
1B3
330
1F
100
AcDbEntity
  8
0
  6
AUSGEZOGEN
 62
     9
370
    25
100
AcDbLine
 10
732.990251991516
 20
243.153193703017
 30
0.0
 11
735.082036256716
 21
243.153193703017
 31
0.0
  0
LINE
  5
1B4
330
1F
100
AcDbEntity
  8
0
  6
AUSGEZOGEN
 62
     9
370
    25
100
AcDbLine
 10
735.082036256716
 20
343.153193703017
 30
0.0
 11
732.990251991516
 21
343.153193703017
 31
0.0
  0
ARC
  5
1B5
330
1F
100
AcDbEntity
  8
0
  6
AUSGEZOGEN
 62
     9
370
    25
100
AcDbCircle
 10
735.082036256716
 20
245.653193703017
 30
0.0
 40
2.500000000000088
100
AcDbArc
 50
270.0
 51
328.0271755714
  0
ARC
  5
1B6
330
1F
100
AcDbEntity
  8
0
  6
AUSGEZOGEN
 62
     9
370
    25
100
AcDbCircle
 10
735.082036256716
 20
340.653193703017
 30
0.0
 40
2.500000000000088
100
AcDbArc
 50
31.9728244286
 51
90.0
  0
ARC
  5
1B7
330
1F
100
AcDbEntity
  8
0
  6
AUSGEZOGEN
 62
     9
370
    25
100
AcDbCircle
 10
658.985856387116
 20
293.153193703017
 30
0.0
 40
92.2043956043956
100
AcDbArc
 50
24.3385737429
 51
31.9728244286
  0
ARC
  5
1B8
330
1F
100
AcDbEntity
  8
0
  6
AUSGEZOGEN
 62
     9
370
    25
100
AcDbCircle
 10
658.985856387116
 20
293.153193703017
 30
0.0
 40
92.2043956043956
100
AcDbArc
 50
328.0271755714
 51
335.6614262571
  0
ARC
  5
1B9
330
1F
100
AcDbEntity
  8
0
  6
AUSGEZOGEN
 62
     9
370
    25
100
AcDbCircle
 10
740.969670600116
 20
328.940664975217
 30
0.0
 40
3.000000000000134
100
AcDbArc
 50
23.5821710657
 51
47.519699545
  0
ARC
  5
1BA
330
1F
100
AcDbEntity
  8
0
  6
AUSGEZOGEN
 62
     9
370
    25
100
AcDbCircle
 10
740.969670600116
 20
257.365722430817
 30
0.0
 40
3.000000000000134
100
AcDbArc
 50
312.480300455
 51
336.4178289343
  0
ARC
  5
1BB
330
1F
100
AcDbEntity
  8
0
  6
AUSGEZOGEN
 62
     9
370
    25
100
AcDbCircle
 10
658.985856387116
 20
293.153193703017
 30
0.0
 40
92.45439560439571
100
AcDbArc
 50
23.0647809575
 51
23.5821710657
  0
ARC
  5
1BC
330
1F
100
AcDbEntity
  8
0
  6
AUSGEZOGEN
 62
     9
370
    25
100
AcDbCircle
 10
658.985856387116
 20
293.153193703017
 30
0.0
 40
92.45439560439571
100
AcDbArc
 50
336.4178289343
 51
336.9352190425
  0
ARC
  5
1BD
330
1F
100
AcDbEntity
  8
0
  6
AUSGEZOGEN
 62
     9
370
    25
100
AcDbCircle
 10
741.289490218716
 20
258.107498516817
 30
0.0
 40
3.0
100
AcDbArc
 50
336.9352190425
 51
0.0
  0
ARC
  5
1BE
330
1F
100
AcDbEntity
  8
0
  6
AUSGEZOGEN
 62
     9
370
    25
100
AcDbCircle
 10
741.289490218716
 20
328.198888889417
 30
0.0
 40
3.0
100
AcDbArc
 50
0.0
 51
23.0647809575
  0
LINE
  5
1BF
330
1F
100
AcDbEntity
  8
0
  6
AUSGEZOGEN
 62
     9
370
    25
100
AcDbLine
 10
744.289490218716
 20
258.107498516817
 30
0.0
 11
744.289490218716
 21
328.198888889417
 31
0.0
  0
ARC
  5
1C0
330
1F
100
AcDbEntity
  8
0
  6
AUSGEZOGEN
 62
     9
370
    25
100
AcDbCircle
 10
658.985856387116
 20
293.153193703017
 30
0.0
 40
92.20439560439561
100
AcDbArc
 50
15.7319211894
 51
22.3083782803
  0
ARC
  5
1C1
330
1F
100
AcDbEntity
  8
0
  6
AUSGEZOGEN
 62
     9
370
    25
100
AcDbCircle
 10
658.985856387116
 20
293.153193703017
 30
0.0
 40
92.20439560439561
100
AcDbArc
 50
337.6916217197
 51
344.2680788106
  0
ARC
  5
1C2
330
1F
100
AcDbEntity
  8
0
  6
AUSGEZOGEN
 62
     9
370
    25
100
AcDbCircle
 10
745.402052148916
 20
316.268772930817
 30
0.0
 40
2.999999999999964
100
AcDbArc
 50
14.9755185122
 51
38.9130469915
  0
ARC
  5
1C3
330
1F
100
AcDbEntity
  8
0
  6
AUSGEZOGEN
 62
     9
370
    25
100
AcDbCircle
 10
745.402052148916
 20
270.037614475217
 30
0.0
 40
2.999999999999964
100
AcDbArc
 50
321.0869530085
 51
345.0244814878
  0
ARC
  5
1C4
330
1F
100
AcDbEntity
  8
0
  6
AUSGEZOGEN
 62
     9
370
    25
100
AcDbCircle
 10
658.985856387116
 20
293.153193703017
 30
0.0
 40
92.4543956043956
100
AcDbArc
 50
14.5603486047
 51
14.9755185122
  0
ARC
  5
1C5
330
1F
100
AcDbEntity
  8
0
  6
AUSGEZOGEN
 62
     9
370
    25
100
AcDbCircle
 10
658.985856387116
 20
293.153193703017
 30
0.0
 40
92.4543956043956
100
AcDbArc
 50
345.0244814878
 51
345.4396513953
  0
ARC
  5
1C6
330
1F
100
AcDbEntity
  8
0
  6
AUSGEZOGEN
 62
     9
370
    25
100
AcDbCircle
 10
745.567279400316
 20
270.664394669817
 30
0.0
 40
3.0
100
AcDbArc
 50
345.4396513953
 51
0.0
  0
ARC
  5
1C7
330
1F
100
AcDbEntity
  8
0
  6
AUSGEZOGEN
 62
     9
370
    25
100
AcDbCircle
 10
745.567279400316
 20
315.641992736417
 30
0.0
 40
3.0
100
AcDbArc
 50
0.0
 51
14.5603486047
  0
LINE
  5
1C8
330
1F
100
AcDbEntity
  8
0
  6
AUSGEZOGEN
 62
     9
370
    25
100
AcDbLine
 10
748.567279400316
 20
270.664394669817
 30
0.0
 11
748.567279400316
 21
315.641992736417
 31
0.0
  0
ARC
  5
1C9
330
1F
100
AcDbEntity
  8
0
  6
AUSGEZOGEN
 62
     9
370
    25
100
AcDbCircle
 10
658.985856387116
 20
293.153193703017
 30
0.0
 40
92.20439560439569
100
AcDbArc
 50
8.4191603462
 51
13.6991509247
  0
ARC
  5
1CA
330
1F
100
AcDbEntity
  8
0
  6
AUSGEZOGEN
 62
     9
370
    25
100
AcDbCircle
 10
658.985856387116
 20
293.153193703017
 30
0.0
 40
92.20439560439569
100
AcDbArc
 50
346.3008490753
 51
351.5808396538
  0
ARC
  5
1CB
330
1F
100
AcDbEntity
  8
0
  6
AUSGEZOGEN
 62
     9
370
    25
100
AcDbCircle
 10
750.233256726916
 20
279.903193703017
 30
0.0
 40
0.2500000000000596
100
AcDbArc
 50
270.0
 51
351.7378503002
  0
ARC
  5
1CC
330
1F
100
AcDbEntity
  8
0
  6
AUSGEZOGEN
 62
     9
370
    25
100
AcDbCircle
 10
750.233256726916
 20
306.403193703017
 30
0.0
 40
0.2500000000000596
100
AcDbArc
 50
8.2621496998
 51
90.0
  0
LINE
  5
1CD
330
1F
100
AcDbEntity
  8
0
  6
AUSGEZOGEN
 62
     9
370
    25
100
AcDbLine
 10
750.233256726916
 20
306.653193703017
 30
0.0
 11
750.196604486116
 21
306.653193703017
 31
0.0
  0
LINE
  5
1CE
330
1F
100
AcDbEntity
  8
0
  6
AUSGEZOGEN
 62
     9
370
    25
100
AcDbLine
 10
750.196604486116
 20
279.653193703017
 30
0.0
 11
750.233256726916
 21
279.653193703017
 31
0.0
  0
LINE
  5
1CF
330
1F
100
AcDbEntity
  8
0
  6
AUSGEZOGEN
 62
     9
370
    25
100
AcDbLine
 10
750.481032528516
 20
306.436567124217
 30
0.0
 11
750.480661961116
 21
306.439119322217
 31
0.0
  0
LINE
  5
1D0
330
1F
100
AcDbEntity
  8
0
  6
AUSGEZOGEN
 62
     9
370
    25
100
AcDbLine
 10
750.480661961116
 20
279.867268083817
 30
0.0
 11
750.481032528516
 21
279.869820281817
 31
0.0
  0
ARC
  5
1D1
330
1F
100
AcDbEntity
  8
0
  6
AUSGEZOGEN
 62
     9
370
    25
100
AcDbCircle
 10
750.233626292316
 20
279.905738999817
 30
0.0
 40
0.2499999999998864
100
AcDbArc
 50
351.7394485317
 51
0.0
  0
ARC
  5
1D2
330
1F
100
AcDbEntity
  8
0
  6
AUSGEZOGEN
 62
     9
370
    25
100
AcDbCircle
 10
750.233626292316
 20
306.400648406217
 30
0.0
 40
0.2499999999998864
100
AcDbArc
 50
0.0
 51
8.2605514683
  0
LINE
  5
1D3
330
1F
100
AcDbEntity
  8
0
  6
AUSGEZOGEN
 62
     9
370
    25
100
AcDbLine
 10
750.483626292316
 20
279.905738999817
 30
0.0
 11
750.483626292316
 21
306.400648406217
 31
0.0
  0
ARC
  5
1D4
330
1F
100
AcDbEntity
  8
0
  6
AUSGEZOGEN
 62
     9
370
    25
100
AcDbCircle
 10
658.985856387116
 20
293.153193703017
 30
0.0
 40
92.2043956043956
100
AcDbArc
 50
352.902028025
 51
7.097971975
  0
ARC
  5
1D5
330
1F
100
AcDbEntity
  8
0
  6
AUSGEZOGEN
 62
     9
370
    25
100
AcDbCircle
 10
730.990251991516
 20
283.790203154417
 30
0.0
 40
3.000000000000008
100
AcDbArc
 50
48.1896851042
 51
77.1986021235
  0
ARC
  5
1D6
330
1F
100
AcDbEntity
  8
0
  6
AUSGEZOGEN
 62
     9
370
    25
100
AcDbCircle
 10
730.990251991516
 20
302.516184251817
 30
0.0
 40
2.999999999999998
100
AcDbArc
 50
282.8013978765
 51
311.8103148958
  0
LINE
  5
1D7
330
1F
100
AcDbEntity
  8
0
  6
AUSGEZOGEN
 62
     9
370
    25
100
AcDbLine
 10
731.654968857916
 20
299.590752405417
 30
0.0
 11
664.443540446716
 21
296.447771940217
 31
0.0
  0
LINE
  5
1D8
330
1F
100
AcDbEntity
  8
0
  6
AUSGEZOGEN
 62
     9
370
    25
100
AcDbLine
 10
664.443540446716
 20
289.858615466017
 30
0.0
 11
731.654968857916
 21
286.715635000617
 31
0.0
  0
ARC
  5
1D9
330
1F
100
AcDbEntity
  8
0
  6
AUSGEZOGEN
 62
     9
370
    25
100
AcDbCircle
 10
664.490251991516
 20
295.448863520217
 30
0.0
 40
1.0
100
AcDbArc
 50
92.6773486237
 51
180.0
  0
ARC
  5
1DA
330
1F
100
AcDbEntity
  8
0
  6
AUSGEZOGEN
 62
     9
370
    25
100
AcDbCircle
 10
664.490251991516
 20
290.857523886017
 30
0.0
 40
1.00000000000001
100
AcDbArc
 50
180.0
 51
267.3226513763
  0
LINE
  5
1DB
330
1F
100
AcDbEntity
  8
0
  6
AUSGEZOGEN
 62
     9
370
    25
100
AcDbLine
 10
732.990251991516
 20
243.153193703017
 30
0.0
 11
732.990251991516
 21
343.153193703017
 31
0.0
  0
LINE
  5
1DC
330
1F
100
AcDbEntity
  8
0
  6
AUSGEZOGEN
 62
     9
370
    25
100
AcDbLine
 10
742.995680626716
 20
331.153193703017
 30
0.0
 11
742.995680626716
 21
255.153193703017
 31
0.0
  0
LINE
  5
1DD
330
1F
100
AcDbEntity
  8
0
  6
AUSGEZOGEN
 62
     9
370
    25
100
AcDbLine
 10
744.289142190116
 20
258.153193703017
 30
0.0
 11
744.289142190116
 21
328.153193703017
 31
0.0
  0
LINE
  5
1DE
330
1F
100
AcDbEntity
  8
0
  6
AUSGEZOGEN
 62
     9
370
    25
100
AcDbLine
 10
747.736352547916
 20
318.153193703017
 30
0.0
 11
747.736352547916
 21
268.153193703017
 31
0.0
  0
LINE
  5
1DF
330
1F
100
AcDbEntity
  8
0
  6
AUSGEZOGEN
 62
     9
370
    25
100
AcDbLine
 10
750.196604486116
 20
306.653193703017
 30
0.0
 11
750.196604486116
 21
279.653193703017
 31
0.0
  0
LINE
  5
1E0
330
1F
100
AcDbEntity
  8
0
  6
AUSGEZOGEN
 62
     9
370
    25
100
AcDbLine
 10
731.654968857916
 20
286.715635000617
 30
0.0
 11
731.654968857916
 21
299.590752405417
 31
0.0
  0
LINE
  5
1E1
330
1F
100
AcDbEntity
  8
0
  6
AUSGEZOGEN
 62
     9
370
    25
100
AcDbLine
 10
663.490251991516
 20
293.153193703017
 30
0.0
 11
663.490251991516
 21
295.448863520217
 31
0.0
  0
LINE
  5
1E2
330
1F
100
AcDbEntity
  8
0
  6
AUSGEZOGEN
 62
     9
370
    25
100
AcDbLine
 10
663.490251991516
 20
290.857523886017
 30
0.0
 11
663.490251991516
 21
293.153193703017
 31
0.0
  0
LINE
  5
1E3
330
1F
100
AcDbEntity
  8
0
  6
AUSGEZOGEN
 62
     9
370
    25
100
AcDbLine
 10
735.082036256716
 20
243.153193703017
 30
0.0
 11
735.082036256716
 21
343.153193703017
 31
0.0
  0
LINE
  5
1E4
330
1F
100
AcDbEntity
  8
0
  6
AUSGEZOGEN
 62
     9
370
    25
100
AcDbLine
 10
737.202784614716
 20
341.976986134817
 30
0.0
 11
737.202784614716
 21
244.329401271217
 31
0.0
  0
LINE
  5
1E5
330
1F
100
AcDbEntity
  8
0
  6
AUSGEZOGEN
 62
     9
370
    25
100
AcDbLine
 10
743.719132389916
 20
330.140856571017
 30
0.0
 11
743.719132389916
 21
256.165530835017
 31
0.0
  0
LINE
  5
1E6
330
1F
100
AcDbEntity
  8
0
  6
AUSGEZOGEN
 62
     9
370
    25
100
AcDbLine
 10
744.049677684316
 20
256.932183599617
 30
0.0
 11
744.049677684316
 21
329.374203806417
 31
0.0
  0
LINE
  5
1E7
330
1F
100
AcDbEntity
  8
0
  6
AUSGEZOGEN
 62
     9
370
    25
100
AcDbLine
 10
748.300161129716
 20
317.043991825417
 30
0.0
 11
748.300161129716
 21
269.262395580617
 31
0.0
  0
LINE
  5
1E8
330
1F
100
AcDbEntity
  8
0
  6
AUSGEZOGEN
 62
     9
370
    25
100
AcDbLine
 10
748.470929548516
 20
269.910195877817
 30
0.0
 11
748.470929548516
 21
316.396191528217
 31
0.0
  0
LINE
  5
1E9
330
1F
100
AcDbEntity
  8
0
  6
AUSGEZOGEN
 62
     9
370
    25
100
AcDbLine
 10
750.480661961116
 20
306.439119322217
 30
0.0
 11
750.480661961116
 21
279.867268083817
 31
0.0
  0
LINE
  5
1EA
330
1F
100
AcDbEntity
  8
0
  6
AUSGEZOGEN
 62
     9
370
    25
100
AcDbLine
 10
750.233256726916
 20
279.653193703017
 30
0.0
 11
750.233256726916
 21
306.653193703017
 31
0.0
  0
LINE
  5
1EB
330
1F
100
AcDbEntity
  8
0
  6
AUSGEZOGEN
 62
     9
370
    25
100
AcDbLine
 10
750.481032528516
 20
279.869820281817
 30
0.0
 11
750.481032528516
 21
306.436567124217
 31
0.0
  0
LINE
  5
1EC
330
1F
100
AcDbEntity
  8
0
  6
AUSGEZOGEN
 62
     9
370
    25
100
AcDbLine
 10
664.443540446716
 20
296.447771940217
 30
0.0
 11
664.443540446716
 21
289.858615466017
 31
0.0
  0
LWPOLYLINE
  5
1ED
330
1F
100
AcDbEntity
  8
0
  6
AUSGEZOGEN
 62
   136
370
    25
100
AcDbPolyline
 90
      173
 70
     0
 43
0.0
 10
820.550528277133
 20
213.753315837879
 10
820.554867146625
 20
213.892299014748
 10
820.55495180605
 20
214.063616213647
 10
820.549174550354
 20
214.234922310725
 10
820.538771960563
 20
214.406167878764
 10
820.524980617704
 20
214.577303490544
 10
820.508779556374
 20
214.748258386922
 10
820.490103226517
 20
214.91902559553
 10
820.468627905964
 20
215.089576765738
 10
820.444029872543
 20
215.259883546918
 10
820.416021956282
 20
215.430111095686
 10
820.384658988269
 20
215.600033468273
 10
820.350040230216
 20
215.76961885163
 10
820.312264943832
 20
215.938835432707
 10
820.271306638711
 20
216.108079825173
 10
820.22726541225
 20
216.276893591353
 10
820.180131141874
 20
216.445248755582
 10
820.129893705003
 20
216.613117342188
 10
820.076343873844
 20
216.781094268813
 10
820.019680153881
 20
216.948527118684
 10
819.9599251849
 20
217.11539020928
 10
819.897101606685
 20
217.281657858081
 10
819.83091902185
 20
217.448070131203
 10
819.761678500138
 20
217.613832654818
 10
819.689396336203
 20
217.778922566848
 10
819.614088824704
 20
217.943317005216
 10
819.535357750073
 20
218.107842699067
 10
819.453605974391
 20
218.271622227866
 10
819.368853221797
 20
218.434635251645
 10
819.281119216431
 20
218.596861430437
 10
819.189923402941
 20
218.75915464656
 10
819.095753727413
 20
218.920613797249
 10
818.998630088509
 20
219.081220787099
 10
818.89857238489
 20
219.240957520701
 10
818.795043391895
 20
219.400651358409
 10
818.688589572544
 20
219.559431083998
 10
818.579231445823
 20
219.717280441665
 10
818.466989530719
 20
219.874183175609
 10
818.351304296366
 20
220.030897033297
 10
818.232747989747
 20
220.186623572989
 10
818.11134138166
 20
220.341347965157
 10
817.987105242904
 20
220.495055380272
 10
817.859492043582
 20
220.648404367571
 10
817.729066211571
 20
220.800698606968
 10
817.595848782799
 20
220.951924307448
 10
817.459860793194
 20
221.102067677992
 10
817.320597287722
 20
221.251672541707
 10
817.178584909002
 20
221.400159961295
 10
817.033844991925
 20
221.547516859122
 10
816.886398871385
 20
221.693730157556
 10
816.735807517093
 20
221.83922600575
 10
816.582536690463
 20
221.983545522733
 10
816.42660813408
 20
222.126676096548
 10
816.268043590528
 20
222.268605115233
 10
816.10648468962
 20
222.409647843911
 10
815.942321575322
 20
222.549458402506
 10
815.775576526826
 20
222.688024476521
 10
815.606271823322
 20
222.825333751456
 10
815.434136026388
 20
222.961603770418
 10
815.259477180593
 20
223.096588250326
 10
815.082318233525
 20
223.230275077463
 10
814.902682132769
 20
223.362652138114
 10
814.720383501821
 20
223.493855617574
 10
814.535648813317
 20
223.623722257823
 10
814.348501800302
 20
223.752240107762
 10
814.158966195818
 20
223.879397216293
 10
813.966936549964
 20
224.00526545172
 10
813.772563488888
 20
224.129747372659
 10
813.575871624805
 20
224.252831196592
 10
813.376885569929
 20
224.374505141004
 10
813.175570338927
 20
224.494792751601
 10
812.972009747889
 20
224.613646282828
 10
812.766229355699
 20
224.731054156946
 10
812.558254721245
 20
224.847004796214
 10
812.348125084012
 20
224.961479387705
 10
812.135853580527
 20
225.074474040044
 10
811.92146675037
 20
225.185977438695
 10
811.704991133121
 20
225.295978269118
 10
811.486511292237
 20
225.404436884064
 10
811.265997827884
 20
225.51137142775
 10
811.043478277443
 20
225.616770913968
 10
810.818980178298
 20
225.720624356511
 10
810.592621173201
 20
225.822880688012
 10
810.364341230694
 20
225.923570632396
 10
810.134168881888
 20
226.022683601175
 10
809.902132657893
 20
226.120209005861
 10
809.66837386381
 20
226.216090709245
 10
809.432810988793
 20
226.310365671097
 10
809.195473535866
 20
226.403023769814
 10
808.956391008054
 20
226.494054883796
 10
808.715720187245
 20
226.583402384977
 10
808.473366037538
 20
226.671104913266
 10
808.229358997453
 20
226.757152880196
 10
807.983729505506
 20
226.841536697299
 10
807.736642885983
 20
226.924202396551
 10
807.48799730829
 20
227.005187181814
 10
807.237824098347
 20
227.084482059375
 10
806.986154582077
 20
227.162078035521
 10
806.733156868692
 20
227.237925837301
 10
806.478727907508
 20
227.312059239143
 10
806.222899854526
 20
227.384469898204
 10
805.965704865745
 20
227.455149471643
 10
805.707309131747
 20
227.524054566504
 10
805.447612918247
 20
227.591214387914
 10
805.186649146774
 20
227.65662129413
 10
804.924450738853
 20
227.720267643412
 10
804.396738673237
 20
227.84219191604
 10
803.864493322747
 20
227.956995049971
 10
803.328221446764
 20
228.064577142675
 10
802.787962874377
 20
228.164940339093
 10
802.24420557358
 20
228.25800186063
 10
801.697016625963
 20
228.343758900065
 10
801.146861038252
 20
228.422145010514
 10
800.593836123428
 20
228.493153616501
 10
800.038380596304
 20
228.556733458157
 10
799.480624130478
 20
228.612875667138
 10
798.920976495663
 20
228.661542777554
 10
798.359601168366
 20
228.702725290481
 10
797.796876867934
 20
228.73639796642
 10
797.233001760161
 20
228.762552451234
 10
796.668321856648
 20
228.781174040965
 10
796.103070445061
 20
228.792257363532
 10
795.537559546547
 20
228.795796471635
 10
794.972057624588
 20
228.79179083924
 10
794.406841934248
 20
228.780241438046
 10
793.842215661484
 20
228.761154454401
 10
793.278431970917
 20
228.734536511595
 10
792.715816812861
 20
228.700402040002
 10
792.154587283267
 20
228.658761078321
 10
791.595102846801
 20
228.609638125422
 10
791.037544422991
 20
228.553044694653
 10
790.482303887143
 20
228.489017127635
 10
789.929526208593
 20
228.417566473265
 10
789.379634246524
 20
228.33874262486
 10
788.832737631314
 20
228.252554256354
 10
788.289288414614
 20
228.159066425888
 10
787.749361959441
 20
228.058283589134
 10
787.213437269153
 20
227.95028745502
 10
786.681557067346
 20
227.835076544709
 10
786.154224578696
 20
227.712750484261
 10
785.892219326704
 20
227.648904928271
 10
785.631452213031
 20
227.583300344506
 10
785.371956105555
 20
227.515944399579
 10
785.113763872157
 20
227.446844760104
 10
784.856769146072
 20
227.375970265789
 10
784.601144776475
 20
227.303366186974
 10
784.346922925751
 20
227.229040852998
 10
784.094135756286
 20
227.153002593198
 10
783.84266761163
 20
227.075213560345
 10
783.592699154937
 20
226.995727039737
 10
783.344261501542
 20
226.914552149333
 10
783.097385766776
 20
226.831698007092
 10
782.851949843727
 20
226.747120251425
 10
782.608140009612
 20
226.660879464077
 10
782.365987322195
 20
226.572984841113
 10
782.12552283924
 20
226.483445578598
 10
781.886621851338
 20
226.392211304874
 10
781.649469424512
 20
226.29935111695
 10
781.414092615024
 20
226.204876677371
 10
781.180518479133
 20
226.108799648678
 10
780.948623334595
 20
226.011065520393
 10
780.71859792812
 20
225.911743280799
 10
780.490479849585
 20
225.81083784786
 10
780.264306688869
 20
225.708354139541
 10
780.039964354178
 20
225.60423382189
 10
779.817600780445
 20
225.498570387974
 10
779.597209655607
 20
225.391396114838
 10
779.378784667602
 20
225.282743279525
 10
779.162216097258
 20
225.172560587318
 10
778.94776278643
 20
225.060861792616
 10
778.735577804983
 20
224.94757882326
 10
778.525814222782
 20
224.832643607093
 10
778.136309647654
 20
224.612624473663
  0
LWPOLYLINE
  5
1EE
330
1F
100
AcDbEntity
  8
0
  6
AUSGEZOGEN
 62
   136
370
    25
100
AcDbPolyline
 90
       69
 70
     0
 43
0.0
 10
778.136309647654
 20
224.612624473663
 10
777.707845887786
 20
224.359154878316
 10
777.508496593956
 20
224.237276032513
 10
777.311736710652
 20
224.113793334365
 10
777.117459306379
 20
223.988806976046
 10
776.925557449641
 20
223.862417149729
 10
776.735879114628
 20
223.73465584264
 10
776.548530358731
 20
223.605578628314
 10
776.363570392567
 20
223.475173882093
 10
776.181058426754
 20
223.343429979315
 10
776.001077968169
 20
223.210364186978
 10
775.823617558256
 20
223.075966702184
 10
775.648690928795
 20
222.940256132002
 10
775.476311811566
 20
222.803251083502
 10
775.306590843732
 20
222.6650471752
 10
775.139453358295
 20
222.525579647062
 10
774.974924480381
 20
222.384859312488
 10
774.81302933512
 20
222.242896984873
 10
774.653957911613
 20
222.099854593696
 10
774.49756123855
 20
221.955596929847
 10
774.343860778043
 20
221.810137321371
 10
774.192877992201
 20
221.663489096316
 10
774.044874236348
 20
221.515907882663
 10
773.899622686587
 20
221.367168514937
 10
773.757145349
 20
221.217284293075
 10
773.61746422967
 20
221.066268517015
 10
773.48091396372
 20
220.914487133909
 10
773.347190489101
 20
220.761606926427
 10
773.216315369185
 20
220.607642167567
 10
773.088310167345
 20
220.452607130325
 10
772.963573672435
 20
220.296994003616
 10
772.841732516904
 20
220.140346707695
 10
772.722808171185
 20
219.982680646427
 10
772.60682210571
 20
219.824011223676
 10
772.494221238676
 20
219.664964967719
 10
772.384578745105
 20
219.504955278922
 10
772.277915783108
 20
219.343999159826
 10
772.174253510799
 20
219.182113612973
 10
772.074062891688
 20
219.020056742046
 10
771.976887683257
 20
218.857114728037
 10
771.88274880927
 20
218.693306591656
 10
771.791667193492
 20
218.528651353614
 10
771.704108131159
 20
218.364021458346
 10
771.619614973939
 20
218.198593421315
 10
771.538207018502
 20
218.032388687919
 10
771.459903561519
 20
217.865428703551
 10
771.385132295636
 20
217.698666947256
 10
771.313471134806
 20
217.531203610683
 10
771.244940924121
 20
217.363062806534
 10
771.179562508668
 20
217.194268647508
 10
771.117698020705
 20
217.025807181163
 10
771.058978285362
 20
216.856750566519
 10
771.003411254577
 20
216.687125789235
 10
770.951004880291
 20
216.51695983497
 10
770.90203307939
 20
216.34721160582
 10
770.856240737005
 20
216.176984021888
 10
770.813673143785
 20
216.006306330809
 10
770.774375590375
 20
215.835207780221
 10
770.738535460938
 20
215.664555356553
 10
770.705871609366
 20
215.493547873601
 10
770.676277235205
 20
215.322218074282
 10
770.649645538003
 20
215.150598701513
 10
770.626049375677
 20
214.979403103973
 10
770.605726966429
 20
214.807982118972
 10
770.589118760687
 20
214.636365159503
 10
770.576665208877
 20
214.464581638561
 10
770.569883462332
 20
214.328403289889
 10
770.565264368055
 20
214.192160393288
 10
770.559630599945
 20
213.919567020202
  0
LINE
  5
1EF
330
1F
100
AcDbEntity
  8
0
  6
AUSGEZOGEN
 62
   136
370
    25
100
AcDbLine
 10
820.555044908685
 20
212.981203456682
 30
0.0
 11
820.555044908685
 21
213.835217067782
 31
0.0
  0
LINE
  5
1F0
330
1F
100
AcDbEntity
  8
0
  6
AUSGEZOGEN
 62
   136
370
    25
100
AcDbLine
 10
770.555044908685
 20
213.835217067782
 30
0.0
 11
770.555044908685
 21
212.981203456682
 31
0.0
  0
LWPOLYLINE
  5
1F1
330
1F
100
AcDbEntity
  8
0
  6
AUSGEZOGEN
 62
   136
370
    25
100
AcDbPolyline
 90
       93
 70
     0
 43
0.0
 10
809.129137945685
 20
224.739223770787
 10
809.020734017154
 20
224.805815023267
 10
808.840130520145
 20
224.912260395101
 10
808.655326762312
 20
225.015823711806
 10
808.467292538097
 20
225.117122221714
 10
808.27699764194
 20
225.216773173157
 10
807.891977420604
 20
225.412508941163
 10
807.69697832668
 20
225.50838345413
 10
807.500024832045
 20
225.602689912315
 10
807.301051602595
 20
225.695237587946
 10
807.100004216761
 20
225.786073925264
 10
806.896981999465
 20
225.875233206648
 10
806.69208427563
 20
225.962749714479
 10
806.485549651629
 20
226.048585412481
 10
806.277256549152
 20
226.132792500987
 10
806.067220048446
 20
226.215348486408
 10
805.855455229755
 20
226.296230875155
 10
805.642166860743
 20
226.375351940676
 10
805.427207421785
 20
226.452773144524
 10
805.210616113797
 20
226.52848777811
 10
804.992432137698
 20
226.602489132849
 10
804.772896505657
 20
226.674704289678
 10
804.551844513391
 20
226.745192432355
 10
804.329310414219
 20
226.813943374623
 10
804.105328461457
 20
226.880946930223
 10
803.880140510356
 20
226.946134244411
 10
803.653578536038
 20
227.009558837448
 10
803.425679526635
 20
227.071212342217
 10
803.196480470275
 20
227.131086391601
 10
802.966220273736
 20
227.189122756823
 10
802.734736772142
 20
227.24536658079
 10
802.5020675141
 20
227.299810023406
 10
802.268250048219
 20
227.352445244575
 10
802.033510990678
 20
227.403224529351
 10
801.797701610654
 20
227.452183805395
 10
801.32302610562
 20
227.544614893043
 10
800.844874716705
 20
227.629626997419
 10
800.36322450169
 20
227.707239945457
 10
799.87868602631
 20
227.777367495662
 10
799.391286565645
 20
227.840018636892
 10
798.901589043075
 20
227.89513040334
 10
798.409676391267
 20
227.942703716315
 10
797.916058324299
 20
227.982696019694
 10
797.420877112803
 20
228.015103484025
 10
796.924585165955
 20
228.039900715722
 10
796.427386373813
 20
228.057082754545
 10
795.929672818319
 20
228.066637815576
 10
795.431711190987
 20
228.068563588931
 10
794.933831125261
 20
228.062858152313
 10
794.436362401436
 20
228.049525691609
 10
793.939584040729
 20
228.028570924844
 10
793.443875178188
 20
228.000008124992
 10
792.9494581871
 20
227.963845066053
 10
792.456765686992
 20
227.920109356212
 10
791.965955431483
 20
227.868807405488
 10
791.477519709689
 20
227.809984014552
 10
790.991552457225
 20
227.743640208729
 10
790.508603041278
 20
227.669841559271
 10
790.028703321291
 20
227.588579770741
 10
789.552456337631
 20
227.499944472579
 10
789.079834806014
 20
227.403914292555
 10
788.845108894718
 20
227.353166391044
 10
788.611490564633
 20
227.300606105707
 10
788.378823407961
 20
227.246194322568
 10
788.147341489868
 20
227.189982153198
 10
787.917082285871
 20
227.131977507308
 10
787.688083271487
 20
227.072188294608
 10
787.460166324923
 20
227.010563379568
 10
787.233585474109
 20
226.947167482515
 10
787.008376687044
 20
226.882009650163
 10
786.784575931721
 20
226.815098929223
 10
786.561987826385
 20
226.746371659176
 10
786.340883438629
 20
226.675905385187
 10
786.12129946861
 20
226.603708589486
 10
785.903272616483
 20
226.529789754302
 10
785.686596782896
 20
226.454072599112
 10
785.471547004053
 20
226.376651852674
 10
785.258151945356
 20
226.297541320589
 10
785.046440272204
 20
226.21675480846
 10
784.836201080247
 20
226.134206232529
 10
784.627731039761
 20
226.049988194214
 10
784.421083260082
 20
225.964097280494
 10
784.216310850546
 20
225.876530078344
 10
784.01321512012
 20
225.787189119894
 10
783.812008335414
 20
225.696227603068
 10
783.612646458848
 20
225.603708593761
 10
783.41508545284
 20
225.509695157871
 10
783.219124684975
 20
225.414102537785
 10
783.025238017506
 20
225.316891429709
 10
782.833738819055
 20
225.217877882844
 10
782.644940458242
 20
225.116877946391
 10
782.341073322789
 20
224.947075426352
 10
782.041259738836
 20
224.774354198775
  0
LWPOLYLINE
  5
1F2
330
1F
100
AcDbEntity
  8
0
  6
AUSGEZOGEN
 62
   136
370
    25
100
AcDbPolyline
 90
       22
 70
     0
 43
0.0
 10
798.859243286509
 20
225.961420096684
 10
798.793201950335
 20
225.973053759385
 10
798.59549449462
 20
226.00493636452
 10
798.396161615233
 20
226.03299684581
 10
798.19565990852
 20
226.058121479935
 10
797.99444597083
 20
226.081196543577
 10
797.591368891333
 20
226.123203566226
 10
797.186792235449
 20
226.158626707297
 10
796.983936641887
 20
226.17330574659
 10
796.780666733358
 20
226.185916854417
 10
796.373202732148
 20
226.205176010115
 10
795.965115068351
 20
226.21678527695
 10
795.556651526546
 20
226.220744008351
 10
795.148173276896
 20
226.216948035486
 10
794.740117355444
 20
226.205298825998
 10
794.332822529207
 20
226.185799244285
 10
793.926614387808
 20
226.158880024501
 10
793.52165863409
 20
226.124648431408
 10
793.320022967213
 20
226.104346735283
 10
793.119142295049
 20
226.081600283488
 10
792.793022439688
 20
226.039375397102
 10
792.46810113313
 20
225.99357488323
  0
LWPOLYLINE
  5
1F3
330
1F
100
AcDbEntity
  8
0
  6
AUSGEZOGEN
 62
   136
370
    25
100
AcDbPolyline
 90
       71
 70
     0
 43
0.0
 10
801.83128821627
 20
221.472629116619
 10
801.784298153172
 20
221.547689703117
 10
801.728489415904
 20
221.62761833813
 10
801.667435287459
 20
221.706127163212
 10
801.6022564
 20
221.783454851027
 10
801.53407338569
 20
221.85984007424
 10
801.463535409048
 20
221.935720328803
 10
801.390845213803
 20
222.010787899373
 10
801.31574690411
 20
222.08493868727
 10
801.237984584123
 20
222.15806859381
 10
801.157171411093
 20
222.230257692664
 10
801.07354422757
 20
222.301306736198
 10
800.987222711706
 20
222.371205959245
 10
800.898326541653
 20
222.43994559664
 10
800.806832315829
 20
222.507603924123
 10
800.712900240402
 20
222.57405645713
 10
800.616554186295
 20
222.639269964533
 10
800.517818024433
 20
222.7032112152
 10
800.416657572737
 20
222.765886684973
 10
800.313182793644
 20
222.827230217619
 10
800.207448522083
 20
222.887216977915
 10
800.099509592982
 20
222.945822130639
 10
799.989413913318
 20
223.003024125305
 10
799.87721979502
 20
223.058794891454
 10
799.762978869364
 20
223.113109805146
 10
799.646742767624
 20
223.165944242444
 10
799.52859169735
 20
223.21726231648
 10
799.408555255341
 20
223.267054172997
 10
799.28669071326
 20
223.315297996748
 10
799.163055342771
 20
223.361971972483
 10
799.037749238957
 20
223.407039837969
 10
798.910790828154
 20
223.450497782143
 10
798.782240210323
 20
223.492326478952
 10
798.65215748543
 20
223.532506602349
 10
798.520650544974
 20
223.571005842643
 10
798.387735794472
 20
223.607821952138
 10
798.117935443546
 20
223.676339085396
 10
797.84335642457
 20
223.737911474711
 10
797.564431370474
 20
223.792451962928
 10
797.281765798713
 20
223.839845860281
 10
796.995820115354
 20
223.880023921612
 10
796.707195936425
 20
223.912903538076
 10
796.416382849958
 20
223.938435127549
 10
796.123970916791
 20
223.956567146201
 10
795.830478041563
 20
223.967272048275
 10
795.536476612667
 20
223.970527657118
 10
795.242510478617
 20
223.966330957492
 10
794.949129477461
 20
223.954686969609
 10
794.656899577692
 20
223.935619692563
 10
794.366351153709
 20
223.909159633424
 10
794.078060919149
 20
223.875359328617
 10
793.792528353357
 20
223.834271465498
 10
793.51034231069
 20
223.785979955074
 10
793.231968112141
 20
223.730556875181
 10
792.958007525997
 20
223.668115568297
 10
792.688891751866
 20
223.598743481766
 10
792.556339733416
 20
223.561508197031
 10
792.425205789888
 20
223.522597261441
 10
792.295498890243
 20
223.482011016362
 10
792.167340483017
 20
223.439780352476
 10
792.040799148296
 20
223.395919981964
 10
791.915943466165
 20
223.350444617009
 10
791.792777011134
 20
223.303350564868
 10
791.671391035245
 20
223.254694545342
 10
791.551810129184
 20
223.204516383776
 10
791.434058883637
 20
223.152855905518
 10
791.318128551001
 20
223.09971214912
 10
791.20422704291
 20
223.045082550843
 10
791.09252706068
 20
222.988925216478
 10
790.983201305623
 20
222.931198251817
 10
790.807967562582
 20
222.833619977892
  0
LWPOLYLINE
  5
1F4
330
1F
100
AcDbEntity
  8
0
  6
AUSGEZOGEN
 62
   136
370
    25
100
AcDbPolyline
 90
       19
 70
     0
 43
0.0
 10
790.807967562582
 20
222.833619977892
 10
790.592044869188
 20
222.703067509794
 10
790.492863792649
 20
222.639211119496
 10
790.396365370453
 20
222.573897129544
 10
790.302444157902
 20
222.507242382122
 10
790.210994710298
 20
222.439363719416
 10
790.121918152263
 20
222.370328827287
 10
790.035356137903
 20
222.300175947318
 10
789.951454984374
 20
222.228895056607
 10
789.870361008832
 20
222.156476132251
 10
789.792194435634
 20
222.082963402758
 10
789.716747048344
 20
222.00840533126
 10
789.643787377103
 20
221.932903528602
 10
789.573083952051
 20
221.856559605628
 10
789.504697565346
 20
221.779522859819
 10
789.439333920611
 20
221.701540742026
 10
789.377996159315
 20
221.622406496816
 10
789.321687422923
 20
221.541913368751
 10
789.258133223613
 20
221.439765650847
  0
LINE
  5
1F5
330
1F
100
AcDbEntity
  8
0
  6
AUSGEZOGEN
 62
   136
370
    25
100
AcDbLine
 10
788.805044908685
 20
220.021011999682
 30
0.0
 11
788.805044908685
 21
220.006047974482
 31
0.0
  0
LINE
  5
1F6
330
1F
100
AcDbEntity
  8
0
  6
AUSGEZOGEN
 62
   136
370
    25
100
AcDbLine
 10
802.305044908685
 20
220.006047974482
 30
0.0
 11
802.305044908685
 21
220.021011999682
 31
0.0
  0
LWPOLYLINE
  5
1F7
330
1F
100
AcDbEntity
  8
0
  6
AUSGEZOGEN
 62
   136
370
    25
100
AcDbPolyline
 90
       75
 70
     0
 43
0.0
 10
801.343123685625
 20
218.352956056442
 10
801.245360251997
 20
218.24069751577
 10
801.176397654386
 20
218.169078898694
 10
801.10289208393
 20
218.098763434401
 10
801.025694924113
 20
218.029580360958
 10
800.94565755842
 20
217.961358916433
 10
800.863593185366
 20
217.894079452237
 10
800.779370230599
 20
217.827680935486
 10
800.692812575274
 20
217.762255975541
 10
800.603744100549
 20
217.697897181763
 10
800.512102648689
 20
217.634729876044
 10
800.417883934852
 20
217.572738121007
 10
800.321193769609
 20
217.511940358934
 10
800.222137963535
 20
217.452355032109
 10
800.12082843737
 20
217.394013158812
 10
800.017296474212
 20
217.336935982915
 10
799.911578689166
 20
217.281157748133
 10
799.803711697339
 20
217.226712698182
 10
799.693726321218
 20
217.173629049952
 10
799.581688583042
 20
217.121938874267
 10
799.46765908498
 20
217.071667973985
 10
799.351698429198
 20
217.022842151965
 10
799.233831802922
 20
216.9754730809
 10
799.114152427402
 20
216.929599528814
 10
798.992719215704
 20
216.885245263282
 10
798.869591080898
 20
216.84243405188
 10
798.618395391112
 20
216.761501302759
 10
798.361158290246
 20
216.687000116298
 10
798.098288004318
 20
216.619060559049
 10
797.830405038809
 20
216.557849341914
 10
797.557942253977
 20
216.503476124328
 10
797.281532161735
 20
216.456071549777
 10
797.001639499649
 20
216.41572364287
 10
796.718896300938
 20
216.382526205567
 10
796.433799276742
 20
216.356544055328
 10
796.14697069621
 20
216.337834940427
 10
795.858938144109
 20
216.326438032648
 10
795.570306767581
 20
216.322376735978
 10
795.281632144259
 20
216.325662015755
 10
794.99349632172
 20
216.336285139656
 10
794.706482906075
 20
216.354226006542
 10
794.421141924816
 20
216.379446356612
 10
794.1380806304
 20
216.411892136278
 10
793.85781239096
 20
216.451498673548
 10
793.580958250793
 20
216.498176054722
 10
793.307996186619
 20
216.551835923476
 10
793.039554648803
 20
216.612350613353
 10
792.776073263751
 20
216.679610611422
 10
792.518179952897
 20
216.753449102826
 10
792.266277960456
 20
216.833738521007
 10
792.142790523457
 20
216.876231597464
 10
792.020985793534
 20
216.920272777833
 10
791.900922990096
 20
216.965838491904
 10
791.782661332554
 20
217.01290516947
 10
791.666320602289
 20
217.061423115791
 10
791.551898650152
 20
217.11139119135
 10
791.439455833608
 20
217.162783676426
 10
791.329052510123
 20
217.215574851292
 10
791.220801682484
 20
217.269708877717
 10
791.114686862065
 20
217.325180787164
 10
791.010746409736
 20
217.381956933768
 10
790.909018686368
 20
217.440003671665
 10
790.809596608277
 20
217.499262716934
 10
790.712523489125
 20
217.559738010106
 10
790.617899225304
 20
217.621409967621
 10
790.525823713203
 20
217.68425900592
 10
790.436376571576
 20
217.748238268578
 10
790.349423493102
 20
217.813287615412
 10
790.264811210157
 20
217.879320209072
 10
790.182386455118
 20
217.946249212204
 10
790.102147138621
 20
218.014028879734
 10
790.024706493256
 20
218.082768835876
 10
789.950828839977
 20
218.152619761346
 10
789.881278499739
 20
218.223732336859
 10
789.767596290247
 20
218.35249340302
  0
LINE
  5
1F8
330
1F
100
AcDbEntity
  8
0
  6
AUSGEZOGEN
 62
   136
370
    25
100
AcDbLine
 10
793.126326962985
 20
198.617276712082
 30
0.0
 11
793.908656291785
 21
184.964170245482
 31
0.0
  0
LINE
  5
1F9
330
1F
100
AcDbEntity
  8
0
  6
AUSGEZOGEN
 62
   136
370
    25
100
AcDbLine
 10
797.201433525685
 20
184.964170245482
 30
0.0
 11
797.983762854485
 21
198.617276712082
 31
0.0
  0
LWPOLYLINE
  5
1FA
330
1F
100
AcDbEntity
  8
0
  6
AUSGEZOGEN
 62
   136
370
    25
100
AcDbPolyline
 90
       51
 70
     0
 43
0.0
 10
793.913676654633
 20
184.973053970283
 10
793.913337367549
 20
184.910812995916
 10
793.918689383704
 20
184.85864130177
 10
793.929404216773
 20
184.807070528379
 10
793.944324574711
 20
184.756246954526
 10
793.962293165471
 20
184.706316858994
 10
793.982157815501
 20
184.657913857978
 10
794.0040388744
 20
184.61062348214
 10
794.028100371002
 20
184.564539802655
 10
794.054506334144
 20
184.5197568907
 10
794.084076807646
 20
184.475345144467
 10
794.116083993036
 20
184.432420429954
 10
794.15033574018
 20
184.39100801079
 10
794.186639898946
 20
184.351133150603
 10
794.226758267856
 20
184.310964447451
 10
794.268852284319
 20
184.272509786212
 10
794.312849106256
 20
184.235762254016
 10
794.358675891586
 20
184.200714937992
 10
794.408998225526
 20
184.165526412634
 10
794.461189890426
 20
184.132217309114
 10
794.515158932617
 20
184.100776997788
 10
794.570813398431
 20
184.071194849014
 10
794.630387652284
 20
184.042390101282
 10
794.691590195939
 20
184.015586623853
 10
794.75432563869
 20
183.990787182784
 10
794.818498589828
 20
183.967994544133
 10
794.884793840387
 20
183.946978822262
 10
794.95234395439
 20
183.928032054847
 10
795.021029698699
 20
183.911165745486
 10
795.090731840177
 20
183.896391397777
 10
795.161118122085
 20
183.883754701076
 10
795.23226054573
 20
183.873219292566
 10
795.304023390126
 20
183.864795424492
 10
795.376270934291
 20
183.858493349097
 10
795.448704696993
 20
183.854328348598
 10
795.521346221326
 20
183.852284811627
 10
795.594055842687
 20
183.8523616419
 10
795.66669389647
 20
183.854557743131
 10
795.739374447694
 20
183.858891209942
 10
795.811694959981
 20
183.865358133794
 10
795.883508118341
 20
183.873958838093
 10
795.954666607781
 20
183.884693646242
 10
796.025658022047
 20
183.8976801991
 10
796.095740142728
 20
183.912795397837
 10
796.164820069501
 20
183.929995111547
 10
796.23280490204
 20
183.949235209322
 10
796.300675762144
 20
183.970867465517
 10
796.367081077671
 20
183.994678899204
 10
796.431783035052
 20
184.020785663359
 10
796.494543820718
 20
184.049303910956
 10
796.616666439408
 20
184.11310535322
  0
LWPOLYLINE
  5
1FB
330
1F
100
AcDbEntity
  8
0
  6
AUSGEZOGEN
 62
   136
370
    25
100
AcDbPolyline
 90
       20
 70
     0
 43
0.0
 10
796.616666439408
 20
184.11310535322
 10
796.681084986989
 20
184.153279963938
 10
796.743785454138
 20
184.195172688323
 10
796.791556505457
 20
184.23079571137
 10
796.837167949851
 20
184.268489021056
 10
796.880645382968
 20
184.308137659175
 10
796.922014400459
 20
184.349626667518
 10
796.959228248865
 20
184.390526432911
 10
796.994342061274
 20
184.432976879065
 10
797.027123721762
 20
184.476981298213
 10
797.0573411144
 20
184.522542982592
 10
797.083638732709
 20
184.567463665195
 10
797.107566574646
 20
184.613699469656
 10
797.129301967057
 20
184.661144074545
 10
797.14902223679
 20
184.709691158435
 10
797.166230597386
 20
184.757877792115
 10
797.180585536285
 20
184.806887300784
 10
797.19097330618
 20
184.856599587536
 10
797.196280159765
 20
184.906894555465
 10
797.196229822634
 20
184.966783841635
  0
LWPOLYLINE
  5
1FC
330
1F
100
AcDbEntity
  8
0
  6
AUSGEZOGEN
 62
   136
370
    25
100
AcDbPolyline
 90
      130
 70
     1
 43
0.0
 10
778.293227552885
 20
224.666090908582
 10
777.479408706785
 20
224.173009487782
 10
776.707806346585
 20
223.657805880382
 10
775.980222585385
 20
223.121683368382
 10
775.298356728685
 20
222.565894090582
 10
774.663801305785
 20
221.991736118682
 10
774.078038350385
 20
221.400550425282
 10
773.542435938985
 20
220.793717751882
 10
773.058244995685
 20
220.172655384282
 10
772.626596371085
 20
219.538813842482
 10
772.248498200385
 20
218.893673492782
 10
771.924833549485
 20
218.238741090282
 10
771.656358352085
 20
217.575546260082
 10
771.443699644485
 20
216.905637924282
 10
771.287354100985
 20
216.230580684982
 10
771.187686873785
 20
215.551951169582
 10
771.144930740385
 20
214.871334348782
 10
771.159185559685
 20
214.190319834682
 10
771.230418038785
 20
213.510498168182
 10
771.358461811185
 20
212.833457104382
 10
771.543017824485
 20
212.160777903982
 10
771.783655039585
 20
211.494031640482
 10
772.079811437285
 20
210.834775530582
 10
772.430795330385
 20
210.184549297582
 10
772.835786979985
 20
209.544871574982
 10
773.293840509085
 20
208.917236359682
 10
773.803886112585
 20
208.303109522782
 10
774.364732555285
 20
207.703925385982
 10
774.975069954285
 20
207.121083371682
 10
775.633472838485
 20
206.555944734282
 10
776.338403477185
 20
206.009829381382
 10
777.088215472485
 20
205.484012790682
 10
777.881157603585
 20
204.979723031082
 10
778.715377917385
 20
204.498137894682
 10
779.588928053685
 20
204.040382146082
 10
780.499767795785
 20
203.607524894782
 10
781.445769835085
 20
203.200577099182
 10
782.424724740085
 20
202.820489204582
 10
783.434346116285
 20
202.468148923882
 10
784.472275946085
 20
202.144379164082
 10
785.536090096385
 20
201.849936104582
 10
786.623303979785
 20
201.585507430782
 10
787.731378358085
 20
201.351710727982
 10
788.857725272085
 20
201.149092039382
 10
789.999714086385
 20
200.978124590182
 10
791.154677633185
 20
200.839207682782
 10
792.319918441785
 20
200.732665764082
 10
793.492715038085
 20
200.658747667682
 10
794.670328301285
 20
200.617626032782
 10
795.850007861185
 20
200.609396900782
 10
797.028998521485
 20
200.634079491182
 10
798.204546694785
 20
200.691616156782
 10
799.373906833885
 20
200.781872517882
 10
800.534347843985
 20
200.904637776582
 10
801.683159461385
 20
201.059625209082
 10
802.817658583385
 20
201.246472834882
 10
803.935195534485
 20
201.464744262782
 10
805.033160255585
 20
201.713929709782
 10
806.108988399185
 20
201.993447191582
 10
807.160167318585
 20
202.302643882282
 10
808.184241936985
 20
202.640797638582
 10
809.178820480485
 20
203.007118686882
 10
810.141580064985
 20
203.400751467182
 10
811.070272120685
 20
203.820776632082
 10
811.962727644285
 20
204.266213193282
 10
812.816862264585
 20
204.736020812982
 10
813.630681110685
 20
205.229102233782
 10
814.402283470885
 20
205.744305841082
 10
815.129867232085
 20
206.280428353182
 10
815.811733088785
 20
206.836217630982
 10
816.446288511685
 20
207.410375602882
 10
817.032051467085
 20
208.001561296282
 10
817.567653878485
 20
208.608393969682
 10
818.051844821785
 20
209.229456337282
 10
818.483493446385
 20
209.863297879082
 10
818.861591617085
 20
210.508438228782
 10
819.185256267985
 20
211.163370631282
 10
819.453731465385
 20
211.826565461482
 10
819.666390172985
 20
212.496473797182
 10
819.822735716485
 20
213.171531036582
 10
819.922402943685
 20
213.850160551982
 10
819.965159077085
 20
214.530777372782
 10
819.950904257785
 20
215.211791886882
 10
819.879671778685
 20
215.891613553382
 10
819.751628006285
 20
216.568654617182
 10
819.567071992985
 20
217.241333817582
 10
819.326434777885
 20
217.908080081082
 10
819.030278380185
 20
218.567336190982
 10
818.679294486985
 20
219.217562423982
 10
818.274302837485
 20
219.857240146582
 10
817.816249308385
 20
220.484875361882
 10
817.306203704885
 20
221.099002198782
 10
816.745357262185
 20
221.698186335582
 10
816.135019863185
 20
222.281028349882
 10
815.476616978985
 20
222.846166987282
 10
814.771686340185
 20
223.392282340182
 10
814.021874344985
 20
223.918098930882
 10
813.228932213885
 20
224.422388690482
 10
812.394711900085
 20
224.903973826782
 10
811.521161763785
 20
225.361729575482
 10
810.610322021685
 20
225.794586826682
 10
809.664319982385
 20
226.201534622382
 10
808.685365077385
 20
226.581622516982
 10
807.675743701185
 20
226.933962797682
 10
806.637813871385
 20
227.257732557382
 10
805.573999721085
 20
227.552175616882
 10
804.486785837685
 20
227.816604290782
 10
803.378711459385
 20
228.050400993482
 10
802.252364545385
 20
228.253019682182
 10
801.110375731085
 20
228.423987131382
 10
799.955412184285
 20
228.562904038782
 10
798.790171375685
 20
228.669445957482
 10
797.617374779385
 20
228.743364053882
 10
796.439761516185
 20
228.784485688782
 10
795.260081956285
 20
228.792714820782
 10
794.081091295985
 20
228.768032230382
 10
792.905543122685
 20
228.710495564782
 10
791.736182983585
 20
228.620239203682
 10
790.575741973485
 20
228.497473944882
 10
789.426930355985
 20
228.342486512482
 10
788.292431234085
 20
228.155638886682
 10
787.174894282885
 20
227.937367458782
 10
786.076929561885
 20
227.688182011782
 10
785.001101418285
 20
227.408664529982
 10
783.949922498785
 20
227.099467839282
 10
782.925847880485
 20
226.761314082882
 10
781.931269336985
 20
226.394993034682
 10
780.968509752485
 20
226.001360254282
 10
780.039817696785
 20
225.581335089482
 10
779.147362173185
 20
225.135898528282
  0
LWPOLYLINE
  5
1FD
330
1F
100
AcDbEntity
  8
0
  6
AUSGEZOGEN
 62
   136
370
    25
100
AcDbPolyline
 90
       87
 70
     0
 43
0.0
 10
782.007753767985
 20
224.756647172982
 10
781.400311287485
 20
224.382969860682
 10
780.723593969485
 20
223.921717771082
 10
780.091919280585
 20
223.439645468082
 10
779.507205595985
 20
222.938216989482
 10
778.971228671985
 20
222.418955157082
 10
778.485616252785
 20
221.883436951882
 10
778.051843127385
 20
221.333288725282
 10
777.671226650585
 20
220.770181259182
 10
777.344922741985
 20
220.195824692582
 10
777.073922375985
 20
219.611963327382
 10
776.859048571685
 20
219.020370331482
 10
776.700953893685
 20
218.422842353282
 10
776.600118470585
 20
217.821194065582
 10
776.556848535985
 20
217.217252654582
 10
776.571275499385
 20
216.612852270382
 10
776.643355546585
 20
216.009828457082
 10
776.772869772785
 20
215.410012578282
 10
776.959424847485
 20
214.815226254982
 10
777.202454209285
 20
214.227275833782
 10
777.501219785685
 20
213.647946900782
 10
777.854814235785
 20
213.078998858882
 10
778.262163704585
 20
212.522159584482
 10
778.722031085285
 20
211.979120180382
 10
779.233019775685
 20
211.451529839282
 10
779.793577919985
 20
210.940990835682
 10
780.402003121485
 20
210.449053659782
 10
781.056447612985
 20
209.977212308582
 10
781.754923867785
 20
209.526899748882
 10
782.495310636685
 20
209.099483564982
 10
783.275359389385
 20
208.696261805882
 10
784.092701143385
 20
208.318459042782
 10
784.944853658685
 20
207.967222650182
 10
785.829228975985
 20
207.643619321582
 10
786.743141276785
 20
207.348631829582
 10
787.683815039185
 20
207.083156041482
 10
788.648393467985
 20
206.847998198582
 10
789.633947170285
 20
206.643872467582
 10
790.637483051785
 20
206.471398771482
 10
791.655953406985
 20
206.331100907282
 10
792.686265174985
 20
206.223404954982
 10
793.725289332685
 20
206.148637983682
 10
794.769870397985
 20
206.107027058082
 10
795.816836012485
 20
206.098698549482
 10
796.863006575985
 20
206.123677750982
 10
797.905204902885
 20
206.181888801682
 10
798.940265871085
 20
206.273154916582
 10
799.965046034485
 20
206.397198923482
 10
800.976433169485
 20
206.553644104782
 10
801.971355726485
 20
206.742015341582
 10
802.946792158385
 20
206.961740556682
 10
803.899780096785
 20
207.212152451782
 10
804.827425348785
 20
207.492490534282
 10
805.726910686085
 20
207.801903426482
 10
806.595504401385
 20
208.139451451682
 10
807.430568603985
 20
208.504109487582
 10
808.229567231485
 20
208.894770079782
 10
808.990073751285
 20
209.310246804882
 10
809.709778529985
 20
209.749277873682
 10
810.386495847985
 20
210.210529963382
 10
811.018170536885
 20
210.692602266382
 10
811.602884221485
 20
211.194030744982
 10
812.138861145485
 20
211.713292577382
 10
812.624473564685
 20
212.248810782482
 10
813.058246690085
 20
212.798959009182
 10
813.438863166885
 20
213.362066475182
 10
813.765167075485
 20
213.936423041882
 10
814.036167441485
 20
214.520284406982
 10
814.251041245785
 20
215.111877402982
 10
814.409135923785
 20
215.709405381182
 10
814.509971346885
 20
216.311053668882
 10
814.553241281485
 20
216.914995079882
 10
814.538814318085
 20
217.519395464082
 10
814.466734270885
 20
218.122419277382
 10
814.337220044685
 20
218.722235156182
 10
814.150664969985
 20
219.317021479482
 10
813.907635608185
 20
219.904971900682
 10
813.608870031685
 20
220.484300833682
 10
813.255275581685
 20
221.053248875582
 10
812.847926112885
 20
221.610088149882
 10
812.388058732185
 20
222.153127554082
 10
811.877070041785
 20
222.680717895182
 10
811.316511897485
 20
223.191256898782
 10
810.708086695885
 20
223.683194074682
 10
810.053642204485
 20
224.155035425782
 10
809.355165949685
 20
224.605347985582
 10
809.160862259185
 20
224.722137233282
  0
LINE
  5
1FE
330
1F
100
AcDbEntity
  8
0
  6
AUSGEZOGEN
 62
   136
370
    25
100
AcDbLine
 10
820.555044908685
 20
213.835217067782
 30
0.0
 11
820.554711649985
 21
213.760698132882
 31
0.0
  0
LINE
  5
1FF
330
1F
100
AcDbEntity
  8
0
  6
AUSGEZOGEN
 62
   136
370
    25
100
AcDbLine
 10
770.555044908685
 20
213.835217067782
 30
0.0
 11
770.555398415985
 21
213.911966456082
 31
0.0
  0
LWPOLYLINE
  5
200
330
1F
100
AcDbEntity
  8
0
  6
AUSGEZOGEN
 62
   136
370
    25
100
AcDbPolyline
 90
       67
 70
     0
 43
0.0
 10
820.555044908685
 20
212.981203456682
 10
820.533031894185
 20
212.375693270882
 10
820.454018018985
 20
211.685049443482
 10
820.317735707685
 20
210.997386811782
 10
820.124498414085
 20
210.314287021982
 10
819.874750590085
 20
209.637321225482
 10
819.569066663585
 20
208.968046465182
 10
819.208149717585
 20
208.308002094682
 10
818.792829872485
 20
207.658706236982
 10
818.324062377385
 20
207.021652293482
 10
817.802925412385
 20
206.398305508582
 10
817.230617609385
 20
205.790099599982
 10
816.608455294485
 20
205.198433460682
 10
815.937869461085
 20
204.624667941682
 10
815.220402477985
 20
204.070122722282
 10
814.457704542285
 20
203.536073274082
 10
813.651529883785
 20
203.023747927982
 10
812.803732729785
 20
202.534325048682
 10
811.916263041185
 20
202.068930324482
 10
810.991162026485
 20
201.628634178182
 10
810.030557447785
 20
201.214449304982
 10
809.036658726385
 20
200.827328343482
 10
808.011751861185
 20
200.468161684182
 10
806.958194170785
 20
200.137775421982
 10
805.878408871685
 20
199.836929455782
 10
804.774879504685
 20
199.566315740982
 10
803.650144222685
 20
199.326556697882
 10
802.506789952785
 20
199.118203779882
 10
801.347446446485
 20
198.941736205282
 10
800.174780231085
 20
198.797559855382
 10
798.991488476385
 20
198.686006340282
 10
797.800292791385
 20
198.607332236582
 10
796.603932964185
 20
198.561718497282
 10
795.405160660985
 20
198.549270035582
 10
794.206733096285
 20
198.570015483182
 10
793.011406691985
 20
198.623907124882
 10
791.821930737085
 20
198.710821008282
 10
790.641041064485
 20
198.830557228582
 10
789.471453758085
 20
198.982840388682
 10
788.315858906385
 20
199.167320232382
 10
787.176914414385
 20
199.383572450282
 10
786.057239890985
 20
199.631099655182
 10
784.959410623585
 20
199.909332526582
 10
783.885951654485
 20
200.217631120082
 10
782.839331973885
 20
200.555286338882
 10
781.821958840485
 20
200.921521565382
 10
780.836172245185
 20
201.315494446582
 10
779.884239528585
 20
201.736298832382
 10
778.968350166585
 20
202.182966859182
 10
778.090610733985
 20
202.654471176182
 10
777.253040059685
 20
203.149727308282
 10
776.457564583085
 20
203.667596150682
 10
775.706013923185
 20
204.206886588282
 10
775.000116670585
 20
204.766358235882
 10
774.341496411585
 20
205.344724290682
 10
773.731667993985
 20
205.940654492282
 10
773.172034042585
 20
206.552778182182
 10
772.663881733585
 20
207.179687456182
 10
772.208379833285
 20
207.819940402882
 10
771.806576010885
 20
208.472064420082
 10
771.459394427985
 20
209.134559601482
 10
771.167633613285
 20
209.805902187082
 10
770.931964626185
 20
210.484548067282
 10
770.752929512685
 20
211.168936334882
 10
770.630940059485
 20
211.857492874982
 10
770.566276846085
 20
212.548633985382
 10
770.555044908685
 20
212.981203456682
  0
LWPOLYLINE
  5
201
330
1F
100
AcDbEntity
  8
0
  6
AUSGEZOGEN
 62
   136
370
    25
100
AcDbPolyline
 90
      113
 70
     1
 43
0.0
 10
808.632158525785
 20
224.910744812882
 10
807.885190739885
 20
225.318625816282
 10
807.100111179785
 20
225.701911762082
 10
806.279346481485
 20
226.059417935382
 10
805.425433581685
 20
226.390039305282
 10
804.541011876085
 20
226.692753939782
 10
803.628815061485
 20
226.966626165482
 10
802.691662686085
 20
227.210809458982
 10
801.732451434085
 20
227.424549063682
 10
800.754146172585
 20
227.607184322782
 10
799.759770786985
 20
227.758150721082
 10
798.752398834685
 20
227.876981630182
 10
797.735144044685
 20
227.963309750482
 10
796.711150693085
 20
228.016868246782
 10
795.683583884785
 20
228.037491572782
 10
794.655619769885
 20
228.025115982882
 10
793.630435726585
 20
227.979779729582
 10
792.611200539985
 20
227.901622944382
 10
791.601064607585
 20
227.790887205482
 10
790.603150201685
 20
227.647914790782
 10
789.620541818485
 20
227.473147619782
 10
788.656276644385
 20
227.267125887782
 10
787.713335167585
 20
227.030486396182
 10
786.794631966185
 20
226.763960583982
 10
785.903006699085
 20
226.468372267382
 10
785.041215329085
 20
226.144635092782
 10
784.211921603685
 20
225.793749713282
 10
783.417688822485
 20
225.416800695482
 10
782.660971913285
 20
225.014953167182
 10
781.944109844785
 20
224.589449216082
 10
781.269318396585
 20
224.141604050482
 10
780.638683310385
 20
223.672801934182
 10
780.054153843085
 20
223.184491907582
 10
779.517536741685
 20
222.678183309082
 10
779.030490658985
 20
222.155441109482
 10
778.594521026485
 20
221.617881074882
 10
778.210975401285
 20
221.067164772682
 10
777.881039300985
 20
220.504994435382
 10
777.605732539285
 20
219.933107699282
 10
777.385906073385
 20
219.353272233382
 10
777.222239374385
 20
218.767280276082
 10
777.115238326685
 20
218.176943094782
 10
777.065233664485
 20
217.584085387882
 10
777.072379949085
 20
216.990539644782
 10
777.136655091985
 20
216.398140481082
 10
777.257860422285
 20
215.808718968782
 10
777.435621301185
 20
215.224096976082
 10
777.669388280185
 20
214.646081535882
 10
777.958438798785
 20
214.076459260882
 10
778.301879418485
 20
213.516990820982
 10
778.698648583885
 20
212.969405500882
 10
779.147519904385
 20
212.435395855482
 10
779.647105944385
 20
211.916612477982
 10
780.195862512085
 20
211.414658898182
 10
780.792093432385
 20
210.931086625782
 10
781.433955789685
 20
210.467390354882
 10
782.119465624085
 20
210.025003344082
 10
782.846504064185
 20
209.605292986382
 10
783.612823875785
 20
209.209556582482
 10
784.416056408185
 20
208.839017330782
 10
785.253718915685
 20
208.494820546882
 10
786.123222231385
 20
208.178030123482
 10
787.021878770585
 20
207.889625241482
 10
787.946910837285
 20
207.630497343782
 10
788.895459210385
 20
207.401447380082
 10
789.864591981185
 20
207.203183330482
 10
790.851313615985
 20
207.036318017982
 10
791.852574214585
 20
206.901367213482
 10
792.865278937885
 20
206.798748042382
 10
793.886297573685
 20
206.728777694582
 10
794.912474211885
 20
206.691672444382
 10
795.940636999285
 20
206.687546982082
 10
796.967607943585
 20
206.716414059182
 10
797.990212736585
 20
206.778184449182
 10
799.005290565285
 20
206.872667223382
 10
800.009703882485
 20
206.999570340882
 10
801.000348103985
 20
207.158501551482
 10
801.974161205385
 20
207.348969607982
 10
802.928133186185
 20
207.570385784382
 10
803.859315373685
 20
207.822065696082
 10
804.764829537085
 20
208.103231414882
 10
805.641876783985
 20
208.413013873582
 10
806.487746211585
 20
208.750455552482
 10
807.299823285985
 20
209.114513438482
 10
808.075597923485
 20
209.504062249782
 10
808.812672249185
 20
209.917897913182
 10
809.508768008485
 20
210.354741286382
 10
810.161733609285
 20
210.813242111482
 10
810.769550772485
 20
211.291983188882
 10
811.330340769985
 20
211.789484757182
 10
811.842370231985
 20
212.304209067582
 10
812.304056504785
 20
212.834565136882
 10
812.713972542585
 20
213.378913664582
 10
813.070851318385
 20
213.935572100882
 10
813.373589740385
 20
214.502819846282
 10
813.621252061485
 20
215.078903570482
 10
813.813072771585
 20
215.662042631782
 10
813.948458963885
 20
216.250434580782
 10
814.026992167485
 20
216.842260731582
 10
814.048429640585
 20
217.435691783582
 10
814.012705121385
 20
218.028893475382
 10
813.919929032185
 20
218.620032254482
 10
813.770388138585
 20
219.207280944782
 10
813.564544662985
 20
219.788824394382
 10
813.303034855685
 20
220.362865085682
 10
812.986667028585
 20
220.927628691882
 10
812.616419056485
 20
221.481369560882
 10
812.193435354585
 20
222.022376111582
 10
811.719023341385
 20
222.548976123582
 10
811.194649397185
 20
223.059541906582
 10
810.621934331685
 20
223.552495330882
 10
810.002648374585
 20
224.026312705682
 10
809.338705702985
 20
224.479529488782
  0
LWPOLYLINE
  5
202
330
1F
100
AcDbEntity
  8
0
  6
AUSGEZOGEN
 62
   136
370
    25
100
AcDbPolyline
 90
      112
 70
     1
 43
0.0
 10
808.361105841485
 20
224.889221290482
 10
809.059001102585
 20
224.463074505882
 10
809.714407921585
 20
224.015008110682
 10
810.325264145985
 20
223.546431887582
 10
810.889647796285
 20
223.058820150682
 10
811.405783112585
 20
222.553707106882
 10
811.872046142285
 20
222.032682028782
 10
812.286969849485
 20
221.497384253882
 10
812.649248730485
 20
220.949498027282
 10
812.957742922085
 20
220.390747201482
 10
813.211481787385
 20
219.822889813482
 10
813.409666969985
 20
219.247712552582
 10
813.551674905985
 20
218.667025139282
 10
813.637058785885
 20
218.082654631082
 10
813.665549960485
 20
217.496439673682
 10
813.637058785885
 20
216.910224716382
 10
813.551674905985
 20
216.325854208182
 10
813.409666969985
 20
215.745166794882
 10
813.211481787385
 20
215.169989533982
 10
812.957742922085
 20
214.602132145982
 10
812.649248730485
 20
214.043381320182
 10
812.286969849485
 20
213.495495093582
 10
811.872046142285
 20
212.960197318682
 10
811.405783112585
 20
212.439172240582
 10
810.889647796285
 20
211.934059196782
 10
810.325264145985
 20
211.446447459882
 10
809.714407921585
 20
210.977871236782
 10
809.059001102585
 20
210.529804841582
 10
808.361105841485
 20
210.103658056982
 10
807.622917974885
 20
209.700771698482
 10
806.846760114985
 20
209.322413395482
 10
806.035074341485
 20
208.969773603282
 10
805.190414518185
 20
208.643961857082
 10
804.315438257285
 20
208.346003281182
 10
803.412898557885
 20
208.076835363482
 10
802.485635143785
 20
207.837305005882
 10
801.536565528785
 20
207.628165859582
 10
800.568675836885
 20
207.450075953482
 10
799.585011407285
 20
207.303595624482
 10
798.588667212085
 20
207.189185753882
 10
797.582778118785
 20
207.107206317382
 10
796.570509026685
 20
207.057915252682
 10
795.555044908685
 20
207.041467647682
 10
794.539580790785
 20
207.057915252682
 10
793.527311698685
 20
207.107206317382
 10
792.521422605385
 20
207.189185753882
 10
791.525078410185
 20
207.303595624482
 10
790.541413980585
 20
207.450075953482
 10
789.573524288685
 20
207.628165859582
 10
788.624454673685
 20
207.837305005882
 10
787.697191259585
 20
208.076835363482
 10
786.794651560185
 20
208.346003281182
 10
785.919675299285
 20
208.643961857082
 10
785.075015475985
 20
208.969773603282
 10
784.263329702485
 20
209.322413395482
 10
783.487171842585
 20
209.700771698482
 10
782.748983975985
 20
210.103658056982
 10
782.051088714885
 20
210.529804841582
 10
781.395681895885
 20
210.977871236782
 10
780.784825671485
 20
211.446447459882
 10
780.220442021185
 20
211.934059196782
 10
779.704306704885
 20
212.439172240582
 10
779.238043675185
 20
212.960197318682
 10
778.823119967985
 20
213.495495093582
 10
778.460841086985
 20
214.043381320182
 10
778.152346895385
 20
214.602132145982
 10
777.898608030085
 20
215.169989533982
 10
777.700422847485
 20
215.745166794882
 10
777.558414911485
 20
216.325854208182
 10
777.473031031585
 20
216.910224716382
 10
777.444539856985
 20
217.496439673682
 10
777.473031031585
 20
218.082654631082
 10
777.558414911485
 20
218.667025139282
 10
777.700422847485
 20
219.247712552582
 10
777.898608030085
 20
219.822889813482
 10
778.152346895385
 20
220.390747201482
 10
778.460841086985
 20
220.949498027282
 10
778.823119967985
 20
221.497384253882
 10
779.238043675185
 20
222.032682028782
 10
779.704306704885
 20
222.553707106882
 10
780.220442021185
 20
223.058820150682
 10
780.784825671485
 20
223.546431887582
 10
781.395681895885
 20
224.015008110682
 10
782.051088714885
 20
224.463074505882
 10
782.748983975985
 20
224.889221290482
 10
783.487171842585
 20
225.292107648982
 10
784.263329702485
 20
225.670465951982
 10
785.075015475985
 20
226.023105744182
 10
785.919675299285
 20
226.348917490382
 10
786.794651560185
 20
226.646876066282
 10
787.697191259585
 20
226.916043983982
 10
788.624454673685
 20
227.155574341582
 10
789.573524288685
 20
227.364713487882
 10
790.541413980585
 20
227.542803393982
 10
791.525078410185
 20
227.689283722982
 10
792.521422605385
 20
227.803693593582
 10
793.527311698685
 20
227.885673030082
 10
794.539580790785
 20
227.934964094782
 10
795.555044908685
 20
227.951411699782
 10
796.570509026685
 20
227.934964094782
 10
797.582778118785
 20
227.885673030082
 10
798.588667212085
 20
227.803693593582
 10
799.585011407285
 20
227.689283722982
 10
800.568675836885
 20
227.542803393982
 10
801.536565528785
 20
227.364713487882
 10
802.485635143785
 20
227.155574341582
 10
803.412898557885
 20
226.916043983982
 10
804.315438257285
 20
226.646876066282
 10
805.190414518185
 20
226.348917490382
 10
806.035074341485
 20
226.023105744182
 10
806.846760114985
 20
225.670465951982
 10
807.622917974885
 20
225.292107648982
  0
LWPOLYLINE
  5
203
330
1F
100
AcDbEntity
  8
0
  6
AUSGEZOGEN
 62
   136
370
    25
100
AcDbPolyline
 90
       79
 70
     0
 43
0.0
 10
786.716210143885
 20
224.104150615782
 10
786.139667434285
 20
223.748037825482
 10
785.606084932585
 20
223.370268127682
 10
785.117897253285
 20
222.972565198882
 10
784.677331884985
 20
222.556743666182
 10
784.286399026185
 20
222.124700827982
 10
783.946882414085
 20
221.678407996682
 10
783.660331184985
 20
221.219901504082
 10
783.428052806385
 20
220.751273410082
 10
783.251107111285
 20
220.274661957282
 10
783.130301462285
 20
219.792241814282
 10
783.066187067985
 20
219.306214153782
 10
783.059056467485
 20
218.818796608282
 10
783.108942196285
 20
218.332213152382
 10
783.215616636985
 20
217.848683954782
 10
783.378593058785
 20
217.370415248282
 10
783.597127837585
 20
216.899589263282
 10
783.870223849285
 20
216.438354270782
 10
784.196635019485
 20
215.988814780282
 10
784.574872008785
 20
215.553021937282
 10
785.003209008685
 20
215.132964164682
 10
785.479691615585
 20
214.730558089682
 10
786.002145748685
 20
214.347639798982
 10
786.568187569585
 20
213.985956460782
 10
787.175234359285
 20
213.647158353382
 10
787.820516302585
 20
213.332791334682
 10
788.501089125885
 20
213.044289789382
 10
789.213847531485
 20
212.782970083782
 10
789.955539366385
 20
212.550024559782
 10
790.722780460685
 20
212.346516094482
 10
791.512070069385
 20
212.173373250182
 10
792.319806844985
 20
212.031386038082
 10
793.142305269785
 20
211.921202313182
 10
793.975812472185
 20
211.843324818682
 10
794.816525349985
 20
211.798108891582
 10
795.660607923185
 20
211.785760841782
 10
796.504208836585
 20
211.806337010682
 10
797.343478932585
 20
211.859743513982
 10
798.174588814385
 20
211.945736669882
 10
798.993746318185
 20
212.063924111482
 10
799.797213816085
 20
212.213766576582
 10
800.581325270285
 20
212.394580368382
 10
801.342502960085
 20
212.605540474982
 10
802.077273806085
 20
212.845684333782
 10
802.782285217685
 20
213.113916223482
 10
803.454320389285
 20
213.409012263482
 10
804.090312978685
 20
213.729625998182
 10
804.687361097585
 20
214.074294540682
 10
805.242740552285
 20
214.441445247582
 10
805.753917273685
 20
214.829402894282
 10
806.218558879785
 20
215.236397318982
 10
806.634545317385
 20
215.660571499682
 10
806.999978535785
 20
216.099990026682
 10
807.313191147085
 20
216.552647934082
 10
807.572754033885
 20
217.016479847682
 10
807.777482870385
 20
217.489369408882
 10
807.926443525785
 20
217.969158930982
 10
808.018956326785
 20
218.453659244582
 10
808.054599158785
 20
218.940659685782
 10
808.033209391585
 20
219.427938183282
 10
807.954884621885
 20
219.913271396982
 10
807.819982227585
 20
220.394444862882
 10
807.629117737385
 20
220.869263096782
 10
807.383162022085
 20
221.335559611882
 10
807.083237321385
 20
221.791206804282
 10
806.730712122885
 20
222.234125660282
 10
806.327194917985
 20
222.662295242682
 10
805.874526863385
 20
223.073761911982
 10
805.374773379485
 20
223.466648239982
 10
804.830214726885
 20
223.839161576682
 10
804.243335601685
 20
224.189602229082
 10
803.616813798785
 20
224.516371216782
 10
802.953507993585
 20
224.817977567982
 10
802.256444698185
 20
225.093045121982
 10
801.528804452585
 20
225.340318808582
 10
800.773907312285
 20
225.558670374782
 10
799.995197699885
 20
225.747103532382
 10
799.196228688685
 20
225.904758504182
 10
798.876283715185
 20
225.958321003982
  0
ARC
  5
204
330
1F
100
AcDbEntity
  8
0
  6
AUSGEZOGEN
 62
   136
370
    25
100
AcDbCircle
 10
794.615038722185
 20
209.761387135082
 30
0.0
 40
16.37395362065292
100
AcDbArc
 50
97.5850495588
 51
118.8424006946
  0
LWPOLYLINE
  5
205
330
1F
100
AcDbEntity
  8
0
  6
AUSGEZOGEN
 62
   136
370
    25
100
AcDbPolyline
 90
      110
 70
     1
 43
0.0
 10
783.180676237985
 20
224.737776923182
 10
783.907295539885
 20
225.133944473782
 10
784.671907379185
 20
225.505518964482
 10
785.472017750985
 20
225.851288396482
 10
786.305016861585
 20
226.170124941782
 10
787.168187641085
 20
226.460988621782
 10
788.058714605785
 20
226.722930699782
 10
788.973693041785
 20
226.955096774982
 10
789.910138479685
 20
227.156729569982
 10
790.864996428985
 20
227.327171400482
 10
791.835152341585
 20
227.465866320682
 10
792.817441770485
 20
227.572361936682
 10
793.808660691885
 20
227.646310881682
 10
794.805575955685
 20
227.687471949882
 10
795.804935831285
 20
227.695710882182
 10
796.803480614685
 20
227.671000804982
 10
797.797953260385
 20
227.613422317482
 10
798.785110005085
 20
227.523163228682
 10
799.761730948985
 20
227.400517944982
 10
800.724630557285
 20
227.245886509782
 10
801.670668051685
 20
227.059773298682
 10
802.596757654585
 20
226.842785374382
 10
803.499878654185
 20
226.595630506282
 10
804.377085257385
 20
226.319114862182
 10
805.225516198685
 20
226.014140378782
 10
806.042404072685
 20
225.681701819282
 10
806.825084360885
 20
225.322883529282
 10
807.571004122885
 20
224.938855899382
 10
808.277730323485
 20
224.530871547982
 10
808.942957768685
 20
224.100261235182
 10
809.564516624885
 20
223.648429522282
 10
810.140379496285
 20
223.176850190482
 10
810.668668037785
 20
222.687061433582
 10
811.147659081985
 20
222.180660840582
 10
811.575790259785
 20
221.659300184982
 10
811.951665096185
 20
221.124680036882
 10
812.274057565685
 20
220.578544216182
 10
812.541916090885
 20
220.022674104382
 10
812.754366973085
 20
219.458882834082
 10
812.910717241585
 20
218.889009375482
 10
813.010456914385
 20
218.314912537082
 10
813.053260661385
 20
217.738464903682
 10
813.038988865685
 20
217.161546727482
 10
812.967688078785
 20
216.586039795782
 10
812.839590869185
 20
216.013821292482
 10
812.655115063185
 20
215.446757675382
 10
812.414862382785
 20
214.886698588282
 10
812.119616481985
 20
214.335470827382
 10
811.770340391785
 20
213.794872383082
 10
811.368173378085
 20
213.266666575082
 10
810.914427226185
 20
212.752576301082
 10
810.410581961585
 20
212.254278416682
 10
809.858281022885
 20
211.773398265982
 10
809.259325900885
 20
211.311504379982
 10
808.615670262785
 20
210.870103360582
 10
807.929413579485
 20
210.450634966282
 10
807.202794277585
 20
210.054467415682
 10
806.438182438285
 20
209.682892924982
 10
805.638072066485
 20
209.337123492982
 10
804.805072955785
 20
209.018286947682
 10
803.941902176285
 20
208.727423267682
 10
803.051375211685
 20
208.465481189682
 10
802.136396775685
 20
208.233315114482
 10
801.199951337785
 20
208.031682319482
 10
800.245093388485
 20
207.861240488982
 10
799.274937475885
 20
207.722545568782
 10
798.292648046985
 20
207.616049952782
 10
797.301429125585
 20
207.542101007782
 10
796.304513861785
 20
207.500939939582
 10
795.305153986185
 20
207.492701007282
 10
794.306609202785
 20
207.517411084482
 10
793.312136557085
 20
207.574989571982
 10
792.324979812285
 20
207.665248660782
 10
791.348358868485
 20
207.787893944482
 10
790.385459260185
 20
207.942525379682
 10
789.439421765785
 20
208.128638590782
 10
788.513332162885
 20
208.345626515082
 10
787.610211163285
 20
208.592781383182
 10
786.733004560085
 20
208.869297027282
 10
785.884573618785
 20
209.174271510682
 10
785.067685744785
 20
209.506710070182
 10
784.285005456585
 20
209.865528360182
 10
783.539085694585
 20
210.249555990082
 10
782.832359493985
 20
210.657540341482
 10
782.167132048785
 20
211.088150654282
 10
781.545573192585
 20
211.539982367182
 10
780.969710321185
 20
212.011561698982
 10
780.441421779685
 20
212.501350455882
 10
779.962430735485
 20
213.007751048882
 10
779.534299557685
 20
213.529111704482
 10
779.158424721285
 20
214.063731852582
 10
778.836032251785
 20
214.609867673282
 10
778.568173726585
 20
215.165737785082
 10
778.355722844385
 20
215.729529055382
 10
778.199372575885
 20
216.299402513982
 10
778.099632903085
 20
216.873499352382
 10
778.056829156085
 20
217.449946985782
 10
778.071100951785
 20
218.026865161982
 10
778.142401738685
 20
218.602372093682
 10
778.270498948285
 20
219.174590596982
 10
778.454974754285
 20
219.741654214082
 10
778.695227434685
 20
220.301713301182
 10
778.990473335485
 20
220.852941062082
 10
779.339749425685
 20
221.393539506382
 10
779.741916439385
 20
221.921745314382
 10
780.195662591285
 20
222.435835588382
 10
780.699507855885
 20
222.934133472782
 10
781.251808794585
 20
223.415013623482
 10
781.850763916585
 20
223.876907509482
 10
782.494419554685
 20
224.318308528882
  0
LWPOLYLINE
  5
206
330
1F
100
AcDbEntity
  8
0
  6
AUSGEZOGEN
 62
   136
370
    25
100
AcDbPolyline
 90
       91
 70
     1
 43
0.0
 10
804.001717588885
 20
224.107946621782
 10
803.398845853285
 20
224.432739941982
 10
802.758594834185
 20
224.732748349582
 10
802.084015619185
 20
225.006542167682
 10
801.378322885485
 20
225.252816644182
 10
800.644879580385
 20
225.470398168982
 10
799.887180895085
 20
225.658249867082
 10
799.108837608985
 20
225.815476539682
 10
798.313558882285
 20
225.941328929782
 10
797.505134580285
 20
226.035207293782
 10
796.687417212885
 20
226.096664258282
 10
795.864303575785
 20
226.125406952982
 10
795.039716180385
 20
226.121298405782
 10
794.217584560985
 20
226.084358195882
 10
793.401826549285
 20
226.014762360082
 10
792.596329603585
 20
225.912842554282
 10
791.804932283685
 20
225.779084472782
 10
791.031405958285
 20
225.614125533782
 10
790.279436832485
 20
225.418751841682
 10
789.552608381685
 20
225.193894441182
 10
788.854384274485
 20
224.940624880082
 10
788.188091866585
 20
224.660150103282
 10
787.556906344885
 20
224.353806700782
 10
786.963835595785
 20
224.023054538382
 10
786.411705871385
 20
223.669469800682
 10
785.903148321485
 20
223.294737480182
 10
785.440586454185
 20
222.900643346982
 10
785.026224587485
 20
222.489065438982
 10
784.662037344485
 20
222.061965112382
 10
784.349760243185
 20
221.621377694782
 10
784.090881426185
 20
221.169402785882
 10
783.886634568885
 20
220.708194251882
 10
783.737993000585
 20
220.239949961582
 10
783.645665066185
 20
219.766901312182
 10
783.610090750085
 20
219.291302595882
 10
783.631439580385
 20
218.815420257282
 10
783.709609819985
 20
218.341522092382
 10
783.844228952285
 20
217.871866441682
 10
784.034655455585
 20
217.408691428382
 10
784.279981860985
 20
216.954204292182
 10
784.579039076485
 20
216.510570871382
 10
784.930401958185
 20
216.079905281182
 10
785.332396101985
 20
215.664259839282
 10
785.783105822685
 20
215.265615285482
 10
786.280383283285
 20
214.885871342682
 10
786.821858730285
 20
214.526837663582
 10
787.404951786385
 20
214.190225207282
 10
788.026883747785
 20
213.877638085382
 10
788.684690825385
 20
213.590565917882
 10
789.375238268885
 20
213.330376734382
 10
790.095235305385
 20
213.098310454782
 10
790.841250820985
 20
212.895472980682
 10
791.609729712085
 20
212.722830924982
 10
792.397009826785
 20
212.581207005682
 10
793.199339416785
 20
212.471276125282
 10
794.012895016285
 20
212.393562154482
 10
794.833799662285
 20
212.348435435682
 10
795.658141370385
 20
212.336111018282
 10
796.481991776785
 20
212.356647633782
 10
797.301424859285
 20
212.409947415782
 10
798.112535646085
 20
212.495756366682
 10
798.911458824785
 20
212.613665567682
 10
799.694387162685
 20
212.763113127582
 10
800.457589649685
 20
212.943386860982
 10
801.197429278385
 20
213.153627681282
 10
801.910380376085
 20
213.392833695282
 10
802.593045405985
 20
213.659864977282
 10
803.242171158485
 20
213.953449001782
 10
803.854664253785
 20
214.272186707182
 10
804.427605883185
 20
214.614559162982
 10
804.958265718985
 20
214.978934808782
 10
805.444114925485
 20
215.363577228482
 10
805.882838209885
 20
215.766653425882
 10
806.272344855885
 20
216.186242559282
 10
806.610778687085
 20
216.620345095482
 10
806.896526911985
 20
217.066892338082
 10
807.128227810385
 20
217.523756286282
 10
807.304777221785
 20
217.988759775082
 10
807.425333807885
 20
218.459686851282
 10
807.489323061685
 20
218.934293332882
 10
807.496440045285
 20
219.410317503882
 10
807.446650842985
 20
219.885490892182
 10
807.340192722985
 20
220.357549080282
 10
807.177573006785
 20
220.824242495982
 10
806.959566651285
 20
221.283347132582
 10
806.687212555985
 20
221.732675147482
 10
806.361808612385
 20
222.170085287982
 10
805.984905518385
 20
222.593493095482
 10
805.558299388785
 20
223.000880839182
 10
805.084023196185
 20
223.390307130882
 10
804.564337082585
 20
223.759916176782
  0
LWPOLYLINE
  5
207
330
1F
100
AcDbEntity
  8
0
  6
AUSGEZOGEN
 62
   136
370
    25
100
AcDbPolyline
 90
       89
 70
     1
 43
0.0
 10
803.772685597385
 20
224.045448958982
 10
804.331879481085
 20
223.698999115882
 10
804.847347616385
 20
223.330641183182
 10
805.316521967085
 20
222.942210301382
 10
805.737065130085
 20
222.535641613882
 10
806.106881980485
 20
222.112960625182
 10
806.424130109385
 20
221.676273110782
 10
806.687229002485
 20
221.227754625882
 10
806.894867914485
 20
220.769639667182
 10
807.046012398585
 20
220.304210540182
 10
807.139909460785
 20
219.833785989382
 10
807.176091310385
 20
219.360709646382
 10
807.154377691485
 20
218.887338353582
 10
807.074876780085
 20
218.416030422982
 10
806.937984645785
 20
217.949133886982
 10
806.744383278185
 20
217.488974800682
 10
806.495037189785
 20
217.037845653482
 10
806.191188610085
 20
216.597993948182
 10
805.834351297585
 20
216.171611003682
 10
805.426302997585
 20
215.760821038482
 10
804.969076586385
 20
215.367670587482
 10
804.464949942885
 20
214.994118306382
 10
803.916434600685
 20
214.642025214082
 10
803.326263235685
 20
214.313145420382
 10
802.697376051885
 20
214.009117388082
 10
802.032906133585
 20
213.731455769482
 10
801.336163836485
 20
213.481543860782
 10
800.610620295685
 20
213.260626710482
 10
799.859890132585
 20
213.069804916882
 10
799.087713447185
 20
212.910029144382
 10
798.297937184785
 20
212.782095387882
 10
797.494495970985
 20
212.686641006982
 10
796.681392509585
 20
212.624141550582
 10
795.862677641185
 20
212.594908387782
 10
795.042430161885
 20
212.599087156782
 10
794.224736503485
 20
212.636657039182
 10
793.413670374685
 20
212.707430863682
 10
792.613272466085
 20
212.811056038682
 10
791.827530319785
 20
212.947016308682
 10
791.060358463685
 20
213.114634326582
 10
790.315578909385
 20
213.313075027782
 10
789.596902111085
 20
213.541349790682
 10
788.907908480585
 20
213.798321361882
 10
788.252030549385
 20
214.082709521982
 10
787.632535868285
 20
214.393097463382
 10
787.052510728785
 20
214.727938849182
 10
786.514844786885
 20
215.085565516182
 10
786.022216667285
 20
215.464195786582
 10
785.577080618385
 20
215.861943343182
 10
785.181654285685
 20
216.276826627782
 10
784.837907663285
 20
216.706778712682
 10
784.547553279585
 20
217.149657598282
 10
784.312037665485
 20
217.603256884182
 10
784.132534147885
 20
218.065316761582
 10
784.009937004385
 20
218.533535271482
 10
783.944857007685
 20
219.005579772682
 10
783.937618383085
 20
219.479098563382
 10
783.988257193085
 20
219.951732596582
 10
784.096521157685
 20
220.421127233482
 10
784.261870911185
 20
220.884943973582
 10
784.483482689485
 20
221.340872105182
 10
784.760252433885
 20
221.786640217282
 10
785.090801291385
 20
222.220027515482
 10
785.473482484185
 20
222.638874886182
 10
785.906389513885
 20
223.041095652782
 10
786.387365659385
 20
223.424685971682
 10
786.914014721885
 20
223.787734815182
 10
787.483712961985
 20
224.128433492182
 10
788.093622171885
 20
224.445084659182
 10
788.740703814585
 20
224.736110775782
 10
789.421734161785
 20
225.000061964582
 10
790.133320354585
 20
225.235623234082
 10
790.871917306485
 20
225.441621029882
 10
791.633845364385
 20
225.617029081282
 10
792.415308641285
 20
225.760973514182
 10
793.212413926385
 20
225.872737204682
 10
794.021190081085
 20
225.951763351682
 10
794.837607823485
 20
225.997658250982
 10
795.657599801285
 20
226.010193256382
 10
796.477080855785
 20
225.989305919182
 10
797.291968373585
 20
225.935100298982
 10
798.098202625985
 20
225.847846445482
 10
798.891766994685
 20
225.727979053082
 10
799.668707981685
 20
225.576095294982
 10
800.425154906185
 20
225.392951848482
 10
801.157339187785
 20
225.179461125082
 10
801.861613120985
 20
224.936686724682
 10
802.534468048585
 20
224.665838137182
 10
803.172551841185
 20
224.368264716682
  0
LWPOLYLINE
  5
208
330
1F
100
AcDbEntity
  8
0
  6
AUSGEZOGEN
 62
   136
370
    25
100
AcDbPolyline
 90
       87
 70
     1
 43
0.0
 10
787.776870315685
 20
223.814720386882
 10
788.358401838885
 20
224.127021333182
 10
788.977453326785
 20
224.414284030682
 10
789.630797331585
 20
224.675010824682
 10
790.315027620085
 20
224.907842406382
 10
791.026576932385
 20
225.111564899682
 10
791.761735579785
 20
225.285116189982
 10
792.516670785685
 20
225.427591461082
 10
793.287446667385
 20
225.538247912982
 10
794.070044756385
 20
225.616508634182
 10
794.860384948485
 20
225.661965609382
 10
795.654346775985
 20
225.674381847082
 10
796.447790889485
 20
225.653692614782
 10
797.236580638885
 20
225.600005776482
 10
798.016603639585
 20
225.513601230582
 10
798.783793212885
 20
225.394929450282
 10
799.534149587485
 20
225.244609135282
 10
800.263760752785
 20
225.063423986282
 10
800.968822853985
 20
224.852318618582
 10
801.645660023785
 20
224.612393637882
 10
802.290743546485
 20
224.344899901882
 10
802.900710255385
 20
224.051231999082
 10
803.472380066485
 20
223.732920977982
 10
804.002772558085
 20
223.391626364882
 10
804.489122509285
 20
223.029127511882
 10
804.928894316685
 20
222.647314319982
 10
805.319795213785
 20
222.248177386582
 10
805.659787224085
 20
221.833797626682
 10
805.947097786885
 20
221.406335424582
 10
806.180228997885
 20
220.968019370182
 10
806.357965418885
 20
220.521134640482
 10
806.479380414485
 20
220.068011085582
 10
806.543840983085
 20
219.611011081782
 10
806.551011057185
 20
219.152517215582
 10
806.500853255285
 20
218.694919861682
 10
806.393629076985
 20
218.240604720782
 10
806.229897539485
 20
217.791940381682
 10
806.010512263285
 20
217.351265972482
 10
805.736617021485
 20
216.920878965482
 10
805.409639777085
 20
216.503023199382
 10
805.031285238085
 20
216.099877180482
 10
804.603525969885
 20
215.713542725482
 10
804.128592111185
 20
215.346034003482
 10
803.608959747285
 20
214.999267034582
 10
803.047338000585
 20
214.675049701482
 10
802.446654906885
 20
214.375072322882
 10
801.810042149785
 20
214.100898842282
 10
801.140818733385
 20
213.853958672982
 10
800.442473678585
 20
213.635539246782
 10
799.718647833285
 20
213.446779301482
 10
798.973114890285
 20
213.288662943982
 10
798.209761712985
 20
213.162014519782
 10
797.432568071585
 20
213.067494315182
 10
796.645585893785
 20
213.005595114582
 10
795.852918140185
 20
212.976639631882
 10
795.058697413485
 20
212.980778827582
 10
794.267064412785
 20
213.017991121682
 10
793.482146346085
 20
213.088082506782
 10
792.708035412585
 20
213.190687558582
 10
791.948767468385
 20
213.325271341982
 10
791.208300984885
 20
213.491132199382
 10
790.490496411585
 20
213.687405409182
 10
789.799096048985
 20
213.913067693682
 10
789.137704538585
 20
214.166942554282
 10
788.509770069385
 20
214.447706404882
 10
787.918566400985
 20
214.753895472882
 10
787.367175795585
 20
215.083913430182
 10
786.858472948385
 20
215.436039715982
 10
786.395110000685
 20
215.808438506982
 10
785.979502712085
 20
216.199168288082
 10
785.613817866785
 20
216.606191975382
 10
785.299961976085
 20
217.027387535682
 10
785.039571339385
 20
217.460559050482
 10
784.834003512785
 20
217.903448163982
 10
784.684330231785
 20
218.353745857382
 10
784.591331823585
 20
218.809104487182
 10
784.555493138785
 20
219.267150024182
 10
784.577001023785
 20
219.725494430982
 10
784.655743346385
 20
220.181748112282
 10
784.791309580485
 20
220.633532372582
 10
784.982992946685
 20
221.078491817782
 10
785.229794096485
 20
221.514306635582
 10
785.530426323085
 20
221.938704689282
 10
785.883322269285
 20
222.349473363782
 10
786.286642098985
 20
222.744471101582
 10
786.738283089285
 20
223.121638567282
 10
787.235890593185
 20
223.479009384382
  0
LWPOLYLINE
  5
209
330
1F
100
AcDbEntity
  8
0
  6
AUSGEZOGEN
 62
   136
370
    25
100
AcDbPolyline
 90
       36
 70
     0
 43
0.0
 10
788.805044908685
 20
220.006047974482
 10
788.812247328785
 20
219.826085257982
 10
788.869774500285
 20
219.467695203482
 10
788.984338041785
 20
219.113898185082
 10
789.154960537485
 20
218.767712674082
 10
789.380186296485
 20
218.432092203282
 10
789.658093771885
 20
218.109900168082
 10
789.986311955185
 20
217.803885397482
 10
790.362040604585
 20
217.516658701482
 10
790.782074135685
 20
217.250670597082
 10
791.242828970585
 20
217.008190400882
 10
791.740374111385
 20
216.791286868482
 10
792.270464678385
 20
216.601810544382
 10
792.828578125885
 20
216.441377973682
 10
793.409952826585
 20
216.311357910582
 10
794.009628696585
 20
216.212859640482
 10
794.622489512785
 20
216.146723515682
 10
795.243306562885
 20
216.113513786482
 10
795.866783254585
 20
216.113513786482
 10
796.487600304685
 20
216.146723515682
 10
797.100461120885
 20
216.212859640482
 10
797.700136990885
 20
216.311357910582
 10
798.281511691585
 20
216.441377973682
 10
798.839625139085
 20
216.601810544382
 10
799.369715706085
 20
216.791286868482
 10
799.867260846885
 20
217.008190400882
 10
800.328015681785
 20
217.250670597082
 10
800.748049212885
 20
217.516658701482
 10
801.123777862285
 20
217.803885397482
 10
801.451996045585
 20
218.109900168082
 10
801.729903520985
 20
218.432092203282
 10
801.955129279985
 20
218.767712674082
 10
802.125751775685
 20
219.113898185082
 10
802.240315317185
 20
219.467695203482
 10
802.297842488685
 20
219.826085257982
 10
802.305044908685
 20
220.006047974482
  0
LWPOLYLINE
  5
20A
330
1F
100
AcDbEntity
  8
0
  6
AUSGEZOGEN
 62
   136
370
    25
100
AcDbPolyline
 90
       67
 70
     1
 43
0.0
 10
790.857760858885
 20
222.833704597182
 10
790.438540134285
 20
222.567863244582
 10
790.064283437585
 20
222.280527735582
 10
789.738279750085
 20
221.974223185082
 10
789.463394003985
 20
221.651641408482
 10
789.242041905085
 20
221.315617265982
 10
789.076168703585
 20
220.969103749882
 10
788.967232099085
 20
220.615146033382
 10
788.916189430485
 20
220.256854709582
 10
788.923489262485
 20
219.897378455682
 10
788.989067443885
 20
219.539876361782
 10
789.112347671485
 20
219.187490169082
 10
789.292246553985
 20
218.843316660282
 10
789.527183133585
 20
218.510380444482
 10
789.815092779185
 20
218.191607377082
 10
790.153445330585
 20
217.889798847282
 10
790.539267333285
 20
217.607607159382
 10
790.969168169585
 20
217.347512223882
 10
791.439369855585
 20
217.111799764682
 10
791.945740241985
 20
216.902541231082
 10
792.483829327485
 20
216.721575594782
 10
793.048908366085
 20
216.570493188282
 10
793.636011422585
 20
216.450621729082
 10
794.239979014485
 20
216.363014651982
 10
794.855503452685
 20
216.308441851182
 10
795.477175486285
 20
216.287382914282
 10
796.099531839285
 20
216.300022908082
 10
796.717103221485
 20
216.346250751682
 10
797.324462393485
 20
216.425660193382
 10
797.916271860985
 20
216.537553380082
 10
798.487330781185
 20
216.680946990282
 10
799.032620667685
 20
216.854580875882
 10
799.547349493385
 20
217.056929136182
 10
800.026993802785
 20
217.286213527182
 10
800.467338464585
 20
217.540419089482
 10
800.864513713885
 20
217.817311855482
 10
801.215029160485
 20
218.114458481582
 10
801.515804461985
 20
218.429247632582
 10
801.764196394185
 20
218.758912930082
 10
801.958022079885
 20
219.100557263582
 10
802.095578171885
 20
219.451178250382
 10
802.175655822485
 20
219.807694620682
 10
802.197551306385
 20
220.166973295782
 10
802.161072205085
 20
220.525856921782
 10
802.066539098485
 20
220.881191616382
 10
801.914782746785
 20
221.229854685682
 10
801.707136790285
 20
221.568782065982
 10
801.445426029085
 20
221.894995251282
 10
801.131950386885
 20
222.205627468382
 10
800.769464698785
 20
222.497948870182
 10
800.361154501985
 20
222.769390525682
 10
799.910608041385
 20
223.017566995982
 10
799.421784735385
 20
223.240297297182
 10
798.898980380685
 20
223.435624067382
 10
798.346789400785
 20
223.601830767982
 10
797.770064469985
 20
223.737456768582
 10
797.173873867585
 20
223.841310182782
 10
796.563456938185
 20
223.912478343282
 10
795.944178047485
 20
223.950335821682
 10
795.321479440885
 20
223.954549924982
 10
794.700833415985
 20
223.925083619582
 10
794.087694232285
 20
223.862195856382
 10
793.487450179185
 20
223.766439295382
 10
792.905376222985
 20
223.638655448682
 10
792.346587650385
 20
223.479967285182
 10
791.815995115485
 20
223.291769362382
 10
791.318261484685
 20
223.075715570182
  0
ARC
  5
20B
330
1F
100
AcDbEntity
  8
0
  6
AUSGEZOGEN
 62
   136
370
    25
100
AcDbCircle
 10
799.862938196685
 20
220.021106927282
 30
0.0
 40
2.434510888976021
100
AcDbArc
 50
324.7232594834
 51
35.3744472509
  0
ARC
  5
20C
330
1F
100
AcDbEntity
  8
0
  6
AUSGEZOGEN
 62
   136
370
    25
100
AcDbCircle
 10
791.237374990585
 20
220.021691906482
 30
0.0
 40
2.425179438582864
100
AcDbArc
 50
145.4400534175
 51
213.789983722
  0
LWPOLYLINE
  5
20D
330
1F
100
AcDbEntity
  8
0
  6
AUSGEZOGEN
 62
   136
370
    25
100
AcDbPolyline
 90
       32
 70
     0
 43
0.0
 10
790.958850830985
 20
222.689016845982
 10
791.409441050085
 20
222.925819515082
 10
791.896462984885
 20
223.137223626382
 10
792.415636669185
 20
223.321371352882
 10
792.962399585985
 20
223.476644397782
 10
793.531946763085
 20
223.601678215982
 10
794.119272999385
 20
223.695374005682
 10
794.719216850985
 20
223.756908364982
 10
795.326505989485
 20
223.785740527782
 10
795.935803536285
 20
223.781617115982
 10
796.541754962585
 20
223.744574366182
 10
797.139035145385
 20
223.674937811382
 10
797.722395165085
 20
223.573319420282
 10
798.286708432785
 20
223.440612218882
 10
798.827015743185
 20
223.277982442882
 10
799.338568856285
 20
223.086859288482
 10
799.816872224885
 20
222.868922352882
 10
800.257722501885
 20
222.626086873782
 10
800.657245478985
 20
222.360486898082
 10
801.011930133985
 20
222.074456527882
 10
801.318659485485
 20
221.770509408282
 10
801.574737984885
 20
221.451316637682
 10
801.777915205085
 20
221.119683293482
 10
801.926405617285
 20
220.778523781482
 10
802.018904282585
 20
220.430836223782
 10
802.054598319185
 20
220.079676111082
 10
802.033174046785
 20
219.728129451082
 10
801.954819742585
 20
219.379285648482
 10
801.820223986985
 20
219.036210355182
 10
801.630569612385
 20
218.701918529182
 10
801.387523308285
 20
218.379347939082
 10
801.332321569785
 20
218.316082808882
  0
LWPOLYLINE
  5
20E
330
1F
100
AcDbEntity
  8
0
  6
AUSGEZOGEN
 62
   136
370
    25
100
AcDbPolyline
 90
       15
 70
     0
 43
0.0
 10
789.778238778185
 20
218.315556086282
 10
789.656908390185
 20
218.458734696582
 10
789.427027866785
 20
218.784505811782
 10
789.251000577485
 20
219.121272382882
 10
789.130373456485
 20
219.466074893082
 10
789.066206579185
 20
219.815883205582
 10
789.059063846385
 20
220.167623192382
 10
789.109008028785
 20
220.518203749782
 10
789.215600215085
 20
220.864543963182
 10
789.377903669185
 20
221.203600182382
 10
789.594492062685
 20
221.532392769182
 10
789.863462008885
 20
221.848032282482
 10
790.182449790285
 20
222.147744870882
 10
790.548652130785
 20
222.428896649382
 10
790.958850830985
 20
222.689016845982
  0
ARC
  5
20F
330
1F
100
AcDbEntity
  8
0
  6
AUSGEZOGEN
 62
   136
370
    25
100
AcDbCircle
 10
795.567616331385
 20
212.971347433282
 30
0.0
 40
10.98749688214873
100
AcDbArc
 50
75.7278148445
 51
94.6578059204
  0
LWPOLYLINE
  5
210
330
1F
100
AcDbEntity
  8
0
  6
AUSGEZOGEN
 62
   136
370
    25
100
AcDbPolyline
 90
       67
 70
     0
 43
0.0
 10
820.554711649985
 20
213.760698132882
 10
820.533031894185
 20
213.229706881982
 10
820.454018018985
 20
212.539063054582
 10
820.317735707685
 20
211.851400422882
 10
820.124498414085
 20
211.168300633082
 10
819.874750590085
 20
210.491334836582
 10
819.569066663585
 20
209.822060076282
 10
819.208149717585
 20
209.162015705782
 10
818.792829872485
 20
208.512719848082
 10
818.324062377385
 20
207.875665904582
 10
817.802925412385
 20
207.252319119682
 10
817.230617609385
 20
206.644113211082
 10
816.608455294485
 20
206.052447071782
 10
815.937869461085
 20
205.478681552882
 10
815.220402477985
 20
204.924136333382
 10
814.457704542285
 20
204.390086885182
 10
813.651529883785
 20
203.877761539082
 10
812.803732729785
 20
203.388338659782
 10
811.916263041185
 20
202.922943935582
 10
810.991162026485
 20
202.482647789282
 10
810.030557447785
 20
202.068462916182
 10
809.036658726385
 20
201.681341954582
 10
808.011751861185
 20
201.322175295282
 10
806.958194170785
 20
200.991789033082
 10
805.878408871685
 20
200.690943066882
 10
804.774879504685
 20
200.420329352082
 10
803.650144222685
 20
200.180570308982
 10
802.506789952785
 20
199.972217390982
 10
801.347446446485
 20
199.795749816482
 10
800.174780231085
 20
199.651573466482
 10
798.991488476385
 20
199.540019951382
 10
797.800292791385
 20
199.461345847682
 10
796.603932964185
 20
199.415732108482
 10
795.405160660985
 20
199.403283646682
 10
794.206733096285
 20
199.424029094282
 10
793.011406691985
 20
199.477920735982
 10
791.821930737085
 20
199.564834619382
 10
790.641041064485
 20
199.684570839682
 10
789.471453758085
 20
199.836853999782
 10
788.315858906385
 20
200.021333843582
 10
787.176914414385
 20
200.237586061382
 10
786.057239890985
 20
200.485113266282
 10
784.959410623585
 20
200.763346137682
 10
783.885951654485
 20
201.071644731182
 10
782.839331973885
 20
201.409299950082
 10
781.821958840485
 20
201.775535176482
 10
780.836172245185
 20
202.169508057682
 10
779.884239528585
 20
202.590312443482
 10
778.968350166585
 20
203.036980470282
 10
778.090610733985
 20
203.508484787282
 10
777.253040059685
 20
204.003740919382
 10
776.457564583085
 20
204.521609761782
 10
775.706013923185
 20
205.060900199382
 10
775.000116670585
 20
205.620371846982
 10
774.341496411585
 20
206.198737901782
 10
773.731667993985
 20
206.794668103482
 10
773.172034042585
 20
207.406791793282
 10
772.663881733585
 20
208.033701067282
 10
772.208379833285
 20
208.673954014082
 10
771.806576010885
 20
209.326078031182
 10
771.459394427985
 20
209.988573212582
 10
771.167633613285
 20
210.659915798182
 10
770.931964626185
 20
211.338561678382
 10
770.752929512685
 20
212.022949945982
 10
770.630940059485
 20
212.711506486082
 10
770.566276846085
 20
213.402647596582
 10
770.555044908685
 20
213.835217067782
  0
LWPOLYLINE
  5
211
330
1F
100
AcDbEntity
  8
0
  6
AUSGEZOGEN
 62
   136
370
    25
100
AcDbPolyline
 90
       28
 70
     0
 43
0.0
 10
801.850404980085
 20
218.615112953782
 10
801.729903520985
 20
218.447056228482
 10
801.451996045585
 20
218.124864193382
 10
801.123777862285
 20
217.818849422682
 10
800.748049212885
 20
217.531622726682
 10
800.328015681785
 20
217.265634622282
 10
799.867260846885
 20
217.023154426082
 10
799.369715706085
 20
216.806250893682
 10
798.839625139085
 20
216.616774569582
 10
798.281511691585
 20
216.456341998982
 10
797.700136990885
 20
216.326321935882
 10
797.100461120885
 20
216.227823665682
 10
796.487600304685
 20
216.161687540982
 10
795.866783254585
 20
216.128477811682
 10
795.243306562885
 20
216.128477811682
 10
794.622489512785
 20
216.161687540982
 10
794.009628696585
 20
216.227823665682
 10
793.409952826585
 20
216.326321935882
 10
792.828578125885
 20
216.456341998982
 10
792.270464678385
 20
216.616774569582
 10
791.740374111385
 20
216.806250893682
 10
791.242828970585
 20
217.023154426082
 10
790.782074135685
 20
217.265634622282
 10
790.362040604585
 20
217.531622726682
 10
789.986311955185
 20
217.818849422682
 10
789.658093771885
 20
218.124864193382
 10
789.380186296485
 20
218.447056228482
 10
789.221852724185
 20
218.672927544982
  0
LWPOLYLINE
  5
212
330
1F
100
AcDbEntity
  8
0
  6
AUSGEZOGEN
 62
   136
370
    25
100
AcDbPolyline
 90
       59
 70
     0
 43
0.0
 10
800.251426620285
 20
222.833334980082
 10
800.670566813485
 20
222.567544694982
 10
801.044751616285
 20
222.280264382582
 10
801.370692679185
 20
221.974018672482
 10
801.645525620285
 20
221.651498863182
 10
801.866835197985
 20
221.315539270182
 10
802.032676535585
 20
220.969092318582
 10
802.141592213585
 20
220.615202596682
 10
802.192625077085
 20
220.256980099882
 10
802.185326647285
 20
219.897572900582
 10
802.119761063285
 20
219.540139481982
 10
801.996504517585
 20
219.187820982082
 10
801.816640193285
 20
218.843713588182
 10
801.581748744485
 20
218.510841328782
 10
801.293894405685
 20
218.192129496982
 10
800.955606851085
 20
217.890378943982
 10
800.569858964085
 20
217.608241464482
 10
800.140040710785
 20
217.348196492682
 10
799.669929349485
 20
217.112529313282
 10
799.163656235785
 20
216.903310977782
 10
798.625670515985
 20
216.722380104582
 10
798.060700027885
 20
216.571326720682
 10
797.473709752585
 20
216.451478288582
 10
796.869858181685
 20
216.363888040682
 10
796.254451984385
 20
216.309325723082
 10
795.632899372585
 20
216.288270831582
 10
795.010662572985
 20
216.300908397282
 10
794.393209824885
 20
216.347127360682
 10
793.785967325285
 20
216.426521547982
 10
793.194271543085
 20
216.538393240182
 10
792.623322322085
 20
216.681759304782
 10
792.078137184685
 20
216.855359835782
 10
791.563507237285
 20
217.057669225282
 10
791.083955066485
 20
217.286909571282
 10
790.643694994085
 20
217.541066301182
 10
790.246596041185
 20
217.817905876682
 10
789.896147927885
 20
218.114995421582
 10
789.595430404685
 20
218.429724102282
 10
789.347086188085
 20
218.759326071782
 10
789.153297735885
 20
219.100904776082
 10
789.015768067985
 20
219.451458409382
 10
788.935705800185
 20
219.807906293582
 10
788.913814522385
 20
220.167115952082
 10
788.950286616085
 20
220.525930637282
 10
789.044801563185
 20
220.881197072882
 10
789.196528762785
 20
221.229793164682
 10
789.404134830885
 20
221.568655437782
 10
789.665795317985
 20
221.894805958182
 10
789.979210742285
 20
222.205378503482
 10
790.341626797685
 20
222.497643750982
 10
790.749858558885
 20
222.769033263182
 10
791.200318470485
 20
223.017162059282
 10
791.689047874585
 20
223.239849574482
 10
792.211751799685
 20
223.435138822882
 10
792.763836704785
 20
223.601313595482
 10
793.340450847985
 20
223.736913542582
 10
793.936526923385
 20
223.840747006882
 10
794.546826593085
 20
223.911901496082
 10
794.675381732385
 20
223.922557647482
  0
ARC
  5
213
330
1F
100
AcDbEntity
  8
0
  6
AUSGEZOGEN
 62
   136
370
    25
100
AcDbCircle
 10
796.339169279585
 20
215.880838217982
 30
0.0
 40
7.977654337392225
100
AcDbArc
 50
60.6329951938
 51
75.9466288409
  0
LWPOLYLINE
  5
214
330
1F
100
AcDbEntity
  8
0
  6
AUSGEZOGEN
 62
   136
370
    25
100
AcDbPolyline
 90
       18
 70
     0
 43
0.0
 10
793.908656291785
 20
184.964170245482
 10
793.930563572685
 20
184.837912045182
 10
794.011617822085
 20
184.663283333682
 10
794.148455547885
 20
184.500665763182
 10
794.336131077885
 20
184.355936756382
 10
794.567861329685
 20
184.234327196782
 10
794.835270968085
 20
184.140232370582
 10
795.128695112085
 20
184.077053110082
 10
795.437528648485
 20
184.047072878282
 10
795.750609528785
 20
184.051375238982
 10
796.056622194185
 20
184.089804693482
 10
796.344506549685
 20
184.160972301382
 10
796.603857704485
 20
184.262305879682
 10
796.825302032185
 20
184.390142968982
 10
797.000835957785
 20
184.539863203782
 10
797.124115227985
 20
184.706055304682
 10
797.190684208685
 20
184.882712656182
 10
797.201433525685
 20
184.964170245482
  0
CIRCLE
  5
215
330
1F
100
AcDbEntity
  8
0
  6
AUSGEZOGEN
 62
     9
370
    25
100
AcDbCircle
 10
563.311151260316
 20
293.153193703017
 30
0.0
 40
13.0
  0
CIRCLE
  5
216
330
1F
100
AcDbEntity
  8
0
  6
AUSGEZOGEN
 62
     9
370
    25
100
AcDbCircle
 10
563.311151260316
 20
293.153193703017
 30
0.0
 40
13.28337342116683
  0
CIRCLE
  5
217
330
1F
100
AcDbEntity
  8
0
  6
AUSGEZOGEN
 62
     9
370
    25
100
AcDbCircle
 10
563.311151260316
 20
293.153193703017
 30
0.0
 40
13.28592561914525
  0
CIRCLE
  5
218
330
1F
100
AcDbEntity
  8
0
  6
AUSGEZOGEN
 62
     9
370
    25
100
AcDbCircle
 10
563.311151260316
 20
293.153193703017
 30
0.0
 40
13.5
  0
CIRCLE
  5
219
330
1F
100
AcDbEntity
  8
0
  6
AUSGEZOGEN
 62
     9
370
    25
100
AcDbCircle
 10
563.311151260316
 20
293.153193703017
 30
0.0
 40
22.0
  0
CIRCLE
  5
21A
330
1F
100
AcDbEntity
  8
0
  6
AUSGEZOGEN
 62
     9
370
    25
100
AcDbCircle
 10
563.311151260316
 20
293.153193703017
 30
0.0
 40
23.24299782524904
  0
CIRCLE
  5
21B
330
1F
100
AcDbEntity
  8
0
  6
AUSGEZOGEN
 62
     9
370
    25
100
AcDbCircle
 10
563.311151260316
 20
293.153193703017
 30
0.0
 40
23.89079812241288
  0
CIRCLE
  5
21C
330
1F
100
AcDbEntity
  8
0
  6
AUSGEZOGEN
 62
     9
370
    25
100
AcDbCircle
 10
563.311151260316
 20
293.153193703017
 30
0.0
 40
25.0
  0
CIRCLE
  5
21D
330
1F
100
AcDbEntity
  8
0
  6
AUSGEZOGEN
 62
     9
370
    25
100
AcDbCircle
 10
563.311151260316
 20
293.153193703017
 30
0.0
 40
35.0
  0
CIRCLE
  5
21E
330
1F
100
AcDbEntity
  8
0
  6
AUSGEZOGEN
 62
     9
370
    25
100
AcDbCircle
 10
563.311151260316
 20
293.153193703017
 30
0.0
 40
36.22101010342714
  0
CIRCLE
  5
21F
330
1F
100
AcDbEntity
  8
0
  6
AUSGEZOGEN
 62
     9
370
    25
100
AcDbCircle
 10
563.311151260316
 20
293.153193703017
 30
0.0
 40
36.98766286800092
  0
CIRCLE
  5
220
330
1F
100
AcDbEntity
  8
0
  6
AUSGEZOGEN
 62
     9
370
    25
100
AcDbCircle
 10
563.311151260316
 20
293.153193703017
 30
0.0
 40
38.0
  0
CIRCLE
  5
221
330
1F
100
AcDbEntity
  8
0
  6
AUSGEZOGEN
 62
     9
370
    25
100
AcDbCircle
 10
563.311151260316
 20
293.153193703017
 30
0.0
 40
48.82379243179674
  0
CIRCLE
  5
222
330
1F
100
AcDbEntity
  8
0
  6
AUSGEZOGEN
 62
     9
370
    25
100
AcDbCircle
 10
563.311151260316
 20
293.153193703017
 30
0.0
 40
50.0
  0
LINE
  5
223
330
1F
100
AcDbEntity
  8
FORMAT
  6
DASHDOT
 62
    56
370
    18
100
AcDbLine
 10
563.311151260316
 20
346.506649720473
 30
0.0
 11
563.311151260316
 21
238.986522015368
 31
0.0
  0
LINE
  5
224
330
1F
100
AcDbEntity
  8
FORMAT
  6
DASHDOT
 62
    56
370
    18
100
AcDbLine
 10
659.50911572781
 20
293.153193703017
 30
0.0
 11
753.815984973662
 21
293.153193703017
 31
0.0
  0
LINE
  5
225
330
1F
100
AcDbEntity
  8
FORMAT
  6
DASHDOT
 62
    56
370
    18
100
AcDbLine
 10
508.557162534163
 20
293.153193703017
 30
0.0
 11
616.822106048263
 21
293.153193703017
 31
0.0
  0
DIMENSION
  5
230
330
1F
100
AcDbEntity
  8
Layer6
  6
AUSGEZOGEN
 62
   136
370
    18
100
AcDbDimension
  2
*D5
 10
502.17733869759
 20
243.153193703017
 30
0.0
 11
504.67733869759
 21
293.335398225572
 31
0.0
 70
   160
 71
     5
 42
-1.0
 53
-90.0
  3
ISO-25
100
AcDbAlignedDimension
 13
563.311151260316
 23
343.153193703017
 33
0.0
 14
563.311151260316
 24
243.153193703017
 34
0.0
 50
-90.0
100
AcDbRotatedDimension
1001
ACAD
1000
DSTYLE
1002
{
1070
     3
1000
<>
1070
    44
1040
1.785714285714
1070
   280
1070
     0
1070
    77
1070
     1
1070
    78
1070
     8
1070
   179
1070
     2
1070
   271
1070
     2
1070
   173
1070
     1
1070
    41
1040
2.5
1070
   147
1040
0.357142857143
1070
   140
1040
2.5
1070
   178
1070
   136
1070
   177
1070
   136
1070
   176
1070
   136
1002
}
  0
DIMENSION
  5
23B
330
1F
100
AcDbEntity
  8
Layer6
  6
AUSGEZOGEN
 62
   136
370
    18
100
AcDbDimension
  2
*D6
 10
732.990251991516
 20
232.210300625394
 30
0.0
 11
740.609312930641
 21
234.710300625394
 31
0.0
 70
   160
 71
     5
 42
-1.0
 53
0.0
  3
ISO-25
100
AcDbAlignedDimension
 13
751.190251991512
 23
293.153193703017
 33
0.0
 14
732.990251991516
 24
243.153193703017
 34
0.0
 50
180.0
100
AcDbRotatedDimension
1001
ACAD
1000
DSTYLE
1002
{
1070
     3
1000
<>
1070
    44
1040
1.785714285714
1070
   280
1070
     0
1070
    77
1070
     1
1070
    78
1070
     8
1070
   179
1070
     2
1070
   271
1070
     2
1070
   173
1070
     1
1070
    41
1040
2.5
1070
   147
1040
0.357142857143
1070
   140
1040
2.5
1070
   178
1070
   136
1070
   177
1070
   136
1070
   176
1070
   136
1002
}
  0
DIMENSION
  5
247
330
1F
100
AcDbEntity
  8
Layer6
  6
AUSGEZOGEN
 62
   136
370
    18
100
AcDbDimension
  2
*D7
 10
732.990251991516
 20
232.210300625394
 30
0.0
 11
695.759270114565
 21
234.710300625394
 31
0.0
 70
   160
 71
     5
 42
-1.0
 53
0.0
  3
ISO-25
100
AcDbAlignedDimension
 13
663.490251991516
 23
293.153193703017
 33
0.0
 14
732.990251991516
 24
243.153193703017
 34
0.0
100
AcDbRotatedDimension
1001
ACAD
1000
DSTYLE
1002
{
1070
     3
1000
<>
1070
    44
1040
1.785714285714
1070
   280
1070
     0
1070
    77
1070
     1
1070
    78
1070
     8
1070
   179
1070
     2
1070
   271
1070
     2
1070
   173
1070
     1
1070
    41
1040
2.5
1070
   147
1040
0.357142857143
1070
   140
1040
2.5
1070
   178
1070
   136
1070
   177
1070
   136
1070
   176
1070
   136
1002
}
  0
DIMENSION
  5
255
330
1F
100
AcDbEntity
  8
Layer6
  6
AUSGEZOGEN
 62
   136
370
    18
100
AcDbDimension
  2
*D8
 10
656.494445516617
 20
289.858615466017
 30
0.0
 11
658.994445516617
 21
281.728966597004
 31
0.0
 70
   160
 71
     5
 42
-1.0
 53
-90.0
  3
ISO-25
100
AcDbAlignedDimension
 13
664.443540446716
 23
296.447771940217
 33
0.0
 14
664.443540446716
 24
289.858615466017
 34
0.0
 50
-90.0
100
AcDbRotatedDimension
1001
ACAD
1000
DSTYLE
1002
{
1070
     3
1000
%%c<>
1070
    44
1040
1.785714285714
1070
   280
1070
     0
1070
    77
1070
     1
1070
    78
1070
     8
1070
   179
1070
     1
1070
   271
1070
     1
1070
   173
1070
     1
1070
    41
1040
2.5
1070
   147
1040
0.357142857143
1070
   140
1040
2.5
1070
   178
1070
   136
1070
   177
1070
   136
1070
   176
1070
   136
1002
}
  0
DIMENSION
  5
261
330
1F
100
AcDbEntity
  8
Layer6
  6
AUSGEZOGEN
 62
   136
370
    18
100
AcDbDimension
  2
*D9
 10
649.784763830012
 20
286.715635000617
 30
0.0
 11
652.284763830012
 21
293.16654325294
 31
0.0
 70
   160
 71
     5
 42
-1.0
 53
-90.0
  3
ISO-25
100
AcDbAlignedDimension
 13
731.654968857916
 23
299.590752405417
 33
0.0
 14
731.654968857916
 24
286.715635000617
 34
0.0
 50
-90.0
100
AcDbRotatedDimension
1001
ACAD
1000
DSTYLE
1002
{
1070
     3
1000
%%c<>
1070
    44
1040
1.785714285714
1070
   280
1070
     0
1070
    77
1070
     1
1070
    78
1070
     8
1070
   179
1070
     1
1070
   271
1070
     1
1070
   173
1070
     1
1070
    41
1040
2.5
1070
   147
1040
0.357142857143
1070
   140
1040
2.5
1070
   178
1070
   136
1070
   177
1070
   136
1070
   176
1070
   136
1002
}
  0
ENDSEC
  0
SECTION
  2
OBJECTS
  0
DICTIONARY
  5
C
330
0
100
AcDbDictionary
281
     1
  3
ACAD_GROUP
350
D
  3
ACAD_LAYOUT
350
1A
  3
ACAD_MATERIAL
350
3B
  3
ACAD_MLEADERSTYLE
350
289
  3
ACAD_MLINESTYLE
350
17
  3
ACAD_PLOTSETTINGS
350
19
  3
ACAD_PLOTSTYLENAME
350
E
  3
ACAD_TABLESTYLE
350
288
  3
ACAD_VISUALSTYLE
350
2A
  3
ACAD_WIPEOUT_VARS
350
3F
  0
DICTIONARY
  5
D
102
{ACAD_REACTORS
330
C
102
}
330
C
100
AcDbDictionary
281
     1
  0
DICTIONARY
  5
1A
102
{ACAD_REACTORS
330
C
102
}
330
C
100
AcDbDictionary
281
     1
  3
Layout1
350
1E
  3
Layout2
350
26
  3
Model
350
22
  0
DICTIONARY
  5
3B
102
{ACAD_REACTORS
330
C
102
}
330
C
100
AcDbDictionary
281
     1
  3
ByBlock
350
3D
  3
ByLayer
350
3C
  3
Global
350
3E
  0
DICTIONARY
  5
289
102
{ACAD_REACTORS
330
C
102
}
330
C
100
AcDbDictionary
281
     1
  0
DICTIONARY
  5
17
102
{ACAD_REACTORS
330
C
102
}
330
C
100
AcDbDictionary
281
     1
  3
Standard
350
18
  0
DICTIONARY
  5
19
102
{ACAD_REACTORS
330
C
102
}
330
C
100
AcDbDictionary
281
     1
  0
ACDBDICTIONARYWDFLT
  5
E
102
{ACAD_REACTORS
330
C
102
}
330
C
100
AcDbDictionary
281
     1
  3
Normal
350
F
100
AcDbDictionaryWithDefault
340
F
  0
DICTIONARY
  5
288
102
{ACAD_REACTORS
330
C
102
}
330
C
100
AcDbDictionary
281
     1
  0
DICTIONARY
  5
2A
102
{ACAD_REACTORS
330
C
102
}
330
C
100
AcDbDictionary
281
     1
  3
2dWireframe
350
2F
  3
3D Hidden
350
31
  3
3dWireframe
350
30
  3
Basic
350
32
  3
Brighten
350
36
  3
ColorChange
350
3A
  3
Conceptual
350
34
  3
Dim
350
35
  3
Facepattern
350
39
  3
Flat
350
2B
  3
FlatWithEdges
350
2C
  3
Gouraud
350
2D
  3
GouraudWithEdges
350
2E
  3
Linepattern
350
38
  3
Realistic
350
33
  3
Thicken
350
37
  0
WIPEOUTVARIABLES
  5
3F
102
{ACAD_REACTORS
330
C
102
}
330
C
100
AcDbWipeoutVariables
 70
     0
  0
LAYOUT
  5
1E
102
{ACAD_REACTORS
330
1A
102
}
330
1A
100
AcDbPlotSettings
  1

  2
none_device
  4

  6

 40
0.0
 41
0.0
 42
0.0
 43
0.0
 44
0.0
 45
0.0
 46
0.0
 47
0.0
 48
0.0
 49
0.0
140
0.0
141
0.0
142
1.0
143
1.0
 70
   688
 72
     0
 73
     0
 74
     5
  7

 75
    16
 76
     0
 77
     2
 78
   300
147
1.0
148
0.0
149
0.0
100
AcDbLayout
  1
Layout1
 70
     1
 71
     1
 10
0.0
 20
0.0
 11
420.0
 21
297.0
 12
0.0
 22
0.0
 32
0.0
 14
1.000000000000E+20
 24
1.000000000000E+20
 34
1.000000000000E+20
 15
-1.000000000000E+20
 25
-1.000000000000E+20
 35
-1.000000000000E+20
146
0.0
 13
0.0
 23
0.0
 33
0.0
 16
1.0
 26
0.0
 36
0.0
 17
0.0
 27
1.0
 37
0.0
 76
     0
330
1B
  0
LAYOUT
  5
26
102
{ACAD_REACTORS
330
1A
102
}
330
1A
100
AcDbPlotSettings
  1

  2
none_device
  4

  6

 40
0.0
 41
0.0
 42
0.0
 43
0.0
 44
0.0
 45
0.0
 46
0.0
 47
0.0
 48
0.0
 49
0.0
140
0.0
141
0.0
142
1.0
143
1.0
 70
   688
 72
     0
 73
     0
 74
     5
  7

 75
    16
 76
     0
 77
     2
 78
   300
147
1.0
148
0.0
149
0.0
100
AcDbLayout
  1
Layout2
 70
     1
 71
     2
 10
0.0
 20
0.0
 11
0.0
 21
0.0
 12
0.0
 22
0.0
 32
0.0
 14
0.0
 24
0.0
 34
0.0
 15
0.0
 25
0.0
 35
0.0
146
0.0
 13
0.0
 23
0.0
 33
0.0
 16
1.0
 26
0.0
 36
0.0
 17
0.0
 27
1.0
 37
0.0
 76
     0
330
23
  0
LAYOUT
  5
22
102
{ACAD_REACTORS
330
1A
102
}
330
1A
100
AcDbPlotSettings
  1

  2
none_device
  4

  6

 40
0.0
 41
0.0
 42
0.0
 43
0.0
 44
0.0
 45
0.0
 46
0.0
 47
0.0
 48
0.0
 49
0.0
140
0.0
141
0.0
142
1.0
143
1.0
 70
  1712
 72
     0
 73
     0
 74
     0
  7

 75
     0
 76
     0
 77
     2
 78
   300
147
1.0
148
0.0
149
0.0
100
AcDbLayout
  1
Model
 70
     1
 71
     0
 10
0.0
 20
0.0
 11
420.0
 21
297.0
 12
0.0
 22
0.0
 32
0.0
 14
246.668474214482
 24
96.506129422918
 34
0.0
 15
1020.20427621939
 25
410.138129422917
 35
0.0
146
0.0
 13
0.0
 23
0.0
 33
0.0
 16
1.0
 26
0.0
 36
0.0
 17
0.0
 27
1.0
 37
0.0
 76
     0
330
1F
331
29
  0
MATERIAL
  5
3D
102
{ACAD_REACTORS
330
3B
102
}
102
{ACAD_XDICTIONARY
360
284
102
}
330
3B
100
AcDbMaterial
  1
ByBlock
  0
MATERIAL
  5
3C
102
{ACAD_REACTORS
330
3B
102
}
102
{ACAD_XDICTIONARY
360
282
102
}
330
3B
100
AcDbMaterial
  1
ByLayer
  0
MATERIAL
  5
3E
102
{ACAD_REACTORS
330
3B
102
}
102
{ACAD_XDICTIONARY
360
286
102
}
330
3B
100
AcDbMaterial
  1
Global
  0
MLINESTYLE
  5
18
102
{ACAD_REACTORS
330
17
102
}
330
17
100
AcDbMlineStyle
  2
Standard
 70
     0
  3

 62
   256
 51
90.0
 52
90.0
 71
     2
 49
0.5
 62
   256
  6
BYLAYER
 49
-0.5
 62
   256
  6
BYLAYER
  0
ACDBPLACEHOLDER
  5
F
102
{ACAD_REACTORS
330
E
102
}
330
E
  0
VISUALSTYLE
  5
2F
102
{ACAD_REACTORS
330
2A
102
}
102
{ACAD_XDICTIONARY
360
26A
102
}
330
2A
100
AcDbVisualStyle
  2
2dWireframe
 70
     4
 71
     0
 72
     2
 73
     0
 90
        0
 40
-0.6
 41
-30.0
 62
     5
 63
     7
421
 16777215
 74
     1
 91
        4
 64
     7
 65
   257
 75
     1
175
     1
 42
1.0
 92
        0
 66
   257
 43
1.0
 76
     1
 77
     6
 78
     2
 67
     7
 79
     5
170
     0
171
     0
290
     0
174
     0
 93
        1
 44
0.0
173
     0
291
     0
 45
0.0
1001
ACAD
1000
AcDbSavedByObjectVersion
1070
     0
  0
VISUALSTYLE
  5
31
102
{ACAD_REACTORS
330
2A
102
}
102
{ACAD_XDICTIONARY
360
26E
102
}
330
2A
100
AcDbVisualStyle
  2
3D Hidden
 70
     6
 71
     1
 72
     2
 73
     2
 90
        0
 40
-0.6
 41
-30.0
 62
     5
 63
     7
421
 16777215
 74
     2
 91
        2
 64
     7
 65
   257
 75
     2
175
     1
 42
40.0
 92
        0
 66
   257
 43
1.0
 76
     1
 77
     6
 78
     2
 67
     7
 79
     3
170
     0
171
     0
290
     0
174
     0
 93
        1
 44
0.0
173
     0
291
     0
 45
0.0
1001
ACAD
1000
AcDbSavedByObjectVersion
1070
     0
  0
VISUALSTYLE
  5
30
102
{ACAD_REACTORS
330
2A
102
}
102
{ACAD_XDICTIONARY
360
26C
102
}
330
2A
100
AcDbVisualStyle
  2
3dWireframe
 70
     5
 71
     0
 72
     2
 73
     0
 90
        0
 40
-0.6
 41
-30.0
 62
     5
 63
     7
421
 16777215
 74
     1
 91
        4
 64
     7
 65
   257
 75
     1
175
     1
 42
1.0
 92
        0
 66
   257
 43
1.0
 76
     1
 77
     6
 78
     2
 67
     7
 79
     5
170
     0
171
     0
290
     0
174
     0
 93
        1
 44
0.0
173
     0
291
     0
 45
0.0
1001
ACAD
1000
AcDbSavedByObjectVersion
1070
     0
  0
VISUALSTYLE
  5
32
102
{ACAD_REACTORS
330
2A
102
}
102
{ACAD_XDICTIONARY
360
270
102
}
330
2A
100
AcDbVisualStyle
  2
Basic
 70
     7
 71
     1
 72
     0
 73
     1
 90
        0
 40
-0.6
 41
-30.0
 62
     5
 63
     7
421
 16777215
 74
     0
 91
        4
 64
     7
 65
   257
 75
     1
175
     1
 42
1.0
 92
        8
 66
     7
 43
1.0
 76
     1
 77
     6
 78
     2
 67
     7
 79
     5
170
     0
171
     0
290
     0
174
     0
 93
        1
 44
0.0
173
     0
291
     1
 45
0.0
1001
ACAD
1000
AcDbSavedByObjectVersion
1070
     0
  0
VISUALSTYLE
  5
36
102
{ACAD_REACTORS
330
2A
102
}
102
{ACAD_XDICTIONARY
360
278
102
}
330
2A
100
AcDbVisualStyle
  2
Brighten
 70
    12
 71
     2
 72
     2
 73
     0
 90
        0
 40
-0.6
 41
-30.0
 62
     5
 63
     7
421
 16777215
 74
     1
 91
        4
 64
     7
 65
   257
 75
     1
175
     1
 42
1.0
 92
        8
 66
     7
 43
1.0
 76
     1
 77
     6
 78
     2
 67
     7
 79
     5
170
     0
171
     0
290
     0
174
     0
 93
        1
 44
50.0
173
     0
291
     1
 45
0.0
1001
ACAD
1000
AcDbSavedByObjectVersion
1070
     0
  0
VISUALSTYLE
  5
3A
102
{ACAD_REACTORS
330
2A
102
}
102
{ACAD_XDICTIONARY
360
280
102
}
330
2A
100
AcDbVisualStyle
  2
ColorChange
 70
    16
 71
     2
 72
     2
 73
     3
 90
        0
 40
-0.6
 41
-30.0
 62
     5
 63
     8
421
  8421504
 74
     1
 91
        4
 64
     7
 65
   257
 75
     1
175
     1
 42
1.0
 92
        8
 66
     8
424
  8421504
 43
1.0
 76
     1
 77
     6
 78
     2
 67
     7
 79
     5
170
     0
171
     0
290
     0
174
     0
 93
        1
 44
0.0
173
     0
291
     1
 45
0.0
1001
ACAD
1000
AcDbSavedByObjectVersion
1070
     0
  0
VISUALSTYLE
  5
34
102
{ACAD_REACTORS
330
2A
102
}
102
{ACAD_XDICTIONARY
360
274
102
}
330
2A
100
AcDbVisualStyle
  2
Conceptual
 70
     9
 71
     3
 72
     2
 73
     0
 90
        0
 40
-0.6
 41
-30.0
 62
     5
 63
     7
421
 16777215
 74
     2
 91
        2
 64
     7
 65
   257
 75
     1
175
     1
 42
40.0
 92
        8
 66
     7
 43
1.0
 76
     1
 77
     6
 78
     2
 67
     7
 79
     3
170
     0
171
     0
290
     0
174
     0
 93
        1
 44
0.0
173
     0
291
     0
 45
0.0
1001
ACAD
1000
AcDbSavedByObjectVersion
1070
     0
  0
VISUALSTYLE
  5
35
102
{ACAD_REACTORS
330
2A
102
}
102
{ACAD_XDICTIONARY
360
276
102
}
330
2A
100
AcDbVisualStyle
  2
Dim
 70
    11
 71
     2
 72
     2
 73
     0
 90
        0
 40
-0.6
 41
-30.0
 62
     5
 63
     7
421
 16777215
 74
     1
 91
        4
 64
     7
 65
   257
 75
     1
175
     1
 42
1.0
 92
        8
 66
     7
 43
1.0
 76
     1
 77
     6
 78
     2
 67
     7
 79
     5
170
     0
171
     0
290
     0
174
     0
 93
        1
 44
-50.0
173
     0
291
     1
 45
0.0
1001
ACAD
1000
AcDbSavedByObjectVersion
1070
     0
  0
VISUALSTYLE
  5
39
102
{ACAD_REACTORS
330
2A
102
}
102
{ACAD_XDICTIONARY
360
27E
102
}
330
2A
100
AcDbVisualStyle
  2
Facepattern
 70
    15
 71
     2
 72
     2
 73
     0
 90
        0
 40
-0.6
 41
-30.0
 62
     5
 63
     7
421
 16777215
 74
     1
 91
        4
 64
     7
 65
   257
 75
     1
175
     1
 42
1.0
 92
        8
 66
     7
 43
1.0
 76
     1
 77
     6
 78
     2
 67
     7
 79
     5
170
     0
171
     0
290
     0
174
     0
 93
        1
 44
0.0
173
     0
291
     1
 45
0.0
1001
ACAD
1000
AcDbSavedByObjectVersion
1070
     0
  0
VISUALSTYLE
  5
2B
102
{ACAD_REACTORS
330
2A
102
}
102
{ACAD_XDICTIONARY
360
262
102
}
330
2A
100
AcDbVisualStyle
  2
Flat
 70
     0
 71
     2
 72
     1
 73
     1
 90
        2
 40
-0.6
 41
30.0
 62
     5
 63
     7
421
 16777215
 74
     0
 91
        4
 64
     7
 65
   257
 75
     1
175
     1
 42
1.0
 92
        8
 66
     7
 43
1.0
 76
     1
 77
     6
 78
     2
 67
     7
 79
     5
170
     0
171
     0
290
     0
174
     0
 93
       13
 44
0.0
173
     0
291
     1
 45
0.0
1001
ACAD
1000
AcDbSavedByObjectVersion
1070
     0
  0
VISUALSTYLE
  5
2C
102
{ACAD_REACTORS
330
2A
102
}
102
{ACAD_XDICTIONARY
360
264
102
}
330
2A
100
AcDbVisualStyle
  2
FlatWithEdges
 70
     1
 71
     2
 72
     1
 73
     1
 90
        2
 40
-0.6
 41
30.0
 62
     5
 63
     7
421
 16777215
 74
     1
 91
        4
 64
     7
 65
   257
 75
     1
175
     1
 42
1.0
 92
        0
 66
   257
 43
1.0
 76
     1
 77
     6
 78
     2
 67
     7
 79
     5
170
     0
171
     0
290
     0
174
     0
 93
       13
 44
0.0
173
     0
291
     1
 45
0.0
1001
ACAD
1000
AcDbSavedByObjectVersion
1070
     0
  0
VISUALSTYLE
  5
2D
102
{ACAD_REACTORS
330
2A
102
}
102
{ACAD_XDICTIONARY
360
266
102
}
330
2A
100
AcDbVisualStyle
  2
Gouraud
 70
     2
 71
     2
 72
     2
 73
     1
 90
        2
 40
-0.6
 41
30.0
 62
     5
 63
     7
421
 16777215
 74
     0
 91
        4
 64
     7
 65
   257
 75
     1
175
     1
 42
1.0
 92
        0
 66
     7
 43
1.0
 76
     1
 77
     6
 78
     2
 67
     7
 79
     5
170
     0
171
     0
290
     0
174
     0
 93
       13
 44
0.0
173
     0
291
     1
 45
0.0
1001
ACAD
1000
AcDbSavedByObjectVersion
1070
     0
  0
VISUALSTYLE
  5
2E
102
{ACAD_REACTORS
330
2A
102
}
102
{ACAD_XDICTIONARY
360
268
102
}
330
2A
100
AcDbVisualStyle
  2
GouraudWithEdges
 70
     3
 71
     2
 72
     2
 73
     1
 90
        2
 40
-0.6
 41
30.0
 62
     5
 63
     7
421
 16777215
 74
     1
 91
        4
 64
     7
 65
   257
 75
     1
175
     1
 42
1.0
 92
        0
 66
   257
 43
1.0
 76
     1
 77
     6
 78
     2
 67
     7
 79
     5
170
     0
171
     0
290
     0
174
     0
 93
       13
 44
0.0
173
     0
291
     1
 45
0.0
1001
ACAD
1000
AcDbSavedByObjectVersion
1070
     0
  0
VISUALSTYLE
  5
38
102
{ACAD_REACTORS
330
2A
102
}
102
{ACAD_XDICTIONARY
360
27C
102
}
330
2A
100
AcDbVisualStyle
  2
Linepattern
 70
    14
 71
     2
 72
     2
 73
     0
 90
        0
 40
-0.6
 41
-30.0
 62
     5
 63
     7
421
 16777215
 74
     1
 91
        4
 64
     7
 65
   257
 75
     7
175
     7
 42
1.0
 92
        8
 66
     7
 43
1.0
 76
     1
 77
     6
 78
     2
 67
     7
 79
     5
170
     0
171
     0
290
     0
174
     0
 93
        1
 44
0.0
173
     0
291
     1
 45
0.0
1001
ACAD
1000
AcDbSavedByObjectVersion
1070
     0
  0
VISUALSTYLE
  5
33
102
{ACAD_REACTORS
330
2A
102
}
102
{ACAD_XDICTIONARY
360
272
102
}
330
2A
100
AcDbVisualStyle
  2
Realistic
 70
     8
 71
     2
 72
     2
 73
     0
 90
        0
 40
-0.6
 41
-30.0
 62
     5
 63
     7
421
 16777215
 74
     1
 91
        0
 64
     7
 65
   257
 75
     1
175
     1
 42
1.0
 92
        8
 66
     8
424
  7895160
 43
1.0
 76
     1
 77
     6
 78
     2
 67
     7
 79
     5
170
     0
171
     0
290
     0
174
     0
 93
       13
 44
0.0
173
     0
291
     0
 45
0.0
1001
ACAD
1000
AcDbSavedByObjectVersion
1070
     0
  0
VISUALSTYLE
  5
37
102
{ACAD_REACTORS
330
2A
102
}
102
{ACAD_XDICTIONARY
360
27A
102
}
330
2A
100
AcDbVisualStyle
  2
Thicken
 70
    13
 71
     2
 72
     2
 73
     0
 90
        0
 40
-0.6
 41
-30.0
 62
     5
 63
     7
421
 16777215
 74
     1
 91
        4
 64
     7
 65
   257
 75
     1
175
     1
 42
1.0
 92
       12
 66
     7
 43
1.0
 76
     1
 77
     6
 78
     2
 67
     7
 79
     5
170
     0
171
     0
290
     0
174
     0
 93
        1
 44
0.0
173
     0
291
     1
 45
0.0
1001
ACAD
1000
AcDbSavedByObjectVersion
1070
     0
  0
DICTIONARY
  5
284
330
3D
100
AcDbDictionary
280
     1
281
     1
  3
ACAD_XREC_ROUNDTRIP
360
285
  0
DICTIONARY
  5
282
330
3C
100
AcDbDictionary
280
     1
281
     1
  3
ACAD_XREC_ROUNDTRIP
360
283
  0
DICTIONARY
  5
286
330
3E
100
AcDbDictionary
280
     1
281
     1
  3
ACAD_XREC_ROUNDTRIP
360
287
  0
DICTIONARY
  5
26A
330
2F
100
AcDbDictionary
280
     1
281
     1
  3
ACAD_XREC_ROUNDTRIP
360
26B
  0
DICTIONARY
  5
26E
330
31
100
AcDbDictionary
280
     1
281
     1
  3
ACAD_XREC_ROUNDTRIP
360
26F
  0
DICTIONARY
  5
26C
330
30
100
AcDbDictionary
280
     1
281
     1
  3
ACAD_XREC_ROUNDTRIP
360
26D
  0
DICTIONARY
  5
270
330
32
100
AcDbDictionary
280
     1
281
     1
  3
ACAD_XREC_ROUNDTRIP
360
271
  0
DICTIONARY
  5
278
330
36
100
AcDbDictionary
280
     1
281
     1
  3
ACAD_XREC_ROUNDTRIP
360
279
  0
DICTIONARY
  5
280
330
3A
100
AcDbDictionary
280
     1
281
     1
  3
ACAD_XREC_ROUNDTRIP
360
281
  0
DICTIONARY
  5
274
330
34
100
AcDbDictionary
280
     1
281
     1
  3
ACAD_XREC_ROUNDTRIP
360
275
  0
DICTIONARY
  5
276
330
35
100
AcDbDictionary
280
     1
281
     1
  3
ACAD_XREC_ROUNDTRIP
360
277
  0
DICTIONARY
  5
27E
330
39
100
AcDbDictionary
280
     1
281
     1
  3
ACAD_XREC_ROUNDTRIP
360
27F
  0
DICTIONARY
  5
262
330
2B
100
AcDbDictionary
280
     1
281
     1
  3
ACAD_XREC_ROUNDTRIP
360
263
  0
DICTIONARY
  5
264
330
2C
100
AcDbDictionary
280
     1
281
     1
  3
ACAD_XREC_ROUNDTRIP
360
265
  0
DICTIONARY
  5
266
330
2D
100
AcDbDictionary
280
     1
281
     1
  3
ACAD_XREC_ROUNDTRIP
360
267
  0
DICTIONARY
  5
268
330
2E
100
AcDbDictionary
280
     1
281
     1
  3
ACAD_XREC_ROUNDTRIP
360
269
  0
DICTIONARY
  5
27C
330
38
100
AcDbDictionary
280
     1
281
     1
  3
ACAD_XREC_ROUNDTRIP
360
27D
  0
DICTIONARY
  5
272
330
33
100
AcDbDictionary
280
     1
281
     1
  3
ACAD_XREC_ROUNDTRIP
360
273
  0
DICTIONARY
  5
27A
330
37
100
AcDbDictionary
280
     1
281
     1
  3
ACAD_XREC_ROUNDTRIP
360
27B
  0
XRECORD
  5
285
102
{ACAD_REACTORS
330
284
102
}
330
284
100
AcDbXrecord
280
     1
102
MATERIAL
148
0.0
149
0.0
149
0.0
 93
        0
 94
      127
282
     0
 72
     1
 77
     1
171
     1
175
     1
179
     1
273
     0
  0
XRECORD
  5
283
102
{ACAD_REACTORS
330
282
102
}
330
282
100
AcDbXrecord
280
     1
102
MATERIAL
148
0.0
149
0.0
149
0.0
 93
        0
 94
      127
282
     0
 72
     1
 77
     1
171
     1
175
     1
179
     1
273
     0
  0
XRECORD
  5
287
102
{ACAD_REACTORS
330
286
102
}
330
286
100
AcDbXrecord
280
     1
102
MATERIAL
148
0.0
149
0.0
149
0.0
 93
        0
 94
      127
282
     0
 72
     1
 77
     1
171
     1
175
     1
179
     1
273
     0
  0
XRECORD
  5
26B
102
{ACAD_REACTORS
330
26A
102
}
330
26A
100
AcDbXrecord
280
     1
102
RTVSPropertyOp0
 70
     1
102
RTVSPropertyOp1
 70
     1
102
RTVSPropertyOp2
 70
     1
102
RTVSPropertyOp3
 70
     1
102
RTVSPropertyOp4
 70
     1
102
RTVSPropertyOp5
 70
     1
102
RTVSPropertyOp6
 70
     1
102
RTVSPropertyOp7
 70
     1
102
RTVSPropertyOp8
 70
     1
102
RTVSPropertyOp9
 70
     1
102
RTVSPropertyOp10
 70
     1
102
RTVSPropertyOp11
 70
     1
102
RTVSPropertyOp12
 70
     1
102
RTVSPropertyOp13
 70
     1
102
RTVSPropertyOp14
 70
     1
102
RTVSPropertyOp15
 70
     1
102
RTVSPropertyOp16
 70
     1
102
RTVSPropertyOp17
 70
     1
102
RTVSPropertyOp18
 70
     1
102
RTVSPropertyOp19
 70
     1
102
RTVSPropertyOp20
 70
     1
102
RTVSPropertyOp21
 70
     1
102
RTVSPropertyOp22
 70
     1
102
RTVSPropertyOp23
 70
     1
102
RTVSPropertyOp24
 70
     1
102
RTVSPropertyOp25
 70
     1
102
RTVSPropertyOp26
 70
     1
102
RTVSPropertyOp27
 70
     1
102
RTVSPropertyOp28
 70
     1
102
RTVSPropertyOp29
 70
     1
102
RTVSPropertyOp30
 70
     1
102
RTVSPropertyOp31
 70
     1
102
RTVSPropertyOp32
 70
     1
  0
XRECORD
  5
26F
102
{ACAD_REACTORS
330
26E
102
}
330
26E
100
AcDbXrecord
280
     1
102
RTVSPropertyOp0
 70
     1
102
RTVSPropertyOp1
 70
     1
102
RTVSPropertyOp2
 70
     1
102
RTVSPropertyOp3
 70
     1
102
RTVSPropertyOp4
 70
     1
102
RTVSPropertyOp5
 70
     1
102
RTVSPropertyOp6
 70
     1
102
RTVSPropertyOp7
 70
     1
102
RTVSPropertyOp8
 70
     1
102
RTVSPropertyOp9
 70
     1
102
RTVSPropertyOp10
 70
     1
102
RTVSPropertyOp11
 70
     1
102
RTVSPropertyOp12
 70
     1
102
RTVSPropertyOp13
 70
     1
102
RTVSPropertyOp14
 70
     1
102
RTVSPropertyOp15
 70
     1
102
RTVSPropertyOp16
 70
     1
102
RTVSPropertyOp17
 70
     1
102
RTVSPropertyOp18
 70
     1
102
RTVSPropertyOp19
 70
     1
102
RTVSPropertyOp20
 70
     1
102
RTVSPropertyOp21
 70
     1
102
RTVSPropertyOp22
 70
     1
102
RTVSPropertyOp23
 70
     1
102
RTVSPropertyOp24
 70
     1
102
RTVSPropertyOp25
 70
     1
102
RTVSPropertyOp26
 70
     1
102
RTVSPropertyOp27
 70
     1
102
RTVSPropertyOp28
 70
     1
102
RTVSPropertyOp29
 70
     1
102
RTVSPropertyOp30
 70
     1
102
RTVSPropertyOp31
 70
     1
102
RTVSPropertyOp32
 70
     1
  0
XRECORD
  5
26D
102
{ACAD_REACTORS
330
26C
102
}
330
26C
100
AcDbXrecord
280
     1
102
RTVSPropertyOp0
 70
     1
102
RTVSPropertyOp1
 70
     1
102
RTVSPropertyOp2
 70
     1
102
RTVSPropertyOp3
 70
     1
102
RTVSPropertyOp4
 70
     1
102
RTVSPropertyOp5
 70
     1
102
RTVSPropertyOp6
 70
     1
102
RTVSPropertyOp7
 70
     1
102
RTVSPropertyOp8
 70
     1
102
RTVSPropertyOp9
 70
     1
102
RTVSPropertyOp10
 70
     1
102
RTVSPropertyOp11
 70
     1
102
RTVSPropertyOp12
 70
     1
102
RTVSPropertyOp13
 70
     1
102
RTVSPropertyOp14
 70
     1
102
RTVSPropertyOp15
 70
     1
102
RTVSPropertyOp16
 70
     1
102
RTVSPropertyOp17
 70
     1
102
RTVSPropertyOp18
 70
     1
102
RTVSPropertyOp19
 70
     1
102
RTVSPropertyOp20
 70
     1
102
RTVSPropertyOp21
 70
     1
102
RTVSPropertyOp22
 70
     1
102
RTVSPropertyOp23
 70
     1
102
RTVSPropertyOp24
 70
     1
102
RTVSPropertyOp25
 70
     1
102
RTVSPropertyOp26
 70
     1
102
RTVSPropertyOp27
 70
     1
102
RTVSPropertyOp28
 70
     1
102
RTVSPropertyOp29
 70
     1
102
RTVSPropertyOp30
 70
     1
102
RTVSPropertyOp31
 70
     1
102
RTVSPropertyOp32
 70
     1
  0
XRECORD
  5
271
102
{ACAD_REACTORS
330
270
102
}
330
270
100
AcDbXrecord
280
     1
102
RTVSPropertyOp0
 70
     1
102
RTVSPropertyOp1
 70
     1
102
RTVSPropertyOp2
 70
     1
102
RTVSPropertyOp3
 70
     1
102
RTVSPropertyOp4
 70
     1
102
RTVSPropertyOp5
 70
     1
102
RTVSPropertyOp6
 70
     1
102
RTVSPropertyOp7
 70
     1
102
RTVSPropertyOp8
 70
     1
102
RTVSPropertyOp9
 70
     1
102
RTVSPropertyOp10
 70
     1
102
RTVSPropertyOp11
 70
     1
102
RTVSPropertyOp12
 70
     1
102
RTVSPropertyOp13
 70
     1
102
RTVSPropertyOp14
 70
     1
102
RTVSPropertyOp15
 70
     1
102
RTVSPropertyOp16
 70
     1
102
RTVSPropertyOp17
 70
     1
102
RTVSPropertyOp18
 70
     1
102
RTVSPropertyOp19
 70
     1
102
RTVSPropertyOp20
 70
     1
102
RTVSPropertyOp21
 70
     1
102
RTVSPropertyOp22
 70
     1
102
RTVSPropertyOp23
 70
     1
102
RTVSPropertyOp24
 70
     1
102
RTVSPropertyOp25
 70
     1
102
RTVSPropertyOp26
 70
     1
102
RTVSPropertyOp27
 70
     1
102
RTVSPropertyOp28
 70
     1
102
RTVSPropertyOp29
 70
     1
102
RTVSPropertyOp30
 70
     1
102
RTVSPropertyOp31
 70
     1
102
RTVSPropertyOp32
 70
     1
  0
XRECORD
  5
279
102
{ACAD_REACTORS
330
278
102
}
330
278
100
AcDbXrecord
280
     1
102
RTVSPropertyOp0
 70
     1
102
RTVSPropertyOp1
 70
     1
102
RTVSPropertyOp2
 70
     1
102
RTVSPropertyOp3
 70
     1
102
RTVSPropertyOp4
 70
     1
102
RTVSPropertyOp5
 70
     1
102
RTVSPropertyOp6
 70
     1
102
RTVSPropertyOp7
 70
     1
102
RTVSPropertyOp8
 70
     1
102
RTVSPropertyOp9
 70
     1
102
RTVSPropertyOp10
 70
     1
102
RTVSPropertyOp11
 70
     1
102
RTVSPropertyOp12
 70
     1
102
RTVSPropertyOp13
 70
     1
102
RTVSPropertyOp14
 70
     1
102
RTVSPropertyOp15
 70
     1
102
RTVSPropertyOp16
 70
     1
102
RTVSPropertyOp17
 70
     1
102
RTVSPropertyOp18
 70
     1
102
RTVSPropertyOp19
 70
     1
102
RTVSPropertyOp20
 70
     1
102
RTVSPropertyOp21
 70
     1
102
RTVSPropertyOp22
 70
     1
102
RTVSPropertyOp23
 70
     1
102
RTVSPropertyOp24
 70
     1
102
RTVSPropertyOp25
 70
     1
102
RTVSPropertyOp26
 70
     1
102
RTVSPropertyOp27
 70
     1
102
RTVSPropertyOp28
 70
     1
102
RTVSPropertyOp29
 70
     1
102
RTVSPropertyOp30
 70
     1
102
RTVSPropertyOp31
 70
     1
102
RTVSPropertyOp32
 70
     1
  0
XRECORD
  5
281
102
{ACAD_REACTORS
330
280
102
}
330
280
100
AcDbXrecord
280
     1
102
RTVSPropertyOp0
 70
     1
102
RTVSPropertyOp1
 70
     1
102
RTVSPropertyOp2
 70
     1
102
RTVSPropertyOp3
 70
     1
102
RTVSPropertyOp4
 70
     1
102
RTVSPropertyOp5
 70
     1
102
RTVSPropertyOp6
 70
     1
102
RTVSPropertyOp7
 70
     1
102
RTVSPropertyOp8
 70
     1
102
RTVSPropertyOp9
 70
     1
102
RTVSPropertyOp10
 70
     1
102
RTVSPropertyOp11
 70
     1
102
RTVSPropertyOp12
 70
     1
102
RTVSPropertyOp13
 70
     1
102
RTVSPropertyOp14
 70
     1
102
RTVSPropertyOp15
 70
     1
102
RTVSPropertyOp16
 70
     1
102
RTVSPropertyOp17
 70
     1
102
RTVSPropertyOp18
 70
     1
102
RTVSPropertyOp19
 70
     1
102
RTVSPropertyOp20
 70
     1
102
RTVSPropertyOp21
 70
     1
102
RTVSPropertyOp22
 70
     1
102
RTVSPropertyOp23
 70
     1
102
RTVSPropertyOp24
 70
     1
102
RTVSPropertyOp25
 70
     1
102
RTVSPropertyOp26
 70
     1
102
RTVSPropertyOp27
 70
     1
102
RTVSPropertyOp28
 70
     1
102
RTVSPropertyOp29
 70
     1
102
RTVSPropertyOp30
 70
     1
102
RTVSPropertyOp31
 70
     1
102
RTVSPropertyOp32
 70
     1
  0
XRECORD
  5
275
102
{ACAD_REACTORS
330
274
102
}
330
274
100
AcDbXrecord
280
     1
102
RTVSPropertyOp0
 70
     1
102
RTVSPropertyOp1
 70
     1
102
RTVSPropertyOp2
 70
     1
102
RTVSPropertyOp3
 70
     1
102
RTVSPropertyOp4
 70
     1
102
RTVSPropertyOp5
 70
     1
102
RTVSPropertyOp6
 70
     1
102
RTVSPropertyOp7
 70
     1
102
RTVSPropertyOp8
 70
     1
102
RTVSPropertyOp9
 70
     1
102
RTVSPropertyOp10
 70
     1
102
RTVSPropertyOp11
 70
     1
102
RTVSPropertyOp12
 70
     1
102
RTVSPropertyOp13
 70
     1
102
RTVSPropertyOp14
 70
     1
102
RTVSPropertyOp15
 70
     1
102
RTVSPropertyOp16
 70
     1
102
RTVSPropertyOp17
 70
     1
102
RTVSPropertyOp18
 70
     1
102
RTVSPropertyOp19
 70
     1
102
RTVSPropertyOp20
 70
     1
102
RTVSPropertyOp21
 70
     1
102
RTVSPropertyOp22
 70
     1
102
RTVSPropertyOp23
 70
     1
102
RTVSPropertyOp24
 70
     1
102
RTVSPropertyOp25
 70
     1
102
RTVSPropertyOp26
 70
     1
102
RTVSPropertyOp27
 70
     1
102
RTVSPropertyOp28
 70
     1
102
RTVSPropertyOp29
 70
     1
102
RTVSPropertyOp30
 70
     1
102
RTVSPropertyOp31
 70
     1
102
RTVSPropertyOp32
 70
     1
  0
XRECORD
  5
277
102
{ACAD_REACTORS
330
276
102
}
330
276
100
AcDbXrecord
280
     1
102
RTVSPropertyOp0
 70
     1
102
RTVSPropertyOp1
 70
     1
102
RTVSPropertyOp2
 70
     1
102
RTVSPropertyOp3
 70
     1
102
RTVSPropertyOp4
 70
     1
102
RTVSPropertyOp5
 70
     1
102
RTVSPropertyOp6
 70
     1
102
RTVSPropertyOp7
 70
     1
102
RTVSPropertyOp8
 70
     1
102
RTVSPropertyOp9
 70
     1
102
RTVSPropertyOp10
 70
     1
102
RTVSPropertyOp11
 70
     1
102
RTVSPropertyOp12
 70
     1
102
RTVSPropertyOp13
 70
     1
102
RTVSPropertyOp14
 70
     1
102
RTVSPropertyOp15
 70
     1
102
RTVSPropertyOp16
 70
     1
102
RTVSPropertyOp17
 70
     1
102
RTVSPropertyOp18
 70
     1
102
RTVSPropertyOp19
 70
     1
102
RTVSPropertyOp20
 70
     1
102
RTVSPropertyOp21
 70
     1
102
RTVSPropertyOp22
 70
     1
102
RTVSPropertyOp23
 70
     1
102
RTVSPropertyOp24
 70
     1
102
RTVSPropertyOp25
 70
     1
102
RTVSPropertyOp26
 70
     1
102
RTVSPropertyOp27
 70
     1
102
RTVSPropertyOp28
 70
     1
102
RTVSPropertyOp29
 70
     1
102
RTVSPropertyOp30
 70
     1
102
RTVSPropertyOp31
 70
     1
102
RTVSPropertyOp32
 70
     1
  0
XRECORD
  5
27F
102
{ACAD_REACTORS
330
27E
102
}
330
27E
100
AcDbXrecord
280
     1
102
RTVSPropertyOp0
 70
     1
102
RTVSPropertyOp1
 70
     1
102
RTVSPropertyOp2
 70
     1
102
RTVSPropertyOp3
 70
     1
102
RTVSPropertyOp4
 70
     1
102
RTVSPropertyOp5
 70
     1
102
RTVSPropertyOp6
 70
     1
102
RTVSPropertyOp7
 70
     1
102
RTVSPropertyOp8
 70
     1
102
RTVSPropertyOp9
 70
     1
102
RTVSPropertyOp10
 70
     1
102
RTVSPropertyOp11
 70
     1
102
RTVSPropertyOp12
 70
     1
102
RTVSPropertyOp13
 70
     1
102
RTVSPropertyOp14
 70
     1
102
RTVSPropertyOp15
 70
     1
102
RTVSPropertyOp16
 70
     1
102
RTVSPropertyOp17
 70
     1
102
RTVSPropertyOp18
 70
     1
102
RTVSPropertyOp19
 70
     1
102
RTVSPropertyOp20
 70
     1
102
RTVSPropertyOp21
 70
     1
102
RTVSPropertyOp22
 70
     1
102
RTVSPropertyOp23
 70
     1
102
RTVSPropertyOp24
 70
     1
102
RTVSPropertyOp25
 70
     1
102
RTVSPropertyOp26
 70
     1
102
RTVSPropertyOp27
 70
     1
102
RTVSPropertyOp28
 70
     1
102
RTVSPropertyOp29
 70
     1
102
RTVSPropertyOp30
 70
     1
102
RTVSPropertyOp31
 70
     1
102
RTVSPropertyOp32
 70
     1
  0
XRECORD
  5
263
102
{ACAD_REACTORS
330
262
102
}
330
262
100
AcDbXrecord
280
     1
102
RTVSPropertyOp0
 70
     1
102
RTVSPropertyOp1
 70
     1
102
RTVSPropertyOp2
 70
     1
102
RTVSPropertyOp3
 70
     1
102
RTVSPropertyOp4
 70
     1
102
RTVSPropertyOp5
 70
     1
102
RTVSPropertyOp6
 70
     1
102
RTVSPropertyOp7
 70
     1
102
RTVSPropertyOp8
 70
     1
102
RTVSPropertyOp9
 70
     1
102
RTVSPropertyOp10
 70
     1
102
RTVSPropertyOp11
 70
     1
102
RTVSPropertyOp12
 70
     1
102
RTVSPropertyOp13
 70
     1
102
RTVSPropertyOp14
 70
     1
102
RTVSPropertyOp15
 70
     1
102
RTVSPropertyOp16
 70
     1
102
RTVSPropertyOp17
 70
     1
102
RTVSPropertyOp18
 70
     1
102
RTVSPropertyOp19
 70
     1
102
RTVSPropertyOp20
 70
     1
102
RTVSPropertyOp21
 70
     1
102
RTVSPropertyOp22
 70
     1
102
RTVSPropertyOp23
 70
     1
102
RTVSPropertyOp24
 70
     1
102
RTVSPropertyOp25
 70
     1
102
RTVSPropertyOp26
 70
     1
102
RTVSPropertyOp27
 70
     1
102
RTVSPropertyOp28
 70
     1
102
RTVSPropertyOp29
 70
     1
102
RTVSPropertyOp30
 70
     1
102
RTVSPropertyOp31
 70
     1
102
RTVSPropertyOp32
 70
     1
  0
XRECORD
  5
265
102
{ACAD_REACTORS
330
264
102
}
330
264
100
AcDbXrecord
280
     1
102
RTVSPropertyOp0
 70
     1
102
RTVSPropertyOp1
 70
     1
102
RTVSPropertyOp2
 70
     1
102
RTVSPropertyOp3
 70
     1
102
RTVSPropertyOp4
 70
     1
102
RTVSPropertyOp5
 70
     1
102
RTVSPropertyOp6
 70
     1
102
RTVSPropertyOp7
 70
     1
102
RTVSPropertyOp8
 70
     1
102
RTVSPropertyOp9
 70
     1
102
RTVSPropertyOp10
 70
     1
102
RTVSPropertyOp11
 70
     1
102
RTVSPropertyOp12
 70
     1
102
RTVSPropertyOp13
 70
     1
102
RTVSPropertyOp14
 70
     1
102
RTVSPropertyOp15
 70
     1
102
RTVSPropertyOp16
 70
     1
102
RTVSPropertyOp17
 70
     1
102
RTVSPropertyOp18
 70
     1
102
RTVSPropertyOp19
 70
     1
102
RTVSPropertyOp20
 70
     1
102
RTVSPropertyOp21
 70
     1
102
RTVSPropertyOp22
 70
     1
102
RTVSPropertyOp23
 70
     1
102
RTVSPropertyOp24
 70
     1
102
RTVSPropertyOp25
 70
     1
102
RTVSPropertyOp26
 70
     1
102
RTVSPropertyOp27
 70
     1
102
RTVSPropertyOp28
 70
     1
102
RTVSPropertyOp29
 70
     1
102
RTVSPropertyOp30
 70
     1
102
RTVSPropertyOp31
 70
     1
102
RTVSPropertyOp32
 70
     1
  0
XRECORD
  5
267
102
{ACAD_REACTORS
330
266
102
}
330
266
100
AcDbXrecord
280
     1
102
RTVSPropertyOp0
 70
     1
102
RTVSPropertyOp1
 70
     1
102
RTVSPropertyOp2
 70
     1
102
RTVSPropertyOp3
 70
     1
102
RTVSPropertyOp4
 70
     1
102
RTVSPropertyOp5
 70
     1
102
RTVSPropertyOp6
 70
     1
102
RTVSPropertyOp7
 70
     1
102
RTVSPropertyOp8
 70
     1
102
RTVSPropertyOp9
 70
     1
102
RTVSPropertyOp10
 70
     1
102
RTVSPropertyOp11
 70
     1
102
RTVSPropertyOp12
 70
     1
102
RTVSPropertyOp13
 70
     1
102
RTVSPropertyOp14
 70
     1
102
RTVSPropertyOp15
 70
     1
102
RTVSPropertyOp16
 70
     1
102
RTVSPropertyOp17
 70
     1
102
RTVSPropertyOp18
 70
     1
102
RTVSPropertyOp19
 70
     1
102
RTVSPropertyOp20
 70
     1
102
RTVSPropertyOp21
 70
     1
102
RTVSPropertyOp22
 70
     1
102
RTVSPropertyOp23
 70
     1
102
RTVSPropertyOp24
 70
     1
102
RTVSPropertyOp25
 70
     1
102
RTVSPropertyOp26
 70
     1
102
RTVSPropertyOp27
 70
     1
102
RTVSPropertyOp28
 70
     1
102
RTVSPropertyOp29
 70
     1
102
RTVSPropertyOp30
 70
     1
102
RTVSPropertyOp31
 70
     1
102
RTVSPropertyOp32
 70
     1
  0
XRECORD
  5
269
102
{ACAD_REACTORS
330
268
102
}
330
268
100
AcDbXrecord
280
     1
102
RTVSPropertyOp0
 70
     1
102
RTVSPropertyOp1
 70
     1
102
RTVSPropertyOp2
 70
     1
102
RTVSPropertyOp3
 70
     1
102
RTVSPropertyOp4
 70
     1
102
RTVSPropertyOp5
 70
     1
102
RTVSPropertyOp6
 70
     1
102
RTVSPropertyOp7
 70
     1
102
RTVSPropertyOp8
 70
     1
102
RTVSPropertyOp9
 70
     1
102
RTVSPropertyOp10
 70
     1
102
RTVSPropertyOp11
 70
     1
102
RTVSPropertyOp12
 70
     1
102
RTVSPropertyOp13
 70
     1
102
RTVSPropertyOp14
 70
     1
102
RTVSPropertyOp15
 70
     1
102
RTVSPropertyOp16
 70
     1
102
RTVSPropertyOp17
 70
     1
102
RTVSPropertyOp18
 70
     1
102
RTVSPropertyOp19
 70
     1
102
RTVSPropertyOp20
 70
     1
102
RTVSPropertyOp21
 70
     1
102
RTVSPropertyOp22
 70
     1
102
RTVSPropertyOp23
 70
     1
102
RTVSPropertyOp24
 70
     1
102
RTVSPropertyOp25
 70
     1
102
RTVSPropertyOp26
 70
     1
102
RTVSPropertyOp27
 70
     1
102
RTVSPropertyOp28
 70
     1
102
RTVSPropertyOp29
 70
     1
102
RTVSPropertyOp30
 70
     1
102
RTVSPropertyOp31
 70
     1
102
RTVSPropertyOp32
 70
     1
  0
XRECORD
  5
27D
102
{ACAD_REACTORS
330
27C
102
}
330
27C
100
AcDbXrecord
280
     1
102
RTVSPropertyOp0
 70
     1
102
RTVSPropertyOp1
 70
     1
102
RTVSPropertyOp2
 70
     1
102
RTVSPropertyOp3
 70
     1
102
RTVSPropertyOp4
 70
     1
102
RTVSPropertyOp5
 70
     1
102
RTVSPropertyOp6
 70
     1
102
RTVSPropertyOp7
 70
     1
102
RTVSPropertyOp8
 70
     1
102
RTVSPropertyOp9
 70
     1
102
RTVSPropertyOp10
 70
     1
102
RTVSPropertyOp11
 70
     1
102
RTVSPropertyOp12
 70
     1
102
RTVSPropertyOp13
 70
     1
102
RTVSPropertyOp14
 70
     1
102
RTVSPropertyOp15
 70
     1
102
RTVSPropertyOp16
 70
     1
102
RTVSPropertyOp17
 70
     1
102
RTVSPropertyOp18
 70
     1
102
RTVSPropertyOp19
 70
     1
102
RTVSPropertyOp20
 70
     1
102
RTVSPropertyOp21
 70
     1
102
RTVSPropertyOp22
 70
     1
102
RTVSPropertyOp23
 70
     1
102
RTVSPropertyOp24
 70
     1
102
RTVSPropertyOp25
 70
     1
102
RTVSPropertyOp26
 70
     1
102
RTVSPropertyOp27
 70
     1
102
RTVSPropertyOp28
 70
     1
102
RTVSPropertyOp29
 70
     1
102
RTVSPropertyOp30
 70
     1
102
RTVSPropertyOp31
 70
     1
102
RTVSPropertyOp32
 70
     1
  0
XRECORD
  5
273
102
{ACAD_REACTORS
330
272
102
}
330
272
100
AcDbXrecord
280
     1
102
RTVSPropertyOp0
 70
     1
102
RTVSPropertyOp1
 70
     1
102
RTVSPropertyOp2
 70
     1
102
RTVSPropertyOp3
 70
     1
102
RTVSPropertyOp4
 70
     1
102
RTVSPropertyOp5
 70
     1
102
RTVSPropertyOp6
 70
     1
102
RTVSPropertyOp7
 70
     1
102
RTVSPropertyOp8
 70
     1
102
RTVSPropertyOp9
 70
     1
102
RTVSPropertyOp10
 70
     1
102
RTVSPropertyOp11
 70
     1
102
RTVSPropertyOp12
 70
     1
102
RTVSPropertyOp13
 70
     1
102
RTVSPropertyOp14
 70
     1
102
RTVSPropertyOp15
 70
     1
102
RTVSPropertyOp16
 70
     1
102
RTVSPropertyOp17
 70
     1
102
RTVSPropertyOp18
 70
     1
102
RTVSPropertyOp19
 70
     1
102
RTVSPropertyOp20
 70
     1
102
RTVSPropertyOp21
 70
     1
102
RTVSPropertyOp22
 70
     1
102
RTVSPropertyOp23
 70
     1
102
RTVSPropertyOp24
 70
     1
102
RTVSPropertyOp25
 70
     1
102
RTVSPropertyOp26
 70
     1
102
RTVSPropertyOp27
 70
     1
102
RTVSPropertyOp28
 70
     1
102
RTVSPropertyOp29
 70
     1
102
RTVSPropertyOp30
 70
     1
102
RTVSPropertyOp31
 70
     1
102
RTVSPropertyOp32
 70
     1
  0
XRECORD
  5
27B
102
{ACAD_REACTORS
330
27A
102
}
330
27A
100
AcDbXrecord
280
     1
102
RTVSPropertyOp0
 70
     1
102
RTVSPropertyOp1
 70
     1
102
RTVSPropertyOp2
 70
     1
102
RTVSPropertyOp3
 70
     1
102
RTVSPropertyOp4
 70
     1
102
RTVSPropertyOp5
 70
     1
102
RTVSPropertyOp6
 70
     1
102
RTVSPropertyOp7
 70
     1
102
RTVSPropertyOp8
 70
     1
102
RTVSPropertyOp9
 70
     1
102
RTVSPropertyOp10
 70
     1
102
RTVSPropertyOp11
 70
     1
102
RTVSPropertyOp12
 70
     1
102
RTVSPropertyOp13
 70
     1
102
RTVSPropertyOp14
 70
     1
102
RTVSPropertyOp15
 70
     1
102
RTVSPropertyOp16
 70
     1
102
RTVSPropertyOp17
 70
     1
102
RTVSPropertyOp18
 70
     1
102
RTVSPropertyOp19
 70
     1
102
RTVSPropertyOp20
 70
     1
102
RTVSPropertyOp21
 70
     1
102
RTVSPropertyOp22
 70
     1
102
RTVSPropertyOp23
 70
     1
102
RTVSPropertyOp24
 70
     1
102
RTVSPropertyOp25
 70
     1
102
RTVSPropertyOp26
 70
     1
102
RTVSPropertyOp27
 70
     1
102
RTVSPropertyOp28
 70
     1
102
RTVSPropertyOp29
 70
     1
102
RTVSPropertyOp30
 70
     1
102
RTVSPropertyOp31
 70
     1
102
RTVSPropertyOp32
 70
     1
  0
ENDSEC
  0
EOF
