  0
SECTION
  2
HEADER
  9
$ACADVER
  1
AC1018
  9
$ACADMAINTVER
 70
     0
  9
$DWGCODEPAGE
  3
ANSI_1252
  9
$INSBASE
 10
0.0
 20
0.0
 30
0.0
  9
$EXTMIN
 10
559.989763601764
 20
101.041
 30
0.0
  9
$EXTMAX
 10
1317.410236398236
 20
408.139
 30
0.0
  9
$LIMMIN
 10
0.0
 20
0.0
  9
$LIMMAX
 10
420.0
 20
297.0
  9
$ORTHOMODE
 70
     0
  9
$REGENMODE
 70
     1
  9
$FILLMODE
 70
     1
  9
$QTEXTMODE
 70
     0
  9
$MIRRTEXT
 70
     1
  9
$LTSCALE
 40
5.0
  9
$ATTMODE
 70
     1
  9
$TEXTSIZE
 40
2.5
  9
$TRACEWID
 40
1.0
  9
$TEXTSTYLE
  7
Standard
  9
$CLAYER
  8
0
  9
$CELTYPE
  6
ByLayer
  9
$CECOLOR
 62
   256
  9
$CELTSCALE
 40
1.0
  9
$DISPSILH
 70
     0
  9
$DIMSCALE
 40
1.0
  9
$DIMASZ
 40
2.5
  9
$DIMEXO
 40
0.625
  9
$DIMDLI
 40
3.75
  9
$DIMRND
 40
0.0
  9
$DIMDLE
 40
0.0
  9
$DIMEXE
 40
1.25
  9
$DIMTP
 40
0.0
  9
$DIMTM
 40
0.0
  9
$DIMTXT
 40
2.5
  9
$DIMCEN
 40
2.5
  9
$DIMTSZ
 40
0.0
  9
$DIMTOL
 70
     0
  9
$DIMLIM
 70
     0
  9
$DIMTIH
 70
     0
  9
$DIMTOH
 70
     0
  9
$DIMSE1
 70
     0
  9
$DIMSE2
 70
     0
  9
$DIMTAD
 70
     1
  9
$DIMZIN
 70
     8
  9
$DIMBLK
  1

  9
$DIMASO
 70
     1
  9
$DIMSHO
 70
     1
  9
$DIMPOST
  1

  9
$DIMAPOST
  1

  9
$DIMALT
 70
     0
  9
$DIMALTD
 70
     3
  9
$DIMALTF
 40
0.03937007874
  9
$DIMLFAC
 40
1.0
  9
$DIMTOFL
 70
     1
  9
$DIMTVP
 40
0.0
  9
$DIMTIX
 70
     0
  9
$DIMSOXD
 70
     0
  9
$DIMSAH
 70
     0
  9
$DIMBLK1
  1

  9
$DIMBLK2
  1

  9
$DIMSTYLE
  2
ISO-25
  9
$DIMCLRD
 70
     0
  9
$DIMCLRE
 70
     0
  9
$DIMCLRT
 70
     0
  9
$DIMTFAC
 40
1.0
  9
$DIMGAP
 40
0.625
  9
$DIMJUST
 70
     0
  9
$DIMSD1
 70
     0
  9
$DIMSD2
 70
     0
  9
$DIMTOLJ
 70
     0
  9
$DIMTZIN
 70
     8
  9
$DIMALTZ
 70
     0
  9
$DIMALTTZ
 70
     0
  9
$DIMUPT
 70
     0
  9
$DIMDEC
 70
     2
  9
$DIMTDEC
 70
     2
  9
$DIMALTU
 70
     2
  9
$DIMALTTD
 70
     3
  9
$DIMTXSTY
  7
Standard
  9
$DIMAUNIT
 70
     0
  9
$DIMADEC
 70
     0
  9
$DIMALTRND
 40
0.0
  9
$DIMAZIN
 70
     0
  9
$DIMDSEP
 70
    44
  9
$DIMATFIT
 70
     3
  9
$DIMFRAC
 70
     0
  9
$DIMLDRBLK
  1

  9
$DIMLUNIT
 70
     2
  9
$DIMLWD
 70
    -2
  9
$DIMLWE
 70
    -2
  9
$DIMTMOVE
 70
     0
  9
$LUNITS
 70
     2
  9
$LUPREC
 70
     4
  9
$SKETCHINC
 40
1.0
  9
$FILLETRAD
 40
10.0
  9
$AUNITS
 70
     0
  9
$AUPREC
 70
     0
  9
$MENU
  1
.
  9
$ELEVATION
 40
0.0
  9
$PELEVATION
 40
0.0
  9
$THICKNESS
 40
0.0
  9
$LIMCHECK
 70
     0
  9
$CHAMFERA
 40
10.0
  9
$CHAMFERB
 40
10.0
  9
$CHAMFERC
 40
20.0
  9
$CHAMFERD
 40
0.0
  9
$SKPOLY
 70
     0
  9
$TDCREATE
 40
2459223.443593275
  9
$TDUCREATE
 40
2459223.401926609
  9
$TDUPDATE
 40
2459223.443599051
  9
$TDUUPDATE
 40
2459223.401932384
  9
$TDINDWG
 40
0.0000000116
  9
$TDUSRTIMER
 40
0.0000000116
  9
$USRTIMER
 70
     1
  9
$ANGBASE
 50
0.0
  9
$ANGDIR
 70
     0
  9
$PDMODE
 70
     2
  9
$PDSIZE
 40
1.0
  9
$PLINEWID
 40
0.0
  9
$SPLFRAME
 70
     0
  9
$SPLINETYPE
 70
     6
  9
$SPLINESEGS
 70
     8
  9
$HANDSEED
  5
333
  9
$SURFTAB1
 70
     6
  9
$SURFTAB2
 70
     6
  9
$SURFTYPE
 70
     6
  9
$SURFU
 70
     6
  9
$SURFV
 70
     6
  9
$UCSBASE
  2

  9
$UCSNAME
  2

  9
$UCSORG
 10
0.0
 20
0.0
 30
0.0
  9
$UCSXDIR
 10
1.0
 20
0.0
 30
0.0
  9
$UCSYDIR
 10
0.0
 20
1.0
 30
0.0
  9
$UCSORTHOREF
  2

  9
$UCSORTHOVIEW
 70
     0
  9
$UCSORGTOP
 10
0.0
 20
0.0
 30
0.0
  9
$UCSORGBOTTOM
 10
0.0
 20
0.0
 30
0.0
  9
$UCSORGLEFT
 10
0.0
 20
0.0
 30
0.0
  9
$UCSORGRIGHT
 10
0.0
 20
0.0
 30
0.0
  9
$UCSORGFRONT
 10
0.0
 20
0.0
 30
0.0
  9
$UCSORGBACK
 10
0.0
 20
0.0
 30
0.0
  9
$PUCSBASE
  2

  9
$PUCSNAME
  2

  9
$PUCSORG
 10
0.0
 20
0.0
 30
0.0
  9
$PUCSXDIR
 10
1.0
 20
0.0
 30
0.0
  9
$PUCSYDIR
 10
0.0
 20
1.0
 30
0.0
  9
$PUCSORTHOREF
  2

  9
$PUCSORTHOVIEW
 70
     0
  9
$PUCSORGTOP
 10
0.0
 20
0.0
 30
0.0
  9
$PUCSORGBOTTOM
 10
0.0
 20
0.0
 30
0.0
  9
$PUCSORGLEFT
 10
0.0
 20
0.0
 30
0.0
  9
$PUCSORGRIGHT
 10
0.0
 20
0.0
 30
0.0
  9
$PUCSORGFRONT
 10
0.0
 20
0.0
 30
0.0
  9
$PUCSORGBACK
 10
0.0
 20
0.0
 30
0.0
  9
$USERI1
 70
     0
  9
$USERI2
 70
     0
  9
$USERI3
 70
     0
  9
$USERI4
 70
     0
  9
$USERI5
 70
     0
  9
$USERR1
 40
0.0
  9
$USERR2
 40
0.0
  9
$USERR3
 40
0.0
  9
$USERR4
 40
0.0
  9
$USERR5
 40
0.0
  9
$WORLDVIEW
 70
     1
  9
$SHADEDGE
 70
     3
  9
$SHADEDIF
 70
    70
  9
$TILEMODE
 70
     1
  9
$MAXACTVP
 70
    64
  9
$PINSBASE
 10
0.0
 20
0.0
 30
0.0
  9
$PLIMCHECK
 70
     0
  9
$PEXTMIN
 10
1.000000000000E+20
 20
1.000000000000E+20
 30
1.000000000000E+20
  9
$PEXTMAX
 10
-1.000000000000E+20
 20
-1.000000000000E+20
 30
-1.000000000000E+20
  9
$PLIMMIN
 10
0.0
 20
0.0
  9
$PLIMMAX
 10
420.0
 20
297.0
  9
$UNITMODE
 70
     0
  9
$VISRETAIN
 70
     1
  9
$PLINEGEN
 70
     0
  9
$PSLTSCALE
 70
     1
  9
$TREEDEPTH
 70
  3020
  9
$CMLSTYLE
  2
Standard
  9
$CMLJUST
 70
     0
  9
$CMLSCALE
 40
20.0
  9
$PROXYGRAPHICS
 70
     1
  9
$MEASUREMENT
 70
     1
  9
$CELWEIGHT
370
    -1
  9
$ENDCAPS
280
     0
  9
$JOINSTYLE
280
     0
  9
$LWDISPLAY
290
     0
  9
$INSUNITS
 70
     4
  9
$HYPERLINKBASE
  1

  9
$STYLESHEET
  1

  9
$XEDIT
290
     1
  9
$CEPSNTYPE
380
     0
  9
$PSTYLEMODE
290
     1
  9
$FINGERPRINTGUID
  2
{3FE75EE5-FAB2-4875-AC88-33103D718A1E}
  9
$VERSIONGUID
  2
{FAEB1C32-E019-11D5-929B-00C0DF256EC4}
  9
$EXTNAMES
290
     1
  9
$PSVPSCALE
 40
0.0
  9
$OLESTARTUP
290
     0
  9
$SORTENTS
280
   127
  9
$INDEXCTL
280
     0
  9
$HIDETEXT
280
     1
  9
$XCLIPFRAME
290
     0
  9
$HALOGAP
280
     0
  9
$OBSCOLOR
 70
   257
  9
$OBSLTYPE
280
     0
  9
$INTERSECTIONDISPLAY
280
     0
  9
$INTERSECTIONCOLOR
 70
   257
  9
$DIMASSOC
280
     2
  9
$PROJECTNAME
  1

  0
ENDSEC
  0
SECTION
  2
CLASSES
  0
CLASS
  1
ACDBDICTIONARYWDFLT
  2
AcDbDictionaryWithDefault
  3
ObjectDBX Classes
 90
        0
 91
        4
280
     0
281
     0
  0
CLASS
  1
VISUALSTYLE
  2
AcDbVisualStyle
  3
ObjectDBX Classes
 90
     4095
 91
        4
280
     0
281
     0
  0
CLASS
  1
MATERIAL
  2
AcDbMaterial
  3
ObjectDBX Classes
 90
     1153
 91
        4
280
     0
281
     0
  0
CLASS
  1
WIPEOUTVARIABLES
  2
AcDbWipeoutVariables
  3
WipeOut|AutoCAD Express Tool|expresstools@autodesk.com
 90
        0
 91
        4
280
     0
281
     0
  0
CLASS
  1
WIPEOUT
  2
AcDbWipeout
  3
WipeOut|AutoCAD Express Tool|expresstools@autodesk.com
 90
      127
 91
        4
280
     0
281
     1
  0
ENDSEC
  0
SECTION
  2
TABLES
  0
TABLE
  2
VPORT
  5
8
330
0
100
AcDbSymbolTable
 70
     1
  0
VPORT
  5
29
330
8
100
AcDbSymbolTableRecord
100
AcDbViewportTableRecord
  2
*Active
 70
     0
 10
0.0
 20
0.0
 11
1.0
 21
1.0
 12
938.7
 22
254.59
 13
0.0
 23
0.0
 14
10.0
 24
10.0
 15
10.0
 25
10.0
 16
0.0
 26
0.0
 36
1.0
 17
0.0
 27
0.0
 37
0.0
 40
307.098
 41
2.466380350235
 42
50.0
 43
0.0
 44
0.0
 50
0.0
 51
0.0
 71
     0
 72
   100
 73
     1
 74
     3
 75
     0
 76
     0
 77
     0
 78
     0
281
     0
 65
     1
110
0.0
120
0.0
130
0.0
111
1.0
121
0.0
131
0.0
112
0.0
122
1.0
132
0.0
 79
     0
146
0.0
  0
ENDTAB
  0
TABLE
  2
LTYPE
  5
5
330
0
100
AcDbSymbolTable
 70
     3
  0
LTYPE
  5
14
330
5
100
AcDbSymbolTableRecord
100
AcDbLinetypeTableRecord
  2
ByBlock
 70
     0
  3

 72
    65
 73
     0
 40
0.0
  0
LTYPE
  5
15
330
5
100
AcDbSymbolTableRecord
100
AcDbLinetypeTableRecord
  2
ByLayer
 70
     0
  3

 72
    65
 73
     0
 40
0.0
  0
LTYPE
  5
16
330
5
100
AcDbSymbolTableRecord
100
AcDbLinetypeTableRecord
  2
Continuous
 70
     0
  3
Solid line
 72
    65
 73
     0
 40
0.0
  0
LTYPE
  5
40
330
5
100
AcDbSymbolTableRecord
100
AcDbLinetypeTableRecord
  2
AUSGEZOGEN
 70
     0
  3

 72
    65
 73
     0
 40
0.0
  0
LTYPE
  5
43
330
5
100
AcDbSymbolTableRecord
100
AcDbLinetypeTableRecord
  2
DASHDOT
 70
     0
  3

 72
    65
 73
     4
 40
1.0
 49
0.5
 74
     0
 49
-0.25
 74
     0
 49
0.0
 74
     0
 49
-0.25
 74
     0
  0
ENDTAB
  0
TABLE
  2
LAYER
  5
2
330
0
100
AcDbSymbolTable
 70
   256
  0
LAYER
  5
10
330
2
100
AcDbSymbolTableRecord
100
AcDbLayerTableRecord
  2
0
 70
     0
 62
     7
  6
Continuous
370
    -3
390
F
  0
LAYER
  5
45
330
2
100
AcDbSymbolTableRecord
100
AcDbLayerTableRecord
  2
FORMAT
 70
     0
 62
     7
  6
Continuous
370
    -3
390
F
  0
LAYER
  5
46
330
2
100
AcDbSymbolTableRecord
100
AcDbLayerTableRecord
  2
Layer2
 70
     0
 62
     7
  6
Continuous
370
    -3
390
F
  0
LAYER
  5
47
330
2
100
AcDbSymbolTableRecord
100
AcDbLayerTableRecord
  2
Layer3
 70
     0
 62
     7
  6
Continuous
370
    -3
390
F
  0
LAYER
  5
48
330
2
100
AcDbSymbolTableRecord
100
AcDbLayerTableRecord
  2
Layer4
 70
     0
 62
     7
  6
Continuous
370
    -3
390
F
  0
LAYER
  5
49
330
2
100
AcDbSymbolTableRecord
100
AcDbLayerTableRecord
  2
Layer5
 70
     0
 62
     7
  6
Continuous
370
    -3
390
F
  0
LAYER
  5
4A
330
2
100
AcDbSymbolTableRecord
100
AcDbLayerTableRecord
  2
Layer6
 70
     0
 62
     7
  6
Continuous
370
    -3
390
F
  0
LAYER
  5
4B
330
2
100
AcDbSymbolTableRecord
100
AcDbLayerTableRecord
  2
Layer7
 70
     0
 62
     7
  6
Continuous
370
    -3
390
F
  0
LAYER
  5
4C
330
2
100
AcDbSymbolTableRecord
100
AcDbLayerTableRecord
  2
Layer8
 70
     0
 62
     7
  6
Continuous
370
    -3
390
F
  0
LAYER
  5
4D
330
2
100
AcDbSymbolTableRecord
100
AcDbLayerTableRecord
  2
Layer9
 70
     0
 62
     7
  6
Continuous
370
    -3
390
F
  0
LAYER
  5
4E
330
2
100
AcDbSymbolTableRecord
100
AcDbLayerTableRecord
  2
Layer10
 70
     0
 62
     7
  6
Continuous
370
    -3
390
F
  0
LAYER
  5
4F
330
2
100
AcDbSymbolTableRecord
100
AcDbLayerTableRecord
  2
Layer11
 70
     0
 62
     7
  6
Continuous
370
    -3
390
F
  0
LAYER
  5
50
330
2
100
AcDbSymbolTableRecord
100
AcDbLayerTableRecord
  2
Layer12
 70
     0
 62
     7
  6
Continuous
370
    -3
390
F
  0
LAYER
  5
51
330
2
100
AcDbSymbolTableRecord
100
AcDbLayerTableRecord
  2
Layer13
 70
     0
 62
     7
  6
Continuous
370
    -3
390
F
  0
LAYER
  5
52
330
2
100
AcDbSymbolTableRecord
100
AcDbLayerTableRecord
  2
Layer14
 70
     0
 62
     7
  6
Continuous
370
    -3
390
F
  0
LAYER
  5
53
330
2
100
AcDbSymbolTableRecord
100
AcDbLayerTableRecord
  2
Layer15
 70
     0
 62
     7
  6
Continuous
370
    -3
390
F
  0
LAYER
  5
54
330
2
100
AcDbSymbolTableRecord
100
AcDbLayerTableRecord
  2
Layer16
 70
     0
 62
     7
  6
Continuous
370
    -3
390
F
  0
LAYER
  5
55
330
2
100
AcDbSymbolTableRecord
100
AcDbLayerTableRecord
  2
Layer17
 70
     0
 62
     7
  6
Continuous
370
    -3
390
F
  0
LAYER
  5
56
330
2
100
AcDbSymbolTableRecord
100
AcDbLayerTableRecord
  2
Layer18
 70
     0
 62
     7
  6
Continuous
370
    -3
390
F
  0
LAYER
  5
57
330
2
100
AcDbSymbolTableRecord
100
AcDbLayerTableRecord
  2
Layer19
 70
     0
 62
     7
  6
Continuous
370
    -3
390
F
  0
LAYER
  5
58
330
2
100
AcDbSymbolTableRecord
100
AcDbLayerTableRecord
  2
Layer20
 70
     0
 62
     7
  6
Continuous
370
    -3
390
F
  0
LAYER
  5
59
330
2
100
AcDbSymbolTableRecord
100
AcDbLayerTableRecord
  2
Layer21
 70
     0
 62
     7
  6
Continuous
370
    -3
390
F
  0
LAYER
  5
5A
330
2
100
AcDbSymbolTableRecord
100
AcDbLayerTableRecord
  2
Layer22
 70
     0
 62
     7
  6
Continuous
370
    -3
390
F
  0
LAYER
  5
5B
330
2
100
AcDbSymbolTableRecord
100
AcDbLayerTableRecord
  2
Layer23
 70
     0
 62
     7
  6
Continuous
370
    -3
390
F
  0
LAYER
  5
5C
330
2
100
AcDbSymbolTableRecord
100
AcDbLayerTableRecord
  2
Layer24
 70
     0
 62
     7
  6
Continuous
370
    -3
390
F
  0
LAYER
  5
5D
330
2
100
AcDbSymbolTableRecord
100
AcDbLayerTableRecord
  2
Layer25
 70
     0
 62
     7
  6
Continuous
370
    -3
390
F
  0
LAYER
  5
5E
330
2
100
AcDbSymbolTableRecord
100
AcDbLayerTableRecord
  2
Layer26
 70
     0
 62
     7
  6
Continuous
370
    -3
390
F
  0
LAYER
  5
5F
330
2
100
AcDbSymbolTableRecord
100
AcDbLayerTableRecord
  2
Layer27
 70
     0
 62
     7
  6
Continuous
370
    -3
390
F
  0
LAYER
  5
60
330
2
100
AcDbSymbolTableRecord
100
AcDbLayerTableRecord
  2
Layer28
 70
     0
 62
     7
  6
Continuous
370
    -3
390
F
  0
LAYER
  5
61
330
2
100
AcDbSymbolTableRecord
100
AcDbLayerTableRecord
  2
Layer29
 70
     0
 62
     7
  6
Continuous
370
    -3
390
F
  0
LAYER
  5
62
330
2
100
AcDbSymbolTableRecord
100
AcDbLayerTableRecord
  2
Layer30
 70
     0
 62
     7
  6
Continuous
370
    -3
390
F
  0
LAYER
  5
63
330
2
100
AcDbSymbolTableRecord
100
AcDbLayerTableRecord
  2
Layer31
 70
     0
 62
     7
  6
Continuous
370
    -3
390
F
  0
LAYER
  5
64
330
2
100
AcDbSymbolTableRecord
100
AcDbLayerTableRecord
  2
Layer32
 70
     0
 62
     7
  6
Continuous
370
    -3
390
F
  0
LAYER
  5
65
330
2
100
AcDbSymbolTableRecord
100
AcDbLayerTableRecord
  2
Layer33
 70
     0
 62
     7
  6
Continuous
370
    -3
390
F
  0
LAYER
  5
66
330
2
100
AcDbSymbolTableRecord
100
AcDbLayerTableRecord
  2
Layer34
 70
     0
 62
     7
  6
Continuous
370
    -3
390
F
  0
LAYER
  5
67
330
2
100
AcDbSymbolTableRecord
100
AcDbLayerTableRecord
  2
Layer35
 70
     0
 62
     7
  6
Continuous
370
    -3
390
F
  0
LAYER
  5
68
330
2
100
AcDbSymbolTableRecord
100
AcDbLayerTableRecord
  2
Layer36
 70
     0
 62
     7
  6
Continuous
370
    -3
390
F
  0
LAYER
  5
69
330
2
100
AcDbSymbolTableRecord
100
AcDbLayerTableRecord
  2
Layer37
 70
     0
 62
     7
  6
Continuous
370
    -3
390
F
  0
LAYER
  5
6A
330
2
100
AcDbSymbolTableRecord
100
AcDbLayerTableRecord
  2
Layer38
 70
     0
 62
     7
  6
Continuous
370
    -3
390
F
  0
LAYER
  5
6B
330
2
100
AcDbSymbolTableRecord
100
AcDbLayerTableRecord
  2
Layer39
 70
     0
 62
     7
  6
Continuous
370
    -3
390
F
  0
LAYER
  5
6C
330
2
100
AcDbSymbolTableRecord
100
AcDbLayerTableRecord
  2
Layer40
 70
     0
 62
     7
  6
Continuous
370
    -3
390
F
  0
LAYER
  5
6D
330
2
100
AcDbSymbolTableRecord
100
AcDbLayerTableRecord
  2
Layer41
 70
     0
 62
     7
  6
Continuous
370
    -3
390
F
  0
LAYER
  5
6E
330
2
100
AcDbSymbolTableRecord
100
AcDbLayerTableRecord
  2
Layer42
 70
     0
 62
     7
  6
Continuous
370
    -3
390
F
  0
LAYER
  5
6F
330
2
100
AcDbSymbolTableRecord
100
AcDbLayerTableRecord
  2
Layer43
 70
     0
 62
     7
  6
Continuous
370
    -3
390
F
  0
LAYER
  5
70
330
2
100
AcDbSymbolTableRecord
100
AcDbLayerTableRecord
  2
Layer44
 70
     0
 62
     7
  6
Continuous
370
    -3
390
F
  0
LAYER
  5
71
330
2
100
AcDbSymbolTableRecord
100
AcDbLayerTableRecord
  2
Layer45
 70
     0
 62
     7
  6
Continuous
370
    -3
390
F
  0
LAYER
  5
72
330
2
100
AcDbSymbolTableRecord
100
AcDbLayerTableRecord
  2
Layer46
 70
     0
 62
     7
  6
Continuous
370
    -3
390
F
  0
LAYER
  5
73
330
2
100
AcDbSymbolTableRecord
100
AcDbLayerTableRecord
  2
Layer47
 70
     0
 62
     7
  6
Continuous
370
    -3
390
F
  0
LAYER
  5
74
330
2
100
AcDbSymbolTableRecord
100
AcDbLayerTableRecord
  2
Layer48
 70
     0
 62
     7
  6
Continuous
370
    -3
390
F
  0
LAYER
  5
75
330
2
100
AcDbSymbolTableRecord
100
AcDbLayerTableRecord
  2
Layer49
 70
     0
 62
     7
  6
Continuous
370
    -3
390
F
  0
LAYER
  5
76
330
2
100
AcDbSymbolTableRecord
100
AcDbLayerTableRecord
  2
Layer50
 70
     0
 62
     7
  6
Continuous
370
    -3
390
F
  0
LAYER
  5
77
330
2
100
AcDbSymbolTableRecord
100
AcDbLayerTableRecord
  2
Layer51
 70
     0
 62
     7
  6
Continuous
370
    -3
390
F
  0
LAYER
  5
78
330
2
100
AcDbSymbolTableRecord
100
AcDbLayerTableRecord
  2
Layer52
 70
     0
 62
     7
  6
Continuous
370
    -3
390
F
  0
LAYER
  5
79
330
2
100
AcDbSymbolTableRecord
100
AcDbLayerTableRecord
  2
Layer53
 70
     0
 62
     7
  6
Continuous
370
    -3
390
F
  0
LAYER
  5
7A
330
2
100
AcDbSymbolTableRecord
100
AcDbLayerTableRecord
  2
Layer54
 70
     0
 62
     7
  6
Continuous
370
    -3
390
F
  0
LAYER
  5
7B
330
2
100
AcDbSymbolTableRecord
100
AcDbLayerTableRecord
  2
Layer55
 70
     0
 62
     7
  6
Continuous
370
    -3
390
F
  0
LAYER
  5
7C
330
2
100
AcDbSymbolTableRecord
100
AcDbLayerTableRecord
  2
Layer56
 70
     0
 62
     7
  6
Continuous
370
    -3
390
F
  0
LAYER
  5
7D
330
2
100
AcDbSymbolTableRecord
100
AcDbLayerTableRecord
  2
Layer57
 70
     0
 62
     7
  6
Continuous
370
    -3
390
F
  0
LAYER
  5
7E
330
2
100
AcDbSymbolTableRecord
100
AcDbLayerTableRecord
  2
Layer58
 70
     0
 62
     7
  6
Continuous
370
    -3
390
F
  0
LAYER
  5
7F
330
2
100
AcDbSymbolTableRecord
100
AcDbLayerTableRecord
  2
Layer59
 70
     0
 62
     7
  6
Continuous
370
    -3
390
F
  0
LAYER
  5
80
330
2
100
AcDbSymbolTableRecord
100
AcDbLayerTableRecord
  2
Layer60
 70
     0
 62
     7
  6
Continuous
370
    -3
390
F
  0
LAYER
  5
81
330
2
100
AcDbSymbolTableRecord
100
AcDbLayerTableRecord
  2
Layer61
 70
     0
 62
     7
  6
Continuous
370
    -3
390
F
  0
LAYER
  5
82
330
2
100
AcDbSymbolTableRecord
100
AcDbLayerTableRecord
  2
Layer62
 70
     0
 62
     7
  6
Continuous
370
    -3
390
F
  0
LAYER
  5
83
330
2
100
AcDbSymbolTableRecord
100
AcDbLayerTableRecord
  2
Layer63
 70
     0
 62
     7
  6
Continuous
370
    -3
390
F
  0
LAYER
  5
84
330
2
100
AcDbSymbolTableRecord
100
AcDbLayerTableRecord
  2
Layer64
 70
     0
 62
     7
  6
Continuous
370
    -3
390
F
  0
LAYER
  5
85
330
2
100
AcDbSymbolTableRecord
100
AcDbLayerTableRecord
  2
Layer65
 70
     0
 62
     7
  6
Continuous
370
    -3
390
F
  0
LAYER
  5
86
330
2
100
AcDbSymbolTableRecord
100
AcDbLayerTableRecord
  2
Layer66
 70
     0
 62
     7
  6
Continuous
370
    -3
390
F
  0
LAYER
  5
87
330
2
100
AcDbSymbolTableRecord
100
AcDbLayerTableRecord
  2
Layer67
 70
     0
 62
     7
  6
Continuous
370
    -3
390
F
  0
LAYER
  5
88
330
2
100
AcDbSymbolTableRecord
100
AcDbLayerTableRecord
  2
Layer68
 70
     0
 62
     7
  6
Continuous
370
    -3
390
F
  0
LAYER
  5
89
330
2
100
AcDbSymbolTableRecord
100
AcDbLayerTableRecord
  2
Layer69
 70
     0
 62
     7
  6
Continuous
370
    -3
390
F
  0
LAYER
  5
8A
330
2
100
AcDbSymbolTableRecord
100
AcDbLayerTableRecord
  2
Layer70
 70
     0
 62
     7
  6
Continuous
370
    -3
390
F
  0
LAYER
  5
8B
330
2
100
AcDbSymbolTableRecord
100
AcDbLayerTableRecord
  2
Layer71
 70
     0
 62
     7
  6
Continuous
370
    -3
390
F
  0
LAYER
  5
8C
330
2
100
AcDbSymbolTableRecord
100
AcDbLayerTableRecord
  2
Layer72
 70
     0
 62
     7
  6
Continuous
370
    -3
390
F
  0
LAYER
  5
8D
330
2
100
AcDbSymbolTableRecord
100
AcDbLayerTableRecord
  2
Layer73
 70
     0
 62
     7
  6
Continuous
370
    -3
390
F
  0
LAYER
  5
8E
330
2
100
AcDbSymbolTableRecord
100
AcDbLayerTableRecord
  2
Layer74
 70
     0
 62
     7
  6
Continuous
370
    -3
390
F
  0
LAYER
  5
8F
330
2
100
AcDbSymbolTableRecord
100
AcDbLayerTableRecord
  2
Layer75
 70
     0
 62
     7
  6
Continuous
370
    -3
390
F
  0
LAYER
  5
90
330
2
100
AcDbSymbolTableRecord
100
AcDbLayerTableRecord
  2
Layer76
 70
     0
 62
     7
  6
Continuous
370
    -3
390
F
  0
LAYER
  5
91
330
2
100
AcDbSymbolTableRecord
100
AcDbLayerTableRecord
  2
Layer77
 70
     0
 62
     7
  6
Continuous
370
    -3
390
F
  0
LAYER
  5
92
330
2
100
AcDbSymbolTableRecord
100
AcDbLayerTableRecord
  2
Layer78
 70
     0
 62
     7
  6
Continuous
370
    -3
390
F
  0
LAYER
  5
93
330
2
100
AcDbSymbolTableRecord
100
AcDbLayerTableRecord
  2
Layer79
 70
     0
 62
     7
  6
Continuous
370
    -3
390
F
  0
LAYER
  5
94
330
2
100
AcDbSymbolTableRecord
100
AcDbLayerTableRecord
  2
Layer80
 70
     0
 62
     7
  6
Continuous
370
    -3
390
F
  0
LAYER
  5
95
330
2
100
AcDbSymbolTableRecord
100
AcDbLayerTableRecord
  2
Layer81
 70
     0
 62
     7
  6
Continuous
370
    -3
390
F
  0
LAYER
  5
96
330
2
100
AcDbSymbolTableRecord
100
AcDbLayerTableRecord
  2
Layer82
 70
     0
 62
     7
  6
Continuous
370
    -3
390
F
  0
LAYER
  5
97
330
2
100
AcDbSymbolTableRecord
100
AcDbLayerTableRecord
  2
Layer83
 70
     0
 62
     7
  6
Continuous
370
    -3
390
F
  0
LAYER
  5
98
330
2
100
AcDbSymbolTableRecord
100
AcDbLayerTableRecord
  2
Layer84
 70
     0
 62
     7
  6
Continuous
370
    -3
390
F
  0
LAYER
  5
99
330
2
100
AcDbSymbolTableRecord
100
AcDbLayerTableRecord
  2
Layer85
 70
     0
 62
     7
  6
Continuous
370
    -3
390
F
  0
LAYER
  5
9A
330
2
100
AcDbSymbolTableRecord
100
AcDbLayerTableRecord
  2
Layer86
 70
     0
 62
     7
  6
Continuous
370
    -3
390
F
  0
LAYER
  5
9B
330
2
100
AcDbSymbolTableRecord
100
AcDbLayerTableRecord
  2
Layer87
 70
     0
 62
     7
  6
Continuous
370
    -3
390
F
  0
LAYER
  5
9C
330
2
100
AcDbSymbolTableRecord
100
AcDbLayerTableRecord
  2
Layer88
 70
     0
 62
     7
  6
Continuous
370
    -3
390
F
  0
LAYER
  5
9D
330
2
100
AcDbSymbolTableRecord
100
AcDbLayerTableRecord
  2
Layer89
 70
     0
 62
     7
  6
Continuous
370
    -3
390
F
  0
LAYER
  5
9E
330
2
100
AcDbSymbolTableRecord
100
AcDbLayerTableRecord
  2
Layer90
 70
     0
 62
     7
  6
Continuous
370
    -3
390
F
  0
LAYER
  5
9F
330
2
100
AcDbSymbolTableRecord
100
AcDbLayerTableRecord
  2
Layer91
 70
     0
 62
     7
  6
Continuous
370
    -3
390
F
  0
LAYER
  5
A0
330
2
100
AcDbSymbolTableRecord
100
AcDbLayerTableRecord
  2
Layer92
 70
     0
 62
     7
  6
Continuous
370
    -3
390
F
  0
LAYER
  5
A1
330
2
100
AcDbSymbolTableRecord
100
AcDbLayerTableRecord
  2
Layer93
 70
     0
 62
     7
  6
Continuous
370
    -3
390
F
  0
LAYER
  5
A2
330
2
100
AcDbSymbolTableRecord
100
AcDbLayerTableRecord
  2
Layer94
 70
     0
 62
     7
  6
Continuous
370
    -3
390
F
  0
LAYER
  5
A3
330
2
100
AcDbSymbolTableRecord
100
AcDbLayerTableRecord
  2
Layer95
 70
     0
 62
     7
  6
Continuous
370
    -3
390
F
  0
LAYER
  5
A4
330
2
100
AcDbSymbolTableRecord
100
AcDbLayerTableRecord
  2
Layer96
 70
     0
 62
     7
  6
Continuous
370
    -3
390
F
  0
LAYER
  5
A5
330
2
100
AcDbSymbolTableRecord
100
AcDbLayerTableRecord
  2
Layer97
 70
     0
 62
     7
  6
Continuous
370
    -3
390
F
  0
LAYER
  5
A6
330
2
100
AcDbSymbolTableRecord
100
AcDbLayerTableRecord
  2
Layer98
 70
     0
 62
     7
  6
Continuous
370
    -3
390
F
  0
LAYER
  5
A7
330
2
100
AcDbSymbolTableRecord
100
AcDbLayerTableRecord
  2
Layer99
 70
     0
 62
     7
  6
Continuous
370
    -3
390
F
  0
LAYER
  5
A8
330
2
100
AcDbSymbolTableRecord
100
AcDbLayerTableRecord
  2
Layer100
 70
     0
 62
     7
  6
Continuous
370
    -3
390
F
  0
LAYER
  5
A9
330
2
100
AcDbSymbolTableRecord
100
AcDbLayerTableRecord
  2
Layer101
 70
     0
 62
     7
  6
Continuous
370
    -3
390
F
  0
LAYER
  5
AA
330
2
100
AcDbSymbolTableRecord
100
AcDbLayerTableRecord
  2
Layer102
 70
     0
 62
     7
  6
Continuous
370
    -3
390
F
  0
LAYER
  5
AB
330
2
100
AcDbSymbolTableRecord
100
AcDbLayerTableRecord
  2
Layer103
 70
     0
 62
     7
  6
Continuous
370
    -3
390
F
  0
LAYER
  5
AC
330
2
100
AcDbSymbolTableRecord
100
AcDbLayerTableRecord
  2
Layer104
 70
     0
 62
     7
  6
Continuous
370
    -3
390
F
  0
LAYER
  5
AD
330
2
100
AcDbSymbolTableRecord
100
AcDbLayerTableRecord
  2
Layer105
 70
     0
 62
     7
  6
Continuous
370
    -3
390
F
  0
LAYER
  5
AE
330
2
100
AcDbSymbolTableRecord
100
AcDbLayerTableRecord
  2
Layer106
 70
     0
 62
     7
  6
Continuous
370
    -3
390
F
  0
LAYER
  5
AF
330
2
100
AcDbSymbolTableRecord
100
AcDbLayerTableRecord
  2
Layer107
 70
     0
 62
     7
  6
Continuous
370
    -3
390
F
  0
LAYER
  5
B0
330
2
100
AcDbSymbolTableRecord
100
AcDbLayerTableRecord
  2
Layer108
 70
     0
 62
     7
  6
Continuous
370
    -3
390
F
  0
LAYER
  5
B1
330
2
100
AcDbSymbolTableRecord
100
AcDbLayerTableRecord
  2
Layer109
 70
     0
 62
     7
  6
Continuous
370
    -3
390
F
  0
LAYER
  5
B2
330
2
100
AcDbSymbolTableRecord
100
AcDbLayerTableRecord
  2
Layer110
 70
     0
 62
     7
  6
Continuous
370
    -3
390
F
  0
LAYER
  5
B3
330
2
100
AcDbSymbolTableRecord
100
AcDbLayerTableRecord
  2
Layer111
 70
     0
 62
     7
  6
Continuous
370
    -3
390
F
  0
LAYER
  5
B4
330
2
100
AcDbSymbolTableRecord
100
AcDbLayerTableRecord
  2
Layer112
 70
     0
 62
     7
  6
Continuous
370
    -3
390
F
  0
LAYER
  5
B5
330
2
100
AcDbSymbolTableRecord
100
AcDbLayerTableRecord
  2
Layer113
 70
     0
 62
     7
  6
Continuous
370
    -3
390
F
  0
LAYER
  5
B6
330
2
100
AcDbSymbolTableRecord
100
AcDbLayerTableRecord
  2
Layer114
 70
     0
 62
     7
  6
Continuous
370
    -3
390
F
  0
LAYER
  5
B7
330
2
100
AcDbSymbolTableRecord
100
AcDbLayerTableRecord
  2
Layer115
 70
     0
 62
     7
  6
Continuous
370
    -3
390
F
  0
LAYER
  5
B8
330
2
100
AcDbSymbolTableRecord
100
AcDbLayerTableRecord
  2
Layer116
 70
     0
 62
     7
  6
Continuous
370
    -3
390
F
  0
LAYER
  5
B9
330
2
100
AcDbSymbolTableRecord
100
AcDbLayerTableRecord
  2
Layer117
 70
     0
 62
     7
  6
Continuous
370
    -3
390
F
  0
LAYER
  5
BA
330
2
100
AcDbSymbolTableRecord
100
AcDbLayerTableRecord
  2
Layer118
 70
     0
 62
     7
  6
Continuous
370
    -3
390
F
  0
LAYER
  5
BB
330
2
100
AcDbSymbolTableRecord
100
AcDbLayerTableRecord
  2
Layer119
 70
     0
 62
     7
  6
Continuous
370
    -3
390
F
  0
LAYER
  5
BC
330
2
100
AcDbSymbolTableRecord
100
AcDbLayerTableRecord
  2
Layer120
 70
     0
 62
     7
  6
Continuous
370
    -3
390
F
  0
LAYER
  5
BD
330
2
100
AcDbSymbolTableRecord
100
AcDbLayerTableRecord
  2
Layer121
 70
     0
 62
     7
  6
Continuous
370
    -3
390
F
  0
LAYER
  5
BE
330
2
100
AcDbSymbolTableRecord
100
AcDbLayerTableRecord
  2
Layer122
 70
     0
 62
     7
  6
Continuous
370
    -3
390
F
  0
LAYER
  5
BF
330
2
100
AcDbSymbolTableRecord
100
AcDbLayerTableRecord
  2
Layer123
 70
     0
 62
     7
  6
Continuous
370
    -3
390
F
  0
LAYER
  5
C0
330
2
100
AcDbSymbolTableRecord
100
AcDbLayerTableRecord
  2
Layer124
 70
     0
 62
     7
  6
Continuous
370
    -3
390
F
  0
LAYER
  5
C1
330
2
100
AcDbSymbolTableRecord
100
AcDbLayerTableRecord
  2
Layer125
 70
     0
 62
     7
  6
Continuous
370
    -3
390
F
  0
LAYER
  5
C2
330
2
100
AcDbSymbolTableRecord
100
AcDbLayerTableRecord
  2
Layer126
 70
     0
 62
     7
  6
Continuous
370
    -3
390
F
  0
LAYER
  5
C3
330
2
100
AcDbSymbolTableRecord
100
AcDbLayerTableRecord
  2
Layer127
 70
     0
 62
     7
  6
Continuous
370
    -3
390
F
  0
LAYER
  5
C4
330
2
100
AcDbSymbolTableRecord
100
AcDbLayerTableRecord
  2
Layer128
 70
     0
 62
     7
  6
Continuous
370
    -3
390
F
  0
LAYER
  5
C5
330
2
100
AcDbSymbolTableRecord
100
AcDbLayerTableRecord
  2
Layer129
 70
     0
 62
     7
  6
Continuous
370
    -3
390
F
  0
LAYER
  5
C6
330
2
100
AcDbSymbolTableRecord
100
AcDbLayerTableRecord
  2
Layer130
 70
     0
 62
     7
  6
Continuous
370
    -3
390
F
  0
LAYER
  5
C7
330
2
100
AcDbSymbolTableRecord
100
AcDbLayerTableRecord
  2
Layer131
 70
     0
 62
     7
  6
Continuous
370
    -3
390
F
  0
LAYER
  5
C8
330
2
100
AcDbSymbolTableRecord
100
AcDbLayerTableRecord
  2
Layer132
 70
     0
 62
     7
  6
Continuous
370
    -3
390
F
  0
LAYER
  5
C9
330
2
100
AcDbSymbolTableRecord
100
AcDbLayerTableRecord
  2
Layer133
 70
     0
 62
     7
  6
Continuous
370
    -3
390
F
  0
LAYER
  5
CA
330
2
100
AcDbSymbolTableRecord
100
AcDbLayerTableRecord
  2
Layer134
 70
     0
 62
     7
  6
Continuous
370
    -3
390
F
  0
LAYER
  5
CB
330
2
100
AcDbSymbolTableRecord
100
AcDbLayerTableRecord
  2
Layer135
 70
     0
 62
     7
  6
Continuous
370
    -3
390
F
  0
LAYER
  5
CC
330
2
100
AcDbSymbolTableRecord
100
AcDbLayerTableRecord
  2
Layer136
 70
     0
 62
     7
  6
Continuous
370
    -3
390
F
  0
LAYER
  5
CD
330
2
100
AcDbSymbolTableRecord
100
AcDbLayerTableRecord
  2
Layer137
 70
     0
 62
     7
  6
Continuous
370
    -3
390
F
  0
LAYER
  5
CE
330
2
100
AcDbSymbolTableRecord
100
AcDbLayerTableRecord
  2
Layer138
 70
     0
 62
     7
  6
Continuous
370
    -3
390
F
  0
LAYER
  5
CF
330
2
100
AcDbSymbolTableRecord
100
AcDbLayerTableRecord
  2
Layer139
 70
     0
 62
     7
  6
Continuous
370
    -3
390
F
  0
LAYER
  5
D0
330
2
100
AcDbSymbolTableRecord
100
AcDbLayerTableRecord
  2
Layer140
 70
     0
 62
     7
  6
Continuous
370
    -3
390
F
  0
LAYER
  5
D1
330
2
100
AcDbSymbolTableRecord
100
AcDbLayerTableRecord
  2
Layer141
 70
     0
 62
     7
  6
Continuous
370
    -3
390
F
  0
LAYER
  5
D2
330
2
100
AcDbSymbolTableRecord
100
AcDbLayerTableRecord
  2
Layer142
 70
     0
 62
     7
  6
Continuous
370
    -3
390
F
  0
LAYER
  5
D3
330
2
100
AcDbSymbolTableRecord
100
AcDbLayerTableRecord
  2
Layer143
 70
     0
 62
     7
  6
Continuous
370
    -3
390
F
  0
LAYER
  5
D4
330
2
100
AcDbSymbolTableRecord
100
AcDbLayerTableRecord
  2
Layer144
 70
     0
 62
     7
  6
Continuous
370
    -3
390
F
  0
LAYER
  5
D5
330
2
100
AcDbSymbolTableRecord
100
AcDbLayerTableRecord
  2
Layer145
 70
     0
 62
     7
  6
Continuous
370
    -3
390
F
  0
LAYER
  5
D6
330
2
100
AcDbSymbolTableRecord
100
AcDbLayerTableRecord
  2
Layer146
 70
     0
 62
     7
  6
Continuous
370
    -3
390
F
  0
LAYER
  5
D7
330
2
100
AcDbSymbolTableRecord
100
AcDbLayerTableRecord
  2
Layer147
 70
     0
 62
     7
  6
Continuous
370
    -3
390
F
  0
LAYER
  5
D8
330
2
100
AcDbSymbolTableRecord
100
AcDbLayerTableRecord
  2
Layer148
 70
     0
 62
     7
  6
Continuous
370
    -3
390
F
  0
LAYER
  5
D9
330
2
100
AcDbSymbolTableRecord
100
AcDbLayerTableRecord
  2
Layer149
 70
     0
 62
     7
  6
Continuous
370
    -3
390
F
  0
LAYER
  5
DA
330
2
100
AcDbSymbolTableRecord
100
AcDbLayerTableRecord
  2
Layer150
 70
     0
 62
     7
  6
Continuous
370
    -3
390
F
  0
LAYER
  5
DB
330
2
100
AcDbSymbolTableRecord
100
AcDbLayerTableRecord
  2
Layer151
 70
     0
 62
     7
  6
Continuous
370
    -3
390
F
  0
LAYER
  5
DC
330
2
100
AcDbSymbolTableRecord
100
AcDbLayerTableRecord
  2
Layer152
 70
     0
 62
     7
  6
Continuous
370
    -3
390
F
  0
LAYER
  5
DD
330
2
100
AcDbSymbolTableRecord
100
AcDbLayerTableRecord
  2
Layer153
 70
     0
 62
     7
  6
Continuous
370
    -3
390
F
  0
LAYER
  5
DE
330
2
100
AcDbSymbolTableRecord
100
AcDbLayerTableRecord
  2
Layer154
 70
     0
 62
     7
  6
Continuous
370
    -3
390
F
  0
LAYER
  5
DF
330
2
100
AcDbSymbolTableRecord
100
AcDbLayerTableRecord
  2
Layer155
 70
     0
 62
     7
  6
Continuous
370
    -3
390
F
  0
LAYER
  5
E0
330
2
100
AcDbSymbolTableRecord
100
AcDbLayerTableRecord
  2
Layer156
 70
     0
 62
     7
  6
Continuous
370
    -3
390
F
  0
LAYER
  5
E1
330
2
100
AcDbSymbolTableRecord
100
AcDbLayerTableRecord
  2
Layer157
 70
     0
 62
     7
  6
Continuous
370
    -3
390
F
  0
LAYER
  5
E2
330
2
100
AcDbSymbolTableRecord
100
AcDbLayerTableRecord
  2
Layer158
 70
     0
 62
     7
  6
Continuous
370
    -3
390
F
  0
LAYER
  5
E3
330
2
100
AcDbSymbolTableRecord
100
AcDbLayerTableRecord
  2
Layer159
 70
     0
 62
     7
  6
Continuous
370
    -3
390
F
  0
LAYER
  5
E4
330
2
100
AcDbSymbolTableRecord
100
AcDbLayerTableRecord
  2
Layer160
 70
     0
 62
     7
  6
Continuous
370
    -3
390
F
  0
LAYER
  5
E5
330
2
100
AcDbSymbolTableRecord
100
AcDbLayerTableRecord
  2
Layer161
 70
     0
 62
     7
  6
Continuous
370
    -3
390
F
  0
LAYER
  5
E6
330
2
100
AcDbSymbolTableRecord
100
AcDbLayerTableRecord
  2
Layer162
 70
     0
 62
     7
  6
Continuous
370
    -3
390
F
  0
LAYER
  5
E7
330
2
100
AcDbSymbolTableRecord
100
AcDbLayerTableRecord
  2
Layer163
 70
     0
 62
     7
  6
Continuous
370
    -3
390
F
  0
LAYER
  5
E8
330
2
100
AcDbSymbolTableRecord
100
AcDbLayerTableRecord
  2
Layer164
 70
     0
 62
     7
  6
Continuous
370
    -3
390
F
  0
LAYER
  5
E9
330
2
100
AcDbSymbolTableRecord
100
AcDbLayerTableRecord
  2
Layer165
 70
     0
 62
     7
  6
Continuous
370
    -3
390
F
  0
LAYER
  5
EA
330
2
100
AcDbSymbolTableRecord
100
AcDbLayerTableRecord
  2
Layer166
 70
     0
 62
     7
  6
Continuous
370
    -3
390
F
  0
LAYER
  5
EB
330
2
100
AcDbSymbolTableRecord
100
AcDbLayerTableRecord
  2
Layer167
 70
     0
 62
     7
  6
Continuous
370
    -3
390
F
  0
LAYER
  5
EC
330
2
100
AcDbSymbolTableRecord
100
AcDbLayerTableRecord
  2
Layer168
 70
     0
 62
     7
  6
Continuous
370
    -3
390
F
  0
LAYER
  5
ED
330
2
100
AcDbSymbolTableRecord
100
AcDbLayerTableRecord
  2
Layer169
 70
     0
 62
     7
  6
Continuous
370
    -3
390
F
  0
LAYER
  5
EE
330
2
100
AcDbSymbolTableRecord
100
AcDbLayerTableRecord
  2
Layer170
 70
     0
 62
     7
  6
Continuous
370
    -3
390
F
  0
LAYER
  5
EF
330
2
100
AcDbSymbolTableRecord
100
AcDbLayerTableRecord
  2
Layer171
 70
     0
 62
     7
  6
Continuous
370
    -3
390
F
  0
LAYER
  5
F0
330
2
100
AcDbSymbolTableRecord
100
AcDbLayerTableRecord
  2
Layer172
 70
     0
 62
     7
  6
Continuous
370
    -3
390
F
  0
LAYER
  5
F1
330
2
100
AcDbSymbolTableRecord
100
AcDbLayerTableRecord
  2
Layer173
 70
     0
 62
     7
  6
Continuous
370
    -3
390
F
  0
LAYER
  5
F2
330
2
100
AcDbSymbolTableRecord
100
AcDbLayerTableRecord
  2
Layer174
 70
     0
 62
     7
  6
Continuous
370
    -3
390
F
  0
LAYER
  5
F3
330
2
100
AcDbSymbolTableRecord
100
AcDbLayerTableRecord
  2
Layer175
 70
     0
 62
     7
  6
Continuous
370
    -3
390
F
  0
LAYER
  5
F4
330
2
100
AcDbSymbolTableRecord
100
AcDbLayerTableRecord
  2
Layer176
 70
     0
 62
     7
  6
Continuous
370
    -3
390
F
  0
LAYER
  5
F5
330
2
100
AcDbSymbolTableRecord
100
AcDbLayerTableRecord
  2
Layer177
 70
     0
 62
     7
  6
Continuous
370
    -3
390
F
  0
LAYER
  5
F6
330
2
100
AcDbSymbolTableRecord
100
AcDbLayerTableRecord
  2
Layer178
 70
     0
 62
     7
  6
Continuous
370
    -3
390
F
  0
LAYER
  5
F7
330
2
100
AcDbSymbolTableRecord
100
AcDbLayerTableRecord
  2
Layer179
 70
     0
 62
     7
  6
Continuous
370
    -3
390
F
  0
LAYER
  5
F8
330
2
100
AcDbSymbolTableRecord
100
AcDbLayerTableRecord
  2
Layer180
 70
     0
 62
     7
  6
Continuous
370
    -3
390
F
  0
LAYER
  5
F9
330
2
100
AcDbSymbolTableRecord
100
AcDbLayerTableRecord
  2
Layer181
 70
     0
 62
     7
  6
Continuous
370
    -3
390
F
  0
LAYER
  5
FA
330
2
100
AcDbSymbolTableRecord
100
AcDbLayerTableRecord
  2
Layer182
 70
     0
 62
     7
  6
Continuous
370
    -3
390
F
  0
LAYER
  5
FB
330
2
100
AcDbSymbolTableRecord
100
AcDbLayerTableRecord
  2
Layer183
 70
     0
 62
     7
  6
Continuous
370
    -3
390
F
  0
LAYER
  5
FC
330
2
100
AcDbSymbolTableRecord
100
AcDbLayerTableRecord
  2
Layer184
 70
     0
 62
     7
  6
Continuous
370
    -3
390
F
  0
LAYER
  5
FD
330
2
100
AcDbSymbolTableRecord
100
AcDbLayerTableRecord
  2
Layer185
 70
     0
 62
     7
  6
Continuous
370
    -3
390
F
  0
LAYER
  5
FE
330
2
100
AcDbSymbolTableRecord
100
AcDbLayerTableRecord
  2
Layer186
 70
     0
 62
     7
  6
Continuous
370
    -3
390
F
  0
LAYER
  5
FF
330
2
100
AcDbSymbolTableRecord
100
AcDbLayerTableRecord
  2
Layer187
 70
     0
 62
     7
  6
Continuous
370
    -3
390
F
  0
LAYER
  5
100
330
2
100
AcDbSymbolTableRecord
100
AcDbLayerTableRecord
  2
Layer188
 70
     0
 62
     7
  6
Continuous
370
    -3
390
F
  0
LAYER
  5
101
330
2
100
AcDbSymbolTableRecord
100
AcDbLayerTableRecord
  2
Layer189
 70
     0
 62
     7
  6
Continuous
370
    -3
390
F
  0
LAYER
  5
102
330
2
100
AcDbSymbolTableRecord
100
AcDbLayerTableRecord
  2
Layer190
 70
     0
 62
     7
  6
Continuous
370
    -3
390
F
  0
LAYER
  5
103
330
2
100
AcDbSymbolTableRecord
100
AcDbLayerTableRecord
  2
Layer191
 70
     0
 62
     7
  6
Continuous
370
    -3
390
F
  0
LAYER
  5
104
330
2
100
AcDbSymbolTableRecord
100
AcDbLayerTableRecord
  2
Layer192
 70
     0
 62
     7
  6
Continuous
370
    -3
390
F
  0
LAYER
  5
105
330
2
100
AcDbSymbolTableRecord
100
AcDbLayerTableRecord
  2
Layer193
 70
     0
 62
     7
  6
Continuous
370
    -3
390
F
  0
LAYER
  5
106
330
2
100
AcDbSymbolTableRecord
100
AcDbLayerTableRecord
  2
Layer194
 70
     0
 62
     7
  6
Continuous
370
    -3
390
F
  0
LAYER
  5
107
330
2
100
AcDbSymbolTableRecord
100
AcDbLayerTableRecord
  2
Layer195
 70
     0
 62
     7
  6
Continuous
370
    -3
390
F
  0
LAYER
  5
108
330
2
100
AcDbSymbolTableRecord
100
AcDbLayerTableRecord
  2
Layer196
 70
     0
 62
     7
  6
Continuous
370
    -3
390
F
  0
LAYER
  5
109
330
2
100
AcDbSymbolTableRecord
100
AcDbLayerTableRecord
  2
Layer197
 70
     0
 62
     7
  6
Continuous
370
    -3
390
F
  0
LAYER
  5
10A
330
2
100
AcDbSymbolTableRecord
100
AcDbLayerTableRecord
  2
Layer198
 70
     0
 62
     7
  6
Continuous
370
    -3
390
F
  0
LAYER
  5
10B
330
2
100
AcDbSymbolTableRecord
100
AcDbLayerTableRecord
  2
Layer199
 70
     0
 62
     7
  6
Continuous
370
    -3
390
F
  0
LAYER
  5
10C
330
2
100
AcDbSymbolTableRecord
100
AcDbLayerTableRecord
  2
Layer200
 70
     0
 62
     7
  6
Continuous
370
    -3
390
F
  0
LAYER
  5
10D
330
2
100
AcDbSymbolTableRecord
100
AcDbLayerTableRecord
  2
Layer201
 70
     0
 62
     7
  6
Continuous
370
    -3
390
F
  0
LAYER
  5
10E
330
2
100
AcDbSymbolTableRecord
100
AcDbLayerTableRecord
  2
Layer202
 70
     0
 62
     7
  6
Continuous
370
    -3
390
F
  0
LAYER
  5
10F
330
2
100
AcDbSymbolTableRecord
100
AcDbLayerTableRecord
  2
Layer203
 70
     0
 62
     7
  6
Continuous
370
    -3
390
F
  0
LAYER
  5
110
330
2
100
AcDbSymbolTableRecord
100
AcDbLayerTableRecord
  2
Layer204
 70
     0
 62
     7
  6
Continuous
370
    -3
390
F
  0
LAYER
  5
111
330
2
100
AcDbSymbolTableRecord
100
AcDbLayerTableRecord
  2
Layer205
 70
     0
 62
     7
  6
Continuous
370
    -3
390
F
  0
LAYER
  5
112
330
2
100
AcDbSymbolTableRecord
100
AcDbLayerTableRecord
  2
Layer206
 70
     0
 62
     7
  6
Continuous
370
    -3
390
F
  0
LAYER
  5
113
330
2
100
AcDbSymbolTableRecord
100
AcDbLayerTableRecord
  2
Layer207
 70
     0
 62
     7
  6
Continuous
370
    -3
390
F
  0
LAYER
  5
114
330
2
100
AcDbSymbolTableRecord
100
AcDbLayerTableRecord
  2
Layer208
 70
     0
 62
     7
  6
Continuous
370
    -3
390
F
  0
LAYER
  5
115
330
2
100
AcDbSymbolTableRecord
100
AcDbLayerTableRecord
  2
Layer209
 70
     0
 62
     7
  6
Continuous
370
    -3
390
F
  0
LAYER
  5
116
330
2
100
AcDbSymbolTableRecord
100
AcDbLayerTableRecord
  2
Layer210
 70
     0
 62
     7
  6
Continuous
370
    -3
390
F
  0
LAYER
  5
117
330
2
100
AcDbSymbolTableRecord
100
AcDbLayerTableRecord
  2
Layer211
 70
     0
 62
     7
  6
Continuous
370
    -3
390
F
  0
LAYER
  5
118
330
2
100
AcDbSymbolTableRecord
100
AcDbLayerTableRecord
  2
Layer212
 70
     0
 62
     7
  6
Continuous
370
    -3
390
F
  0
LAYER
  5
119
330
2
100
AcDbSymbolTableRecord
100
AcDbLayerTableRecord
  2
Layer213
 70
     0
 62
     7
  6
Continuous
370
    -3
390
F
  0
LAYER
  5
11A
330
2
100
AcDbSymbolTableRecord
100
AcDbLayerTableRecord
  2
Layer214
 70
     0
 62
     7
  6
Continuous
370
    -3
390
F
  0
LAYER
  5
11B
330
2
100
AcDbSymbolTableRecord
100
AcDbLayerTableRecord
  2
Layer215
 70
     0
 62
     7
  6
Continuous
370
    -3
390
F
  0
LAYER
  5
11C
330
2
100
AcDbSymbolTableRecord
100
AcDbLayerTableRecord
  2
Layer216
 70
     0
 62
     7
  6
Continuous
370
    -3
390
F
  0
LAYER
  5
11D
330
2
100
AcDbSymbolTableRecord
100
AcDbLayerTableRecord
  2
Layer217
 70
     0
 62
     7
  6
Continuous
370
    -3
390
F
  0
LAYER
  5
11E
330
2
100
AcDbSymbolTableRecord
100
AcDbLayerTableRecord
  2
Layer218
 70
     0
 62
     7
  6
Continuous
370
    -3
390
F
  0
LAYER
  5
11F
330
2
100
AcDbSymbolTableRecord
100
AcDbLayerTableRecord
  2
Layer219
 70
     0
 62
     7
  6
Continuous
370
    -3
390
F
  0
LAYER
  5
120
330
2
100
AcDbSymbolTableRecord
100
AcDbLayerTableRecord
  2
Layer220
 70
     0
 62
     7
  6
Continuous
370
    -3
390
F
  0
LAYER
  5
121
330
2
100
AcDbSymbolTableRecord
100
AcDbLayerTableRecord
  2
Layer221
 70
     0
 62
     7
  6
Continuous
370
    -3
390
F
  0
LAYER
  5
122
330
2
100
AcDbSymbolTableRecord
100
AcDbLayerTableRecord
  2
Layer222
 70
     0
 62
     7
  6
Continuous
370
    -3
390
F
  0
LAYER
  5
123
330
2
100
AcDbSymbolTableRecord
100
AcDbLayerTableRecord
  2
Layer223
 70
     0
 62
     7
  6
Continuous
370
    -3
390
F
  0
LAYER
  5
124
330
2
100
AcDbSymbolTableRecord
100
AcDbLayerTableRecord
  2
Layer224
 70
     0
 62
     7
  6
Continuous
370
    -3
390
F
  0
LAYER
  5
125
330
2
100
AcDbSymbolTableRecord
100
AcDbLayerTableRecord
  2
Layer225
 70
     0
 62
     7
  6
Continuous
370
    -3
390
F
  0
LAYER
  5
126
330
2
100
AcDbSymbolTableRecord
100
AcDbLayerTableRecord
  2
Layer226
 70
     0
 62
     7
  6
Continuous
370
    -3
390
F
  0
LAYER
  5
127
330
2
100
AcDbSymbolTableRecord
100
AcDbLayerTableRecord
  2
Layer227
 70
     0
 62
     7
  6
Continuous
370
    -3
390
F
  0
LAYER
  5
128
330
2
100
AcDbSymbolTableRecord
100
AcDbLayerTableRecord
  2
Layer228
 70
     0
 62
     7
  6
Continuous
370
    -3
390
F
  0
LAYER
  5
129
330
2
100
AcDbSymbolTableRecord
100
AcDbLayerTableRecord
  2
Layer229
 70
     0
 62
     7
  6
Continuous
370
    -3
390
F
  0
LAYER
  5
12A
330
2
100
AcDbSymbolTableRecord
100
AcDbLayerTableRecord
  2
Layer230
 70
     0
 62
     7
  6
Continuous
370
    -3
390
F
  0
LAYER
  5
12B
330
2
100
AcDbSymbolTableRecord
100
AcDbLayerTableRecord
  2
Layer231
 70
     0
 62
     7
  6
Continuous
370
    -3
390
F
  0
LAYER
  5
12C
330
2
100
AcDbSymbolTableRecord
100
AcDbLayerTableRecord
  2
Layer232
 70
     0
 62
     7
  6
Continuous
370
    -3
390
F
  0
LAYER
  5
12D
330
2
100
AcDbSymbolTableRecord
100
AcDbLayerTableRecord
  2
Layer233
 70
     0
 62
     7
  6
Continuous
370
    -3
390
F
  0
LAYER
  5
12E
330
2
100
AcDbSymbolTableRecord
100
AcDbLayerTableRecord
  2
Layer234
 70
     0
 62
     7
  6
Continuous
370
    -3
390
F
  0
LAYER
  5
12F
330
2
100
AcDbSymbolTableRecord
100
AcDbLayerTableRecord
  2
Layer235
 70
     0
 62
     7
  6
Continuous
370
    -3
390
F
  0
LAYER
  5
130
330
2
100
AcDbSymbolTableRecord
100
AcDbLayerTableRecord
  2
Layer236
 70
     0
 62
     7
  6
Continuous
370
    -3
390
F
  0
LAYER
  5
131
330
2
100
AcDbSymbolTableRecord
100
AcDbLayerTableRecord
  2
Layer237
 70
     0
 62
     7
  6
Continuous
370
    -3
390
F
  0
LAYER
  5
132
330
2
100
AcDbSymbolTableRecord
100
AcDbLayerTableRecord
  2
Layer238
 70
     0
 62
     7
  6
Continuous
370
    -3
390
F
  0
LAYER
  5
133
330
2
100
AcDbSymbolTableRecord
100
AcDbLayerTableRecord
  2
Layer239
 70
     0
 62
     7
  6
Continuous
370
    -3
390
F
  0
LAYER
  5
134
330
2
100
AcDbSymbolTableRecord
100
AcDbLayerTableRecord
  2
Layer240
 70
     0
 62
     7
  6
Continuous
370
    -3
390
F
  0
LAYER
  5
135
330
2
100
AcDbSymbolTableRecord
100
AcDbLayerTableRecord
  2
Layer241
 70
     0
 62
     7
  6
Continuous
370
    -3
390
F
  0
LAYER
  5
136
330
2
100
AcDbSymbolTableRecord
100
AcDbLayerTableRecord
  2
Layer242
 70
     0
 62
     7
  6
Continuous
370
    -3
390
F
  0
LAYER
  5
137
330
2
100
AcDbSymbolTableRecord
100
AcDbLayerTableRecord
  2
Layer243
 70
     0
 62
     7
  6
Continuous
370
    -3
390
F
  0
LAYER
  5
138
330
2
100
AcDbSymbolTableRecord
100
AcDbLayerTableRecord
  2
Layer244
 70
     0
 62
     7
  6
Continuous
370
    -3
390
F
  0
LAYER
  5
139
330
2
100
AcDbSymbolTableRecord
100
AcDbLayerTableRecord
  2
Layer245
 70
     0
 62
     7
  6
Continuous
370
    -3
390
F
  0
LAYER
  5
13A
330
2
100
AcDbSymbolTableRecord
100
AcDbLayerTableRecord
  2
Layer246
 70
     0
 62
     7
  6
Continuous
370
    -3
390
F
  0
LAYER
  5
13B
330
2
100
AcDbSymbolTableRecord
100
AcDbLayerTableRecord
  2
Layer247
 70
     0
 62
     7
  6
Continuous
370
    -3
390
F
  0
LAYER
  5
13C
330
2
100
AcDbSymbolTableRecord
100
AcDbLayerTableRecord
  2
Layer248
 70
     0
 62
     7
  6
Continuous
370
    -3
390
F
  0
LAYER
  5
13D
330
2
100
AcDbSymbolTableRecord
100
AcDbLayerTableRecord
  2
Layer249
 70
     0
 62
     7
  6
Continuous
370
    -3
390
F
  0
LAYER
  5
13E
330
2
100
AcDbSymbolTableRecord
100
AcDbLayerTableRecord
  2
Layer250
 70
     0
 62
     7
  6
Continuous
370
    -3
390
F
  0
LAYER
  5
13F
330
2
100
AcDbSymbolTableRecord
100
AcDbLayerTableRecord
  2
Layer251
 70
     0
 62
     7
  6
Continuous
370
    -3
390
F
  0
LAYER
  5
140
330
2
100
AcDbSymbolTableRecord
100
AcDbLayerTableRecord
  2
Layer252
 70
     0
 62
     7
  6
Continuous
370
    -3
390
F
  0
LAYER
  5
141
330
2
100
AcDbSymbolTableRecord
100
AcDbLayerTableRecord
  2
Layer253
 70
     0
 62
     7
  6
Continuous
370
    -3
390
F
  0
LAYER
  5
142
330
2
100
AcDbSymbolTableRecord
100
AcDbLayerTableRecord
  2
Layer254
 70
     0
 62
     7
  6
Continuous
370
    -3
390
F
  0
LAYER
  5
143
330
2
100
AcDbSymbolTableRecord
100
AcDbLayerTableRecord
  2
Layer255
 70
     0
 62
     7
  6
Continuous
370
    -3
390
F
  0
ENDTAB
  0
TABLE
  2
STYLE
  5
3
330
0
100
AcDbSymbolTable
 70
     4
  0
STYLE
  5
11
330
3
100
AcDbSymbolTableRecord
100
AcDbTextStyleTableRecord
  2
Standard
 70
     0
 40
0.0
 41
1.0
 50
0.0
 71
     0
 42
2.5
  3
txt
  4

  0
STYLE
  5
41
330
3
100
AcDbSymbolTableRecord
100
AcDbTextStyleTableRecord
  2
Arial
 70
     0
 40
0.0
 41
1.0
 50
0.0
 71
     0
 42
0.2
  3
arial.ttf
  4

1001
ACAD
1000
Arial
1071
       34
  0
STYLE
  5
42
330
3
100
AcDbSymbolTableRecord
100
AcDbTextStyleTableRecord
  2
Arial Black
 70
     0
 40
0.0
 41
1.0
 50
0.0
 71
     0
 42
0.2
  3
ariblk.ttf
  4

1001
ACAD
1000
Arial Black
1071
       34
  0
STYLE
  5
44
330
3
100
AcDbSymbolTableRecord
100
AcDbTextStyleTableRecord
  2
Toleranzfont
 70
     0
 40
0.0
 41
1.0
 50
0.0
 71
     0
 42
0.2
  3
IGES1003.SHX
  4

  0
ENDTAB
  0
TABLE
  2
VIEW
  5
6
330
0
100
AcDbSymbolTable
 70
     0
  0
ENDTAB
  0
TABLE
  2
UCS
  5
7
330
0
100
AcDbSymbolTable
 70
     0
  0
ENDTAB
  0
TABLE
  2
APPID
  5
9
330
0
100
AcDbSymbolTable
 70
     1
  0
APPID
  5
12
330
9
100
AcDbSymbolTableRecord
100
AcDbRegAppTableRecord
  2
ACAD
 70
     0
  0
ENDTAB
  0
TABLE
  2
DIMSTYLE
  5
A
330
0
100
AcDbSymbolTable
 70
     1
100
AcDbDimStyleTable
  0
DIMSTYLE
105
27
102
{ACAD_REACTORS
330
2DC
330
2E7
330
2F3
330
302
102
}
330
A
100
AcDbSymbolTableRecord
100
AcDbDimStyleTableRecord
  2
ISO-25
 70
     0
 41
2.5
 42
0.625
 43
3.75
 44
1.25
 73
     0
 74
     0
 77
     1
 78
     8
140
2.5
141
2.5
143
0.03937007874
147
0.625
171
     3
172
     1
178
     0
271
     2
272
     2
274
     3
278
    44
283
     0
284
     8
340
11
  0
ENDTAB
  0
TABLE
  2
BLOCK_RECORD
  5
1
330
0
100
AcDbSymbolTable
 70
    12
  0
BLOCK_RECORD
  5
1F
330
1
100
AcDbSymbolTableRecord
100
AcDbBlockTableRecord
  2
*Model_Space
340
22
  0
BLOCK_RECORD
  5
1B
330
1
100
AcDbSymbolTableRecord
100
AcDbBlockTableRecord
  2
*Paper_Space
340
1E
  0
BLOCK_RECORD
  5
23
330
1
100
AcDbSymbolTableRecord
100
AcDbBlockTableRecord
  2
*Paper_Space0
340
26
  0
BLOCK_RECORD
  5
144
330
1
100
AcDbSymbolTableRecord
100
AcDbBlockTableRecord
  2
A4_nNn00
340
0
102
{BLKREFS
331
14F
102
}
  0
BLOCK_RECORD
  5
150
330
1
100
AcDbSymbolTableRecord
100
AcDbBlockTableRecord
  2
QS_nNn01
340
0
102
{BLKREFS
331
156
102
}
  0
BLOCK_RECORD
  5
157
330
1
100
AcDbSymbolTableRecord
100
AcDbBlockTableRecord
  2
Schriftfeld_nNn02
340
0
102
{BLKREFS
331
18B
102
}
  0
BLOCK_RECORD
  5
18C
330
1
100
AcDbSymbolTableRecord
100
AcDbBlockTableRecord
  2
L1_nNn03
340
0
102
{BLKREFS
331
1B3
102
}
  0
BLOCK_RECORD
  5
190
330
1
100
AcDbSymbolTableRecord
100
AcDbBlockTableRecord
  2
ULTRAREFLEX_nNn04
340
0
102
{BLKREFS
331
1A8
102
}
  0
BLOCK_RECORD
  5
1B4
330
1
100
AcDbSymbolTableRecord
100
AcDbBlockTableRecord
  2
Abartenfeld_nNn05
340
0
102
{BLKREFS
331
1C3
102
}
  0
BLOCK_RECORD
  5
2D2
330
1
100
AcDbSymbolTableRecord
100
AcDbBlockTableRecord
  2
*D7
340
0
  0
BLOCK_RECORD
  5
2DD
330
1
100
AcDbSymbolTableRecord
100
AcDbBlockTableRecord
  2
*D8
340
0
  0
BLOCK_RECORD
  5
2E8
330
1
100
AcDbSymbolTableRecord
100
AcDbBlockTableRecord
  2
*D9
340
0
  0
BLOCK_RECORD
  5
2F4
330
1
100
AcDbSymbolTableRecord
100
AcDbBlockTableRecord
  2
*D10
340
0
  0
BLOCK_RECORD
  5
303
330
1
100
AcDbSymbolTableRecord
100
AcDbBlockTableRecord
  2
DimBlk_nNn010
340
0
102
{BLKREFS
331
30A
102
}
  0
ENDTAB
  0
ENDSEC
  0
SECTION
  2
BLOCKS
  0
BLOCK
  5
20
330
1F
100
AcDbEntity
  8
0
100
AcDbBlockBegin
  2
*Model_Space
 70
     0
 10
0.0
 20
0.0
 30
0.0
  3
*Model_Space
  1

  0
ENDBLK
  5
21
330
1F
100
AcDbEntity
  8
0
100
AcDbBlockEnd
  0
BLOCK
  5
1C
330
1B
100
AcDbEntity
 67
     1
  8
0
100
AcDbBlockBegin
  2
*Paper_Space
 70
     0
 10
0.0
 20
0.0
 30
0.0
  3
*Paper_Space
  1

  0
ENDBLK
  5
1D
330
1B
100
AcDbEntity
 67
     1
  8
0
100
AcDbBlockEnd
  0
BLOCK
  5
24
330
23
100
AcDbEntity
  8
0
100
AcDbBlockBegin
  2
*Paper_Space0
 70
     0
 10
0.0
 20
0.0
 30
0.0
  3
*Paper_Space0
  1

  0
ENDBLK
  5
25
330
23
100
AcDbEntity
  8
0
100
AcDbBlockEnd
  0
BLOCK
  5
145
330
144
100
AcDbEntity
  8
0
100
AcDbBlockBegin
  2
A4_nNn00
 70
     0
 10
0.0
 20
0.0
 30
0.0
  3
A4_nNn00
  1

  0
LINE
  5
147
330
144
100
AcDbEntity
  8
Layer99
  6
AUSGEZOGEN
 62
     9
370
    18
100
AcDbLine
 10
844.7
 20
119.7
 30
0.0
 11
1032.7
 21
119.7
 31
0.0
  0
LINE
  5
148
330
144
100
AcDbEntity
  8
Layer99
  6
AUSGEZOGEN
 62
     9
370
    18
100
AcDbLine
 10
1032.7
 20
119.7
 30
0.0
 11
1032.7
 21
389.48
 31
0.0
  0
LINE
  5
149
330
144
100
AcDbEntity
  8
0
  6
AUSGEZOGEN
 62
     9
370
    18
100
AcDbLine
 10
844.7
 20
119.7
 30
0.0
 11
844.7
 21
389.48
 31
0.0
  0
LINE
  5
14A
330
144
100
AcDbEntity
  8
0
  6
AUSGEZOGEN
 62
     9
370
    18
100
AcDbLine
 10
844.7
 20
389.48
 30
0.0
 11
1032.7
 21
389.48
 31
0.0
  0
LINE
  5
14B
330
144
100
AcDbEntity
  8
0
  6
AUSGEZOGEN
 62
    56
370
    18
100
AcDbLine
 10
840.0
 20
394.18
 30
0.0
 11
1037.4
 21
394.18
 31
0.0
  0
LINE
  5
14C
330
144
100
AcDbEntity
  8
0
  6
AUSGEZOGEN
 62
    56
370
    18
100
AcDbLine
 10
840.0
 20
115.0
 30
0.0
 11
840.0
 21
394.18
 31
0.0
  0
LINE
  5
14D
330
144
100
AcDbEntity
  8
0
  6
AUSGEZOGEN
 62
    56
370
    18
100
AcDbLine
 10
840.0
 20
115.0
 30
0.0
 11
1037.4
 21
115.0
 31
0.0
  0
LINE
  5
14E
330
144
100
AcDbEntity
  8
0
  6
AUSGEZOGEN
 62
    56
370
    18
100
AcDbLine
 10
1037.4
 20
115.0
 30
0.0
 11
1037.4
 21
394.18
 31
0.0
  0
ENDBLK
  5
146
330
144
100
AcDbEntity
  8
0
100
AcDbBlockEnd
  0
BLOCK
  5
151
330
150
100
AcDbEntity
  8
0
100
AcDbBlockBegin
  2
QS_nNn01
 70
     0
 10
0.0
 20
0.0
 30
0.0
  3
QS_nNn01
  1

  0
TEXT
  5
153
330
150
100
AcDbEntity
  8
0
  6
AUSGEZOGEN
 62
   136
370
    18
100
AcDbText
 10
854.505013511617
 20
182.546168198142
 30
0.0
 40
2.5
  1
Teil frei von Rissen, Grat, Blasen, Einfallstellen,
 41
1.13496141796
  7
Arial
 72
     5
 11
937.927515135248
 21
182.546168198142
 31
0.0
100
AcDbText
  0
TEXT
  5
154
330
150
100
AcDbEntity
  8
0
  6
AUSGEZOGEN
 62
   136
370
    18
100
AcDbText
 10
854.505013511617
 20
178.546168138537
 30
0.0
 40
2.5
  1
Fliesslinien, Einschlüssen, Formbelag, Kratzer, Schlieren
 41
1.134732261281
  7
Arial
 72
     5
 11
954.412515456091
 21
178.546168138537
 31
0.0
100
AcDbText
  0
TEXT
  5
155
330
150
100
AcDbEntity
  8
0
  6
AUSGEZOGEN
 62
   136
370
    18
100
AcDbText
 10
854.505013511617
 20
174.546168078933
 30
0.0
 40
2.5
  1
Grenzwertmuster werden gesondert vereinbart
 41
1.135456394682
  7
Arial
 72
     5
 11
936.422515105956
 21
174.546168078933
 31
0.0
100
AcDbText
  0
ENDBLK
  5
152
330
150
100
AcDbEntity
  8
0
100
AcDbBlockEnd
  0
BLOCK
  5
158
330
157
100
AcDbEntity
  8
0
100
AcDbBlockBegin
  2
Schriftfeld_nNn02
 70
     0
 10
0.0
 20
0.0
 30
0.0
  3
Schriftfeld_nNn02
  1

  0
LINE
  5
15A
330
157
100
AcDbEntity
  8
Layer99
  6
AUSGEZOGEN
 62
    56
370
    18
100
AcDbLine
 10
917.5
 20
156.42
 30
0.0
 11
917.5
 21
140.1
 31
0.0
  0
LINE
  5
15B
330
157
100
AcDbEntity
  8
Layer99
  6
AUSGEZOGEN
 62
    56
370
    18
100
AcDbLine
 10
862.588046875
 20
156.42
 30
0.0
 11
862.588046875
 21
119.7
 31
0.0
  0
LINE
  5
15C
330
157
100
AcDbEntity
  8
Layer99
  6
AUSGEZOGEN
 62
     9
370
    18
100
AcDbLine
 10
1020.22
 20
136.02
 30
0.0
 11
1020.22
 21
124.356002197266
 31
0.0
  0
LINE
  5
15D
330
157
100
AcDbEntity
  8
Layer99
  6
AUSGEZOGEN
 62
    56
370
    18
100
AcDbLine
 10
907.5159765625
 20
123.78
 30
0.0
 11
855.1
 21
123.78
 31
0.0
  0
LINE
  5
15E
330
157
100
AcDbEntity
  8
Layer99
  6
AUSGEZOGEN
 62
    56
370
    18
100
AcDbLine
 10
907.5159765625
 20
127.86
 30
0.0
 11
855.1
 21
127.86
 31
0.0
  0
LINE
  5
15F
330
157
100
AcDbEntity
  8
Layer99
  6
AUSGEZOGEN
 62
    56
370
    18
100
AcDbLine
 10
907.5159765625
 20
131.94
 30
0.0
 11
855.1
 21
131.94
 31
0.0
  0
LINE
  5
160
330
157
100
AcDbEntity
  8
Layer99
  6
AUSGEZOGEN
 62
    56
370
    18
100
AcDbLine
 10
907.5159765625
 20
136.02
 30
0.0
 11
855.1
 21
136.02
 31
0.0
  0
LINE
  5
161
330
157
100
AcDbEntity
  8
Layer99
  6
AUSGEZOGEN
 62
     9
370
    18
100
AcDbLine
 10
1032.7
 20
136.02
 30
0.0
 11
949.948046875
 21
136.02
 31
0.0
  0
LINE
  5
162
330
157
100
AcDbEntity
  8
Layer99
  6
AUSGEZOGEN
 62
    56
370
    18
100
AcDbLine
 10
949.948046875
 20
140.1
 30
0.0
 11
855.1
 21
140.1
 31
0.0
  0
LINE
  5
163
330
157
100
AcDbEntity
  8
Layer99
  6
AUSGEZOGEN
 62
    56
370
    18
100
AcDbLine
 10
949.948046875
 20
144.18
 30
0.0
 11
855.1
 21
144.18
 31
0.0
  0
LINE
  5
164
330
157
100
AcDbEntity
  8
Layer99
  6
AUSGEZOGEN
 62
    56
370
    18
100
AcDbLine
 10
949.948046875
 20
148.26
 30
0.0
 11
855.1
 21
148.26
 31
0.0
  0
LINE
  5
165
330
157
100
AcDbEntity
  8
Layer99
  6
AUSGEZOGEN
 62
    56
370
    18
100
AcDbLine
 10
949.948046875
 20
152.34
 30
0.0
 11
855.1
 21
152.34
 31
0.0
  0
LINE
  5
166
330
157
100
AcDbEntity
  8
Layer99
  6
AUSGEZOGEN
 62
     9
370
    18
100
AcDbLine
 10
1032.7
 20
156.42
 30
0.0
 11
855.1
 21
156.42
 31
0.0
  0
LINE
  5
167
330
157
100
AcDbEntity
  8
Layer99
  6
AUSGEZOGEN
 62
    56
370
    18
100
AcDbLine
 10
907.5159765625
 20
166.62
 30
0.0
 11
855.1
 21
166.62
 31
0.0
  0
LINE
  5
168
330
157
100
AcDbEntity
  8
Layer99
  6
AUSGEZOGEN
 62
    56
370
    18
100
AcDbLine
 10
1032.7
 20
166.62
 30
0.0
 11
949.948046875
 21
166.62
 31
0.0
  0
LINE
  5
169
330
157
100
AcDbEntity
  8
Layer99
  6
AUSGEZOGEN
 62
    56
370
    18
100
AcDbLine
 10
997.7559765625
 20
172.74
 30
0.0
 11
997.7559765625
 21
166.62
 31
0.0
  0
LINE
  5
16A
330
157
100
AcDbEntity
  8
Layer99
  6
AUSGEZOGEN
 62
     9
370
    18
100
AcDbLine
 10
949.948046875
 20
172.74
 30
0.0
 11
949.948046875
 21
124.356002197266
 31
0.0
  0
LINE
  5
16B
330
157
100
AcDbEntity
  8
Layer99
  6
AUSGEZOGEN
 62
    56
370
    18
100
AcDbLine
 10
932.4759765625
 20
156.42
 30
0.0
 11
932.4759765625
 21
140.1
 31
0.0
  0
LINE
  5
16C
330
157
100
AcDbEntity
  8
Layer99
  6
AUSGEZOGEN
 62
     9
370
    18
100
AcDbLine
 10
907.5159765625
 20
172.74
 30
0.0
 11
907.5159765625
 21
119.7
 31
0.0
  0
LINE
  5
16D
330
157
100
AcDbEntity
  8
Layer99
  6
AUSGEZOGEN
 62
     9
370
    18
100
AcDbLine
 10
855.1
 20
172.74
 30
0.0
 11
855.1
 21
119.7
 31
0.0
  0
LINE
  5
16E
330
157
100
AcDbEntity
  8
Layer99
  6
AUSGEZOGEN
 62
     9
370
    18
100
AcDbLine
 10
1032.7
 20
172.74
 30
0.0
 11
855.1
 21
172.74
 31
0.0
  0
TEXT
  5
16F
330
157
100
AcDbEntity
  8
Layer99
  6
AUSGEZOGEN
 62
    56
370
    18
100
AcDbText
 10
908.1853515625
 20
149.172317138672
 30
0.0
 40
1.92
  1
Bearb. 24.04.20   MS
 41
1.267237127053
  7
Arial
 72
     5
 11
940.277878357697
 21
149.172317138672
 31
0.0
100
AcDbText
  0
TEXT
  5
170
330
157
100
AcDbEntity
  8
Layer99
  6
AUSGEZOGEN
 62
    56
370
    18
100
AcDbText
 10
908.407421875
 20
145.172707763672
 30
0.0
 40
1.92
  1
Gepr.
 41
1.215533862924
  7
Arial
 72
     5
 11
916.554805008698
 21
145.172707763672
 31
0.0
100
AcDbText
  0
TEXT
  5
171
330
157
100
AcDbEntity
  8
Layer99
  6
AUSGEZOGEN
 62
    56
370
    18
100
AcDbText
 10
908.407421875
 20
140.950910888672
 30
0.0
 40
1.92
  1
Norm
 41
1.171328125812
  7
Arial
 72
     5
 11
916.080839280319
 21
140.950910888672
 31
0.0
100
AcDbText
  0
TEXT
  5
172
330
157
100
AcDbEntity
  8
Layer99
  6
AUSGEZOGEN
 62
    56
370
    18
100
AcDbText
 10
1022.08234375
 20
132.900593261719
 30
0.0
 40
2.4
  1
Blatt
 41
1.26499927539
  7
Arial
 72
     5
 11
1030.561886892796
 21
132.900593261719
 31
0.0
100
AcDbText
  0
TEXT
  5
173
330
157
100
AcDbEntity
  8
0
  6
AUSGEZOGEN
 62
   136
370
    18
100
AcDbText
 10
910.433828125
 20
168.416821289062
 30
0.0
 40
2.4
  1
Allgemeintoleranzen
 41
1.263559891189
  7
Arial
 72
     5
 11
948.780343702793
 21
168.416821289062
 31
0.0
100
AcDbText
  0
TEXT
  5
174
330
157
100
AcDbEntity
  8
0
  6
AUSGEZOGEN
 62
   136
370
    18
100
AcDbText
 10
909.7664453125
 20
163.966362304687
 30
0.0
 40
2.4
  1
Nach: TG5
 41
1.223038375192
  7
Arial
 72
     5
 11
929.576731698513
 21
163.966362304687
 31
0.0
100
AcDbText
  0
TEXT
  5
175
330
157
100
AcDbEntity
  8
0
  6
AUSGEZOGEN
 62
   136
370
    18
100
AcDbText
 10
909.9279296875
 20
159.515888671875
 30
0.0
 40
2.4
  1
DIN: 16742
 41
1.239741037486
  7
Arial
 72
     5
 11
930.934101826668
 21
159.515888671875
 31
0.0
100
AcDbText
  0
TEXT
  5
176
330
157
100
AcDbEntity
  8
0
  6
AUSGEZOGEN
 62
    56
370
    18
100
AcDbText
 10
999.3040234375
 20
168.639345703125
 30
0.0
 40
2.4
  1
Gewicht:
 41
1.240831402125
  7
Arial
 72
     5
 11
1015.474538269997
 21
168.639345703125
 31
0.0
100
AcDbText
  0
TEXT
  5
177
330
157
100
AcDbEntity
  8
0
  6
AUSGEZOGEN
 62
    56
370
    18
100
AcDbText
 10
951.2088671875
 20
161.984428710937
 30
0.0
 40
2.4
  1
Werkstoff/Farbe: PE weiss
 41
1.269582634061
  7
Arial
 72
     5
 11
1001.316754588604
 21
161.984428710937
 31
0.0
100
AcDbText
  0
TEXT
  5
178
330
157
100
AcDbEntity
  8
0
  6
AUSGEZOGEN
 62
    56
370
    18
100
AcDbText
 10
951.2088671875
 20
168.659692382812
 30
0.0
 40
2.4
  1
Maßstab:
 41
1.226145501459
  7
Arial
 72
     5
 11
968.329782053471
 21
168.659692382812
 31
0.0
100
AcDbText
  0
TEXT
  5
179
330
157
100
AcDbEntity
  8
0
  6
AUSGEZOGEN
 62
    56
370
    18
100
AcDbText
 10
856.2520703125
 20
168.66
 30
0.0
 40
2.4
  1
Schwindung:
 41
1.234746274162
  7
Arial
 72
     5
 11
879.932528256893
 21
168.66
 31
0.0
100
AcDbText
  0
TEXT
  5
17A
330
157
100
AcDbEntity
  8
0
  6
AUSGEZOGEN
 62
    56
370
    18
100
AcDbText
 10
856.3678515625
 20
162.6542578125
 30
0.0
 40
2.4
  1
Diese Zeichnung darf nur
 41
1.271210741346
  7
Arial
 72
     5
 11
904.178596028805
 21
162.6542578125
 31
0.0
100
AcDbText
  0
TEXT
  5
17B
330
157
100
AcDbEntity
  8
0
  6
AUSGEZOGEN
 62
    56
370
    18
100
AcDbText
 10
856.3678515625
 20
158.81425775528
 30
0.0
 40
2.4
  1
mit CAD geändert werden
 41
1.255342283876
  7
Arial
 72
     5
 11
904.747738909245
 21
158.81425775528
 31
0.0
100
AcDbText
  0
LINE
  5
17C
330
157
100
AcDbEntity
  8
Layer99
  6
AUSGEZOGEN
 62
    56
370
    18
100
AcDbLine
 10
1032.7
 20
124.356002197266
 30
0.0
 11
949.948046875
 21
124.356002197266
 31
0.0
  0
LINE
  5
17D
330
157
100
AcDbEntity
  8
Layer99
  6
AUSGEZOGEN
 62
    56
370
    18
100
AcDbLine
 10
1032.7
 20
128.436002197266
 30
0.0
 11
1020.22
 21
128.436002197266
 31
0.0
  0
TEXT
  5
17E
330
157
100
AcDbEntity
  8
Layer99
  6
AUSGEZOGEN
 62
    56
370
    18
100
AcDbText
 10
1027.3036328125
 20
125.269068603516
 30
0.0
 40
2.4
  1
Bl.
 41
1.229150265254
  7
Arial
 72
     5
 11
1032.109118689537
 21
125.269068603516
 31
0.0
100
AcDbText
  0
LINE
  5
17F
330
157
100
AcDbEntity
  8
Layer99
  6
AUSGEZOGEN
 62
    56
370
    18
100
AcDbLine
 10
891.4837890625
 20
156.42
 30
0.0
 11
891.4837890625
 21
119.7
 31
0.0
  0
TEXT
  5
180
330
157
100
AcDbEntity
  8
Layer50
  6
AUSGEZOGEN
 62
   136
370
    18
100
AcDbText
 10
859.26126953125
 20
124.660985961914
 30
0.0
 40
1.92
  1
-  ---
 41
1.340992890965
  7
Arial
 72
     5
 11
866.048195471573
 21
124.660985961914
 31
0.0
100
AcDbText
  0
TEXT
  5
181
330
157
100
AcDbEntity
  8
Layer50
  6
AUSGEZOGEN
 62
   136
370
    18
100
AcDbText
 10
891.70890625
 20
124.896190429687
 30
0.0
 40
1.92
  1
--.--.--/--
 41
1.366444411798
  7
Arial
 72
     5
 11
904.522438103867
 21
124.896190429687
 31
0.0
100
AcDbText
  0
TEXT
  5
182
330
157
100
AcDbEntity
  8
0
  6
AUSGEZOGEN
 62
    56
370
    18
100
AcDbText
 10
908.7109375
 20
120.751316986084
 30
0.0
 40
2.4
  1
Schutzvermerk nach DIN 34 beachten .        Copyright reserved
 41
1.286227457357
  7
Arial
 72
     5
 11
1029.88899871254
 21
120.751316986084
 31
0.0
100
AcDbText
  0
TEXT
  5
183
330
157
100
AcDbEntity
  8
Layer50
  6
AUSGEZOGEN
 62
     9
370
    18
100
AcDbText
 10
952.515518703967
 20
145.475798832509
 30
0.0
 40
3.5
  1
MK R0/60D mit Dolle weiß
 41
1.261395618718
  7
Arial
 72
     5
 11
1024.769521139771
 21
145.475798832509
 31
0.0
100
AcDbText
  0
TEXT
  5
184
330
157
100
AcDbEntity
  8
Layer50
  6
AUSGEZOGEN
 62
     9
370
    18
100
AcDbText
 10
966.625676290392
 20
127.918723258278
 30
0.0
 40
4.8
  1
81734100k
 41
1.218898721598
  7
Arial
 72
     5
 11
1007.030706232904
 21
127.918723258278
 31
0.0
100
AcDbText
  0
TEXT
  5
185
330
157
100
AcDbEntity
  8
Layer50
  6
AUSGEZOGEN
 62
   136
370
    18
100
AcDbText
 10
952.014479963007
 20
137.262471711933
 30
0.0
 40
1.92
  1
---
 41
1.259600656861
  7
Arial
 72
     5
 11
955.388194362345
 21
137.262471711933
 31
0.0
100
AcDbText
  0
TEXT
  5
186
330
157
100
AcDbEntity
  8
Layer99
  6
AUSGEZOGEN
 62
    56
370
    18
100
AcDbText
 10
891.998596297691
 20
120.653567118501
 30
0.0
 40
1.92
  1
Dat./Nam.
 41
1.239717192527
  7
Arial
 72
     5
 11
906.953751089332
 21
120.653567118501
 31
0.0
100
AcDbText
  0
TEXT
  5
187
330
157
100
AcDbEntity
  8
Layer99
  6
AUSGEZOGEN
 62
    56
370
    18
100
AcDbText
 10
855.288972486823
 20
120.649214238702
 30
0.0
 40
1.92
  1
Zust.
 41
1.239906123597
  7
Arial
 72
     5
 11
862.676035593741
 21
120.649214238702
 31
0.0
100
AcDbText
  0
TEXT
  5
188
330
157
100
AcDbEntity
  8
0
  6
AUSGEZOGEN
 62
    56
370
    18
100
AcDbText
 10
919.08564372352
 20
153.163549804687
 30
0.0
 40
2.4
  1
Datum
 41
1.188171149402
  7
Arial
 72
     5
 11
930.80861555198
 21
153.163549804687
 31
0.0
100
AcDbText
  0
TEXT
  5
189
330
157
100
AcDbEntity
  8
0
  6
AUSGEZOGEN
 62
    56
370
    18
100
AcDbText
 10
936.044225916316
 20
153.171572251025
 30
0.0
 40
2.4
  1
Name
 41
1.15958716227
  7
Arial
 72
     5
 11
946.405369128634
 21
153.171572251025
 31
0.0
100
AcDbText
  0
TEXT
  5
18A
330
157
100
AcDbEntity
  8
Layer99
  6
AUSGEZOGEN
 62
    56
370
    18
100
AcDbText
 10
863.957082324907
 20
120.649442659218
 30
0.0
 40
1.92
  1
Änderung
 41
1.218204176926
  7
Arial
 72
     5
 11
878.112419948122
 21
120.649442659218
 31
0.0
100
AcDbText
  0
ENDBLK
  5
159
330
157
100
AcDbEntity
  8
0
100
AcDbBlockEnd
  0
BLOCK
  5
18D
330
18C
100
AcDbEntity
  8
0
100
AcDbBlockBegin
  2
L1_nNn03
 70
     0
 10
0.0
 20
0.0
 30
0.0
  3
L1_nNn03
  1

  0
LINE
  5
18F
330
18C
100
AcDbEntity
  8
Layer99
  6
AUSGEZOGEN
 62
    56
370
    18
100
AcDbLine
 10
949.948046875
 20
124.356002197266
 30
0.0
 11
907.5159765625
 21
124.356002197266
 31
0.0
  0
INSERT
  5
1A8
330
18C
100
AcDbEntity
  8
0
100
AcDbBlockReference
  2
ULTRAREFLEX_nNn04
 10
0.0
 20
0.0
 30
0.0
  0
LINE
  5
1A9
330
18C
100
AcDbEntity
  8
Layer99
  6
AUSGEZOGEN
 62
     9
370
    18
100
AcDbLine
 10
949.948046875
 20
131.885493460083
 30
0.0
 11
907.5159765625
 21
131.885493460083
 31
0.0
  0
TEXT
  5
1AA
330
18C
100
AcDbEntity
  8
Layer99
  6
AUSGEZOGEN
 62
    56
370
    18
100
AcDbText
 10
908.468175974717
 20
137.292282167415
 30
0.0
 40
1.5
  1
Projektionsmethode
 41
1.255938429073
  7
Arial
 72
     5
 11
931.706176758637
 21
137.292282167415
 31
0.0
100
AcDbText
  0
LINE
  5
1AB
330
18C
100
AcDbEntity
  8
0
  6
AUSGEZOGEN
 62
     9
370
    18
100
AcDbLine
 10
933.518528609331
 20
134.719211284629
 30
0.0
 11
933.518528609331
 21
136.719211284629
 31
0.0
  0
LINE
  5
1AC
330
18C
100
AcDbEntity
  8
0
  6
AUSGEZOGEN
 62
     9
370
    18
100
AcDbLine
 10
938.518528609331
 20
133.837576381087
 30
0.0
 11
938.518528609331
 21
137.600846188172
 31
0.0
  0
LINE
  5
1AD
330
18C
100
AcDbEntity
  8
0
  6
DASHDOT
 62
    56
370
    18
100
AcDbLine
 10
932.513119237289
 20
135.719211284629
 30
0.0
 11
944.578031701793
 21
135.719211284629
 31
0.0
  0
LINE
  5
1AE
330
18C
100
AcDbEntity
  8
0
  6
AUSGEZOGEN
 62
     9
370
    18
100
AcDbLine
 10
938.518528609331
 20
137.600846188172
 30
0.0
 11
933.518528609331
 21
136.719211284629
 31
0.0
  0
LINE
  5
1AF
330
18C
100
AcDbEntity
  8
0
  6
AUSGEZOGEN
 62
     9
370
    18
100
AcDbLine
 10
938.518528609331
 20
133.837576381087
 30
0.0
 11
933.518528609331
 21
134.719211284629
 31
0.0
  0
LINE
  5
1B0
330
18C
100
AcDbEntity
  8
0
  6
DASHDOT
 62
    56
370
    18
100
AcDbLine
 10
941.896940043014
 20
133.079122791846
 30
0.0
 11
941.896940043014
 21
138.485018277069
 31
0.0
  0
CIRCLE
  5
1B1
330
18C
100
AcDbEntity
  8
0
  6
AUSGEZOGEN
 62
     9
370
    18
100
AcDbCircle
 10
941.896940043014
 20
135.719211284629
 30
0.0
 40
1.0
  0
CIRCLE
  5
1B2
330
18C
100
AcDbEntity
  8
0
  6
AUSGEZOGEN
 62
     9
370
    18
100
AcDbCircle
 10
941.896940043014
 20
135.719211284629
 30
0.0
 40
1.881634903542341
  0
ENDBLK
  5
18E
330
18C
100
AcDbEntity
  8
0
100
AcDbBlockEnd
  0
BLOCK
  5
191
330
190
100
AcDbEntity
  8
0
100
AcDbBlockBegin
  2
ULTRAREFLEX_nNn04
 70
     0
 10
0.0
 20
0.0
 30
0.0
  3
ULTRAREFLEX_nNn04
  1

  0
LINE
  5
193
330
190
100
AcDbEntity
  8
0
  6
AUSGEZOGEN
 62
    30
370
    18
100
AcDbLine
 10
946.065982277898
 20
130.725176464287
 30
0.0
 11
943.205904514387
 21
130.725176464287
 31
0.0
  0
LINE
  5
194
330
190
100
AcDbEntity
  8
0
  6
AUSGEZOGEN
 62
    30
370
    18
100
AcDbLine
 10
942.929122795337
 20
130.565376464287
 30
0.0
 11
941.499083913581
 21
128.088476464287
 31
0.0
  0
LINE
  5
195
330
190
100
AcDbEntity
  8
0
  6
AUSGEZOGEN
 62
    30
370
    18
100
AcDbLine
 10
941.499083913581
 20
127.768876464287
 30
0.0
 11
942.929122795337
 21
125.291976464287
 31
0.0
  0
LINE
  5
196
330
190
100
AcDbEntity
  8
0
  6
AUSGEZOGEN
 62
    30
370
    18
100
AcDbLine
 10
943.205904514387
 20
125.132176464287
 30
0.0
 11
946.065982277898
 21
125.132176464287
 31
0.0
  0
LINE
  5
197
330
190
100
AcDbEntity
  8
0
  6
AUSGEZOGEN
 62
    30
370
    18
100
AcDbLine
 10
946.342763996948
 20
125.291976464287
 30
0.0
 11
947.772802878703
 21
127.768876464287
 31
0.0
  0
LINE
  5
198
330
190
100
AcDbEntity
  8
0
  6
AUSGEZOGEN
 62
    30
370
    18
100
AcDbLine
 10
947.772802878703
 20
128.088476464287
 30
0.0
 11
946.342763996948
 21
130.565376464287
 31
0.0
  0
LINE
  5
199
330
190
100
AcDbEntity
  8
0
  6
AUSGEZOGEN
 62
    30
370
    18
100
AcDbLine
 10
944.912725115192
 20
128.088476464287
 30
0.0
 11
947.772802878703
 21
128.088476464287
 31
0.0
  0
LINE
  5
19A
330
190
100
AcDbEntity
  8
0
  6
AUSGEZOGEN
 62
    30
370
    18
100
AcDbLine
 10
941.499083913581
 20
128.088476464287
 30
0.0
 11
944.359161677093
 21
128.088476464287
 31
0.0
  0
LINE
  5
19B
330
190
100
AcDbEntity
  8
0
  6
AUSGEZOGEN
 62
    30
370
    18
100
AcDbLine
 10
944.912725115192
 20
127.768876464287
 30
0.0
 11
947.772802878703
 21
127.768876464287
 31
0.0
  0
LINE
  5
19C
330
190
100
AcDbEntity
  8
0
  6
AUSGEZOGEN
 62
    30
370
    18
100
AcDbLine
 10
941.499083913581
 20
127.768876464287
 30
0.0
 11
944.359161677093
 21
127.768876464287
 31
0.0
  0
LINE
  5
19D
330
190
100
AcDbEntity
  8
0
  6
AUSGEZOGEN
 62
    30
370
    18
100
AcDbLine
 10
944.912725115192
 20
127.768876464287
 30
0.0
 11
946.342763996948
 21
125.291976464287
 31
0.0
  0
LINE
  5
19E
330
190
100
AcDbEntity
  8
0
  6
AUSGEZOGEN
 62
    30
370
    18
100
AcDbLine
 10
943.205904514387
 20
130.725176464287
 30
0.0
 11
944.635943396142
 21
128.248276464287
 31
0.0
  0
LINE
  5
19F
330
190
100
AcDbEntity
  8
0
  6
AUSGEZOGEN
 62
    30
370
    18
100
AcDbLine
 10
944.635943396142
 20
127.609076464287
 30
0.0
 11
946.065982277898
 21
125.132176464287
 31
0.0
  0
LINE
  5
1A0
330
190
100
AcDbEntity
  8
0
  6
AUSGEZOGEN
 62
    30
370
    18
100
AcDbLine
 10
942.929122795337
 20
130.565376464287
 30
0.0
 11
944.359161677093
 21
128.088476464287
 31
0.0
  0
LINE
  5
1A1
330
190
100
AcDbEntity
  8
0
  6
AUSGEZOGEN
 62
    30
370
    18
100
AcDbLine
 10
944.635943396142
 20
127.609076464287
 30
0.0
 11
943.205904514387
 21
125.132176464287
 31
0.0
  0
LINE
  5
1A2
330
190
100
AcDbEntity
  8
0
  6
AUSGEZOGEN
 62
    30
370
    18
100
AcDbLine
 10
946.342763996948
 20
130.565376464287
 30
0.0
 11
944.912725115192
 21
128.088476464287
 31
0.0
  0
LINE
  5
1A3
330
190
100
AcDbEntity
  8
0
  6
AUSGEZOGEN
 62
    30
370
    18
100
AcDbLine
 10
944.359161677093
 20
127.768876464287
 30
0.0
 11
942.929122795337
 21
125.291976464287
 31
0.0
  0
LINE
  5
1A4
330
190
100
AcDbEntity
  8
0
  6
AUSGEZOGEN
 62
    30
370
    18
100
AcDbLine
 10
946.065982277898
 20
130.725176464287
 30
0.0
 11
944.635943396142
 21
128.248276464287
 31
0.0
  0
HATCH
  5
1A5
330
190
100
AcDbEntity
  8
0
  6
AUSGEZOGEN
 62
    30
370
    18
100
AcDbHatch
 10
0.0
 20
0.0
 30
0.0
210
0.0
220
0.0
230
1.0
  2
SOLID
 70
     1
 71
     0
 91
        6
 92
        2
 72
     0
 73
     1
 93
        3
 10
944.359161677093
 20
127.7688764642865
 10
941.4990839135813
 20
127.7688764642865
 10
942.9291227953372
 20
125.2919764642865
 97
        0
 92
        2
 72
     0
 73
     1
 93
        3
 10
944.359161677093
 20
128.0884764642865
 10
942.9291227953372
 20
130.5653764642865
 10
941.4990839135813
 20
128.0884764642865
 97
        0
 92
        2
 72
     0
 73
     1
 93
        3
 10
944.6359433961425
 20
128.2482764642865
 10
946.0659822778982
 20
130.7251764642865
 10
943.2059045143867
 20
130.7251764642865
 97
        0
 92
        2
 72
     0
 73
     1
 93
        3
 10
944.912725115192
 20
128.0884764642865
 10
947.7728028787035
 20
128.0884764642865
 10
946.3427639969478
 20
130.5653764642865
 97
        0
 92
        2
 72
     0
 73
     1
 93
        3
 10
946.3427639969478
 20
125.2919764642865
 10
947.7728028787035
 20
127.7688764642865
 10
944.912725115192
 20
127.7688764642865
 97
        0
 92
        2
 72
     0
 73
     1
 93
        3
 10
944.6359433961425
 20
127.6090764642865
 10
943.2059045143867
 20
125.1321764642865
 10
946.0659822778982
 20
125.1321764642865
 97
        0
 75
     0
 76
     1
 98
        0
  0
TEXT
  5
1A6
330
190
100
AcDbEntity
  8
0
  6
AUSGEZOGEN
 62
     9
370
    70
100
AcDbText
 10
924.418254117202
 20
126.128442233772
 30
0.0
 40
3.6754
  1
REFLEX
 41
0.705366510959
  7
Arial Black
 72
     5
 11
940.118604117202
 21
126.128442233772
 31
0.0
100
AcDbText
  0
TEXT
  5
1A7
330
190
100
AcDbEntity
  8
0
  6
AUSGEZOGEN
 62
     9
370
    18
100
AcDbText
 10
908.919242079101
 20
126.301827470631
 30
0.0
 40
2.7965
  1
ULTRA
 41
1.159777722278
  7
Arial
 72
     5
 11
923.760667079101
 21
126.301827470631
 31
0.0
100
AcDbText
  0
ENDBLK
  5
192
330
190
100
AcDbEntity
  8
0
100
AcDbBlockEnd
  0
BLOCK
  5
1B5
330
1B4
100
AcDbEntity
  8
0
100
AcDbBlockBegin
  2
Abartenfeld_nNn05
 70
     0
 10
0.0
 20
0.0
 30
0.0
  3
Abartenfeld_nNn05
  1

  0
LINE
  5
1B7
330
1B4
100
AcDbEntity
  8
0
  6
AUSGEZOGEN
 62
    56
370
    18
100
AcDbLine
 10
844.7
 20
383.48
 30
0.0
 11
964.7
 21
383.48
 31
0.0
  0
LINE
  5
1B8
330
1B4
100
AcDbEntity
  8
0
  6
AUSGEZOGEN
 62
    56
370
    18
100
AcDbLine
 10
844.7
 20
377.48
 30
0.0
 11
964.7
 21
377.48
 31
0.0
  0
LINE
  5
1B9
330
1B4
100
AcDbEntity
  8
0
  6
AUSGEZOGEN
 62
    56
370
    18
100
AcDbLine
 10
844.7
 20
371.48
 30
0.0
 11
964.7
 21
371.48
 31
0.0
  0
LINE
  5
1BA
330
1B4
100
AcDbEntity
  8
0
  6
AUSGEZOGEN
 62
    56
370
    18
100
AcDbLine
 10
864.7
 20
371.48
 30
0.0
 11
864.7
 21
389.48
 31
0.0
  0
LINE
  5
1BB
330
1B4
100
AcDbEntity
  8
0
  6
AUSGEZOGEN
 62
    56
370
    18
100
AcDbLine
 10
964.7
 20
371.48
 30
0.0
 11
964.7
 21
389.48
 31
0.0
  0
TEXT
  5
1BC
330
1B4
100
AcDbEntity
  8
0
  6
AUSGEZOGEN
 62
   136
370
    18
100
AcDbText
 10
848.724079226654
 20
385.037158715762
 30
0.0
 40
2.5
  1
Abart
 41
1.135191846523
  7
Arial
 72
     5
 11
858.191579226654
 21
385.037158715762
 31
0.0
100
AcDbText
  0
TEXT
  5
1BD
330
1B4
100
AcDbEntity
  8
0
  6
AUSGEZOGEN
 62
   136
370
    18
100
AcDbText
 10
894.983461637225
 20
385.013810375424
 30
0.0
 40
2.5
  1
Abartenmerkmale
 41
1.135633227417
  7
Arial
 72
     5
 11
926.255961637225
 21
385.013810375424
 31
0.0
100
AcDbText
  0
TEXT
  5
1BE
330
1B4
100
AcDbEntity
  8
0
  6
AUSGEZOGEN
 62
   136
370
    18
100
AcDbText
 10
845.73353558119
 20
378.698288768854
 30
0.0
 40
2.5
  1
81732100
 41
1.136597938144
  7
Arial
 72
     5
 11
863.37353558119
 21
378.698288768854
 31
0.0
100
AcDbText
  0
TEXT
  5
1BF
330
1B4
100
AcDbEntity
  8
0
  6
AUSGEZOGEN
 62
   136
370
    18
100
AcDbText
 10
865.705108238419
 20
378.598740825779
 30
0.0
 40
2.5
  1
Werkstoff PE weiß
 41
1.135365853659
  7
Arial
 72
     5
 11
898.290108238419
 21
378.598740825779
 31
0.0
100
AcDbText
  0
TEXT
  5
1C0
330
1B4
100
AcDbEntity
  8
0
  6
AUSGEZOGEN
 62
   136
370
    18
100
AcDbText
 10
845.73353558119
 20
372.698288768854
 30
0.0
 40
2.5
  1
81732120
 41
1.136597938144
  7
Arial
 72
     5
 11
863.37353558119
 21
372.698288768854
 31
0.0
100
AcDbText
  0
TEXT
  5
1C1
330
1B4
100
AcDbEntity
  8
0
  6
AUSGEZOGEN
 62
   136
370
    18
100
AcDbText
 10
865.705108238419
 20
372.598740825779
 30
0.0
 40
2.5
  1
Werkstoff PE gelb
 41
1.135439978516
  7
Arial
 72
     5
 11
897.415108238419
 21
372.598740825779
 31
0.0
100
AcDbText
  0
POINT
  5
1C2
330
1B4
100
AcDbEntity
  8
0
  6
AUSGEZOGEN
 62
   136
370
    18
100
AcDbPoint
 10
844.7
 20
389.48
 30
0.0
  0
ENDBLK
  5
1B6
330
1B4
100
AcDbEntity
  8
0
100
AcDbBlockEnd
  0
BLOCK
  5
2D3
330
2D2
100
AcDbEntity
  8
0
100
AcDbBlockBegin
  2
*D7
 70
     1
 10
0.0
 20
0.0
 30
0.0
  3
*D7
  1

  0
HATCH
  5
2D5
330
2D2
100
AcDbEntity
  8
Layer6
  6
AUSGEZOGEN
 62
   136
370
    18
100
AcDbHatch
 10
0.0
 20
0.0
 30
0.0
210
0.0
220
0.0
230
1.0
  2
SOLID
 70
     1
 71
     0
 91
        1
 92
        2
 72
     0
 73
     1
 93
        3
 10
945.3750569421344
 20
203.481337362426
 10
942.8750569421344
 20
203.856337362426
 10
942.8750569421344
 20
203.106337362426
 97
        0
 75
     0
 76
     1
 98
        0
  0
HATCH
  5
2D6
330
2D2
100
AcDbEntity
  8
Layer6
  6
AUSGEZOGEN
 62
   136
370
    18
100
AcDbHatch
 10
0.0
 20
0.0
 30
0.0
210
0.0
220
0.0
230
1.0
  2
SOLID
 70
     1
 71
     0
 91
        1
 92
        2
 72
     0
 73
     1
 93
        3
 10
885.3750569421344
 20
203.481337362426
 10
887.8750569421344
 20
203.106337362426
 10
887.8750569421344
 20
203.856337362426
 97
        0
 75
     0
 76
     1
 98
        0
  0
LINE
  5
2D7
330
2D2
100
AcDbEntity
  8
Layer6
  6
AUSGEZOGEN
 62
   136
370
    18
100
AcDbLine
 10
887.875056942134
 20
203.481337362426
 30
0.0
 11
942.875056942134
 21
203.481337362426
 31
0.0
  0
LINE
  5
2D8
330
2D2
100
AcDbEntity
  8
Layer6
  6
AUSGEZOGEN
 62
   136
370
    18
100
AcDbLine
 10
885.375056942134
 20
241.287260322374
 30
0.0
 11
885.375056942134
 21
202.052765933855
 31
0.0
  0
LINE
  5
2D9
330
2D2
100
AcDbEntity
  8
Layer6
  6
AUSGEZOGEN
 62
   136
370
    18
100
AcDbLine
 10
945.375056942134
 20
241.287260322374
 30
0.0
 11
945.375056942134
 21
202.052765933855
 31
0.0
  0
WIPEOUT
  5
2DA
330
2D2
100
AcDbEntity
  8
Layer6
  6
AUSGEZOGEN
 62
   136
370
    18
 92
      152
310
98000000040000000C0000000E000000120000000C00000016000000000000C20C00000014000000010000006C0000000700000004000000F41306083F8B8C40CFBE9C1D677F694000000000000000006551008BFFAA8C40CFBE9C1D677F694000000000000000006551008BFFAA8C40CFBE9C1D67FF694000000000000000
310
00F41306083F8B8C40CFBE9C1D67FF69400000000000000000
100
AcDbWipeout
 90
        0
 10
913.405777022823
 20
203.981337362426
 30
0.0
 11
4.0
 21
0.0
 31
0.0
 12
0.0
 22
4.0
 32
0.0
 13
1.0
 23
1.0
340
0
 70
     7
280
     1
281
    50
282
    50
283
     0
360
0
 71
     2
 91
        5
 14
-0.5
 24
0.5
 14
0.492249954939
 24
0.5
 14
0.492249954939
 24
-0.5
 14
-0.5
 24
-0.5
 14
-0.5
 24
0.5
  0
TEXT
  5
2DB
330
2D2
100
AcDbEntity
  8
Layer6
  6
AUSGEZOGEN
 62
   136
370
    18
100
AcDbText
 10
913.405777022823
 20
204.731337362426
 30
0.0
 40
2.5
  1
60
 41
1.022938097875
  7
Arial
 72
     5
 11
917.374776842579
 21
204.731337362426
 31
0.0
100
AcDbText
  0
ENDBLK
  5
2D4
330
2D2
100
AcDbEntity
  8
0
100
AcDbBlockEnd
  0
BLOCK
  5
2DE
330
2DD
100
AcDbEntity
  8
0
100
AcDbBlockBegin
  2
*D8
 70
     1
 10
0.0
 20
0.0
 30
0.0
  3
*D8
  1

  0
HATCH
  5
2E0
330
2DD
100
AcDbEntity
  8
Layer6
  6
AUSGEZOGEN
 62
   136
370
    18
100
AcDbHatch
 10
0.0
 20
0.0
 30
0.0
210
0.0
220
0.0
230
1.0
  2
SOLID
 70
     1
 71
     0
 91
        1
 92
        2
 72
     0
 73
     1
 93
        3
 10
923.1250569421344
 20
280.7550481374733
 10
920.6250569421344
 20
281.1300481374733
 10
920.6250569421344
 20
280.3800481374733
 97
        0
 75
     0
 76
     1
 98
        0
  0
HATCH
  5
2E1
330
2DD
100
AcDbEntity
  8
Layer6
  6
AUSGEZOGEN
 62
   136
370
    18
100
AcDbHatch
 10
0.0
 20
0.0
 30
0.0
210
0.0
220
0.0
230
1.0
  2
SOLID
 70
     1
 71
     0
 91
        1
 92
        2
 72
     0
 73
     1
 93
        3
 10
907.6250569421344
 20
280.7550481374733
 10
910.1250569421344
 20
280.3800481374733
 10
910.1250569421344
 20
281.1300481374733
 97
        0
 75
     0
 76
     1
 98
        0
  0
LINE
  5
2E2
330
2DD
100
AcDbEntity
  8
Layer6
  6
AUSGEZOGEN
 62
   136
370
    18
100
AcDbLine
 10
910.125056942134
 20
280.755048137473
 30
0.0
 11
920.625056942134
 21
280.755048137473
 31
0.0
  0
LINE
  5
2E3
330
2DD
100
AcDbEntity
  8
Layer6
  6
AUSGEZOGEN
 62
   136
370
    18
100
AcDbLine
 10
907.625056942134
 20
300.699650381374
 30
0.0
 11
907.625056942134
 21
279.326476708902
 31
0.0
  0
LINE
  5
2E4
330
2DD
100
AcDbEntity
  8
Layer6
  6
AUSGEZOGEN
 62
   136
370
    18
100
AcDbLine
 10
923.125056942134
 20
300.699650381374
 30
0.0
 11
923.125056942134
 21
279.326476708902
 31
0.0
  0
WIPEOUT
  5
2E5
330
2DD
100
AcDbEntity
  8
Layer6
  6
AUSGEZOGEN
 62
   136
370
    18
 92
      152
310
98000000040000000C0000000E000000120000000C00000016000000000000C20C00000014000000010000006C0000000700000004000000DE0D033858728C40A8155BAD149471400000000000000000BE8823714CBB8C40A8155BAD149471400000000000000000BE8823714CBB8C40A8155BAD14D4714000000000000000
310
00DE0D033858728C40A8155BAD14D471400000000000000000
100
AcDbWipeout
 90
        0
 10
910.293075584279
 20
281.255048137473
 30
0.0
 11
9.119249585866896
 21
0.0
 31
0.0
 12
0.0
 22
9.119249585866896
 32
0.0
 13
1.0
 23
1.0
340
0
 70
     7
280
     1
281
    50
282
    50
283
     0
360
0
 71
     2
 91
        5
 14
-0.5
 24
0.5
 14
0.5
 24
0.5
 14
0.5
 24
0.061367417095
 14
-0.5
 24
0.061367417095
 14
-0.5
 24
0.5
  0
TEXT
  5
2E6
330
2DD
100
AcDbEntity
  8
Layer6
  6
AUSGEZOGEN
 62
   136
370
    18
100
AcDbText
 10
910.293075584279
 20
282.005048137473
 30
0.0
 40
2.5
  1
%%c15.5
 41
0.959416053221
  7
Arial
 72
     5
 11
919.412325170146
 21
282.005048137473
 31
0.0
100
AcDbText
  0
ENDBLK
  5
2DF
330
2DD
100
AcDbEntity
  8
0
100
AcDbBlockEnd
  0
BLOCK
  5
2E9
330
2E8
100
AcDbEntity
  8
0
100
AcDbBlockBegin
  2
*D9
 70
     1
 10
0.0
 20
0.0
 30
0.0
  3
*D9
  1

  0
HATCH
  5
2EB
330
2E8
100
AcDbEntity
  8
Layer6
  6
AUSGEZOGEN
 62
   136
370
    18
100
AcDbHatch
 10
0.0
 20
0.0
 30
0.0
210
0.0
220
0.0
230
1.0
  2
SOLID
 70
     1
 71
     0
 91
        1
 92
        2
 72
     0
 73
     1
 93
        3
 10
952.4372681824078
 20
288.6525292029736
 10
952.8122681824078
 20
291.1525292029736
 10
952.0622681824078
 20
291.1525292029736
 97
        0
 75
     0
 76
     1
 98
        0
  0
HATCH
  5
2EC
330
2E8
100
AcDbEntity
  8
Layer6
  6
AUSGEZOGEN
 62
   136
370
    18
100
AcDbHatch
 10
0.0
 20
0.0
 30
0.0
210
0.0
220
0.0
230
1.0
  2
SOLID
 70
     1
 71
     0
 91
        1
 92
        2
 72
     0
 73
     1
 93
        3
 10
952.4372681824078
 20
337.6996503813736
 10
952.0622681824078
 20
335.1996503813736
 10
952.8122681824078
 20
335.1996503813736
 97
        0
 75
     0
 76
     1
 98
        0
  0
LINE
  5
2ED
330
2E8
100
AcDbEntity
  8
Layer6
  6
AUSGEZOGEN
 62
   136
370
    18
100
AcDbLine
 10
952.437268182408
 20
335.199650381374
 30
0.0
 11
952.437268182408
 21
291.152529202974
 31
0.0
  0
LINE
  5
2EE
330
2E8
100
AcDbEntity
  8
Layer6
  6
AUSGEZOGEN
 62
   136
370
    18
100
AcDbLine
 10
944.875056942134
 20
337.699650381374
 30
0.0
 11
951.946510280099
 21
337.699650381374
 31
0.0
  0
LINE
  5
2EF
330
2E8
100
AcDbEntity
  8
Layer6
  6
AUSGEZOGEN
 62
   136
370
    18
100
AcDbLine
 10
952.946510280099
 20
337.699650381374
 30
0.0
 11
953.865839610979
 21
337.699650381374
 31
0.0
  0
LINE
  5
2F0
330
2E8
100
AcDbEntity
  8
Layer6
  6
AUSGEZOGEN
 62
   136
370
    18
100
AcDbLine
 10
915.375056942135
 20
288.652529202974
 30
0.0
 11
953.865839610979
 21
288.652529202974
 31
0.0
  0
WIPEOUT
  5
2F1
330
2E8
100
AcDbEntity
  8
Layer6
  6
AUSGEZOGEN
 62
   136
370
    18
 92
      152
310
98000000040000000C0000000E000000120000000C00000016000000000000C20C00000014000000010000006C00000007000000040000002FF875867FBF8D40B86C5F566530734000000000000000002FF875867FBF8D4099E7535CE66F734000000000000000002FF875867F9F8D4099E7535CE66F734000000000000000
310
002FF875867F9F8D40B86C5F56653073400000000000000000
100
AcDbWipeout
 90
        0
 10
947.937268182408
 20
307.024740574601
 30
0.0
 11
4.0
 21
0.0
 31
0.0
 12
0.0
 22
4.0
 32
0.0
 13
1.0
 23
1.0
340
0
 70
     7
280
     1
281
    50
282
    50
283
     0
360
0
 71
     2
 91
        5
 14
0.5
 24
0.5
 14
0.5
 24
-0.492249954939
 14
-0.5
 24
-0.492249954939
 14
-0.5
 24
0.5
 14
0.5
 24
0.5
  0
TEXT
  5
2F2
330
2E8
100
AcDbEntity
  8
Layer6
  6
AUSGEZOGEN
 62
   136
370
    18
100
AcDbText
 10
951.187268182408
 20
307.024740574601
 30
0.0
 40
2.5
  1
49
 50
90.0
 41
1.022938097875
  7
Arial
 72
     5
 11
951.187268182408
 21
310.993740394356
 31
0.0
100
AcDbText
  0
ENDBLK
  5
2EA
330
2E8
100
AcDbEntity
  8
0
100
AcDbBlockEnd
  0
BLOCK
  5
2F5
330
2F4
100
AcDbEntity
  8
0
100
AcDbBlockBegin
  2
*D10
 70
     1
 10
0.0
 20
0.0
 30
0.0
  3
*D10
  1

  0
HATCH
  5
2F7
330
2F4
100
AcDbEntity
  8
Layer6
  6
AUSGEZOGEN
 62
   136
370
    18
100
AcDbHatch
 10
0.0
 20
0.0
 30
0.0
210
0.0
220
0.0
230
1.0
  2
SOLID
 70
     1
 71
     0
 91
        1
 92
        2
 72
     0
 73
     1
 93
        3
 10
952.4465102800991
 20
348.2405786981736
 10
952.0715102800991
 20
345.7405786981736
 10
952.8215102800991
 20
345.7405786981736
 97
        0
 75
     0
 76
     1
 98
        0
  0
HATCH
  5
2F8
330
2F4
100
AcDbEntity
  8
Layer6
  6
AUSGEZOGEN
 62
   136
370
    18
100
AcDbHatch
 10
0.0
 20
0.0
 30
0.0
210
0.0
220
0.0
230
1.0
  2
SOLID
 70
     1
 71
     0
 91
        1
 92
        2
 72
     0
 73
     1
 93
        3
 10
952.4465102800991
 20
337.6996503813736
 10
952.8215102800991
 20
340.1996503813736
 10
952.0715102800991
 20
340.1996503813736
 97
        0
 75
     0
 76
     1
 98
        0
  0
LINE
  5
2F9
330
2F4
100
AcDbEntity
  8
Layer6
  6
AUSGEZOGEN
 62
   136
370
    18
100
AcDbLine
 10
952.446510280099
 20
340.199650381374
 30
0.0
 11
952.446510280099
 21
345.740578698174
 31
0.0
  0
LINE
  5
2FA
330
2F4
100
AcDbEntity
  8
Layer6
  6
AUSGEZOGEN
 62
   136
370
    18
100
AcDbLine
 10
952.446510280099
 20
340.199650381374
 30
0.0
 11
952.446510280099
 21
338.748941519918
 31
0.0
  0
LINE
  5
2FB
330
2F4
100
AcDbEntity
  8
Layer6
  6
AUSGEZOGEN
 62
   136
370
    18
100
AcDbLine
 10
944.875056942134
 20
337.699650381374
 30
0.0
 11
951.937268182408
 21
337.699650381374
 31
0.0
  0
LINE
  5
2FC
330
2F4
100
AcDbEntity
  8
Layer6
  6
AUSGEZOGEN
 62
   136
370
    18
100
AcDbLine
 10
952.937268182408
 20
337.699650381374
 30
0.0
 11
953.875081708671
 21
337.699650381374
 31
0.0
  0
LINE
  5
2FD
330
2F4
100
AcDbEntity
  8
Layer6
  6
AUSGEZOGEN
 62
   136
370
    18
100
AcDbLine
 10
912.358396735334
 20
348.240578698174
 30
0.0
 11
914.875056942135
 21
348.240578698174
 31
0.0
  0
LINE
  5
2FE
330
2F4
100
AcDbEntity
  8
Layer6
  6
AUSGEZOGEN
 62
   136
370
    18
100
AcDbLine
 10
915.875056942135
 20
348.240578698174
 30
0.0
 11
919.337932543535
 21
348.240578698174
 31
0.0
  0
LINE
  5
2FF
330
2F4
100
AcDbEntity
  8
Layer6
  6
AUSGEZOGEN
 62
   136
370
    18
100
AcDbLine
 10
920.337932543535
 20
348.240578698174
 30
0.0
 11
953.875081708671
 21
348.240578698174
 31
0.0
  0
WIPEOUT
  5
300
330
2F4
100
AcDbEntity
  8
Layer6
  6
AUSGEZOGEN
 62
   136
370
    18
 92
      152
310
98000000040000000C0000000E000000120000000C00000016000000000000C20C00000014000000010000006C0000000700000004000000D452FB7392BF8D409C6A1AAAFB2B75400000000000000000D452FB7392BF8D40A64186741D9B75400000000000000000D452FB73929F8D40A64186741D9B754000000000000000
310
00D452FB73929F8D409C6A1AAAFB2B75400000000000000000
100
AcDbWipeout
 90
        0
 10
947.946510280099
 20
338.748941519918
 30
0.0
 11
6.945749684572206
 21
0.0
 31
0.0
 12
0.0
 22
6.945749684572206
 32
0.0
 13
1.0
 23
1.0
340
0
 70
     7
280
     1
281
    50
282
    50
283
     0
360
0
 71
     2
 91
        5
 14
0.075891758507
 24
0.5
 14
0.075891758507
 24
-0.5
 14
-0.5
 24
-0.5
 14
-0.5
 24
0.5
 14
0.075891758507
 24
0.5
  0
TEXT
  5
301
330
2F4
100
AcDbEntity
  8
Layer6
  6
AUSGEZOGEN
 62
   136
370
    18
100
AcDbText
 10
951.196510280099
 20
338.748941519918
 30
0.0
 40
2.5
  1
10.5
 50
90.0
 41
1.022938097875
  7
Arial
 72
     5
 11
951.196510280099
 21
345.69469120449
 31
0.0
100
AcDbText
  0
ENDBLK
  5
2F6
330
2F4
100
AcDbEntity
  8
0
100
AcDbBlockEnd
  0
BLOCK
  5
304
330
303
100
AcDbEntity
  8
0
100
AcDbBlockBegin
  2
DimBlk_nNn010
 70
     0
 10
0.0
 20
0.0
 30
0.0
  3
DimBlk_nNn010
  1

  0
HATCH
  5
306
330
303
100
AcDbEntity
  8
Layer6
  6
AUSGEZOGEN
 62
   136
370
    18
100
AcDbHatch
 10
0.0
 20
0.0
 30
0.0
210
0.0
220
0.0
230
1.0
  2
SOLID
 70
     1
 71
     0
 91
        1
 92
        2
 72
     0
 73
     1
 93
        3
 10
921.9308101219235
 20
336.5954243302666
 10
923.6314129529876
 20
334.7249765199877
 10
924.1053564402109
 20
335.3062488923904
 97
        0
 75
     0
 76
     1
 98
        0
  0
LINE
  5
307
330
303
100
AcDbEntity
  8
Layer6
  6
AUSGEZOGEN
 62
   136
370
    18
100
AcDbLine
 10
923.868384696599
 20
335.015612706189
 30
0.0
 11
931.60394313902
 21
328.708384429253
 31
0.0
  0
WIPEOUT
  5
308
330
303
100
AcDbEntity
  8
Layer6
  6
AUSGEZOGEN
 62
   136
370
    18
 92
      152
310
98000000040000000C0000000E000000120000000C00000016000000000000C20C00000014000000010000006C000000070000000400000044B9D4260A038D40EAEA2027B7BF74400000000000000000B05465F75B1F8D40ED2FC0CD889174400000000000000000204B70B194338D40D55D77E422C3744000000000000000
310
00B4AFDFE042178D40D218D83D51F174400000000000000000
100
AcDbWipeout
 90
        0
 10
928.379956876663
 20
329.095899344188
 30
0.0
 11
6.067647185696501
 21
0.0
 31
0.0
 12
0.0
 22
6.067647185696501
 32
0.0
 13
1.0
 23
1.0
340
0
 70
     7
280
     1
281
    50
282
    50
283
     0
360
0
 71
     2
 91
        5
 14
-0.5
 24
0.024310557655
 14
0.083413715207
 24
0.5
 14
0.5
 24
-0.010926101107
 14
-0.083413715207
 24
-0.486615543453
 14
-0.5
 24
0.024310557655
  0
TEXT
  5
309
330
303
100
AcDbEntity
  8
Layer6
  6
AUSGEZOGEN
 62
   136
370
    18
100
AcDbText
 10
928.853900363886
 20
332.563487422704
 30
0.0
 40
2.5
  1
R3
 50
320.807737130961
 41
1.024103092506
  7
Arial
 72
     5
 11
932.393848951059
 21
329.677171716591
 31
0.0
100
AcDbText
  0
ENDBLK
  5
305
330
303
100
AcDbEntity
  8
0
100
AcDbBlockEnd
  0
ENDSEC
  0
SECTION
  2
ENTITIES
  0
INSERT
  5
14F
330
1F
100
AcDbEntity
  8
0
100
AcDbBlockReference
  2
A4_nNn00
 10
0.0
 20
0.0
 30
0.0
  0
INSERT
  5
156
330
1F
100
AcDbEntity
  8
0
100
AcDbBlockReference
  2
QS_nNn01
 10
0.0
 20
0.0
 30
0.0
  0
INSERT
  5
18B
330
1F
100
AcDbEntity
  8
0
100
AcDbBlockReference
  2
Schriftfeld_nNn02
 10
0.0
 20
0.0
 30
0.0
  0
INSERT
  5
1B3
330
1F
100
AcDbEntity
  8
0
100
AcDbBlockReference
  2
L1_nNn03
 10
0.0
 20
0.0
 30
0.0
  0
INSERT
  5
1C3
330
1F
100
AcDbEntity
  8
0
100
AcDbBlockReference
  2
Abartenfeld_nNn05
 10
0.0
 20
0.0
 30
0.0
  0
ARC
  5
1C4
330
1F
100
AcDbEntity
  8
0
  6
AUSGEZOGEN
 62
     9
370
    25
100
AcDbCircle
 10
892.242137916334
 20
332.856069075174
 30
0.0
 40
7.999999999999952
100
AcDbArc
 50
125.2242443632
 51
142.7389377305
  0
ARC
  5
1C5
330
1F
100
AcDbEntity
  8
0
  6
AUSGEZOGEN
 62
     9
370
    25
100
AcDbCircle
 10
938.507975968134
 20
332.856069075174
 30
0.0
 40
7.99999999999996
100
AcDbArc
 50
37.2610622695
 51
54.7757556368
  0
ARC
  5
1C6
330
1F
100
AcDbEntity
  8
0
  6
AUSGEZOGEN
 62
     9
370
    25
100
AcDbCircle
 10
915.375056942134
 20
300.092507524174
 30
0.0
 40
48.10714285714286
100
AcDbArc
 50
117.2138265333
 51
125.2242443632
  0
ARC
  5
1C7
330
1F
100
AcDbEntity
  8
0
  6
AUSGEZOGEN
 62
     9
370
    25
100
AcDbCircle
 10
915.375056942134
 20
300.092507524174
 30
0.0
 40
48.10714285714286
100
AcDbArc
 50
54.7757556368
 51
62.7861734667
  0
ARC
  5
1C8
330
1F
100
AcDbEntity
  8
0
  6
AUSGEZOGEN
 62
     9
370
    25
100
AcDbCircle
 10
893.986152536734
 20
342.769779888974
 30
0.0
 40
0.6199999999999858
100
AcDbArc
 50
116.6190152601
 51
170.2777810124
  0
ARC
  5
1C9
330
1F
100
AcDbEntity
  8
0
  6
AUSGEZOGEN
 62
     9
370
    25
100
AcDbCircle
 10
936.763961347734
 20
342.769779888974
 30
0.0
 40
0.6199999999999998
100
AcDbArc
 50
9.7222189876
 51
63.3809847399
  0
ARC
  5
1CA
330
1F
100
AcDbEntity
  8
0
  6
AUSGEZOGEN
 62
     9
370
    25
100
AcDbCircle
 10
915.375056942134
 20
300.092507524174
 30
0.0
 40
48.35714285714288
100
AcDbArc
 50
116.4772220372
 51
116.6190152601
  0
ARC
  5
1CB
330
1F
100
AcDbEntity
  8
0
  6
AUSGEZOGEN
 62
     9
370
    25
100
AcDbCircle
 10
915.375056942134
 20
300.092507524174
 30
0.0
 40
48.35714285714286
100
AcDbArc
 50
63.3809847399
 51
63.5227779628
  0
ARC
  5
1CC
330
1F
100
AcDbEntity
  8
0
  6
AUSGEZOGEN
 62
     9
370
    25
100
AcDbCircle
 10
936.658280011334
 20
342.822581522974
 30
0.0
 40
0.6200000000000334
100
AcDbArc
 50
63.5227779628
 51
90.0
  0
ARC
  5
1CD
330
1F
100
AcDbEntity
  8
0
  6
AUSGEZOGEN
 62
     9
370
    25
100
AcDbCircle
 10
894.091833872934
 20
342.822581522974
 30
0.0
 40
0.6200000000000334
100
AcDbArc
 50
90.0
 51
116.4772220372
  0
LINE
  5
1CE
330
1F
100
AcDbEntity
  8
0
  6
AUSGEZOGEN
 62
     9
370
    25
100
AcDbLine
 10
936.658280011334
 20
343.442581522974
 30
0.0
 11
894.091833872934
 21
343.442581522974
 31
0.0
  0
ARC
  5
1CF
330
1F
100
AcDbEntity
  8
0
  6
AUSGEZOGEN
 62
     9
370
    25
100
AcDbCircle
 10
915.375056942134
 20
300.092507524174
 30
0.0
 40
48.10714285714286
100
AcDbArc
 50
111.3319886446
 51
115.6949653553
  0
ARC
  5
1D0
330
1F
100
AcDbEntity
  8
0
  6
AUSGEZOGEN
 62
     9
370
    25
100
AcDbCircle
 10
915.375056942134
 20
300.092507524174
 30
0.0
 40
48.10714285714286
100
AcDbArc
 50
64.3050346447
 51
68.6680113554
  0
ARC
  5
1D1
330
1F
100
AcDbEntity
  8
0
  6
AUSGEZOGEN
 62
     9
370
    25
100
AcDbCircle
 10
898.472205926534
 20
344.736974546574
 30
0.0
 40
0.6199999999999932
100
AcDbArc
 50
110.7371773714
 51
164.3959431237
  0
ARC
  5
1D2
330
1F
100
AcDbEntity
  8
0
  6
AUSGEZOGEN
 62
     9
370
    25
100
AcDbCircle
 10
932.277907957734
 20
344.736974546574
 30
0.0
 40
0.6199999999999932
100
AcDbArc
 50
15.6040568763
 51
69.2628226286
  0
ARC
  5
1D3
330
1F
100
AcDbEntity
  8
0
  6
AUSGEZOGEN
 62
     9
370
    25
100
AcDbCircle
 10
915.375056942134
 20
300.092507524174
 30
0.0
 40
48.3571428571428
100
AcDbArc
 50
110.6536163856
 51
110.7371773714
  0
ARC
  5
1D4
330
1F
100
AcDbEntity
  8
0
  6
AUSGEZOGEN
 62
     9
370
    25
100
AcDbCircle
 10
915.375056942134
 20
300.092507524174
 30
0.0
 40
48.35714285714278
100
AcDbArc
 50
69.2628226286
 51
69.3463836144
  0
ARC
  5
1D5
330
1F
100
AcDbEntity
  8
0
  6
AUSGEZOGEN
 62
     9
370
    25
100
AcDbCircle
 10
932.212779874534
 20
344.761578419174
 30
0.0
 40
0.6200000000000045
100
AcDbArc
 50
69.3463836144
 51
90.0
  0
ARC
  5
1D6
330
1F
100
AcDbEntity
  8
0
  6
AUSGEZOGEN
 62
     9
370
    25
100
AcDbCircle
 10
898.537334009934
 20
344.761578419174
 30
0.0
 40
0.6200000000000045
100
AcDbArc
 50
90.0
 51
110.6536163856
  0
LINE
  5
1D7
330
1F
100
AcDbEntity
  8
0
  6
AUSGEZOGEN
 62
     9
370
    25
100
AcDbLine
 10
932.212779874534
 20
345.381578419174
 30
0.0
 11
898.537334009934
 21
345.381578419174
 31
0.0
  0
ARC
  5
1D8
330
1F
100
AcDbEntity
  8
0
  6
AUSGEZOGEN
 62
     9
370
    25
100
AcDbCircle
 10
915.375056942134
 20
300.092507524174
 30
0.0
 40
48.10714285714282
100
AcDbArc
 50
105.6779620394
 51
109.7084322178
  0
ARC
  5
1D9
330
1F
100
AcDbEntity
  8
0
  6
AUSGEZOGEN
 62
     9
370
    25
100
AcDbCircle
 10
915.375056942134
 20
300.092507524174
 30
0.0
 40
48.10714285714282
100
AcDbArc
 50
70.2915677822
 51
74.3220379606
  0
ARC
  5
1DA
330
1F
100
AcDbEntity
  8
0
  6
AUSGEZOGEN
 62
     9
370
    25
100
AcDbCircle
 10
902.952870112334
 20
346.185067471774
 30
0.0
 40
0.620000000000094
100
AcDbArc
 50
105.0831507661
 51
158.7419165185
  0
ARC
  5
1DB
330
1F
100
AcDbEntity
  8
0
  6
AUSGEZOGEN
 62
     9
370
    25
100
AcDbCircle
 10
927.797243772134
 20
346.185067471774
 30
0.0
 40
0.620000000000094
100
AcDbArc
 50
21.2580834815
 51
74.9168492339
  0
LINE
  5
1DC
330
1F
100
AcDbEntity
  8
0
  6
AUSGEZOGEN
 62
     9
370
    25
100
AcDbLine
 10
902.827208293534
 20
346.793307941174
 30
0.0
 11
902.791533354934
 21
346.783707973774
 31
0.0
  0
LINE
  5
1DD
330
1F
100
AcDbEntity
  8
0
  6
AUSGEZOGEN
 62
     9
370
    25
100
AcDbLine
 10
927.958580529334
 20
346.783707973774
 30
0.0
 11
927.922905590734
 21
346.793307941174
 31
0.0
  0
ARC
  5
1DE
330
1F
100
AcDbEntity
  8
0
  6
AUSGEZOGEN
 62
     9
370
    25
100
AcDbCircle
 10
927.762026231534
 20
346.194544355374
 30
0.0
 40
0.6200000000000992
100
AcDbArc
 50
74.9606222187
 51
90.0
  0
ARC
  5
1DF
330
1F
100
AcDbEntity
  8
0
  6
AUSGEZOGEN
 62
     9
370
    25
100
AcDbCircle
 10
902.988087652934
 20
346.194544355374
 30
0.0
 40
0.6200000000000954
100
AcDbArc
 50
90.0
 51
105.0393777813
  0
LINE
  5
1E0
330
1F
100
AcDbEntity
  8
0
  6
AUSGEZOGEN
 62
     9
370
    25
100
AcDbLine
 10
927.762026231534
 20
346.814544355374
 30
0.0
 11
902.988087652934
 21
346.814544355374
 31
0.0
  0
ARC
  5
1E1
330
1F
100
AcDbEntity
  8
0
  6
AUSGEZOGEN
 62
     9
370
    25
100
AcDbCircle
 10
915.375056942134
 20
300.092507524174
 30
0.0
 40
48.10714285714282
100
AcDbArc
 50
100.7825654449
 51
103.7823071066
  0
ARC
  5
1E2
330
1F
100
AcDbEntity
  8
0
  6
AUSGEZOGEN
 62
     9
370
    25
100
AcDbCircle
 10
915.375056942134
 20
300.092507524174
 30
0.0
 40
48.10714285714282
100
AcDbArc
 50
76.2176928934
 51
79.2174345551
  0
ARC
  5
1E3
330
1F
100
AcDbEntity
  8
0
  6
AUSGEZOGEN
 62
     9
370
    25
100
AcDbCircle
 10
915.375056942134
 20
300.092507524174
 30
0.0
 40
47.60714285714274
100
AcDbArc
 50
86.3870694117
 51
93.6129305883
  0
ARC
  5
1E4
330
1F
100
AcDbEntity
  8
0
  6
AUSGEZOGEN
 62
     9
370
    25
100
AcDbCircle
 10
924.255899611534
 20
334.699650381374
 30
0.0
 40
3.0
100
AcDbArc
 50
90.0
 51
177.6784694102
  0
ARC
  5
1E5
330
1F
100
AcDbEntity
  8
0
  6
AUSGEZOGEN
 62
     9
370
    25
100
AcDbCircle
 10
906.494214272734
 20
334.699650381374
 30
0.0
 40
3.0
100
AcDbArc
 50
2.3215305898
 51
90.0
  0
ARC
  5
1E6
330
1F
100
AcDbEntity
  8
0
  6
AUSGEZOGEN
 62
     9
370
    25
100
AcDbCircle
 10
906.931579199334
 20
347.076999558974
 30
0.0
 40
0.6199999999999556
100
AcDbArc
 50
100.1877541717
 51
153.846519924
  0
ARC
  5
1E7
330
1F
100
AcDbEntity
  8
0
  6
AUSGEZOGEN
 62
     9
370
    25
100
AcDbCircle
 10
923.818534684934
 20
347.076999558974
 30
0.0
 40
0.6199999999999556
100
AcDbArc
 50
26.153480076
 51
79.8122458283
  0
LWPOLYLINE
  5
1E8
330
1F
100
AcDbEntity
  8
0
  6
AUSGEZOGEN
 62
     9
370
    25
100
AcDbPolyline
 90
        9
 70
     0
 43
0.0
 10
923.928196803134
 20
347.687224287974
 10
923.926074022534
 20
347.687605719174
 10
923.923951224734
 20
347.687987055774
 10
923.921828409934
 20
347.688368297774
 10
923.919705578334
 20
347.688749444974
 10
923.917582729535
 20
347.689130497574
 10
923.915459863934
 20
347.689511455574
 10
923.913336981134
 20
347.689892318774
 10
923.911214081534
 20
347.690273087174
  0
LWPOLYLINE
  5
1E9
330
1F
100
AcDbEntity
  8
0
  6
AUSGEZOGEN
 62
     9
370
    25
100
AcDbPolyline
 90
        9
 70
     0
 43
0.0
 10
906.838899802934
 20
347.690273087174
 10
906.836776903134
 20
347.689892318774
 10
906.834654020534
 20
347.689511455574
 10
906.832531154735
 20
347.689130497574
 10
906.830408306134
 20
347.688749444974
 10
906.828285474334
 20
347.688368297774
 10
906.826162659734
 20
347.687987055774
 10
906.824039861934
 20
347.687605719174
 10
906.821917081334
 20
347.687224287974
  0
ARC
  5
1EA
330
1F
100
AcDbEntity
  8
0
  6
AUSGEZOGEN
 62
     9
370
    25
100
AcDbCircle
 10
923.801769703534
 20
347.080009268774
 30
0.0
 40
0.6200000000000554
100
AcDbArc
 50
79.832689423
 51
90.0
  0
LINE
  5
1EB
330
1F
100
AcDbEntity
  8
0
  6
AUSGEZOGEN
 62
     9
370
    25
100
AcDbLine
 10
918.447206810935
 20
347.700009268774
 30
0.0
 11
918.385482511534
 21
347.700009268774
 31
0.0
  0
LINE
  5
1EC
330
1F
100
AcDbEntity
  8
0
  6
AUSGEZOGEN
 62
     9
370
    25
100
AcDbLine
 10
923.801769703534
 20
347.700009268774
 30
0.0
 11
918.447206810935
 21
347.700009268774
 31
0.0
  0
ARC
  5
1ED
330
1F
100
AcDbEntity
  8
0
  6
AUSGEZOGEN
 62
     9
370
    25
100
AcDbCircle
 10
906.948344180934
 20
347.080009268774
 30
0.0
 40
0.6200000000000528
100
AcDbArc
 50
90.0
 51
100.167310577
  0
LINE
  5
1EE
330
1F
100
AcDbEntity
  8
0
  6
AUSGEZOGEN
 62
     9
370
    25
100
AcDbLine
 10
912.301499648734
 20
347.700009268774
 30
0.0
 11
906.948344180934
 21
347.700009268774
 31
0.0
  0
LINE
  5
1EF
330
1F
100
AcDbEntity
  8
0
  6
AUSGEZOGEN
 62
     9
370
    25
100
AcDbLine
 10
912.365911582334
 20
347.700009268774
 30
0.0
 11
912.301499648734
 21
347.700009268774
 31
0.0
  0
ARC
  5
1F0
330
1F
100
AcDbEntity
  8
0
  6
AUSGEZOGEN
 62
     9
370
    25
100
AcDbCircle
 10
925.065971329934
 20
305.307562201174
 30
0.0
 40
5.00000000000001
100
AcDbArc
 50
177.6784694102
 51
247.1585201077
  0
ARC
  5
1F1
330
1F
100
AcDbEntity
  8
0
  6
AUSGEZOGEN
 62
     9
370
    25
100
AcDbCircle
 10
905.684142554534
 20
305.307562201174
 30
0.0
 40
5.00000000000001
100
AcDbArc
 50
292.8414798923
 51
2.3215305898
  0
LINE
  5
1F2
330
1F
100
AcDbEntity
  8
0
  6
AUSGEZOGEN
 62
     9
370
    25
100
AcDbLine
 10
907.625056942134
 20
300.699650381374
 30
0.0
 11
914.516109967934
 21
289.140464660574
 31
0.0
  0
LINE
  5
1F3
330
1F
100
AcDbEntity
  8
0
  6
AUSGEZOGEN
 62
     9
370
    25
100
AcDbLine
 10
916.234003916334
 20
289.140464660574
 30
0.0
 11
923.125056942134
 21
300.699650381374
 31
0.0
  0
ARC
  5
1F4
330
1F
100
AcDbEntity
  8
0
  6
AUSGEZOGEN
 62
     9
370
    25
100
AcDbCircle
 10
915.375056942134
 20
300.092507524174
 30
0.0
 40
48.1071428571429
100
AcDbArc
 50
81.7350823389
 51
84.0342081997
  0
ARC
  5
1F5
330
1F
100
AcDbEntity
  8
0
  6
AUSGEZOGEN
 62
     9
370
    25
100
AcDbCircle
 10
915.375056942134
 20
300.092507524174
 30
0.0
 40
48.1071428571429
100
AcDbArc
 50
95.9657918003
 51
98.2649176611
  0
LINE
  5
1F6
330
1F
100
AcDbEntity
  8
0
  6
AUSGEZOGEN
 62
     9
370
    25
100
AcDbLine
 10
909.491752004334
 20
334.821172181174
 30
0.0
 11
910.680038773735
 21
305.510098534374
 31
0.0
  0
LINE
  5
1F7
330
1F
100
AcDbEntity
  8
0
  6
AUSGEZOGEN
 62
     9
370
    25
100
AcDbLine
 10
920.070075110535
 20
305.510098534374
 30
0.0
 11
921.258361879934
 21
334.821172181174
 31
0.0
  0
ARC
  5
1F8
330
1F
100
AcDbEntity
  8
0
  6
AUSGEZOGEN
 62
     9
370
    25
100
AcDbCircle
 10
910.906666380335
 20
347.620060521774
 30
0.0
 40
0.6200000000000334
100
AcDbArc
 50
95.3709805271
 51
149.0297462794
  0
ARC
  5
1F9
330
1F
100
AcDbEntity
  8
0
  6
AUSGEZOGEN
 62
     9
370
    25
100
AcDbCircle
 10
919.843447503934
 20
347.620060521774
 30
0.0
 40
0.6200000000000334
100
AcDbArc
 50
30.9702537206
 51
84.6290194729
  0
LWPOLYLINE
  5
1FA
330
1F
100
AcDbEntity
  8
0
  6
AUSGEZOGEN
 62
     9
370
    25
100
AcDbPolyline
 90
        9
 70
     0
 43
0.0
 10
919.901482023534
 20
348.237338412774
 10
919.900783703334
 20
348.237404061374
 10
919.900085382334
 20
348.237469700174
 10
919.899387060334
 20
348.237535328574
 10
919.898688737335
 20
348.237600946974
 10
919.897990413334
 20
348.237666555174
 10
919.897292088535
 20
348.237732153174
 10
919.896593762734
 20
348.237797741174
 10
919.895895435934
 20
348.237863318974
  0
LWPOLYLINE
  5
1FB
330
1F
100
AcDbEntity
  8
0
  6
AUSGEZOGEN
 62
     9
370
    25
100
AcDbPolyline
 90
        9
 70
     0
 43
0.0
 10
910.854218448534
 20
348.237863318974
 10
910.853520121735
 20
348.237797741174
 10
910.852821795934
 20
348.237732153174
 10
910.852123470934
 20
348.237666555174
 10
910.851425147134
 20
348.237600946974
 10
910.850726824134
 20
348.237535328574
 10
910.850028502134
 20
348.237469700174
 10
910.849330180934
 20
348.237404061374
 10
910.848631860934
 20
348.237338412774
  0
ARC
  5
1FC
330
1F
100
AcDbEntity
  8
0
  6
AUSGEZOGEN
 62
     9
370
    25
100
AcDbCircle
 10
919.837932543535
 20
347.620578698174
 30
0.0
 40
0.6200000000001182
100
AcDbArc
 50
84.635667874
 51
90.0
  0
LINE
  5
1FD
330
1F
100
AcDbEntity
  8
0
  6
AUSGEZOGEN
 62
     9
370
    25
100
AcDbLine
 10
919.837932543535
 20
348.240578698174
 30
0.0
 11
918.394308638534
 21
348.240578698174
 31
0.0
  0
ARC
  5
1FE
330
1F
100
AcDbEntity
  8
0
  6
AUSGEZOGEN
 62
     9
370
    25
100
AcDbCircle
 10
910.912181340734
 20
347.620578698174
 30
0.0
 40
0.6200000000001182
100
AcDbArc
 50
90.0
 51
95.364332126
  0
LINE
  5
1FF
330
1F
100
AcDbEntity
  8
0
  6
AUSGEZOGEN
 62
     9
370
    25
100
AcDbLine
 10
912.358396735334
 20
348.240578698174
 30
0.0
 11
910.912181340734
 21
348.240578698174
 31
0.0
  0
ARC
  5
200
330
1F
100
AcDbEntity
  8
0
  6
AUSGEZOGEN
 62
     9
370
    25
100
AcDbCircle
 10
915.375056942134
 20
289.652529202974
 30
0.0
 40
1.000000000000009
100
AcDbArc
 50
210.8014459761
 51
329.1985540239
  0
LINE
  5
201
330
1F
100
AcDbEntity
  8
0
  6
AUSGEZOGEN
 62
     9
370
    25
100
AcDbLine
 10
944.875056942134
 20
337.699650381374
 30
0.0
 11
885.875056942134
 21
337.699650381374
 31
0.0
  0
LINE
  5
202
330
1F
100
AcDbEntity
  8
0
  6
AUSGEZOGEN
 62
     9
370
    25
100
AcDbLine
 10
893.375056942134
 20
342.874480291574
 30
0.0
 11
937.375056942134
 21
342.874480291574
 31
0.0
  0
LINE
  5
203
330
1F
100
AcDbEntity
  8
0
  6
AUSGEZOGEN
 62
     9
370
    25
100
AcDbLine
 10
897.875056942134
 20
344.903747117374
 30
0.0
 11
932.875056942134
 21
344.903747117374
 31
0.0
  0
LINE
  5
204
330
1F
100
AcDbEntity
  8
0
  6
AUSGEZOGEN
 62
     9
370
    25
100
AcDbLine
 10
902.375056942134
 20
346.409860577574
 30
0.0
 11
928.375056942134
 21
346.409860577574
 31
0.0
  0
LWPOLYLINE
  5
205
330
1F
100
AcDbEntity
  8
0
  6
AUSGEZOGEN
 62
     9
370
    25
100
AcDbPolyline
 90
       25
 70
     0
 43
0.0
 10
918.274514061534
 20
347.350281423022
 10
918.20216452783
 20
347.311889519777
 10
918.111579238389
 20
347.274800787331
 10
918.002742695234
 20
347.239019307561
 10
917.87563940039
 20
347.204549162346
 10
917.731792354061
 20
347.171798896799
 10
917.572896433088
 20
347.141211132731
 10
917.399193954445
 20
347.112841067068
 10
917.210927235105
 20
347.086743896735
 10
916.797882590395
 20
347.042450871828
 10
916.347772713071
 20
347.009954606732
 10
915.868346366074
 20
346.989923394342
 10
915.377836913274
 20
346.983175186719
 10
914.884432726167
 20
346.989850177785
 10
914.407406213173
 20
347.009668668673
 10
913.954408805451
 20
347.042257425227
 10
913.542978715674
 20
347.086260812916
 10
913.353956813393
 20
347.112416666612
 10
913.179165784196
 20
347.140910430694
 10
913.020226265735
 20
347.171424273699
 10
912.876749177034
 20
347.203985454836
 10
912.749215671727
 20
347.238534028769
 10
912.639354809423
 20
347.274607814273
 10
912.548191676993
 20
347.311842657324
 10
912.475599822855
 20
347.350281423022
  0
LINE
  5
206
330
1F
100
AcDbEntity
  8
0
  6
AUSGEZOGEN
 62
     9
370
    25
100
AcDbLine
 10
918.274514061534
 20
347.350281422974
 30
0.0
 11
924.375056942134
 21
347.350281422974
 31
0.0
  0
LINE
  5
207
330
1F
100
AcDbEntity
  8
0
  6
AUSGEZOGEN
 62
     9
370
    25
100
AcDbLine
 10
906.375056942134
 20
347.350281422974
 30
0.0
 11
912.475599822934
 21
347.350281422974
 31
0.0
  0
LWPOLYLINE
  5
208
330
1F
100
AcDbEntity
  8
0
  6
AUSGEZOGEN
 62
     9
370
    25
100
AcDbPolyline
 90
        4
 70
     0
 43
0.0
 10
918.373275605958
 20
347.697313667607
 10
918.372704982429
 20
347.699977307134
 10
918.3653529107
 20
347.690958000992
 10
918.365004407773
 20
347.690273087231
  0
LWPOLYLINE
  5
209
330
1F
100
AcDbEntity
  8
0
  6
AUSGEZOGEN
 62
     9
370
    25
100
AcDbPolyline
 90
        2
 70
     0
 43
0.0
 10
918.365004407773
 20
347.690273087231
 10
918.363408666445
 20
347.687224287932
  0
LWPOLYLINE
  5
20A
330
1F
100
AcDbEntity
  8
0
  6
AUSGEZOGEN
 62
     9
370
    25
100
AcDbPolyline
 90
        5
 70
     0
 43
0.0
 10
918.363408666445
 20
347.687224287932
 10
918.345996853711
 20
347.645966178717
 10
918.323214066088
 20
347.574812803014
 10
918.297929238226
 20
347.475690836352
 10
918.274514061534
 20
347.350281423024
  0
LWPOLYLINE
  5
20B
330
1F
100
AcDbEntity
  8
0
  6
AUSGEZOGEN
 62
     9
370
    25
100
AcDbPolyline
 90
        5
 70
     0
 43
0.0
 10
912.475599822855
 20
347.350281423022
 10
912.452562330371
 20
347.475709367914
 10
912.427648771189
 20
347.574920822569
 10
912.404487086612
 20
347.646048293678
 10
912.386705217944
 20
347.687224287932
  0
LWPOLYLINE
  5
20C
330
1F
100
AcDbEntity
  8
0
  6
AUSGEZOGEN
 62
     9
370
    25
100
AcDbPolyline
 90
        2
 70
     0
 43
0.0
 10
912.386705217944
 20
347.687224287932
 10
912.385109476616
 20
347.690273087231
  0
LWPOLYLINE
  5
20D
330
1F
100
AcDbEntity
  8
0
  6
AUSGEZOGEN
 62
     9
370
    25
100
AcDbPolyline
 90
        3
 70
     0
 43
0.0
 10
912.385109476616
 20
347.690273087231
 10
912.378368582412
 20
347.699849639567
 10
912.377180197298
 20
347.695955693621
  0
LINE
  5
20E
330
1F
100
AcDbEntity
  8
0
  6
AUSGEZOGEN
 62
     9
370
    25
100
AcDbLine
 10
915.375056942134
 20
300.699650381374
 30
0.0
 11
923.125056942134
 21
300.699650381374
 31
0.0
  0
LINE
  5
20F
330
1F
100
AcDbEntity
  8
0
  6
AUSGEZOGEN
 62
     9
370
    25
100
AcDbLine
 10
907.625056942134
 20
300.699650381374
 30
0.0
 11
915.375056942134
 21
300.699650381374
 31
0.0
  0
LINE
  5
210
330
1F
100
AcDbEntity
  8
0
  6
AUSGEZOGEN
 62
     9
370
    25
100
AcDbLine
 10
918.375056942134
 20
347.939108175374
 30
0.0
 11
920.375056942134
 21
347.939108175374
 31
0.0
  0
LINE
  5
211
330
1F
100
AcDbEntity
  8
0
  6
AUSGEZOGEN
 62
     9
370
    25
100
AcDbLine
 10
918.375056942134
 20
347.939108175374
 30
0.0
 11
918.375056942134
 21
347.714970744574
 31
0.0
  0
LINE
  5
212
330
1F
100
AcDbEntity
  8
0
  6
AUSGEZOGEN
 62
     9
370
    25
100
AcDbLine
 10
910.375056942134
 20
347.939108175374
 30
0.0
 11
912.375056942134
 21
347.939108175374
 31
0.0
  0
LINE
  5
213
330
1F
100
AcDbEntity
  8
0
  6
AUSGEZOGEN
 62
     9
370
    25
100
AcDbLine
 10
912.375056942134
 20
347.718236830174
 30
0.0
 11
912.375056942134
 21
347.939108175374
 31
0.0
  0
LINE
  5
214
330
1F
100
AcDbEntity
  8
0
  6
AUSGEZOGEN
 62
     9
370
    25
100
AcDbLine
 10
912.375056942195
 20
347.939108175366
 30
0.0
 11
912.375056942195
 21
348.237338412718
 31
0.0
  0
LINE
  5
215
330
1F
100
AcDbEntity
  8
0
  6
AUSGEZOGEN
 62
     9
370
    25
100
AcDbLine
 10
918.375056942195
 20
348.237338412718
 30
0.0
 11
918.375056942195
 21
347.939108175369
 31
0.0
  0
LINE
  5
216
330
1F
100
AcDbEntity
  8
0
  6
AUSGEZOGEN
 62
     9
370
    25
100
AcDbLine
 10
918.375056942134
 20
348.237863318974
 30
0.0
 11
918.375056942134
 21
348.237338412774
 31
0.0
  0
LINE
  5
217
330
1F
100
AcDbEntity
  8
0
  6
AUSGEZOGEN
 62
     9
370
    25
100
AcDbLine
 10
912.375056942134
 20
348.237338412774
 30
0.0
 11
912.375056942134
 21
348.237863318974
 31
0.0
  0
LINE
  5
218
330
1F
100
AcDbEntity
  8
0
  6
AUSGEZOGEN
 62
     9
370
    25
100
AcDbLine
 10
887.627913640334
 20
339.391276365774
 30
0.0
 11
943.122200243934
 21
339.391276365774
 31
0.0
  0
LINE
  5
219
330
1F
100
AcDbEntity
  8
0
  6
AUSGEZOGEN
 62
     9
370
    25
100
AcDbLine
 10
893.708357931934
 20
343.324063352174
 30
0.0
 11
937.041755952334
 21
343.324063352174
 31
0.0
  0
LINE
  5
21A
330
1F
100
AcDbEntity
  8
0
  6
AUSGEZOGEN
 62
     9
370
    25
100
AcDbLine
 10
936.934702049134
 20
343.377550762774
 30
0.0
 11
893.815411835334
 21
343.377550762774
 31
0.0
  0
LINE
  5
21B
330
1F
100
AcDbEntity
  8
0
  6
AUSGEZOGEN
 62
     9
370
    25
100
AcDbLine
 10
898.252675242534
 20
345.316807521374
 30
0.0
 11
932.497438641934
 21
345.316807521374
 31
0.0
  0
LINE
  5
21C
330
1F
100
AcDbEntity
  8
0
  6
AUSGEZOGEN
 62
     9
370
    25
100
AcDbLine
 10
932.431464688734
 20
345.341730943774
 30
0.0
 11
898.318649195534
 21
345.341730943774
 31
0.0
  0
LINE
  5
21D
330
1F
100
AcDbEntity
  8
0
  6
AUSGEZOGEN
 62
     9
370
    25
100
AcDbLine
 10
902.791533354934
 20
346.783707973774
 30
0.0
 11
927.958580529334
 21
346.783707973774
 31
0.0
  0
LINE
  5
21E
330
1F
100
AcDbEntity
  8
0
  6
AUSGEZOGEN
 62
     9
370
    25
100
AcDbLine
 10
927.922905590734
 20
346.793307941174
 30
0.0
 11
902.827208293534
 21
346.793307941174
 31
0.0
  0
LINE
  5
21F
330
1F
100
AcDbEntity
  8
0
  6
AUSGEZOGEN
 62
     9
370
    25
100
AcDbLine
 10
921.258361879934
 20
334.821172181174
 30
0.0
 11
909.491752004334
 21
334.821172181174
 31
0.0
  0
LINE
  5
220
330
1F
100
AcDbEntity
  8
0
  6
AUSGEZOGEN
 62
     9
370
    25
100
AcDbLine
 10
906.821917081334
 20
347.687224287974
 30
0.0
 11
912.386705217934
 21
347.687224287974
 31
0.0
  0
LINE
  5
221
330
1F
100
AcDbEntity
  8
0
  6
AUSGEZOGEN
 62
     9
370
    25
100
AcDbLine
 10
918.363408666534
 20
347.687224287974
 30
0.0
 11
923.928196803134
 21
347.687224287974
 31
0.0
  0
LINE
  5
222
330
1F
100
AcDbEntity
  8
0
  6
AUSGEZOGEN
 62
     9
370
    25
100
AcDbLine
 10
923.911214081534
 20
347.690273087174
 30
0.0
 11
918.365004407734
 21
347.690273087174
 31
0.0
  0
LINE
  5
223
330
1F
100
AcDbEntity
  8
0
  6
AUSGEZOGEN
 62
     9
370
    25
100
AcDbLine
 10
912.385109476534
 20
347.690273087174
 30
0.0
 11
906.838899802934
 21
347.690273087174
 31
0.0
  0
LINE
  5
224
330
1F
100
AcDbEntity
  8
0
  6
AUSGEZOGEN
 62
     9
370
    25
100
AcDbLine
 10
910.680038773735
 20
305.510098534374
 30
0.0
 11
920.070075110535
 21
305.510098534374
 31
0.0
  0
LINE
  5
225
330
1F
100
AcDbEntity
  8
0
  6
AUSGEZOGEN
 62
     9
370
    25
100
AcDbLine
 10
916.234003916334
 20
289.140464660574
 30
0.0
 11
914.516109967934
 21
289.140464660574
 31
0.0
  0
LINE
  5
226
330
1F
100
AcDbEntity
  8
0
  6
AUSGEZOGEN
 62
     9
370
    25
100
AcDbLine
 10
910.848631860934
 20
348.237338412774
 30
0.0
 11
912.375056942134
 21
348.237338412774
 31
0.0
  0
LINE
  5
227
330
1F
100
AcDbEntity
  8
0
  6
AUSGEZOGEN
 62
     9
370
    25
100
AcDbLine
 10
918.375056942134
 20
348.237338412774
 30
0.0
 11
919.901482023534
 21
348.237338412774
 31
0.0
  0
LINE
  5
228
330
1F
100
AcDbEntity
  8
0
  6
AUSGEZOGEN
 62
     9
370
    25
100
AcDbLine
 10
919.895895435934
 20
348.237863318974
 30
0.0
 11
918.375056942134
 21
348.237863318974
 31
0.0
  0
LINE
  5
229
330
1F
100
AcDbEntity
  8
0
  6
AUSGEZOGEN
 62
     9
370
    25
100
AcDbLine
 10
912.375056942134
 20
348.237863318974
 30
0.0
 11
910.854218448534
 21
348.237863318974
 31
0.0
  0
CIRCLE
  5
22A
330
1F
100
AcDbEntity
  8
0
  6
AUSGEZOGEN
 62
     9
370
    18
100
AcDbCircle
 10
915.375056942134
 20
241.287260322374
 30
0.0
 40
30.0
  0
ARC
  5
22B
330
1F
100
AcDbEntity
  8
0
  6
AUSGEZOGEN
 62
     9
370
    25
100
AcDbCircle
 10
915.375056942134
 20
241.287260322374
 30
0.0
 40
4.520838493730808
100
AcDbArc
 50
131.5745290965
 51
228.4254709035
  0
ARC
  5
22C
330
1F
100
AcDbEntity
  8
0
  6
AUSGEZOGEN
 62
     9
370
    25
100
AcDbCircle
 10
915.375056942134
 20
241.287260322374
 30
0.0
 40
4.000000000000016
100
AcDbArc
 50
138.5903778907
 51
221.4096221093
  0
LINE
  5
22D
330
1F
100
AcDbEntity
  8
0
  6
AUSGEZOGEN
 62
     9
370
    25
100
AcDbLine
 10
912.375056942195
 20
237.905251941868
 30
0.0
 11
912.375056942195
 21
238.641509011396
 31
0.0
  0
LINE
  5
22E
330
1F
100
AcDbEntity
  8
0
  6
AUSGEZOGEN
 62
     9
370
    25
100
AcDbLine
 10
912.375056942195
 20
243.933011633525
 30
0.0
 11
912.375056942195
 21
244.669268703053
 31
0.0
  0
ARC
  5
22F
330
1F
100
AcDbEntity
  8
0
  6
AUSGEZOGEN
 62
     9
370
    25
100
AcDbCircle
 10
915.375056942134
 20
241.287260322374
 30
0.0
 40
4.000000000000006
100
AcDbArc
 50
318.5903778907
 51
41.4096221093
  0
ARC
  5
230
330
1F
100
AcDbEntity
  8
0
  6
AUSGEZOGEN
 62
     9
370
    25
100
AcDbCircle
 10
915.375056942134
 20
241.287260322374
 30
0.0
 40
4.520838493730714
100
AcDbArc
 50
311.5745290965
 51
48.4254709035
  0
LINE
  5
231
330
1F
100
AcDbEntity
  8
0
  6
AUSGEZOGEN
 62
     9
370
    25
100
AcDbLine
 10
918.375056942195
 20
244.669268703052
 30
0.0
 11
918.375056942195
 21
243.933011633525
 31
0.0
  0
LINE
  5
232
330
1F
100
AcDbEntity
  8
0
  6
AUSGEZOGEN
 62
     9
370
    25
100
AcDbLine
 10
918.375056942195
 20
238.641509011396
 30
0.0
 11
918.375056942195
 21
237.905251941868
 31
0.0
  0
ARC
  5
233
330
1F
100
AcDbEntity
  8
0
  6
AUSGEZOGEN
 62
     9
370
    25
100
AcDbCircle
 10
915.375056942134
 20
241.287260322374
 30
0.0
 40
4.5264250812989
100
AcDbArc
 50
131.511831652
 51
228.488168348
  0
LINE
  5
234
330
1F
100
AcDbEntity
  8
0
  6
AUSGEZOGEN
 62
     9
370
    25
100
AcDbLine
 10
912.375056942134
 20
237.897787794774
 30
0.0
 11
912.375056942134
 21
237.905251941774
 31
0.0
  0
LINE
  5
235
330
1F
100
AcDbEntity
  8
0
  6
AUSGEZOGEN
 62
     9
370
    25
100
AcDbLine
 10
912.375056942134
 20
244.669268702974
 30
0.0
 11
912.375056942134
 21
244.676732850174
 31
0.0
  0
ARC
  5
236
330
1F
100
AcDbEntity
  8
0
  6
AUSGEZOGEN
 62
     9
370
    25
100
AcDbCircle
 10
915.375056942134
 20
241.287260322374
 30
0.0
 40
4.52642508129889
100
AcDbArc
 50
311.511831652
 51
48.488168348
  0
LINE
  5
237
330
1F
100
AcDbEntity
  8
0
  6
AUSGEZOGEN
 62
     9
370
    25
100
AcDbLine
 10
918.375056942134
 20
244.676732850174
 30
0.0
 11
918.375056942134
 21
244.669268702974
 31
0.0
  0
LINE
  5
238
330
1F
100
AcDbEntity
  8
0
  6
AUSGEZOGEN
 62
     9
370
    25
100
AcDbLine
 10
918.375056942134
 20
237.905251941774
 30
0.0
 11
918.375056942134
 21
237.897787794774
 31
0.0
  0
ARC
  5
239
330
1F
100
AcDbEntity
  8
0
  6
AUSGEZOGEN
 62
     9
370
    25
100
AcDbCircle
 10
915.375056942134
 20
241.287260322374
 30
0.0
 40
5.000000000000282
100
AcDbArc
 50
126.8698976458
 51
233.1301023542
  0
LINE
  5
23A
330
1F
100
AcDbEntity
  8
0
  6
AUSGEZOGEN
 62
     9
370
    25
100
AcDbLine
 10
912.375056942195
 20
237.287260322461
 30
0.0
 11
912.375056942195
 21
237.897787794675
 31
0.0
  0
LINE
  5
23B
330
1F
100
AcDbEntity
  8
0
  6
AUSGEZOGEN
 62
     9
370
    25
100
AcDbLine
 10
912.375056942195
 20
244.676732850246
 30
0.0
 11
912.375056942195
 21
245.28726032246
 31
0.0
  0
ARC
  5
23C
330
1F
100
AcDbEntity
  8
0
  6
AUSGEZOGEN
 62
     9
370
    25
100
AcDbCircle
 10
915.375056942134
 20
241.287260322374
 30
0.0
 40
5.0
100
AcDbArc
 50
306.8698976458
 51
53.1301023542
  0
LINE
  5
23D
330
1F
100
AcDbEntity
  8
0
  6
AUSGEZOGEN
 62
     9
370
    25
100
AcDbLine
 10
918.375056942195
 20
245.28726032246
 30
0.0
 11
918.375056942195
 21
244.676732850246
 31
0.0
  0
LINE
  5
23E
330
1F
100
AcDbEntity
  8
0
  6
AUSGEZOGEN
 62
     9
370
    25
100
AcDbLine
 10
918.375056942195
 20
237.897787794675
 30
0.0
 11
918.375056942195
 21
237.287260322463
 31
0.0
  0
LINE
  5
23F
330
1F
100
AcDbEntity
  8
0
  6
AUSGEZOGEN
 62
     9
370
    25
100
AcDbLine
 10
918.375056942134
 20
243.933011633574
 30
0.0
 11
918.375056942134
 21
238.641509011374
 31
0.0
  0
LINE
  5
240
330
1F
100
AcDbEntity
  8
0
  6
AUSGEZOGEN
 62
     9
370
    25
100
AcDbLine
 10
912.375056942134
 20
238.641509011374
 30
0.0
 11
912.375056942134
 21
243.933011633574
 31
0.0
  0
ARC
  5
241
330
1F
100
AcDbEntity
  8
0
  6
AUSGEZOGEN
 62
     9
370
    25
100
AcDbCircle
 10
915.375056942134
 20
241.287260322374
 30
0.0
 40
8.000000000000037
100
AcDbArc
 50
112.024312837
 51
247.975687163
  0
LINE
  5
242
330
1F
100
AcDbEntity
  8
0
  6
AUSGEZOGEN
 62
     9
370
    25
100
AcDbLine
 10
912.375056942134
 20
233.871061835374
 30
0.0
 11
912.375056942134
 21
237.287260322374
 31
0.0
  0
LINE
  5
243
330
1F
100
AcDbEntity
  8
0
  6
AUSGEZOGEN
 62
     9
370
    25
100
AcDbLine
 10
912.375056942134
 20
245.287260322374
 30
0.0
 11
912.375056942134
 21
248.703458809574
 31
0.0
  0
ARC
  5
244
330
1F
100
AcDbEntity
  8
0
  6
AUSGEZOGEN
 62
     9
370
    25
100
AcDbCircle
 10
915.375056942134
 20
241.287260322374
 30
0.0
 40
8.000000000000032
100
AcDbArc
 50
292.024312837
 51
67.975687163
  0
LINE
  5
245
330
1F
100
AcDbEntity
  8
0
  6
AUSGEZOGEN
 62
     9
370
    25
100
AcDbLine
 10
918.375056942134
 20
248.703458809574
 30
0.0
 11
918.375056942134
 21
245.287260322374
 31
0.0
  0
LINE
  5
246
330
1F
100
AcDbEntity
  8
0
  6
AUSGEZOGEN
 62
     9
370
    25
100
AcDbLine
 10
918.375056942134
 20
237.287260322374
 30
0.0
 11
918.375056942134
 21
233.871061835374
 31
0.0
  0
ARC
  5
247
330
1F
100
AcDbEntity
  8
0
  6
AUSGEZOGEN
 62
     9
370
    25
100
AcDbCircle
 10
915.375056942134
 20
241.287260322374
 30
0.0
 40
8.536157139333834
100
AcDbArc
 50
290.5037422939
 51
69.4962577061
  0
LWPOLYLINE
  5
248
330
1F
100
AcDbEntity
  8
0
  6
AUSGEZOGEN
 62
     9
370
    25
100
AcDbPolyline
 90
        3
 70
     0
 43
0.0
 10
918.375056942195
 20
233.53726032246
 10
918.372542495315
 20
233.414492795764
 10
918.365004407773
 20
233.291874599402
  0
LWPOLYLINE
  5
249
330
1F
100
AcDbEntity
  8
0
  6
AUSGEZOGEN
 62
     9
370
    25
100
AcDbPolyline
 90
        3
 70
     0
 43
0.0
 10
918.365004407773
 20
249.282646045518
 10
918.372500359082
 20
249.160416439979
 10
918.375056942196
 20
249.03726032246
  0
LINE
  5
24A
330
1F
100
AcDbEntity
  8
0
  6
AUSGEZOGEN
 62
     9
370
    25
100
AcDbLine
 10
918.375056942195
 20
249.03726032246
 30
0.0
 11
918.375056942195
 21
248.703458809556
 31
0.0
  0
LINE
  5
24B
330
1F
100
AcDbEntity
  8
0
  6
AUSGEZOGEN
 62
     9
370
    25
100
AcDbLine
 10
918.375056942195
 20
233.871061835365
 30
0.0
 11
918.375056942195
 21
233.53726032246
 31
0.0
  0
ARC
  5
24C
330
1F
100
AcDbEntity
  8
0
  6
AUSGEZOGEN
 62
     9
370
    25
100
AcDbCircle
 10
915.375056942134
 20
241.287260322374
 30
0.0
 40
8.53615713933384
100
AcDbArc
 50
110.5037422939
 51
249.4962577061
  0
LWPOLYLINE
  5
24D
330
1F
100
AcDbEntity
  8
0
  6
AUSGEZOGEN
 62
     9
370
    25
100
AcDbPolyline
 90
        3
 70
     0
 43
0.0
 10
912.385109476616
 20
233.291874599402
 10
912.377613525308
 20
233.414104204941
 10
912.375056942194
 20
233.537260322461
  0
LWPOLYLINE
  5
24E
330
1F
100
AcDbEntity
  8
0
  6
AUSGEZOGEN
 62
     9
370
    25
100
AcDbPolyline
 90
        3
 70
     0
 43
0.0
 10
912.375056942195
 20
249.03726032246
 10
912.377571389075
 20
249.160027849157
 10
912.385109476616
 20
249.282646045518
  0
LINE
  5
24F
330
1F
100
AcDbEntity
  8
0
  6
AUSGEZOGEN
 62
     9
370
    25
100
AcDbLine
 10
912.375056942195
 20
248.703458809556
 30
0.0
 11
912.375056942195
 21
249.03726032246
 31
0.0
  0
LINE
  5
250
330
1F
100
AcDbEntity
  8
0
  6
AUSGEZOGEN
 62
     9
370
    25
100
AcDbLine
 10
912.375056942195
 20
233.53726032246
 30
0.0
 11
912.375056942195
 21
233.871061835365
 31
0.0
  0
ARC
  5
251
330
1F
100
AcDbEntity
  8
0
  6
AUSGEZOGEN
 62
     9
370
    25
100
AcDbCircle
 10
915.375056942134
 20
241.287260322374
 30
0.0
 40
8.553139860940323
100
AcDbArc
 50
110.4497962005
 51
249.5502037995
  0
LWPOLYLINE
  5
252
330
1F
100
AcDbEntity
  8
0
  6
AUSGEZOGEN
 62
     9
370
    25
100
AcDbPolyline
 90
        2
 70
     0
 43
0.0
 10
912.386705217944
 20
233.273150549505
 10
912.385109476616
 20
233.291874599402
  0
LWPOLYLINE
  5
253
330
1F
100
AcDbEntity
  8
0
  6
AUSGEZOGEN
 62
     9
370
    25
100
AcDbPolyline
 90
        2
 70
     0
 43
0.0
 10
912.385109476616
 20
249.282646045518
 10
912.386705217944
 20
249.301370095416
  0
ARC
  5
254
330
1F
100
AcDbEntity
  8
0
  6
AUSGEZOGEN
 62
     9
370
    25
100
AcDbCircle
 10
915.375056942134
 20
241.287260322374
 30
0.0
 40
8.553139860940318
100
AcDbArc
 50
290.4497962005
 51
69.5502037995
  0
LWPOLYLINE
  5
255
330
1F
100
AcDbEntity
  8
0
  6
AUSGEZOGEN
 62
     9
370
    25
100
AcDbPolyline
 90
        2
 70
     0
 43
0.0
 10
918.365004407773
 20
233.291874599402
 10
918.363408666445
 20
233.273150549505
  0
LWPOLYLINE
  5
256
330
1F
100
AcDbEntity
  8
0
  6
AUSGEZOGEN
 62
     9
370
    25
100
AcDbPolyline
 90
        2
 70
     0
 43
0.0
 10
918.363408666445
 20
249.301370095416
 10
918.365004407773
 20
249.282646045518
  0
ARC
  5
257
330
1F
100
AcDbEntity
  8
0
  6
AUSGEZOGEN
 62
     9
370
    25
100
AcDbCircle
 10
915.375056942134
 20
241.287260322374
 30
0.0
 40
8.999999999999984
100
AcDbArc
 50
108.7937180593
 51
251.2062819407
  0
LWPOLYLINE
  5
258
330
1F
100
AcDbEntity
  8
0
  6
AUSGEZOGEN
 62
     9
370
    25
100
AcDbPolyline
 90
        4
 70
     0
 43
0.0
 10
912.475599822855
 20
232.767099032138
 10
912.427648771189
 20
232.980908023536
 10
912.404487086612
 20
233.120468898468
 10
912.386705217944
 20
233.273150549505
  0
LWPOLYLINE
  5
259
330
1F
100
AcDbEntity
  8
0
  6
AUSGEZOGEN
 62
     9
370
    25
100
AcDbPolyline
 90
        4
 70
     0
 43
0.0
 10
912.386705217944
 20
249.301370095416
 10
912.404117030679
 20
249.45357650406
 10
912.426899818302
 20
249.592570661676
 10
912.475599822856
 20
249.807421612787
  0
ARC
  5
25A
330
1F
100
AcDbEntity
  8
0
  6
AUSGEZOGEN
 62
     9
370
    25
100
AcDbCircle
 10
915.375056942134
 20
241.287260322374
 30
0.0
 40
8.999999999999984
100
AcDbArc
 50
288.7937180593
 51
71.2062819407
  0
LWPOLYLINE
  5
25B
330
1F
100
AcDbEntity
  8
0
  6
AUSGEZOGEN
 62
     9
370
    25
100
AcDbPolyline
 90
        4
 70
     0
 43
0.0
 10
918.363408666445
 20
233.273150549505
 10
918.345996853711
 20
233.120944140861
 10
918.323214066088
 20
232.981949983245
 10
918.274514061534
 20
232.767099032134
  0
LWPOLYLINE
  5
25C
330
1F
100
AcDbEntity
  8
0
  6
AUSGEZOGEN
 62
     9
370
    25
100
AcDbPolyline
 90
        4
 70
     0
 43
0.0
 10
918.274514061534
 20
249.807421612783
 10
918.322465113201
 20
249.593612621385
 10
918.345626797777
 20
249.454051746452
 10
918.363408666445
 20
249.301370095416
  0
CIRCLE
  5
25D
330
1F
100
AcDbEntity
  8
0
  6
AUSGEZOGEN
 62
     9
370
    25
100
AcDbCircle
 10
915.375056942134
 20
241.287260322374
 30
0.0
 40
12.0
  0
LWPOLYLINE
  5
25E
330
1F
100
AcDbEntity
  8
0
  6
AUSGEZOGEN
 62
     9
370
    25
100
AcDbPolyline
 90
       65
 70
     0
 43
0.0
 10
918.274514061534
 20
232.767099032138
 10
918.240617795526
 20
232.649078747904
 10
918.20216452783
 20
232.533088630924
 10
918.1591523212
 20
232.419129483154
 10
918.111579238389
 20
232.307202106554
 10
918.059443342149
 20
232.19730730308
 10
918.002742695234
 20
232.08944587469
 10
917.941475360397
 20
231.983618623343
 10
917.87563940039
 20
231.879826350995
 10
917.805612131367
 20
231.778677845129
 10
917.731792354061
 20
231.680807178443
 10
917.654210358094
 20
231.586253080713
 10
917.572896433088
 20
231.495054281716
 10
917.487880868664
 20
231.407249511232
 10
917.399193954445
 20
231.322877499036
 10
917.306865980051
 20
231.241976974908
 10
917.210927235105
 20
231.164586668624
 10
917.111653909671
 20
231.091006664485
 10
917.009512013903
 20
231.02162425743
 10
916.904816567559
 20
230.956608993194
 10
916.797882590395
 20
230.89613041751
 10
916.688798152922
 20
230.840198575174
 10
916.577429836677
 20
230.788732878825
 10
916.463760427961
 20
230.741766925958
 10
916.347772713071
 20
230.699334314072
 10
916.22971511383
 20
230.661596048686
 10
916.110152858721
 20
230.628750319333
 10
915.989543944038
 20
230.600886499525
 10
915.868346366074
 20
230.578093962776
 10
915.746686882643
 20
230.560357693466
 10
915.624384533361
 20
230.54762165264
 10
915.501435737237
 20
230.539913678813
 10
915.377836913274
 20
230.5372616105
 10
915.253799749284
 20
230.539734002319
 10
915.129879158587
 20
230.547335266297
 10
915.006586398457
 20
230.55999702707
 10
914.884432726167
 20
230.57765090927
 10
914.763556223204
 20
230.600233840512
 10
914.643756884797
 20
230.627740939785
 10
914.525038838827
 20
230.660191118779
 10
914.407406213173
 20
230.697603289186
 10
914.291039272923
 20
230.7399818791
 10
914.176433128064
 20
230.787159660625
 10
914.064064173829
 20
230.838898061472
 10
913.954408805451
 20
230.89495850935
 10
913.847586221922
 20
230.955228165634
 10
913.743402518932
 20
231.01976055081
 10
913.641864436758
 20
231.088566631251
 10
913.542978715674
 20
231.161657373332
 10
913.44688067126
 20
231.239001717318
 10
913.353956813393
 20
231.320303239103
 10
913.264590673797
 20
231.405174858504
 10
913.179165784196
 20
231.493229495338
 10
913.097766575987
 20
231.584312699819
 10
913.020226265735
 20
231.678531764577
 10
912.946551562923
 20
231.775892223053
 10
912.876749177034
 20
231.876399608692
 10
912.810893689932
 20
231.980040278406
 10
912.749215671727
 20
232.086494372797
 10
912.691955814273
 20
232.195308100841
 10
912.639354809423
 20
232.306027671517
 10
912.591464222619
 20
232.418480510317
 10
912.548191676993
 20
232.532803293383
 10
912.509561950941
 20
232.649006105671
 10
912.475599822855
 20
232.767099032138
  0
LWPOLYLINE
  5
25F
330
1F
100
AcDbEntity
  8
0
  6
AUSGEZOGEN
 62
     9
370
    25
100
AcDbPolyline
 90
       65
 70
     0
 43
0.0
 10
912.475599822855
 20
249.807421612783
 10
912.509496088864
 20
249.925441897017
 10
912.54794935656
 20
250.041432013997
 10
912.59096156319
 20
250.155391161767
 10
912.638534646001
 20
250.267318538367
 10
912.690670542241
 20
250.377213341841
 10
912.747371189156
 20
250.48507477023
 10
912.808638523993
 20
250.590902021578
 10
912.874474484
 20
250.694694293926
 10
912.944501753023
 20
250.795842799791
 10
913.018321530328
 20
250.893713466478
 10
913.095903526295
 20
250.988267564208
 10
913.177217451302
 20
251.079466363204
 10
913.262233015725
 20
251.167271133689
 10
913.350919929945
 20
251.251643145885
 10
913.443247904339
 20
251.332543670013
 10
913.539186649285
 20
251.409933976297
 10
913.638459974719
 20
251.483513980436
 10
913.740601870487
 20
251.552896387491
 10
913.845297316831
 20
251.617911651727
 10
913.952231293995
 20
251.678390227411
 10
914.061315731468
 20
251.734322069747
 10
914.172684047713
 20
251.785787766096
 10
914.286353456429
 20
251.832753718963
 10
914.402341171318
 20
251.875186330849
 10
914.52039877056
 20
251.912924596235
 10
914.639961025669
 20
251.945770325588
 10
914.760569940352
 20
251.973634145396
 10
914.881767518315
 20
251.996426682145
 10
915.003427001747
 20
252.014162951455
 10
915.125729351028
 20
252.026898992281
 10
915.248678147153
 20
252.034606966108
 10
915.372276971116
 20
252.03725903442
 10
915.496314135106
 20
252.034786642602
 10
915.620234725802
 20
252.027185378624
 10
915.743527485932
 20
252.014523617851
 10
915.865681158223
 20
251.996869735651
 10
915.986557661185
 20
251.974286804408
 10
916.106356999592
 20
251.946779705136
 10
916.225075045563
 20
251.914329526142
 10
916.342707671217
 20
251.876917355735
 10
916.459074611467
 20
251.834538765821
 10
916.573680756325
 20
251.787360984295
 10
916.68604971056
 20
251.735622583449
 10
916.795705078939
 20
251.679562135571
 10
916.902527662468
 20
251.619292479287
 10
917.006711365457
 20
251.554760094111
 10
917.108249447631
 20
251.48595401367
 10
917.207135168716
 20
251.412863271589
 10
917.30323321313
 20
251.335518927603
 10
917.396157070997
 20
251.254217405818
 10
917.485523210593
 20
251.169345786417
 10
917.570948100193
 20
251.081291149582
 10
917.652347308403
 20
250.990207945101
 10
917.729887618655
 20
250.895988880344
 10
917.803562321466
 20
250.798628421868
 10
917.873364707355
 20
250.698121036229
 10
917.939220194458
 20
250.594480366515
 10
918.000898212663
 20
250.488026272124
 10
918.058158070117
 20
250.379212544079
 10
918.110759074967
 20
250.268492973403
 10
918.158649661771
 20
250.156040134604
 10
918.201922207396
 20
250.041717351538
 10
918.240551933449
 20
249.92551453925
 10
918.274514061534
 20
249.807421612783
  0
CIRCLE
  5
260
330
1F
100
AcDbEntity
  8
0
  6
AUSGEZOGEN
 62
     9
370
    25
100
AcDbCircle
 10
915.375056942134
 20
241.287260322374
 30
0.0
 40
12.54784864860703
  0
CIRCLE
  5
261
330
1F
100
AcDbEntity
  8
0
  6
AUSGEZOGEN
 62
     9
370
    25
100
AcDbCircle
 10
915.375056942134
 20
241.287260322374
 30
0.0
 40
12.58352358722895
  0
CIRCLE
  5
262
330
1F
100
AcDbEntity
  8
0
  6
AUSGEZOGEN
 62
     9
370
    25
100
AcDbCircle
 10
915.375056942134
 20
241.287260322374
 30
0.0
 40
13.0
  0
CIRCLE
  5
263
330
1F
100
AcDbEntity
  8
0
  6
AUSGEZOGEN
 62
     9
370
    25
100
AcDbCircle
 10
915.375056942134
 20
241.287260322374
 30
0.0
 40
16.5
  0
CIRCLE
  5
264
330
1F
100
AcDbEntity
  8
0
  6
AUSGEZOGEN
 62
     9
370
    25
100
AcDbCircle
 10
915.375056942134
 20
241.287260322374
 30
0.0
 40
17.0564077465758
  0
CIRCLE
  5
265
330
1F
100
AcDbEntity
  8
0
  6
AUSGEZOGEN
 62
     9
370
    25
100
AcDbCircle
 10
915.375056942134
 20
241.287260322374
 30
0.0
 40
17.12238169968785
  0
CIRCLE
  5
266
330
1F
100
AcDbEntity
  8
0
  6
AUSGEZOGEN
 62
     9
370
    25
100
AcDbCircle
 10
915.375056942134
 20
241.287260322374
 30
0.0
 40
17.5
  0
CIRCLE
  5
267
330
1F
100
AcDbEntity
  8
0
  6
AUSGEZOGEN
 62
     9
370
    25
100
AcDbCircle
 10
915.375056942134
 20
241.287260322374
 30
0.0
 40
20.99999999999994
  0
CIRCLE
  5
268
330
1F
100
AcDbEntity
  8
0
  6
AUSGEZOGEN
 62
     9
370
    25
100
AcDbCircle
 10
915.375056942134
 20
241.287260322374
 30
0.0
 40
21.55964510690648
  0
CIRCLE
  5
269
330
1F
100
AcDbEntity
  8
0
  6
AUSGEZOGEN
 62
     9
370
    25
100
AcDbCircle
 10
915.375056942134
 20
241.287260322374
 30
0.0
 40
21.666699010193
  0
CIRCLE
  5
26A
330
1F
100
AcDbEntity
  8
0
  6
AUSGEZOGEN
 62
     9
370
    25
100
AcDbCircle
 10
915.375056942134
 20
241.287260322374
 30
0.0
 40
22.0
  0
CIRCLE
  5
26B
330
1F
100
AcDbEntity
  8
0
  6
AUSGEZOGEN
 62
     9
370
    25
100
AcDbCircle
 10
915.375056942134
 20
241.287260322374
 30
0.0
 40
27.74714330181464
  0
CIRCLE
  5
26C
330
1F
100
AcDbEntity
  8
0
  6
AUSGEZOGEN
 62
     9
370
    25
100
AcDbCircle
 10
915.375056942134
 20
241.287260322374
 30
0.0
 40
29.5
  0
LWPOLYLINE
  5
26D
330
1F
100
AcDbEntity
  8
0
  6
AUSGEZOGEN
 62
   136
370
    18
100
AcDbPolyline
 90
       17
 70
     1
 43
0.0
 10
1015.12744642897
 20
228.365043724443
 10
1016.77698453507
 20
225.328569580543
 10
1016.41503890447
 20
222.153146470943
 10
1014.09049230037
 20
219.267632882043
 10
1010.11728762237
 20
217.061733413343
 10
1005.03202817847
 20
215.833367011443
 10
999.52150643497
 20
215.748431365343
 10
994.32994888827
 20
216.818397504943
 10
990.15850415237
 20
218.898760573943
 10
987.57054895357
 20
221.708556012343
 10
986.91560098207
 20
224.868305376543
 10
988.282114590369
 20
227.951267006143
 10
991.48553454367
 20
230.541069849843
 10
996.09322122647
 20
232.287946682843
 10
1001.48288102017
 20
232.955972109143
 10
1006.92661050457
 20
232.454925593343
 10
1011.68920384797
 20
230.852476243743
  0
LWPOLYLINE
  5
26E
330
1F
100
AcDbEntity
  8
0
  6
AUSGEZOGEN
 62
   136
370
    25
100
AcDbPolyline
 90
       36
 70
     0
 43
0.0
 10
999.77022433273
 20
232.903486919875
 10
999.450765422241
 20
232.875489089325
 10
999.104195030335
 20
232.838063540866
 10
998.759338886125
 20
232.794086521378
 10
998.415398642642
 20
232.745492267454
 10
998.073130634508
 20
232.692218449788
 10
997.73214519819
 20
232.63362158808
 10
997.393279032105
 20
232.569857110313
 10
997.055887874272
 20
232.500921223623
 10
996.720925616758
 20
232.426963808136
 10
996.38768884931
 20
232.347749572176
 10
996.057220726691
 20
232.263488351216
 10
995.728729747464
 20
232.173943377952
 10
995.403331516424
 20
232.079369760201
 10
995.080185724575
 20
231.979467281089
 10
994.760452798384
 20
231.874539116936
 10
994.443274185713
 20
231.764244114496
 10
994.129820989997
 20
231.648925690577
 10
993.819260719529
 20
231.528209946161
 10
993.512731094571
 20
231.402467750338
 10
993.209478882204
 20
231.271316103619
 10
992.910555989627
 20
231.135129641105
 10
992.615352739279
 20
230.993550378866
 10
992.324766227264
 20
230.84692658641
 10
992.038401597968
 20
230.694976217751
 10
991.756947020846
 20
230.537958024469
 10
991.480357647486
 20
230.375759861511
 10
991.208910848527
 20
230.208514201548
 10
990.943002067071
 20
230.036405440902
 10
990.682646591723
 20
229.859124588074
 10
990.428742275787
 20
229.677153640912
 10
990.180084478498
 20
229.490470672111
 10
989.937845010467
 20
229.300148434821
 10
989.819372766452
 20
229.202747830025
 10
989.70316049084
 20
229.10347337883
 10
989.472194700212
 20
228.895759272964
  0
LWPOLYLINE
  5
26F
330
1F
100
AcDbEntity
  8
0
  6
AUSGEZOGEN
 62
   136
370
    25
100
AcDbPolyline
 90
        3
 70
     0
 43
0.0
 10
1004.393868068742
 20
232.866581042718
 10
1004.339819525493
 20
232.873001513617
 10
1004.296816425897
 20
232.876814894027
  0
LWPOLYLINE
  5
270
330
1F
100
AcDbEntity
  8
0
  6
AUSGEZOGEN
 62
   136
370
    25
100
AcDbPolyline
 90
       36
 70
     0
 43
0.0
 10
1014.287085738608
 20
228.902940841358
 10
1014.150406361911
 20
229.025726248763
 10
1014.0119721019
 20
229.147062788508
 10
1013.898725372345
 20
229.242484288075
 10
1013.783505933125
 20
229.336259957282
 10
1013.548283039918
 20
229.519741669411
 10
1013.305764013146
 20
229.70059968928
 10
1013.058221897202
 20
229.876940256002
 10
1012.803350273087
 20
230.049711785816
 10
1012.543209012497
 20
230.217563881674
 10
1012.276515879551
 20
230.381525178416
 10
1012.004865452953
 20
230.540617839983
 10
1011.727288162404
 20
230.695396763456
 10
1011.444938732409
 20
230.845249622124
 10
1011.157346398917
 20
230.990482144936
 10
1010.865226299883
 20
231.130770752671
 10
1010.568570674734
 20
231.266168233143
 10
1010.267641698744
 20
231.396602325547
 10
1009.962804901696
 20
231.521971117422
 10
1009.65396972786
 20
231.642363148524
 10
1009.341739560818
 20
231.757597722723
 10
1009.02579940314
 20
231.867841637826
 10
1008.706918678925
 20
231.972878236736
 10
1008.384629451537
 20
232.07291154218
 10
1008.059801515068
 20
232.167719704776
 10
1007.73187612548
 20
232.257506316283
 10
1007.401767202662
 20
232.34206294564
 10
1007.06888610434
 20
232.421598326712
 10
1006.734146750985
 20
232.495936452824
 10
1006.396950680486
 20
232.565183315647
 10
1006.058168854802
 20
232.629176011647
 10
1005.717319070588
 20
232.688269547164
 10
1005.375224835424
 20
232.742409850884
 10
1005.031209762285
 20
232.790870698826
 10
1004.712966168564
 20
232.830153466025
 10
1004.393868068742
 20
232.866581042718
  0
LWPOLYLINE
  5
271
330
1F
100
AcDbEntity
  8
0
  6
AUSGEZOGEN
 62
   136
370
    25
100
AcDbPolyline
 90
      105
 70
     0
 43
0.0
 10
1012.637182994057
 20
227.749508834404
 10
1012.579225638663
 20
227.899191529816
 10
1012.517314083778
 20
228.048126285738
 10
1012.478856582443
 20
228.132515083474
 10
1012.438051770588
 20
228.216438009287
 10
1012.350310929922
 20
228.382971001169
 10
1012.255167065241
 20
228.548472832415
 10
1012.152945122297
 20
228.712166601317
 10
1012.04294816308
 20
228.874489920743
 10
1011.925676602514
 20
229.034724136019
 10
1011.800899574284
 20
229.193318987063
 10
1011.669103449723
 20
229.349630180205
 10
1011.52996464662
 20
229.503995620198
 10
1011.383964221829
 20
229.655875052799
 10
1011.230872163905
 20
229.805513591385
 10
1011.071127535202
 20
229.952478732023
 10
1010.904566722602
 20
230.096921237339
 10
1010.731574354104
 20
230.238509837686
 10
1010.552070444297
 20
230.37731639875
 10
1010.366378510035
 20
230.513096351955
 10
1010.174496667464
 20
230.645858989742
 10
1009.976689326293
 20
230.77542923709
 10
1009.773025791884
 20
230.901770828241
 10
1009.56371814739
 20
231.024761254783
 10
1009.348903407207
 20
231.144329707357
 10
1009.128743892386
 20
231.260395651071
 10
1008.903429199085
 20
231.372868702049
 10
1008.673085668427
 20
231.481695618836
 10
1008.437937095144
 20
231.586779468914
 10
1008.198090720923
 20
231.688081532328
 10
1007.953795254103
 20
231.78550466856
 10
1007.705147037716
 20
231.879018888545
 10
1007.4524117491
 20
231.968531237993
 10
1007.195681674835
 20
232.054016625417
 10
1006.935232857569
 20
232.135389168972
 10
1006.671159017653
 20
232.212626333742
 10
1006.403741176426
 20
232.285651069368
 10
1006.133078746387
 20
232.35444215021
 10
1005.859453388218
 20
232.418932297206
 10
1005.582973401725
 20
232.479101121563
 10
1005.303917615114
 20
232.53489147291
 10
1005.022405526077
 20
232.586283858437
 10
1004.738710358585
 20
232.633231207034
 10
1004.452964401734
 20
232.675715333386
 10
1004.165433057989
 20
232.71369891574
 10
1003.876262430807
 20
232.747165711978
 10
1003.585708317947
 20
232.776087627849
 10
1003.293931211783
 20
232.800451135016
 10
1003.001175860668
 20
232.820236713311
 10
1002.707617369992
 20
232.835434393006
 10
1002.413488259855
 20
232.846032483184
 10
1002.118978197891
 20
232.852025451617
 10
1001.8243065109
 20
232.853408626458
 10
1001.52967715834
 20
232.850181799876
 10
1001.235295960057
 20
232.842346476651
 10
1000.94138024211
 20
232.829908649854
 10
1000.648125442191
 20
232.812875382266
 10
1000.355757861808
 20
232.791259565033
 10
1000.064457821081
 20
232.765072747017
 10
999.774464100831
 20
232.734335557726
 10
999.485941588281
 20
232.699063087358
 10
999.199140640829
 20
232.659284490849
 10
998.914210592554
 20
232.615017449742
 10
998.631412294591
 20
232.566300376926
 10
998.35087964295
 20
232.513152610683
 10
998.072882685368
 20
232.455622478228
 10
997.797540287786
 20
232.393730087667
 10
997.525130131079
 20
232.327534227707
 10
997.255756828823
 20
232.257054986571
 10
996.989703794937
 20
232.182362002722
 10
996.727062635023
 20
232.103474726023
 10
996.468120169517
 20
232.020473800997
 10
996.212956824849
 20
231.933377699795
 10
995.961859965474
 20
231.84227789256
 10
995.714901388572
 20
231.747191966949
 10
995.472365476352
 20
231.648221554842
 10
995.234318817358
 20
231.545384098018
 10
995.001038482744
 20
231.438790042427
 10
994.772590292993
 20
231.328458354836
 10
994.549238735028
 20
231.214505999106
 10
994.331054443582
 20
231.096956443725
 10
994.118283002963
 20
230.975929585619
 10
993.911006641517
 20
230.851458140789
 10
993.70944458712
 20
230.723659663288
 10
993.51369853823
 20
230.59258316985
 10
993.32395303263
 20
230.458336421275
 10
993.140347647328
 20
230.321002114308
 10
992.963012307773
 20
230.180661096187
 10
992.792131010558
 20
230.037442966676
 10
992.627773395774
 20
229.891388408532
 10
992.470171747709
 20
229.742688222767
 10
992.31932628549
 20
229.591330143105
 10
992.175520057216
 20
229.437586052836
 10
992.038699343927
 20
229.281369281201
 10
991.90920134015
 20
229.123051623239
 10
991.786844941392
 20
228.962466930598
 10
991.6719917875
 20
228.80010606676
 10
991.564619564215
 20
228.635664433864
 10
991.465167702665
 20
228.469746503089
 10
991.372759967199
 20
228.302076924136
 10
991.287616269677
 20
228.13340966708
 10
991.248370720544
 20
228.048399299134
 10
991.211859462865
 20
227.962875332509
 10
991.171540900315
 20
227.859112791474
 10
991.133490539669
 20
227.754943068913
  0
LWPOLYLINE
  5
272
330
1F
100
AcDbEntity
  8
0
  6
AUSGEZOGEN
 62
   136
370
    25
100
AcDbPolyline
 90
       87
 70
     0
 43
0.0
 10
1010.234297645084
 20
228.746073283083
 10
1010.148391610374
 20
228.90671574498
 10
1010.104560122083
 20
228.980795443452
 10
1010.058032546347
 20
229.054168400669
 10
1009.958565295713
 20
229.199125592684
 10
1009.852110867914
 20
229.34280376332
 10
1009.739093774205
 20
229.484316856346
 10
1009.618410103677
 20
229.623998190584
 10
1009.49071604305
 20
229.761137960605
 10
1009.355847589062
 20
229.896148698045
 10
1009.21435884803
 20
230.028451113564
 10
1009.065947981414
 20
230.158269304294
 10
1008.911113558123
 20
230.285171072678
 10
1008.749729611438
 20
230.409280767854
 10
1008.582203983856
 20
230.530289721013
 10
1008.408504794052
 20
230.648227997118
 10
1008.228955340332
 20
230.762886096821
 10
1008.043627928319
 20
230.874230994016
 10
1007.85276999156
 20
230.982125785242
 10
1007.65654886723
 20
231.086489045136
 10
1007.455138912093
 20
231.187241227544
 10
1007.248772465761
 20
231.284279022757
 10
1007.03757967183
 20
231.377554167889
 10
1006.821834505804
 20
231.466957258387
 10
1006.601643863214
 20
231.552455937508
 10
1006.377309670763
 20
231.633943167297
 10
1006.148927735078
 20
231.711394877838
 10
1005.916816564143
 20
231.784711802199
 10
1005.681070587789
 20
231.853873565967
 10
1005.442015857502
 20
231.918791868099
 10
1005.199752836326
 20
231.979447613768
 10
1004.954608038816
 20
232.035765096106
 10
1004.706693392221
 20
232.087725578573
 10
1004.456330397385
 20
232.135266507905
 10
1004.203646258171
 20
232.178369569008
 10
1003.948953241789
 20
232.216985207227
 10
1003.692396363442
 20
232.251096213317
 10
1003.434275401923
 20
232.280665407325
 10
1003.174754733261
 20
232.305677742464
 10
1002.914119123602
 20
232.326107484151
 10
1002.652553110422
 20
232.341943011897
 10
1002.390324475579
 20
232.353168907188
 10
1002.127638151602
 20
232.359778341075
 10
1001.86474338975
 20
232.36176494767
 10
1001.601865316138
 20
232.359128090283
 10
1001.339233682697
 20
232.351869106866
 10
1001.077093026757
 20
232.339994948536
 10
1000.81565886919
 20
232.323513692289
 10
1000.555188087843
 20
232.302440997389
 10
1000.295874853982
 20
232.276789965579
 10
1000.037993763323
 20
232.246586285418
 10
999.781717290249
 20
232.211846572928
 10
999.527336381745
 20
232.172607787596
 10
999.275001831872
 20
232.128888547833
 10
999.025019237279
 20
232.08073822223
 10
998.777518182062
 20
232.028175965743
 10
998.532816798506
 20
231.971264540952
 10
998.291024515719
 20
231.910022297805
 10
998.052469356172
 20
231.844526144891
 10
997.817242409706
 20
231.774792535016
 10
997.58567825164
 20
231.700912917426
 10
997.35785243256
 20
231.62290119874
 10
997.1341018412
 20
231.540863218913
 10
996.914490540275
 20
231.454810423272
 10
996.699352356827
 20
231.364862068095
 10
996.488745472228
 20
231.271028377543
 10
996.282993808336
 20
231.173439845482
 10
996.082157109548
 20
231.072108465428
 10
995.886541012459
 20
230.967171999073
 10
995.696216387631
 20
230.858649728867
 10
995.511459694639
 20
230.746680405199
 10
995.332364432307
 20
230.631299688839
 10
995.159167336812
 20
230.512637204408
 10
994.992005583484
 20
230.390764006416
 10
994.831047846103
 20
230.265783131229
 10
994.676495997862
 20
230.137829817949
 10
994.52845135441
 20
230.006947128604
 10
994.387189137049
 20
229.873352088395
 10
994.252648455173
 20
229.737031795367
 10
994.125159497762
 20
229.598321915775
 10
994.004837943871
 20
229.457043662135
 10
993.892155815003
 20
229.313660487164
 10
993.786121527095
 20
229.168105956987
 10
993.686992923122
 20
229.021073360849
 10
993.640787287071
 20
228.946637663519
 10
993.597467751415
 20
228.871460732261
 10
993.523930758822
 20
228.730252794577
  0
LWPOLYLINE
  5
273
330
1F
100
AcDbEntity
  8
0
  6
AUSGEZOGEN
 62
   136
370
    25
100
AcDbPolyline
 90
       76
 70
     0
 43
0.0
 10
1008.086588580947
 20
228.969284520411
 10
1008.045253980556
 20
229.046853004122
 10
1008.001843578717
 20
229.123837337057
 10
1007.962321591252
 20
229.188011465995
 10
1007.92022141926
 20
229.251433137909
 10
1007.829807941963
 20
229.376339530184
 10
1007.732288809809
 20
229.499949134407
 10
1007.628306287988
 20
229.621164221321
 10
1007.516676321536
 20
229.740453768636
 10
1007.398236022061
 20
229.856955574651
 10
1007.272701859906
 20
229.971149814814
 10
1007.140775202397
 20
230.082375028964
 10
1007.002122807172
 20
230.19086734064
 10
1006.857334434444
 20
230.296171482644
 10
1006.706308691504
 20
230.398386634553
 10
1006.54949305981
 20
230.497220370407
 10
1006.386930186218
 20
230.592660374914
 10
1006.218943531871
 20
230.68453282606
 10
1006.045731609058
 20
230.772749717755
 10
1005.867498469997
 20
230.857225897741
 10
1005.684536257568
 20
230.937841655949
 10
1005.496982096672
 20
231.014555073573
 10
1005.305184547161
 20
231.08724032684
 10
1005.109248857881
 20
231.155874298524
 10
1004.909556169811
 20
231.22033768327
 10
1004.70620056474
 20
231.280614798935
 10
1004.499577605847
 20
231.336600131958
 10
1004.289785742101
 20
231.388279523872
 10
1004.077221203592
 20
231.435564758907
 10
1003.861997849494
 20
231.478440913752
 10
1003.644502471407
 20
231.516838164768
 10
1003.424871768643
 20
231.550740792604
 10
1003.20347571445
 20
231.580096942685
 10
1002.980478531783
 20
231.604891396475
 10
1002.756227999622
 20
231.625088920288
 10
1002.530918526128
 20
231.6406768213
 10
1002.304871761636
 20
231.651634577548
 10
1002.078313499005
 20
231.657954406169
 10
1001.851536372238
 20
231.659628242752
 10
1001.624797697518
 20
231.656655740836
 10
1001.39835973367
 20
231.64903884939
 10
1001.172509924334
 20
231.636787201138
 10
1000.947487687915
 20
231.619910958142
 10
1000.723600204062
 20
231.598431760811
 10
1000.501053339591
 20
231.572364813764
 10
1000.280182001615
 20
231.541746174388
 10
1000.061158307212
 20
231.50659329617
 10
999.844342433071
 20
231.466958870446
 10
999.629873403117
 20
231.422859840788
 10
999.418133426391
 20
231.374367489707
 10
999.209230219144
 20
231.321495681786
 10
999.00356376212
 20
231.264335828404
 10
998.801213778875
 20
231.202896609338
 10
998.602592390354
 20
231.137290406067
 10
998.407756717821
 20
231.067519530489
 10
998.217123463656
 20
230.993717050873
 10
998.030735268934
 20
230.915879398827
 10
997.849003551172
 20
230.834158165572
 10
997.671968144167
 20
230.748547191628
 10
997.500021438267
 20
230.659211734612
 10
997.333216141498
 20
230.566150874939
 10
997.17191065281
 20
230.469533669392
 10
997.016191450705
 20
230.36937886213
 10
996.866354197081
 20
230.265845696767
 10
996.722554142232
 20
230.159007081875
 10
996.585014142703
 20
230.048971780165
 10
996.454003360849
 20
229.935914961051
 10
996.329525946007
 20
229.819874933061
 10
996.211942182194
 20
229.701176637609
 10
996.101428607202
 20
229.57964947508
 10
995.998544431023
 20
229.455798335916
 10
995.902159661065
 20
229.329575659826
 10
995.812626277784
 20
229.201812867942
 10
995.771293069029
 20
229.136900169535
 10
995.732990648785
 20
229.071137300114
 10
995.679043544372
 20
228.967525843701
  0
LWPOLYLINE
  5
274
330
1F
100
AcDbEntity
  8
0
  6
AUSGEZOGEN
 62
   136
370
    25
100
AcDbPolyline
 90
        4
 70
     0
 43
0.0
 10
997.855505386602
 20
229.39933332476
 10
997.796724219879
 20
229.328999892649
 10
997.753806231165
 20
229.270352961811
 10
997.713673995532
 20
229.210639055956
  0
LWPOLYLINE
  5
275
330
1F
100
AcDbEntity
  8
0
  6
AUSGEZOGEN
 62
   136
370
    25
100
AcDbPolyline
 90
        6
 70
     0
 43
0.0
 10
1000.507114150441
 20
226.149270637594
 10
1000.360331294568
 20
226.17966503357
 10
1000.199271629402
 20
226.218411108703
 10
1000.120794060469
 20
226.24020027909
 10
1000.044066756588
 20
226.263738254155
 10
999.998044638856
 20
226.278901864252
  0
LWPOLYLINE
  5
276
330
1F
100
AcDbEntity
  8
0
  6
AUSGEZOGEN
 62
   136
370
    25
100
AcDbPolyline
 90
       19
 70
     0
 43
0.0
 10
1003.454821106719
 20
226.191607814271
 10
1003.437829803712
 20
226.187235377205
 10
1003.275930529288
 20
226.149786018176
 10
1003.110249832598
 20
226.117559850774
 10
1002.942233130148
 20
226.089034076242
 10
1002.772342516851
 20
226.06442906824
 10
1002.600389518579
 20
226.044202798204
 10
1002.426920043667
 20
226.028393775143
 10
1002.252256859744
 20
226.016918901923
 10
1002.076872122021
 20
226.009829616326
 10
1001.901030148844
 20
226.007175046329
 10
1001.725134235294
 20
226.008934322534
 10
1001.54953604041
 20
226.015090266572
 10
1001.374660830593
 20
226.025726607496
 10
1001.200951073209
 20
226.040842837381
 10
1001.028436633967
 20
226.060040788515
 10
1000.857533036529
 20
226.083160944408
 10
1000.689376092188
 20
226.111529570383
 10
1000.507114150441
 20
226.149270637593
  0
LWPOLYLINE
  5
277
330
1F
100
AcDbEntity
  8
0
  6
AUSGEZOGEN
 62
   136
370
    25
100
AcDbPolyline
 90
       15
 70
     0
 43
0.0
 10
1001.815298948202
 20
227.374553764486
 10
1001.651590681987
 20
227.379552689149
 10
1001.52931897999
 20
227.389304540699
 10
1001.408558503269
 20
227.404129591524
 10
1001.289974295309
 20
227.422739391017
 10
1001.173812236535
 20
227.445154857154
 10
1001.060983571331
 20
227.471480075311
 10
1000.951491533254
 20
227.501607724859
 10
1000.846279696678
 20
227.53512276701
 10
1000.745497929194
 20
227.572025909543
 10
1000.650195649837
 20
227.611899858906
 10
1000.559380849611
 20
227.654496679111
 10
1000.473770258404
 20
227.699194015848
 10
1000.396190051976
 20
227.746663653058
 10
1000.348178796384
 20
227.781170333313
  0
LWPOLYLINE
  5
278
330
1F
100
AcDbEntity
  8
0
  6
AUSGEZOGEN
 62
   136
370
    25
100
AcDbPolyline
 90
       42
 70
     0
 43
0.0
 10
1006.071971649021
 20
229.188210376181
 10
1006.06622404763
 20
229.197729809545
 10
1006.030780558812
 20
229.251600461953
 10
1005.991654432786
 20
229.304184667663
 10
1005.906056185182
 20
229.406630581858
 10
1005.814236301565
 20
229.507988487569
 10
1005.716944432136
 20
229.606815532148
 10
1005.611855089216
 20
229.703349626255
 10
1005.500136783756
 20
229.796619821999
 10
1005.381680719228
 20
229.887209517971
 10
1005.257329378891
 20
229.974436414843
 10
1005.126734397621
 20
230.058445079163
 10
1004.990536821645
 20
230.138843817367
 10
1004.848806365108
 20
230.215646773207
 10
1004.701954138726
 20
230.288652242198
 10
1004.550269920579
 20
230.357741460927
 10
1004.393958646382
 20
230.422850984641
 10
1004.233439065215
 20
230.483836776389
 10
1004.068834853717
 20
230.540679128435
 10
1003.900626284166
 20
230.593235887969
 10
1003.728905217601
 20
230.641502188451
 10
1003.554176257683
 20
230.685355519272
 10
1003.376534564291
 20
230.724791711121
 10
1003.196479413372
 20
230.759714488862
 10
1003.014133012445
 20
230.790115751313
 10
1002.829970033876
 20
230.815926691777
 10
1002.644154186845
 20
230.83713621762
 10
1002.457122352854
 20
230.853700944597
 10
1002.269088514434
 20
230.865609634642
 10
1002.080443212902
 20
230.872840304242
 10
1001.891452520629
 20
230.87538895658
 10
1001.702454312872
 20
230.873250874827
 10
1001.513775319657
 20
230.866424978707
 10
1001.325707955431
 20
230.854916498784
 10
1001.138601023378
 20
230.838768259139
 10
1000.952692325896
 20
230.818000278208
 10
1000.76845566892
 20
230.792569590735
 10
1000.586092760209
 20
230.76246825028
 10
1000.405810372545
 20
230.728072786481
 10
1000.227668558187
 20
230.689476254869
 10
1000.053086713795
 20
230.64560939695
 10
999.984260025527
 20
230.626414917215
  0
LWPOLYLINE
  5
279
330
1F
100
AcDbEntity
  8
0
  6
AUSGEZOGEN
 62
   136
370
    25
100
AcDbPolyline
 90
       23
 70
     0
 43
0.0
 10
1004.103110923752
 20
229.139092995255
 10
1004.034499860631
 20
229.216839766811
 10
1003.99635989647
 20
229.254854633673
 10
1003.955873056504
 20
229.291572378445
 10
1003.869505592503
 20
229.361854293318
 10
1003.776498994838
 20
229.429919809502
 10
1003.67835813669
 20
229.494412790278
 10
1003.57376910545
 20
229.555446486137
 10
1003.463938143058
 20
229.612366462054
 10
1003.349056995997
 20
229.665306893289
 10
1003.2297194918
 20
229.714021081466
 10
1003.106394825538
 20
229.758334997363
 10
1002.979287383914
 20
229.79822812712
 10
1002.849102320497
 20
229.833539133147
 10
1002.715924815607
 20
229.864303629465
 10
1002.58047840589
 20
229.890392174793
 10
1002.442871188458
 20
229.911771476308
 10
1002.303783255427
 20
229.92834698014
 10
1002.163362952045
 20
229.940307999126
 10
1002.022178727675
 20
229.947666305268
 10
1001.880650585472
 20
229.94972381876
 10
1001.744014945215
 20
229.946452354256
 10
1001.60749646816
 20
229.940288424084
  0
LINE
  5
27A
330
1F
100
AcDbEntity
  8
0
  6
AUSGEZOGEN
 62
   136
370
    25
100
AcDbLine
 10
999.29839042777
 20
215.916516045443
 30
0.0
 11
999.53668789017
 21
211.118857683643
 31
0.0
  0
LINE
  5
27B
330
1F
100
AcDbEntity
  8
0
  6
AUSGEZOGEN
 62
   136
370
    25
100
AcDbLine
 10
1004.229777182069
 20
211.118857683643
 30
0.0
 11
1004.46807464447
 21
215.916516045443
 31
0.0
  0
LWPOLYLINE
  5
27C
330
1F
100
AcDbEntity
  8
0
  6
AUSGEZOGEN
 62
   136
370
    25
100
AcDbPolyline
 90
       10
 70
     0
 43
0.0
 10
999.535465545872
 20
211.118570358638
 10
999.535870433522
 20
211.04889172826
 10
999.532700946584
 20
210.980531313386
 10
999.523468902724
 20
210.91551904747
 10
999.509447057566
 20
210.855220384767
 10
999.495045910027
 20
210.80824899879
 10
999.479909273618
 20
210.767818730354
 10
999.454052911389
 20
210.714078052919
 10
999.437739082209
 20
210.687884519926
 10
999.4387045094
 20
210.688925494009
  0
LWPOLYLINE
  5
27D
330
1F
100
AcDbEntity
  8
0
  6
AUSGEZOGEN
 62
   136
370
    25
100
AcDbPolyline
 90
       11
 70
     0
 43
0.0
 10
1004.328181345928
 20
210.688603347324
 10
1004.326161520784
 20
210.691563507878
 10
1004.307855282981
 20
210.722442664281
 10
1004.294378573005
 20
210.749705381604
 10
1004.280384392177
 20
210.783214221727
 10
1004.265372140308
 20
210.826822481676
 10
1004.251609819062
 20
210.87656845624
 10
1004.239042199029
 20
210.937805805384
 10
1004.231636297323
 20
211.002918109078
 10
1004.230511776098
 20
211.060369775897
 10
1004.232177062596
 20
211.118457759923
  0
LINE
  5
27E
330
1F
100
AcDbEntity
  8
0
  6
AUSGEZOGEN
 62
   136
370
    25
100
AcDbLine
 10
998.36922911017
 20
208.250898869543
 30
0.0
 11
1001.49376897357
 21
204.369966365943
 31
0.0
  0
LINE
  5
27F
330
1F
100
AcDbEntity
  8
0
  6
AUSGEZOGEN
 62
   136
370
    25
100
AcDbLine
 10
1002.27269609867
 20
204.369966365943
 30
0.0
 11
1005.39723596207
 21
208.250898869543
 31
0.0
  0
ARC
  5
280
330
1F
100
AcDbEntity
  8
0
  6
AUSGEZOGEN
 62
   136
370
    25
100
AcDbCircle
 10
1001.88323253617
 20
204.683523591043
 30
0.0
 40
0.5000000000000102
100
AcDbArc
 50
218.8375513122
 51
321.1624486878
  0
ARC
  5
281
330
1F
100
AcDbEntity
  8
0
  6
AUSGEZOGEN
 62
   136
370
    25
100
AcDbCircle
 10
1001.88272713887
 20
209.102315971543
 30
0.0
 40
23.89722774202429
100
AcDbArc
 50
84.2098021843
 51
95.0647903689
  0
LWPOLYLINE
  5
282
330
1F
100
AcDbEntity
  8
0
  6
AUSGEZOGEN
 62
   136
370
    25
100
AcDbPolyline
 90
       89
 70
     0
 43
0.0
 10
1014.29452034937
 20
228.900779909243
 10
1014.53472953367
 20
228.677322914243
 10
1014.89157118527
 20
228.313681528243
 10
1015.21707460967
 20
227.940370208643
 10
1015.51045564067
 20
227.558288294943
 10
1015.77100749757
 20
227.168356256043
 10
1015.998102488169
 20
226.771513472343
 10
1016.19119352077
 20
226.368715972943
 10
1016.34981542207
 20
225.960934132143
 10
1016.473586058069
 20
225.549150332243
 10
1016.56220725457
 20
225.134356596543
 10
1016.615465515169
 20
224.717552199243
 10
1016.63323253617
 20
224.299741258843
 10
1016.615465515169
 20
223.881930318543
 10
1016.56220725457
 20
223.465125921243
 10
1016.473586058069
 20
223.050332185443
 10
1016.34981542207
 20
222.638548385543
 10
1016.19119352077
 20
222.230766544843
 10
1015.998102488169
 20
221.827969045343
 10
1015.77100749757
 20
221.431126261743
 10
1015.51045564067
 20
221.041194222843
 10
1015.21707460967
 20
220.659112309143
 10
1014.89157118527
 20
220.285800989543
 10
1014.53472953367
 20
219.922159603543
 10
1014.14740931757
 20
219.569064195243
 10
1013.73054362547
 20
219.227365402343
 10
1013.28513672327
 20
218.897886407143
 10
1012.81226163507
 20
218.581420953443
 10
1012.31305755867
 20
218.278731434143
 10
1011.78872712017
 20
217.990547055043
 10
1011.24053347757
 20
217.717562077243
 10
1010.66979727737
 20
217.460434145743
 10
1010.07789347317
 20
217.219782704143
 10
1009.46624801297
 20
216.996187502743
 10
1008.83633440427
 20
216.790187202043
 10
1008.18967016427
 20
216.602278074943
 10
1007.52781316347
 20
216.432912810743
 10
1006.85235787367
 20
216.282499425443
 10
1006.16493152567
 20
216.151400277843
 10
1005.46719018967
 20
216.039931197443
 10
1004.76081478587
 20
215.948360722943
 10
1004.04750703437
 20
215.876909455643
 10
1003.32898535597
 20
215.825749527943
 10
1002.60698073247
 20
215.795004188543
 10
1001.88323253617
 20
215.784747505643
 10
1001.15948433977
 20
215.795004188543
 10
1000.43747971627
 20
215.825749527943
 10
999.71895803787
 20
215.876909455643
 10
999.00565028637
 20
215.948360722943
 10
998.29927488257
 20
216.039931197443
 10
997.60153354667
 20
216.151400277843
 10
996.91410719857
 20
216.282499425443
 10
996.238651908769
 20
216.432912810743
 10
995.57679490807
 20
216.602278074943
 10
994.930130667969
 20
216.790187202043
 10
994.30021705927
 20
216.996187502743
 10
993.68857159907
 20
217.219782704143
 10
993.09666779487
 20
217.460434145743
 10
992.52593159467
 20
217.717562077243
 10
991.97773795217
 20
217.990547055043
 10
991.45340751367
 20
218.278731434143
 10
990.95420343717
 20
218.581420953443
 10
990.48132834907
 20
218.897886407143
 10
990.03592144677
 20
219.227365402343
 10
989.61905575467
 20
219.569064195243
 10
989.23173553867
 20
219.922159603543
 10
988.87489388697
 20
220.285800989543
 10
988.54939046257
 20
220.659112309143
 10
988.25600943157
 20
221.041194222843
 10
987.99545757467
 20
221.431126261743
 10
987.76836258407
 20
221.827969045343
 10
987.57527155147
 20
222.230766544843
 10
987.41664965017
 20
222.638548385643
 10
987.29287901417
 20
223.050332185443
 10
987.20425781767
 20
223.465125921243
 10
987.15099955707
 20
223.881930318543
 10
987.13323253617
 20
224.299741258843
 10
987.15099955707
 20
224.717552199243
 10
987.20425781767
 20
225.134356596543
 10
987.29287901417
 20
225.549150332243
 10
987.41664965017
 20
225.960934132143
 10
987.57527155147
 20
226.368715972943
 10
987.76836258407
 20
226.771513472343
 10
987.99545757467
 20
227.168356256043
 10
988.25600943157
 20
227.558288294943
 10
988.54939046257
 20
227.940370208643
 10
988.87489388697
 20
228.313681528243
 10
989.23173553867
 20
228.677322914243
 10
989.46562537377
 20
228.895094039343
  0
LWPOLYLINE
  5
283
330
1F
100
AcDbEntity
  8
0
  6
AUSGEZOGEN
 62
   136
370
    25
100
AcDbPolyline
 90
       65
 70
     0
 43
0.0
 10
991.12180108307
 20
227.727825124843
 10
991.02857531327
 20
227.441342436643
 10
990.945129777569
 20
227.085180563243
 10
990.89672228267
 20
226.726863798943
 10
990.88350789217
 20
226.367539940243
 10
990.90552893597
 20
226.008360009743
 10
990.96271487387
 20
225.650474569143
 10
991.05488252207
 20
225.295030033343
 10
991.18173663987
 20
224.943164998443
 10
991.34287087527
 20
224.596006594143
 10
991.53776906667
 20
224.254666873443
 10
991.76580689647
 20
223.920239250443
 10
992.02625389087
 20
223.593794997643
 10
992.318275759369
 20
223.276379814343
 10
992.64093706807
 20
222.969010477043
 10
992.99320423547
 20
222.672671582543
 10
993.373948843669
 20
222.388312393543
 10
993.781951252869
 20
222.116843798243
 10
994.215904508369
 20
221.859135392543
 10
994.674418526969
 20
221.616012693943
 10
995.15602455017
 20
221.388254497843
 10
995.65917984867
 20
221.176590382443
 10
996.182272664269
 20
220.981698371743
 10
996.72362737307
 20
220.804202763443
 10
997.28150985267
 20
220.644672129643
 10
997.85413303737
 20
220.503617495043
 10
998.43966264247
 20
220.381490700043
 10
999.03622303997
 20
220.278682953743
 10
999.64190326727
 20
220.195523580243
 10
1000.25476314797
 20
220.132278964143
 10
1000.87283950697
 20
220.089151696943
 10
1001.49415245947
 20
220.066279928343
 10
1002.11671175277
 20
220.063736923543
 10
1002.73852314177
 20
220.081530828443
 10
1003.35759477707
 20
220.119604643943
 10
1003.97194358567
 20
220.177836408043
 10
1004.57960162307
 20
220.256039586843
 10
1005.17862237737
 20
220.353963672043
 10
1005.767087004569
 20
220.471294983143
 10
1006.34311047507
 20
220.607657672743
 10
1006.90484761187
 20
220.762614930043
 10
1007.45049900177
 20
220.935670380043
 10
1007.97831675877
 20
221.126269674143
 10
1008.48661012347
 20
221.333802265343
 10
1008.97375087897
 20
221.557603364043
 10
1009.43817856667
 20
221.796956067943
 10
1009.87840548457
 20
222.051093658143
 10
1010.29302145317
 20
222.319202055443
 10
1010.68069833257
 20
222.600422427643
 10
1011.04019427677
 20
222.893853941243
 10
1011.370357711869
 20
223.198556646543
 10
1011.67013102497
 20
223.513554489043
 10
1011.93855395167
 20
223.837838435543
 10
1012.17476665247
 20
224.170369706843
 10
1012.37801246687
 20
224.510083105143
 10
1012.54764033717
 20
224.855890425943
 10
1012.68310689427
 20
225.206683944043
 10
1012.78397819787
 20
225.561339962143
 10
1012.84993112687
 20
225.918722410143
 10
1012.88075441407
 20
226.277686484243
 10
1012.87634932317
 20
226.637082314343
 10
1012.836729965069
 20
226.995758647143
 10
1012.76202325257
 20
227.352566534343
 10
1012.65246849367
 20
227.706363012743
 10
1012.64660796647
 20
227.722513587943
  0
LWPOLYLINE
  5
284
330
1F
100
AcDbEntity
  8
0
  6
AUSGEZOGEN
 62
   136
370
    25
100
AcDbPolyline
 90
      110
 70
     1
 43
0.0
 10
1009.54356743417
 20
231.018239832743
 10
1009.09375481387
 20
231.263486777843
 10
1008.62042296867
 20
231.493509424943
 10
1008.12511580867
 20
231.707557488043
 10
1007.60944892277
 20
231.904932786943
 10
1007.07510430927
 20
232.084991524343
 10
1006.52382488907
 20
232.247146386043
 10
1005.95740882127
 20
232.390868456743
 10
1005.37770363727
 20
232.515688944743
 10
1004.78660021487
 20
232.621200711543
 10
1004.18602661047
 20
232.707059599843
 10
1003.57794177057
 20
232.772985555743
 10
1002.964329141369
 20
232.818763542543
 10
1002.34719019967
 20
232.844244241743
 10
1001.72853792457
 20
232.849344540843
 10
1001.11039023117
 20
232.834047803543
 10
1000.49476338867
 20
232.798403924743
 10
999.88366544397
 20
232.742529167243
 10
999.27908967147
 20
232.666605783043
 10
998.68300807167
 20
232.570881418443
 10
998.09736493897
 20
232.455668306243
 10
997.52407051947
 20
232.321342247743
 10
996.96499478047
 20
232.168341386743
 10
996.42196131067
 20
231.997164780143
 10
995.896741372469
 20
231.808370770443
 10
995.39104812417
 20
231.602575164543
 10
994.90653103207
 20
231.380449224843
 10
994.44477049007
 20
231.142717480043
 10
994.00727266517
 20
230.890155361643
 10
993.59546458437
 20
230.623586674843
 10
993.21068947997
 20
230.343880911243
 10
992.854202408369
 20
230.051950412943
 10
992.52716615637
 20
229.748747396443
 10
992.23064744827
 20
229.435260847143
 10
991.96561346637
 20
229.112513292843
 10
991.73292869647
 20
228.781557469043
 10
991.53335210797
 20
228.443472884943
 10
991.36753467817
 20
228.099362301943
 10
991.23601726907
 20
227.750348137543
 10
991.13922886307
 20
227.397568803143
 10
991.07748516397
 20
227.042174991743
 10
991.05098756677
 20
226.685325924043
 10
991.05982250107
 20
226.328185567543
 10
991.10396114937
 20
225.971918839943
 10
991.18325954037
 20
225.617687809043
 10
991.29745901927
 20
225.266647903043
 10
991.44618709107
 20
224.919944141143
 10
991.62895863577
 20
224.578707398743
 10
991.84517749057
 20
224.244050719343
 10
992.09413839457
 20
223.917065683543
 10
992.37502928887
 20
223.598818848343
 10
992.68693396587
 20
223.290348268943
 10
993.02883505737
 20
222.992660112143
 10
993.39961735307
 20
222.706725374943
 10
993.79807143807
 20
222.433476717043
 10
994.22289763807
 20
222.173805418543
 10
994.67271025837
 20
221.928558473543
 10
995.14604210357
 20
221.698535826443
 10
995.64134926357
 20
221.484487763243
 10
996.15701614947
 20
221.287112464443
 10
996.691360763069
 20
221.107053727043
 10
997.24264018317
 20
220.944898865243
 10
997.80905625097
 20
220.801176794643
 10
998.38876143497
 20
220.676356306643
 10
998.97986485747
 20
220.570844539743
 10
999.58043846177
 20
220.484985651443
 10
1000.18852330167
 20
220.419059695543
 10
1000.80213593097
 20
220.373281708843
 10
1001.41927487257
 20
220.347801009643
 10
1002.03792714767
 20
220.342700710543
 10
1002.65607484117
 20
220.357997447843
 10
1003.27170168357
 20
220.393641326643
 10
1003.88279962837
 20
220.449516084043
 10
1004.48737540077
 20
220.525439468243
 10
1005.08345700057
 20
220.621163832943
 10
1005.66910013327
 20
220.736376945143
 10
1006.24239455277
 20
220.870703003543
 10
1006.80147029177
 20
221.023703864643
 10
1007.34450376157
 20
221.194880471243
 10
1007.86972369977
 20
221.383674480843
 10
1008.37541694807
 20
221.589470086843
 10
1008.85993404017
 20
221.811596026543
 10
1009.32169458217
 20
222.049327771343
 10
1009.75919240707
 20
222.301889889643
 10
1010.17100048787
 20
222.568458576443
 10
1010.55577559227
 20
222.848164340043
 10
1010.91226266387
 20
223.140094838443
 10
1011.23929891587
 20
223.443297854843
 10
1011.53581762397
 20
223.756784404243
 10
1011.80085160587
 20
224.079531958543
 10
1012.03353637577
 20
224.410487782243
 10
1012.23311296427
 20
224.748572366443
 10
1012.39893039407
 20
225.092682949343
 10
1012.53044780317
 20
225.441697113843
 10
1012.627236209169
 20
225.794476448243
 10
1012.68897990827
 20
226.149870259643
 10
1012.71547750547
 20
226.506719327343
 10
1012.70664257117
 20
226.863859683743
 10
1012.66250392287
 20
227.220126411443
 10
1012.58320553187
 20
227.574357442243
 10
1012.46900605297
 20
227.925397348243
 10
1012.32027798117
 20
228.272101110243
 10
1012.13750643647
 20
228.613337852643
 10
1011.92128758167
 20
228.947994531943
 10
1011.67232667777
 20
229.274979567843
 10
1011.39143578337
 20
229.593226403043
 10
1011.07953110637
 20
229.901696982443
 10
1010.73763001487
 20
230.199385139143
 10
1010.36684771917
 20
230.485319876343
 10
1009.96839363417
 20
230.758568534343
  0
LWPOLYLINE
  5
285
330
1F
100
AcDbEntity
  8
0
  6
AUSGEZOGEN
 62
   136
370
    25
100
AcDbPolyline
 90
       61
 70
     0
 43
0.0
 10
993.50908031727
 20
228.705506189643
 10
993.46837652937
 20
228.625572835643
 10
993.33319745887
 20
228.314684892443
 10
993.23244636197
 20
227.999473441043
 10
993.16652892787
 20
227.681207726843
 10
993.13571058257
 20
227.361169293443
 10
993.14011542087
 20
227.040646822743
 10
993.17972570587
 20
226.720930945543
 10
993.25438194107
 20
226.403309044843
 10
993.36378351217
 20
226.089060072043
 10
993.507489897569
 20
225.779449396643
 10
993.684922442369
 20
225.475723711643
 10
993.89536668837
 20
225.179106013243
 10
994.13797525097
 20
224.890790676143
 10
994.41177123097
 20
224.611938644543
 10
994.71565214857
 20
224.343672757043
 10
995.04839438277
 20
224.087073225843
 10
995.40865809777
 20
223.843173286443
 10
995.79499263897
 20
223.612955038043
 10
996.20584237337
 20
223.397345488243
 10
996.63955295417
 20
223.197212820443
 10
997.09437798187
 20
223.013362898443
 10
997.56848603677
 20
222.846536020943
 10
998.05996805287
 20
222.697403940843
 10
998.56684500567
 20
222.566567160343
 10
999.08707588057
 20
222.454552513143
 10
999.61856589147
 20
222.361811042643
 10
1000.15917491567
 20
222.288716185943
 10
1000.70672611127
 20
222.235562270243
 10
1001.25901468317
 20
222.202563327643
 10
1001.81381675997
 20
222.189852233243
 10
1002.36889834957
 20
222.197480170043
 10
1002.92202433437
 20
222.225416423143
 10
1003.47096747127
 20
222.273548503143
 10
1004.01351735997
 20
222.341682599043
 10
1004.54748934347
 20
222.429544358843
 10
1005.07073330517
 20
222.536779994343
 10
1005.58114232637
 20
222.662957705543
 10
1006.07666116997
 20
222.807569419243
 10
1006.55529455647
 20
222.970032835043
 10
1007.015115198169
 20
223.149693770243
 10
1007.45427155967
 20
223.345828793643
 10
1007.87099531327
 20
223.557648138643
 10
1008.26360845957
 20
223.784298883643
 10
1008.63053008387
 20
224.024868385943
 10
1008.97028272247
 20
224.278387957143
 10
1009.28149831117
 20
224.543836763343
 10
1009.56292369487
 20
224.820145935943
 10
1009.81342567267
 20
225.106202875443
 10
1010.03199556167
 20
225.400855731543
 10
1010.217753258069
 20
225.702918041043
 10
1010.36995078107
 20
226.011173505743
 10
1010.48797528507
 20
226.324380889643
 10
1010.57135152697
 20
226.641279017243
 10
1010.61974378017
 20
226.960591851443
 10
1010.63295718607
 20
227.281033632343
 10
1010.61093853897
 20
227.601314053943
 10
1010.55377650017
 20
227.920143459943
 10
1010.461701241069
 20
228.236238037043
 10
1010.33508351617
 20
228.548324983643
 10
1010.24958626377
 20
228.720285194343
  0
LWPOLYLINE
  5
286
330
1F
100
AcDbEntity
  8
0
  6
AUSGEZOGEN
 62
   136
370
    25
100
AcDbPolyline
 90
      108
 70
     1
 43
0.0
 10
994.45861133367
 20
230.902598160043
 10
994.90287594717
 20
231.144563712543
 10
995.37075987777
 20
231.371207580443
 10
995.86067995447
 20
231.581762872643
 10
996.37097844257
 20
231.775517136743
 10
996.89992865377
 20
231.951814769443
 10
997.44574078787
 20
232.110059235643
 10
998.00656798937
 20
232.249715085843
 10
998.58051259657
 20
232.370309769143
 10
999.165632562569
 20
232.471435231143
 10
999.75994802667
 20
232.552749295343
 10
1000.36144801337
 20
232.613976820643
 10
1000.96809723727
 20
232.654910632543
 10
1001.57784298937
 20
232.675412223943
 10
1002.18862208297
 20
232.675412223943
 10
1002.79836783497
 20
232.654910632543
 10
1003.40501705887
 20
232.613976820643
 10
1004.00651704557
 20
232.552749295343
 10
1004.60083250967
 20
232.471435231143
 10
1005.18595247567
 20
232.370309769143
 10
1005.75989708287
 20
232.249715085843
 10
1006.32072428437
 20
232.110059235643
 10
1006.86653641847
 20
231.951814769443
 10
1007.39548662967
 20
231.775517136743
 10
1007.905785117769
 20
231.581762872643
 10
1008.39570519447
 20
231.371207580443
 10
1008.86358912507
 20
231.144563712543
 10
1009.30785373857
 20
230.902598160043
 10
1009.72699578417
 20
230.646129657743
 10
1010.11959701777
 20
230.376026013843
 10
1010.484329001169
 20
230.093201173743
 10
1010.81995759667
 20
229.798612127043
 10
1011.12534714347
 20
229.493255669843
 10
1011.39946429997
 20
229.178165031743
 10
1011.64138154047
 20
228.854406379643
 10
1011.85028029367
 20
228.523075210543
 10
1012.02545371217
 20
228.185292644043
 10
1012.16630906467
 20
227.842201629543
 10
1012.27236974127
 20
227.494963078343
 10
1012.34327686607
 20
227.144751935843
 10
1012.37879051197
 20
226.792753205743
 10
1012.37879051197
 20
226.440157940143
 10
1012.34327686607
 20
226.088159210043
 10
1012.27236974127
 20
225.737948067543
 10
1012.16630906467
 20
225.390709516343
 10
1012.02545371217
 20
225.047618501843
 10
1011.85028029367
 20
224.709835935343
 10
1011.64138154047
 20
224.378504766243
 10
1011.39946429997
 20
224.054746114143
 10
1011.12534714347
 20
223.739655476043
 10
1010.81995759667
 20
223.434299018843
 10
1010.484329001169
 20
223.139709972143
 10
1010.11959701777
 20
222.856885132043
 10
1009.72699578417
 20
222.586781488143
 10
1009.30785373857
 20
222.330312985843
 10
1008.86358912507
 20
222.088347433343
 10
1008.39570519447
 20
221.861703565443
 10
1007.905785117769
 20
221.651148273243
 10
1007.39548662967
 20
221.457394009143
 10
1006.86653641847
 20
221.281096376443
 10
1006.32072428437
 20
221.122851910343
 10
1005.75989708287
 20
220.983196060043
 10
1005.18595247567
 20
220.862601376743
 10
1004.60083250967
 20
220.761475914743
 10
1004.00651704557
 20
220.680161850543
 10
1003.40501705887
 20
220.618934325243
 10
1002.79836783497
 20
220.578000513343
 10
1002.18862208297
 20
220.557498922043
 10
1001.57784298937
 20
220.557498922043
 10
1000.96809723727
 20
220.578000513343
 10
1000.36144801337
 20
220.618934325243
 10
999.75994802667
 20
220.680161850543
 10
999.165632562569
 20
220.761475914743
 10
998.58051259657
 20
220.862601376743
 10
998.00656798937
 20
220.983196060043
 10
997.44574078787
 20
221.122851910343
 10
996.89992865377
 20
221.281096376443
 10
996.37097844257
 20
221.457394009143
 10
995.86067995447
 20
221.651148273243
 10
995.37075987777
 20
221.861703565443
 10
994.90287594717
 20
222.088347433343
 10
994.45861133367
 20
222.330312985843
 10
994.03946928807
 20
222.586781488143
 10
993.64686805447
 20
222.856885132043
 10
993.28213607107
 20
223.139709972143
 10
992.94650747557
 20
223.434299018843
 10
992.64111792877
 20
223.739655476043
 10
992.36700077227
 20
224.054746114143
 10
992.12508353177
 20
224.378504766243
 10
991.91618477857
 20
224.709835935343
 10
991.741011360069
 20
225.047618501843
 10
991.60015600757
 20
225.390709516343
 10
991.49409533107
 20
225.737948067543
 10
991.42318820617
 20
226.088159210043
 10
991.38767456027
 20
226.440157940143
 10
991.38767456027
 20
226.792753205743
 10
991.42318820617
 20
227.144751935843
 10
991.49409533107
 20
227.494963078343
 10
991.60015600757
 20
227.842201629543
 10
991.741011360069
 20
228.185292644043
 10
991.91618477857
 20
228.523075210543
 10
992.12508353177
 20
228.854406379643
 10
992.36700077227
 20
229.178165031743
 10
992.64111792877
 20
229.493255669843
 10
992.94650747557
 20
229.798612127043
 10
993.28213607107
 20
230.093201173743
 10
993.64686805447
 20
230.376026013843
 10
994.03946928807
 20
230.646129657743
  0
LWPOLYLINE
  5
287
330
1F
100
AcDbEntity
  8
0
  6
AUSGEZOGEN
 62
   136
370
    25
100
AcDbPolyline
 90
      110
 70
     1
 43
0.0
 10
1009.50571816367
 20
231.018227240843
 10
1009.92844532207
 20
230.759838963243
 10
1010.32493066857
 20
230.487940411043
 10
1010.69388095047
 20
230.203418460843
 10
1011.03409272847
 20
229.907201164043
 10
1011.34445630257
 20
229.600254719843
 10
1011.62395933127
 20
229.283580323843
 10
1011.87169013377
 20
228.958210902043
 10
1012.08684066377
 20
228.625207741943
 10
1012.26870914487
 20
228.285657030543
 10
1012.41670235997
 20
227.940666311743
 10
1012.53033758587
 20
227.591360873543
 10
1012.60924416807
 20
227.238880077643
 10
1012.65316472987
 20
226.884373643243
 10
1012.66195601127
 20
226.528997896543
 10
1012.63558933717
 20
226.173911999443
 10
1012.57415071007
 20
225.820274168243
 10
1012.47784053007
 20
225.469237896143
 10
1012.34697294077
 20
225.121948190443
 10
1012.18197480527
 20
224.779537837943
 10
1011.98338431317
 20
224.443123710043
 10
1011.75184922517
 20
224.113803119843
 10
1011.48812476087
 20
223.792650242443
 10
1011.19307113447
 20
223.480712611943
 10
1010.86765074967
 20
223.179007704043
 10
1010.51292505997
 20
222.888519617343
 10
1010.13005110707
 20
222.610195863743
 10
1009.72027774607
 20
222.344944277343
 10
1009.28494157257
 20
222.093630053743
 10
1008.82546256267
 20
221.857072927743
 10
1008.34333944137
 20
221.636044499443
 10
1007.84014479407
 20
221.431265717643
 10
1007.31751993717
 20
221.243404528243
 10
1006.77716956427
 20
221.073073695343
 10
1006.22085618597
 20
220.920828802643
 10
1005.65039438097
 20
220.787166441443
 10
1005.06764487707
 20
220.672522590643
 10
1004.47450848197
 20
220.577271194443
 10
1003.87291988327
 20
220.501722943243
 10
1003.26484133807
 20
220.446124259843
 10
1002.65225627217
 20
220.410656495343
 10
1002.037162810569
 20
220.395435338343
 10
1001.42156726047
 20
220.400510437143
 10
1000.80747756657
 20
220.425865237743
 10
1000.196896761769
 20
220.471417038043
 10
999.59181643377
 20
220.537017257643
 10
998.99421022877
 20
220.622451922143
 10
998.40602741407
 20
220.727442361543
 10
997.82918651967
 20
220.851646118743
 10
997.26556908087
 20
220.994658066943
 10
996.71701350037
 20
221.156011730843
 10
996.18530905257
 20
221.335180808543
 10
995.67219004687
 20
221.531580887443
 10
995.17933017077
 20
221.744571351543
 10
994.70833703077
 20
221.973457470143
 10
994.26074690857
 20
222.217492664243
 10
993.83801975017
 20
222.475880941843
 10
993.44153440367
 20
222.747779494043
 10
993.07258412187
 20
223.032301444243
 10
992.73237234377
 20
223.328518741043
 10
992.42200876967
 20
223.635465185243
 10
992.14250574097
 20
223.952139581243
 10
991.89477493847
 20
224.277509003043
 10
991.67962440847
 20
224.610512163143
 10
991.49775592737
 20
224.950062874543
 10
991.34976271227
 20
225.295053593343
 10
991.23612748637
 20
225.644359031543
 10
991.15722090417
 20
225.996839827343
 10
991.11330034237
 20
226.351346261843
 10
991.10450906097
 20
226.706722008543
 10
991.13087573507
 20
227.061807905643
 10
991.19231436217
 20
227.415445736843
 10
991.28862454227
 20
227.766482008943
 10
991.41949213147
 20
228.113771714643
 10
991.58449026697
 20
228.456182067143
 10
991.783080759169
 20
228.792596195043
 10
992.01461584707
 20
229.121916785243
 10
992.27834031137
 20
229.443069662643
 10
992.57339393777
 20
229.755007293143
 10
992.89881432267
 20
230.056712201043
 10
993.25354001227
 20
230.347200287643
 10
993.63641396517
 20
230.625524041343
 10
994.04618732617
 20
230.890775627743
 10
994.481523499669
 20
231.142089851343
 10
994.94100250957
 20
231.378646977343
 10
995.42312563087
 20
231.599675405643
 10
995.92632027817
 20
231.804454187443
 10
996.44894513507
 20
231.992315376843
 10
996.98929550797
 20
232.162646209743
 10
997.54560888627
 20
232.314891102443
 10
998.11607069127
 20
232.448553463643
 10
998.69882019517
 20
232.563197314443
 10
999.29195659037
 20
232.658448710643
 10
999.89354518897
 20
232.733996961743
 10
1000.50162373417
 20
232.789595645243
 10
1001.11420880017
 20
232.825063409743
 10
1001.72930226167
 20
232.840284566743
 10
1002.34489781177
 20
232.835209467943
 10
1002.958987505669
 20
232.809854667343
 10
1003.56956831047
 20
232.764302867043
 10
1004.17464863857
 20
232.698702647443
 10
1004.77225484347
 20
232.613267982943
 10
1005.36043765817
 20
232.508277543543
 10
1005.93727855257
 20
232.384073786343
 10
1006.50089599137
 20
232.241061838143
 10
1007.04945157187
 20
232.079708174143
 10
1007.58115601967
 20
231.900539096543
 10
1008.09427502537
 20
231.704139017643
 10
1008.58713490147
 20
231.491148553543
 10
1009.05812804147
 20
231.262262434943
  0
LWPOLYLINE
  5
288
330
1F
100
AcDbEntity
  8
0
  6
AUSGEZOGEN
 62
   136
370
    25
100
AcDbPolyline
 90
       98
 70
     1
 43
0.0
 10
1007.93690864107
 20
230.904313924943
 10
1007.53661035457
 20
231.121040682243
 10
1007.113081125869
 20
231.322516338343
 10
1006.66806132757
 20
231.507912986243
 10
1006.20337964147
 20
231.676468791543
 10
1005.72094554417
 20
231.827491122343
 10
1005.22274146097
 20
231.960359395243
 10
1004.71081461927
 20
232.074527626243
 10
1004.18726863627
 20
232.169526673543
 10
1003.65425487467
 20
232.244966165543
 10
1003.11396360247
 20
232.300536105443
 10
1002.56861499227
 20
232.336008144143
 10
1002.02044999857
 20
232.351236519643
 10
1001.47172114897
 20
232.346158655243
 10
1000.92468328777
 20
232.320795416843
 10
1000.38158431117
 20
232.275251027643
 10
999.84465592917
 20
232.209712639143
 10
999.31610449577
 20
232.124449562643
 10
998.798101942069
 20
232.019812162543
 10
998.29277685177
 20
231.896230416243
 10
997.80220571397
 20
231.754212147743
 10
997.32840439087
 20
231.594340940443
 10
996.87331983357
 20
231.417273739543
 10
996.43882208217
 20
231.223738152143
 10
996.02669658117
 20
231.014529457443
 10
995.63863684257
 20
230.790507338743
 10
995.27623748727
 20
230.552592351243
 10
994.94098769167
 20
230.301762138443
 10
994.63426506937
 20
230.039047415543
 10
994.35733000917
 20
229.765527733643
 10
994.11132049687
 20
229.482327043943
 10
993.89724743817
 20
229.190609078743
 10
993.71599050517
 20
228.891572569643
 10
993.568294521669
 20
228.586446321943
 10
993.45476640187
 20
228.276484164743
 10
993.37587265737
 20
227.962959799043
 10
993.33193747947
 20
227.647161563843
 10
993.32314140717
 20
227.330387141643
 10
993.34952058547
 20
227.013938226543
 10
993.41096661667
 20
226.699115175143
 10
993.50722700577
 20
226.387211662743
 10
993.63790619837
 20
226.079509367743
 10
993.80246720537
 20
225.777272705043
 10
994.00023381047
 20
225.481743629843
 10
994.23039334827
 20
225.194136534543
 10
994.49200004377
 20
224.915633258243
 10
994.78397889907
 20
224.647378230843
 10
995.10513011027
 20
224.390473769643
 10
995.45413399827
 20
224.145975550243
 10
995.82955643117
 20
223.914888268243
 10
996.22985471767
 20
223.698161510843
 10
996.65338394637
 20
223.496685854843
 10
997.09840374467
 20
223.311289206943
 10
997.56308543087
 20
223.142733401543
 10
998.04551952807
 20
222.991711070843
 10
998.54372361127
 20
222.858842797843
 10
999.05565045307
 20
222.744674566843
 10
999.57919643607
 20
222.649675519643
 10
1000.11221019757
 20
222.574236027543
 10
1000.65250146977
 20
222.518666087743
 10
1001.19785007997
 20
222.483194049043
 10
1001.74601507367
 20
222.467965673543
 10
1002.29474392337
 20
222.473043537943
 10
1002.84178178447
 20
222.498406776343
 10
1003.38488076107
 20
222.543951165543
 10
1003.92180914307
 20
222.609489554043
 10
1004.45036057657
 20
222.694752630543
 10
1004.96836313017
 20
222.799390030643
 10
1005.47368822047
 20
222.922971776943
 10
1005.96425935827
 20
223.064990045443
 10
1006.43806068137
 20
223.224861252743
 10
1006.89314523867
 20
223.401928453643
 10
1007.32764299007
 20
223.595464041043
 10
1007.73976849107
 20
223.804672735743
 10
1008.12782822967
 20
224.028694854343
 10
1008.49022758507
 20
224.266609841943
 10
1008.82547738057
 20
224.517440054743
 10
1009.13220000287
 20
224.780154777643
 10
1009.40913506307
 20
225.053674459443
 10
1009.65514457537
 20
225.336875149243
 10
1009.86921763407
 20
225.628593114443
 10
1010.05047456707
 20
225.927629623543
 10
1010.19817055067
 20
226.232755871243
 10
1010.31169867037
 20
226.542718028443
 10
1010.39059241487
 20
226.856242394143
 10
1010.43452759277
 20
227.172040629343
 10
1010.44332366507
 20
227.488815051543
 10
1010.41694448677
 20
227.805263966643
 10
1010.35549845557
 20
228.120087018043
 10
1010.25923806647
 20
228.431990530443
 10
1010.12855887397
 20
228.739692825343
 10
1009.96399786687
 20
229.041929488043
 10
1009.76623126177
 20
229.337458563243
 10
1009.53607172397
 20
229.625065658643
 10
1009.27446502847
 20
229.903568934843
 10
1008.98248617327
 20
230.171823962343
 10
1008.66133496197
 20
230.428728423543
 10
1008.31233107397
 20
230.673226642943
  0
LWPOLYLINE
  5
289
330
1F
100
AcDbEntity
  8
0
  6
AUSGEZOGEN
 62
   136
370
    25
100
AcDbPolyline
 90
       98
 70
     1
 43
0.0
 10
1007.91358332627
 20
230.901024003143
 10
1008.28755922547
 20
230.670827119543
 10
1008.63521837267
 20
230.427270972043
 10
1008.95513216167
 20
230.171356384943
 10
1009.24598599827
 20
229.904134966343
 10
1009.50658470157
 20
229.626704786243
 10
1009.73585741557
 20
229.340205864843
 10
1009.93286200957
 20
229.045815487543
 10
1010.09678894947
 20
228.744743367743
 10
1010.22696462427
 20
228.438226675243
 10
1010.32285411417
 20
228.127524952843
 10
1010.38406338867
 20
227.813914940643
 10
1010.41034092577
 20
227.498685329443
 10
1010.40157874547
 20
227.183131465343
 10
1010.35781285347
 20
226.868550026743
 10
1010.27922309307
 20
226.556233696443
 10
1010.16613240657
 20
226.247465849043
 10
1010.01900550787
 20
225.943515278043
 10
1009.83844697287
 20
225.645630981343
 10
1009.62519875537
 20
225.355037029543
 10
1009.38013713807
 20
225.072927535543
 10
1009.10426913157
 20
224.800461747643
 10
1008.79872833687
 20
224.538759286343
 10
1008.46477028657
 20
224.288895543143
 10
1008.10376728587
 20
224.051897261643
 10
1007.71720277357
 20
223.828738318843
 10
1007.30666522627
 20
223.620335722443
 10
1006.87384163067
 20
223.427545843643
 10
1006.42051055177
 20
223.251160897343
 10
1005.94853482427
 20
223.091905687043
 10
1005.45985389777
 20
222.950434626643
 10
1004.95647586677
 20
222.827329051043
 10
1004.44046921987
 20
222.723094827543
 10
1003.91395433877
 20
222.638160276743
 10
1003.37909478627
 20
222.572874413043
 10
1002.83808841487
 20
222.527505510143
 10
1002.29315833587
 20
222.502239998443
 10
1001.74654378387
 20
222.497181699443
 10
1001.20049091527
 20
222.512351398743
 10
1000.65724357837
 20
222.547686760743
 10
1000.11903409317
 20
222.603042585043
 10
999.58807407767
 20
222.678191402443
 10
999.06654536067
 20
222.772824410543
 10
998.55659101547
 20
222.886552741943
 10
998.06030655377
 20
223.018909062443
 10
997.57973131497
 20
223.169349491643
 10
997.11684008587
 20
223.337255837443
 10
996.67353498557
 20
223.521938136843
 10
996.25163765017
 20
223.722637490443
 10
995.85288174597
 20
223.938529181743
 10
995.47890584677
 20
224.168726065243
 10
995.13124669957
 20
224.412282212843
 10
994.811332910569
 20
224.668196799843
 10
994.52047907397
 20
224.935418218543
 10
994.25988037067
 20
225.212848398643
 10
994.03060765667
 20
225.499347320043
 10
993.83360306267
 20
225.793737697243
 10
993.669676122769
 20
226.094809817043
 10
993.53950044797
 20
226.401326509643
 10
993.44361095817
 20
226.712028231943
 10
993.38240168357
 20
227.025638244143
 10
993.356124146469
 20
227.340867855343
 10
993.36488632677
 20
227.656421719543
 10
993.408652218769
 20
227.971003158043
 10
993.48724197917
 20
228.283319488443
 10
993.60033266567
 20
228.592087335743
 10
993.74745956437
 20
228.896037906843
 10
993.92801809937
 20
229.193922203443
 10
994.14126631687
 20
229.484516155243
 10
994.38632793427
 20
229.766625649343
 10
994.66219594067
 20
230.039091437143
 10
994.96773673537
 20
230.300793898543
 10
995.301694785669
 20
230.550657641743
 10
995.66269778637
 20
230.787655923143
 10
996.04926229867
 20
231.010814866043
 10
996.45979984597
 20
231.219217462343
 10
996.89262344167
 20
231.412007341143
 10
997.34595452047
 20
231.588392287543
 10
997.81793024797
 20
231.747647497743
 10
998.30661117447
 20
231.889118558143
 10
998.80998920547
 20
232.012224133743
 10
999.32599585247
 20
232.116458357343
 10
999.85251073347
 20
232.201392908043
 10
1000.38737028597
 20
232.266678771743
 10
1000.92837665737
 20
232.312047674743
 10
1001.47330673637
 20
232.337313186343
 10
1002.01992128837
 20
232.342371485443
 10
1002.56597415697
 20
232.327201786143
 10
1003.10922149387
 20
232.291866424043
 10
1003.64743097907
 20
232.236510599843
 10
1004.17839099457
 20
232.161361782343
 10
1004.69991971157
 20
232.066728774243
 10
1005.20987405677
 20
231.953000442943
 10
1005.70615851847
 20
231.820644122443
 10
1006.18673375727
 20
231.670203693243
 10
1006.64962498647
 20
231.502297347343
 10
1007.09293008667
 20
231.317615048043
 10
1007.51482742217
 20
231.116915694343
  0
LWPOLYLINE
  5
28A
330
1F
100
AcDbEntity
  8
0
  6
AUSGEZOGEN
 62
   136
370
    25
100
AcDbPolyline
 90
       96
 70
     1
 43
0.0
 10
996.04960159137
 20
230.762879267143
 10
996.44362956157
 20
230.975925835043
 10
996.86095074677
 20
231.173639167143
 10
997.29977811367
 20
231.355172624743
 10
997.75823253617
 20
231.519748853543
 10
998.23435084187
 20
231.666663113143
 10
998.72609421907
 20
231.795286293843
 10
999.231356947369
 20
231.905067611643
 10
999.74797541407
 20
231.995536965943
 10
1000.27373737947
 20
232.066306953143
 10
1000.80639145027
 20
232.117074525343
 10
1001.34365671997
 20
232.147622287843
 10
1001.88323253617
 20
232.157819430643
 10
1002.42280835227
 20
232.147622287843
 10
1002.96007362197
 20
232.117074525343
 10
1003.49272769277
 20
232.066306953143
 10
1004.01848965827
 20
231.995536965943
 10
1004.53510812487
 20
231.905067611643
 10
1005.04037085317
 20
231.795286293843
 10
1005.53211423047
 20
231.666663113143
 10
1006.00823253617
 20
231.519748853543
 10
1006.46668695857
 20
231.355172624743
 10
1006.90551432547
 20
231.173639167143
 10
1007.32283551067
 20
230.975925835043
 10
1007.71686348087
 20
230.762879267143
 10
1008.08591094787
 20
230.535411761743
 10
1008.42839759357
 20
230.294497369543
 10
1008.742856837669
 20
230.041167722843
 10
1009.02794211737
 20
229.776507618243
 10
1009.28243265377
 20
229.501650370943
 10
1009.50523867937
 20
229.217772961643
 10
1009.69540610447
 20
228.926090997243
 10
1009.85212060297
 20
228.627853504643
 10
1009.97471109947
 20
228.324337582543
 10
1010.06265264247
 20
228.016842932643
 10
1010.11556865287
 20
227.706686294343
 10
1010.13323253617
 20
227.395195805943
 10
1010.11556865287
 20
227.083705317543
 10
1010.06265264247
 20
226.773548679243
 10
1009.97471109947
 20
226.466054029343
 10
1009.85212060297
 20
226.162538107143
 10
1009.69540610447
 20
225.864300614543
 10
1009.50523867937
 20
225.572618650143
 10
1009.28243265377
 20
225.288741240943
 10
1009.02794211737
 20
225.013883993543
 10
1008.742856837669
 20
224.749223888943
 10
1008.42839759357
 20
224.495894242343
 10
1008.08591094787
 20
224.254979850043
 10
1007.71686348087
 20
224.027512344643
 10
1007.32283551067
 20
223.814465776843
 10
1006.90551432547
 20
223.616752444743
 10
1006.46668695857
 20
223.435218987143
 10
1006.00823253617
 20
223.270642758243
 10
1005.53211423047
 20
223.123728498743
 10
1005.04037085317
 20
222.995105318043
 10
1004.53510812487
 20
222.885324000243
 10
1004.01848965827
 20
222.794854645943
 10
1003.49272769277
 20
222.724084658743
 10
1002.96007362197
 20
222.673317086543
 10
1002.42280835227
 20
222.642769323943
 10
1001.88323253617
 20
222.632572181243
 10
1001.34365671997
 20
222.642769323943
 10
1000.80639145027
 20
222.673317086543
 10
1000.27373737947
 20
222.724084658743
 10
999.74797541407
 20
222.794854645943
 10
999.231356947369
 20
222.885324000243
 10
998.72609421907
 20
222.995105318043
 10
998.23435084187
 20
223.123728498743
 10
997.75823253617
 20
223.270642758243
 10
997.29977811367
 20
223.435218987143
 10
996.86095074677
 20
223.616752444743
 10
996.44362956157
 20
223.814465776843
 10
996.04960159137
 20
224.027512344643
 10
995.68055412447
 20
224.254979850043
 10
995.33806747877
 20
224.495894242343
 10
995.02360823467
 20
224.749223888943
 10
994.738522954869
 20
225.013883993543
 10
994.48403241847
 20
225.288741240943
 10
994.26122639287
 20
225.572618650143
 10
994.07105896777
 20
225.864300614543
 10
993.91434446927
 20
226.162538107143
 10
993.79175397277
 20
226.466054029343
 10
993.70381242977
 20
226.773548679243
 10
993.650896419369
 20
227.083705317543
 10
993.63323253617
 20
227.395195805943
 10
993.650896419369
 20
227.706686294343
 10
993.70381242977
 20
228.016842932643
 10
993.79175397277
 20
228.324337582543
 10
993.91434446927
 20
228.627853504643
 10
994.07105896777
 20
228.926090997243
 10
994.26122639287
 20
229.217772961643
 10
994.48403241847
 20
229.501650370943
 10
994.738522954869
 20
229.776507618243
 10
995.02360823467
 20
230.041167722843
 10
995.33806747877
 20
230.294497369543
 10
995.68055412447
 20
230.535411761743
  0
LWPOLYLINE
  5
28B
330
1F
100
AcDbEntity
  8
0
  6
AUSGEZOGEN
 62
   136
370
    25
100
AcDbPolyline
 90
       53
 70
     0
 43
0.0
 10
995.67268895147
 20
228.963164007743
 10
995.61519681017
 20
228.849355534843
 10
995.50521595077
 20
228.579410060243
 10
995.43006960627
 20
228.305512818843
 10
995.39016819987
 20
228.029159742243
 10
995.38572965937
 20
227.751860175143
 10
995.41677822637
 20
227.475128631643
 10
995.48314432437
 20
227.200476523543
 10
995.58446548487
 20
226.929403905343
 10
995.72018832677
 20
226.663391281643
 10
995.889571578969
 20
226.403891521143
 10
996.09169012887
 20
226.152321921743
 10
996.32544007507
 20
225.910056469043
 10
996.58954475647
 20
225.678418333243
 10
996.88256172477
 20
225.458672641343
 10
997.20289062287
 20
225.252019568143
 10
997.54878192557
 20
225.059587781043
 10
997.91834649447
 20
224.882428275743
 10
998.30956589597
 20
224.721508636043
 10
998.72030342547
 20
224.577707749243
 10
999.14831577687
 20
224.451811005943
 10
999.59126529527
 20
224.344506010343
 10
1000.04673274397
 20
224.256378825343
 10
1000.51223051767
 20
224.187910770843
 10
1000.98521622897
 20
224.139475795743
 10
1001.46310659387
 20
224.111338435043
 10
1001.94329154107
 20
224.103652365343
 10
1002.42314846677
 20
224.116459565143
 10
1002.90005655887
 20
224.149690086043
 10
1003.37141111077
 20
224.203162434343
 10
1003.83463774737
 20
224.276584562843
 10
1004.28720648547
 20
224.369555465243
 10
1004.72664555137
 20
224.481567366543
 10
1005.15055488147
 20
224.612008496843
 10
1005.55661922987
 20
224.760166431743
 10
1005.94262081397
 20
224.925231984043
 10
1006.30645142707
 20
225.106303622943
 10
1006.64612395237
 20
225.302392397943
 10
1006.959783216369
 20
225.512427340143
 10
1007.24571612097
 20
225.735261311543
 10
1007.50236099987
 20
225.969677270243
 10
1007.72831614757
 20
226.214394917443
 10
1007.92234747547
 20
226.468077690443
 10
1008.08339525187
 20
226.729340061843
 10
1008.210579889469
 20
226.996755107043
 10
1008.30320674997
 20
227.268862297843
 10
1008.36076993767
 20
227.544175479243
 10
1008.38295506217
 20
227.821190986043
 10
1008.36964095627
 20
228.098395855543
 10
1008.32090033677
 20
228.374276090943
 10
1008.23699940827
 20
228.647324930043
 10
1008.11839640837
 20
228.916051074843
 10
1008.09292782507
 20
228.964748372943
  0
LWPOLYLINE
  5
28C
330
1F
100
AcDbEntity
  8
0
  6
AUSGEZOGEN
 62
   136
370
    25
100
AcDbPolyline
 90
       84
 70
     1
 43
0.0
 10
1006.33217996597
 20
230.576815822743
 10
1005.98726954887
 20
230.761565266143
 10
1005.61940769197
 20
230.930918413343
 10
1005.23065162817
 20
231.083928173043
 10
1004.82317543887
 20
231.219738852543
 10
1004.39925789627
 20
231.337590943343
 10
1003.96126971937
 20
231.436825368843
 10
1003.51166031557
 20
231.516887169843
 10
1003.05294408307
 20
231.577328608343
 10
1002.58768634907
 20
231.617811671243
 10
1002.11848902367
 20
231.638109960843
 10
1001.647976048569
 20
231.638109960843
 10
1001.17877872317
 20
231.617811671243
 10
1000.71352098917
 20
231.577328608343
 10
1000.25480475667
 20
231.516887169843
 10
999.80519535287
 20
231.436825368843
 10
999.36720717597
 20
231.337590943343
 10
998.94328963337
 20
231.219738852543
 10
998.53581344417
 20
231.083928173043
 10
998.14705738027
 20
230.930918413343
 10
997.77919552337
 20
230.761565266143
 10
997.43428510627
 20
230.576815822743
 10
997.11425500777
 20
230.377703277243
 10
996.82089496617
 20
230.165341147543
 10
996.55584556967
 20
229.940917048843
 10
996.32058908217
 20
229.705686051743
 10
996.116441153169
 20
229.460963663543
 10
995.94454346087
 20
229.208118470943
 10
995.80585732677
 20
228.948564486943
 10
995.70115834017
 20
228.683753242543
 10
995.63103202007
 20
228.415165669743
 10
995.59587054137
 20
228.144303819243
 10
995.59587054137
 20
227.872682460343
 10
995.63103202007
 20
227.601820609843
 10
995.70115834017
 20
227.333233037043
 10
995.80585732677
 20
227.068421792743
 10
995.94454346087
 20
226.808867808643
 10
996.116441153169
 20
226.556022616043
 10
996.32058908217
 20
226.311300227843
 10
996.55584556967
 20
226.076069230843
 10
996.82089496617
 20
225.851645132143
 10
997.11425500777
 20
225.639283002443
 10
997.43428510627
 20
225.440170456843
 10
997.77919552337
 20
225.255421013543
 10
998.14705738027
 20
225.086067866243
 10
998.53581344417
 20
224.933058106543
 10
998.94328963337
 20
224.797247427143
 10
999.36720717597
 20
224.679395336243
 10
999.80519535287
 20
224.580160910743
 10
1000.25480475667
 20
224.500099109743
 10
1000.71352098917
 20
224.439657671243
 10
1001.17877872317
 20
224.399174608443
 10
1001.647976048569
 20
224.378876318843
 10
1002.11848902367
 20
224.378876318843
 10
1002.58768634907
 20
224.399174608443
 10
1003.05294408307
 20
224.439657671243
 10
1003.51166031557
 20
224.500099109743
 10
1003.96126971937
 20
224.580160910743
 10
1004.39925789627
 20
224.679395336243
 10
1004.82317543887
 20
224.797247427143
 10
1005.23065162817
 20
224.933058106543
 10
1005.61940769197
 20
225.086067866243
 10
1005.98726954887
 20
225.255421013543
 10
1006.33217996597
 20
225.440170456843
 10
1006.65221006447
 20
225.639283002443
 10
1006.94557010607
 20
225.851645132143
 10
1007.21061950257
 20
226.076069230843
 10
1007.445875990169
 20
226.311300227843
 10
1007.65002391907
 20
226.556022616043
 10
1007.82192161137
 20
226.808867808643
 10
1007.96060774547
 20
227.068421792743
 10
1008.06530673207
 20
227.333233037043
 10
1008.13543305217
 20
227.601820609843
 10
1008.170594530869
 20
227.872682460343
 10
1008.170594530869
 20
228.144303819243
 10
1008.13543305217
 20
228.415165669743
 10
1008.06530673207
 20
228.683753242543
 10
1007.96060774547
 20
228.948564486943
 10
1007.82192161137
 20
229.208118470943
 10
1007.65002391907
 20
229.460963663543
 10
1007.445875990169
 20
229.705686051743
 10
1007.21061950257
 20
229.940917048843
 10
1006.94557010607
 20
230.165341147543
 10
1006.65221006447
 20
230.377703277243
  0
LWPOLYLINE
  5
28D
330
1F
100
AcDbEntity
  8
0
  6
AUSGEZOGEN
 62
   136
370
    25
100
AcDbPolyline
 90
       84
 70
     1
 43
0.0
 10
1006.31956697047
 20
230.573453878043
 10
1006.63868976707
 20
230.374905826843
 10
1006.93121811787
 20
230.163145754643
 10
1007.19551608567
 20
229.939357909943
 10
1007.43010560897
 20
229.704793804943
 10
1007.63367476797
 20
229.460765217243
 10
1007.80508512147
 20
229.208636853843
 10
1007.94337807317
 20
228.949818718743
 10
1008.04778023277
 20
228.685758227843
 10
1008.11770774117
 20
228.417932114743
 10
1008.15276953517
 20
228.147838171543
 10
1008.15276953517
 20
227.876986873243
 10
1008.11770774117
 20
227.606892930043
 10
1008.04778023277
 20
227.339066816843
 10
1007.94337807317
 20
227.075006326043
 10
1007.80508512147
 20
226.816188190943
 10
1007.63367476797
 20
226.564059827543
 10
1007.43010560897
 20
226.320031239843
 10
1007.19551608567
 20
226.085467134843
 10
1006.93121811787
 20
225.861679290143
 10
1006.63868976707
 20
225.649919217943
 10
1006.31956697047
 20
225.451371166743
 10
1005.97563439217
 20
225.267145497643
 10
1005.60881544267
 20
225.098272475243
 10
1005.22116152227
 20
224.945696506143
 10
1004.81484054907
 20
224.810270856943
 10
1004.39212483457
 20
224.692752882843
 10
1003.95537837677
 20
224.593799792143
 10
1003.50704363877
 20
224.513964970443
 10
1003.04962789047
 20
224.453694886543
 10
1002.585689186169
 20
224.413326595243
 10
1002.11782205937
 20
224.393085852343
 10
1001.64864301287
 20
224.393085852343
 10
1001.18077588607
 20
224.413326595243
 10
1000.71683718177
 20
224.453694886543
 10
1000.25942143347
 20
224.513964970443
 10
999.81108669547
 20
224.593799792143
 10
999.37434023767
 20
224.692752882843
 10
998.95162452327
 20
224.810270856943
 10
998.54530354997
 20
224.945696506143
 10
998.15764962957
 20
225.098272475243
 10
997.79083068007
 20
225.267145497643
 10
997.44689810177
 20
225.451371166743
 10
997.12777530517
 20
225.649919217943
 10
996.83524695437
 20
225.861679290143
 10
996.57094898657
 20
226.085467134843
 10
996.33635946337
 20
226.320031239843
 10
996.13279030427
 20
226.564059827543
 10
995.96137995077
 20
226.816188190943
 10
995.82308699907
 20
227.075006326043
 10
995.71868483947
 20
227.339066816843
 10
995.64875733117
 20
227.606892930043
 10
995.61369553707
 20
227.876986873243
 10
995.61369553707
 20
228.147838171543
 10
995.64875733117
 20
228.417932114743
 10
995.71868483947
 20
228.685758227843
 10
995.82308699907
 20
228.949818718743
 10
995.96137995077
 20
229.208636853843
 10
996.13279030427
 20
229.460765217243
 10
996.33635946337
 20
229.704793804943
 10
996.57094898657
 20
229.939357909943
 10
996.83524695437
 20
230.163145754643
 10
997.12777530517
 20
230.374905826843
 10
997.44689810177
 20
230.573453878043
 10
997.79083068007
 20
230.757679547143
 10
998.15764962957
 20
230.926552569543
 10
998.54530354997
 20
231.079128538643
 10
998.95162452327
 20
231.214554187843
 10
999.37434023767
 20
231.332072161843
 10
999.81108669547
 20
231.431025252643
 10
1000.25942143347
 20
231.510860074343
 10
1000.71683718177
 20
231.571130158243
 10
1001.18077588607
 20
231.611498449543
 10
1001.64864301287
 20
231.631739192443
 10
1002.11782205937
 20
231.631739192443
 10
1002.585689186169
 20
231.611498449543
 10
1003.04962789047
 20
231.571130158243
 10
1003.50704363877
 20
231.510860074343
 10
1003.95537837677
 20
231.431025252643
 10
1004.39212483457
 20
231.332072161843
 10
1004.81484054907
 20
231.214554187843
 10
1005.22116152227
 20
231.079128538643
 10
1005.60881544267
 20
230.926552569543
 10
1005.97563439217
 20
230.757679547143
  0
LWPOLYLINE
  5
28E
330
1F
100
AcDbEntity
  8
0
  6
AUSGEZOGEN
 62
   136
370
    25
100
AcDbPolyline
 90
       82
 70
     1
 43
0.0
 10
997.64059184897
 20
230.414950398243
 10
997.97781157497
 20
230.595250179943
 10
998.33794986397
 20
230.760118868643
 10
998.71889328147
 20
230.908588949143
 10
999.11840629997
 20
231.039789140143
 10
999.534144418169
 20
231.152949506543
 10
999.96366791957
 20
231.247405978543
 10
1000.40445618937
 20
231.322604247743
 10
1000.85392250687
 20
231.378103021043
 10
1001.30942922487
 20
231.413576609543
 10
1001.76830324877
 20
231.428816839943
 10
1002.22785172357
 20
231.423734276743
 10
1002.68537783587
 20
231.398358746243
 10
1003.13819664057
 20
231.352839162243
 10
1003.58365081687
 20
231.287442651743
 10
1004.019126262669
 20
231.202552987443
 10
1004.44206743467
 20
231.098668335743
 10
1004.849992346069
 20
230.976398333043
 10
1005.24050713127
 20
230.836460508243
 10
1005.61132009407
 20
230.679676072243
 10
1005.96025515677
 20
230.506965098443
 10
1006.28526462947
 20
230.319341123543
 10
1006.58444122757
 20
230.117905199543
 10
1006.85602926367
 20
229.903839432543
 10
1007.09843495117
 20
229.678400045743
 10
1007.31023575727
 20
229.442910006943
 10
1007.49018875047
 20
229.198751265343
 10
1007.63723789507
 20
228.947356641643
 10
1007.75052024827
 20
228.690201419343
 10
1007.82937102407
 20
228.428794687543
 10
1007.87332749497
 20
228.164670484943
 10
1007.882131706669
 20
227.899378797443
 10
1007.85573199277
 20
227.634476461943
 10
1007.79428327717
 20
227.371518030943
 10
1007.69814616547
 20
227.112046648843
 10
1007.56788482827
 20
226.857584997043
 10
1007.40426369107
 20
226.609626357643
 10
1007.20824294777
 20
226.369625850543
 10
1006.98097292587
 20
226.138991894143
 10
1006.72378733647
 20
225.919077940243
 10
1006.43819544657
 20
225.711174531343
 10
1006.12587322327
 20
225.516501727243
 10
1005.788653497269
 20
225.336201945543
 10
1005.42851520827
 20
225.171333256843
 10
1005.04757179077
 20
225.022863176343
 10
1004.64805877227
 20
224.891662985343
 10
1004.23232065407
 20
224.778502618943
 10
1003.80279715267
 20
224.684046147043
 10
1003.36200888287
 20
224.608847877743
 10
1002.91254256537
 20
224.553349104443
 10
1002.45703584747
 20
224.517875515943
 10
1001.99816182347
 20
224.502635285543
 10
1001.53861334877
 20
224.507717848843
 10
1001.08108723637
 20
224.533093379243
 10
1000.62826843167
 20
224.578612963243
 10
1000.18281425537
 20
224.644009473743
 10
999.74733880957
 20
224.728899138043
 10
999.32439763757
 20
224.832783789743
 10
998.91647272617
 20
224.955053792443
 10
998.52595794107
 20
225.094991617243
 10
998.15514497817
 20
225.251776053243
 10
997.80620991557
 20
225.424487027043
 10
997.481200442769
 20
225.612111001943
 10
997.18202384467
 20
225.813546925943
 10
996.91043580857
 20
226.027612692943
 10
996.668030121069
 20
226.253052079743
 10
996.45622931507
 20
226.488542118543
 10
996.27627632187
 20
226.732700860143
 10
996.12922717717
 20
226.984095483843
 10
996.01594482407
 20
227.241250706143
 10
995.93709404817
 20
227.502657437943
 10
995.893137577269
 20
227.766781640543
 10
995.88433336557
 20
228.032073328043
 10
995.91073307947
 20
228.296975663543
 10
995.97218179507
 20
228.559934094543
 10
996.068318906769
 20
228.819405476643
 10
996.19858024397
 20
229.073867128443
 10
996.36220138117
 20
229.321825767843
 10
996.55822212447
 20
229.561826274943
 10
996.78549214637
 20
229.792460231343
 10
997.04267773587
 20
230.012374185243
 10
997.32826962567
 20
230.220277594143
  0
LWPOLYLINE
  5
28F
330
1F
100
AcDbEntity
  8
0
  6
AUSGEZOGEN
 62
   136
370
    25
100
AcDbPolyline
 90
       50
 70
     0
 43
0.0
 10
1005.920677344145
 20
227.09261119206
 10
1005.950419676019
 20
227.053701175512
 10
1005.977833091979
 20
227.014408230136
 10
1006.002916623571
 20
226.974732332531
 10
1006.025669302339
 20
226.934673459295
 10
1006.046090159829
 20
226.894231587027
 10
1006.064178227585
 20
226.853406692327
 10
1006.079932537152
 20
226.812198751793
 10
1006.093352120074
 20
226.770607742025
 10
1006.104355138879
 20
226.728875984913
 10
1006.112858412367
 20
226.687257087224
 10
1006.118858956491
 20
226.645767952865
 10
1006.122353787205
 20
226.604425485746
 10
1006.123339920465
 20
226.563246589774
 10
1006.121814372224
 20
226.522248168857
 10
1006.117774158437
 20
226.481447126904
 10
1006.111216295058
 20
226.440860367823
 10
1006.102132334199
 20
226.400625913234
 10
1006.09055010589
 20
226.360944201413
 10
1006.076521042967
 20
226.32192576126
 10
1006.060096578262
 20
226.283681121673
 10
1006.041304298032
 20
226.246231185941
 10
1006.020125523663
 20
226.209527015567
 10
1005.996542290683
 20
226.173574376768
 10
1005.970536634621
 20
226.13837903576
 10
1005.942139461806
 20
226.104035565351
 10
1005.911480540105
 20
226.070713264503
 10
1005.878690197351
 20
226.038529988669
 10
1005.843898761378
 20
226.0076035933
 10
1005.807156356664
 20
225.977955968233
 10
1005.768418816815
 20
225.949535010321
 10
1005.727675033356
 20
225.922347585545
 10
1005.684913897815
 20
225.89640055988
 10
1005.640186015416
 20
225.871755781723
 10
1005.593686017759
 20
225.848527684234
 10
1005.496189401007
 20
225.806664503788
 10
1005.393388141133
 20
225.771144768685
 10
1005.285125489306
 20
225.741876252417
 10
1005.171801213158
 20
225.719051550878
 10
1005.055191112635
 20
225.703004188373
 10
1004.936464939689
 20
225.693818705194
 10
1004.815436321775
 20
225.691429532634
 10
1004.692517203579
 20
225.695908382987
 10
1004.569580578347
 20
225.707160939673
 10
1004.447872727122
 20
225.724999529639
 10
1004.327189068763
 20
225.749394559762
 10
1004.207819449352
 20
225.780350640418
 10
1004.09136102688
 20
225.817462866153
 10
1003.978952702299
 20
225.860343534751
 10
1003.8704515533
 20
225.909041036005
  0
ARC
  5
290
330
1F
100
AcDbEntity
  8
0
  6
AUSGEZOGEN
 62
   136
370
    25
100
AcDbCircle
 10
1004.71619137607
 20
228.233200414043
 30
0.0
 40
1.658833994264834
100
AcDbArc
 50
316.5607637259
 51
35.0036618303
  0
LWPOLYLINE
  5
291
330
1F
100
AcDbEntity
  8
0
  6
AUSGEZOGEN
 62
   136
370
    25
100
AcDbPolyline
 90
       43
 70
     0
 43
0.0
 10
997.84578772811
 20
229.387005431733
 10
997.788631980276
 20
229.433859837812
 10
997.763548448684
 20
229.458260283734
 10
997.740795769915
 20
229.48331014495
 10
997.720374912426
 20
229.509009861488
 10
997.70228684467
 20
229.535359873376
 10
997.686532535103
 20
229.562360620644
 10
997.67311295218
 20
229.590012543319
 10
997.662109933375
 20
229.618155431791
 10
997.653606659888
 20
229.6466212697
 10
997.647606115764
 20
229.675398786958
 10
997.644111285049
 20
229.704476713472
 10
997.643125151789
 20
229.733843779154
 10
997.64465070003
 20
229.763488713911
 10
997.648690913817
 20
229.793400247655
 10
997.655248777196
 20
229.823567110294
 10
997.664332738056
 20
229.853892085913
 10
997.675914966364
 20
229.884227290192
 10
997.689944029288
 20
229.91448545043
 10
997.706368493993
 20
229.944579293925
 10
997.725160774222
 20
229.974489672903
 10
997.746339548592
 20
230.00425500691
 10
997.795928437634
 20
230.063346853153
 10
997.85498453215
 20
230.121491143142
 10
997.922566310877
 20
230.177765993186
 10
997.99804625544
 20
230.2317225404
 10
998.08155117444
 20
230.283458839674
 10
998.172779054496
 20
230.332691218032
 10
998.270275671248
 20
230.37864529839
 10
998.373076931121
 20
230.420923464277
 10
998.481339582949
 20
230.459616156402
 10
998.594663859097
 20
230.494518330957
 10
998.71127395962
 20
230.525098270181
 10
998.830000132566
 20
230.551101709472
 10
998.95102875048
 20
230.572603487829
 10
999.073947868675
 20
230.589481959489
 10
999.196884493907
 20
230.60149572406
 10
999.318592345132
 20
230.608572932234
 10
999.439276003491
 20
230.610765435393
 10
999.558645622902
 20
230.608019675347
 10
999.675104045374
 20
230.600363167715
 10
999.787512369956
 20
230.587886268092
 10
999.896013518955
 20
230.570575587789
  0
LWPOLYLINE
  5
292
330
1F
100
AcDbEntity
  8
0
  6
AUSGEZOGEN
 62
   136
370
    25
100
AcDbPolyline
 90
       29
 70
     0
 43
0.0
 10
997.70632936437
 20
229.206395504243
 10
997.68551073297
 20
229.175857090943
 10
997.558290759669
 20
228.957337374343
 10
997.46512966427
 20
228.733167122743
 10
997.40676108967
 20
228.505111674943
 10
997.38364468797
 20
228.274966965443
 10
997.39596250047
 20
228.044545381943
 10
997.44361752447
 20
227.815661492243
 10
997.52623447727
 20
227.590117755043
 10
997.64316275087
 20
227.369690325143
 10
997.79348153637
 20
227.156115066543
 10
997.97600707457
 20
226.951073882743
 10
998.18930197857
 20
226.756181471043
 10
998.43168655267
 20
226.572972607543
 10
998.70125202077
 20
226.402890060343
 10
998.99587555707
 20
226.247273227943
 10
999.31323700387
 20
226.107347591743
 10
999.65083714267
 20
225.984215064643
 10
1000.006017375269
 20
225.878845314243
 10
1000.37598066057
 20
225.792068126543
 10
1000.75781354087
 20
225.724566870943
 10
1001.14850908587
 20
225.676873119243
 10
1001.544990571469
 20
225.649362459443
 10
1001.94413570947
 20
225.642251537743
 10
1002.34280123557
 20
225.655596352343
 10
1002.73784766227
 20
225.689291813243
 10
1003.126164002369
 20
225.743072568843
 10
1003.50469226837
 20
225.816515096143
 10
1003.87045155327
 20
225.909041036043
  0
LWPOLYLINE
  5
293
330
1F
100
AcDbEntity
  8
0
  6
AUSGEZOGEN
 62
   136
370
    25
100
AcDbPolyline
 90
        8
 70
     0
 43
0.0
 10
1003.8704515533
 20
225.909041036005
 10
1003.85124714574
 20
225.942508325086
 10
1003.829123285879
 20
225.974703857056
 10
1003.804527022042
 20
226.005459368675
 10
1003.777905402553
 20
226.034606596701
 10
1003.749705475735
 20
226.061977277892
 10
1003.720374289912
 20
226.087403149008
 10
1003.660106334548
 20
226.131747408049
  0
LWPOLYLINE
  5
294
330
1F
100
AcDbEntity
  8
0
  6
AUSGEZOGEN
 62
   136
370
    25
100
AcDbPolyline
 90
        9
 70
     0
 43
0.0
 10
997.993274968918
 20
229.403139521889
 10
997.968675273531
 20
229.413714472601
 10
997.945617882501
 20
229.420914479852
 10
997.924203032104
 20
229.424663043867
 10
997.904530958614
 20
229.42488366487
 10
997.886710830921
 20
229.421458131398
 10
997.870882621835
 20
229.414161239943
 10
997.857192773512
 20
229.402756002669
 10
997.845787728109
 20
229.387005431735
  0
LWPOLYLINE
  5
295
330
1F
100
AcDbEntity
  8
0
  6
AUSGEZOGEN
 62
   136
370
    25
100
AcDbPolyline
 90
       27
 70
     0
 43
0.0
 10
997.99327496887
 20
229.403139521843
 10
997.84454556597
 20
229.189289451243
 10
997.73100374827
 20
228.968365445243
 10
997.65363876367
 20
228.742292333043
 10
997.61312466477
 20
228.513039805943
 10
997.60981443587
 20
228.282605256443
 10
997.64373691767
 20
228.052996375443
 10
997.714596556269
 20
227.826213660243
 10
997.82177597777
 20
227.604232984743
 10
997.964341367669
 20
227.388988384343
 10
998.14105060627
 20
227.182355205743
 10
998.35036409147
 20
226.986133767243
 10
998.59045815237
 20
226.802033673743
 10
998.85924093807
 20
226.631658921143
 10
999.15437064377
 20
226.476493921643
 10
999.473275913469
 20
226.337890570643
 10
999.81317824357
 20
226.217056467643
 10
1000.17111619087
 20
226.115044395543
 10
1000.54397117437
 20
226.032743147843
 10
1000.92849464657
 20
225.970869784843
 10
1001.32133639677
 20
225.929963386143
 10
1001.71907374017
 20
225.910380354243
 10
1002.118241338469
 20
225.912291308743
 10
1002.51536139197
 20
225.935679600143
 10
1002.90697394057
 20
225.980341455143
 10
1003.28966700917
 20
226.045887751243
 10
1003.66010633457
 20
226.131747408043
  0
LWPOLYLINE
  5
296
330
1F
100
AcDbEntity
  8
0
  6
AUSGEZOGEN
 62
   136
370
    25
100
AcDbPolyline
 90
        2
 70
     0
 43
0.0
 10
1003.660106334548
 20
226.131747408049
 10
1003.652922203465
 20
226.136488065091
  0
LWPOLYLINE
  5
297
330
1F
100
AcDbEntity
  8
0
  6
AUSGEZOGEN
 62
   136
370
    25
100
AcDbPolyline
 90
        2
 70
     0
 43
0.0
 10
997.999330740488
 20
229.400236945819
 10
997.993274968918
 20
229.403139521889
  0
LWPOLYLINE
  5
298
330
1F
100
AcDbEntity
  8
0
  6
AUSGEZOGEN
 62
   136
370
    25
100
AcDbPolyline
 90
       27
 70
     0
 43
0.0
 10
1003.65292220347
 20
226.136488065043
 10
1003.28337082987
 20
226.051058407743
 10
1002.90163947217
 20
225.985876482143
 10
1002.51104886097
 20
225.941509314343
 10
1002.11499679437
 20
225.918342859943
 10
1001.71692858047
 20
225.916578647143
 10
1001.32030706617
 20
225.936232022843
 10
1000.92858251337
 20
225.977132019943
 10
1000.54516258457
 20
226.038922844043
 10
1000.17338269917
 20
226.121066968643
 10
999.81647701857
 20
226.222849811643
 10
999.47755031147
 20
226.343385950643
 10
999.15955094507
 20
226.481626826443
 10
998.86524523687
 20
226.636369863543
 10
998.59719339037
 20
226.806268932443
 10
998.35772722327
 20
226.989846059243
 10
998.14892988267
 20
227.185504282543
 10
997.97261772357
 20
227.391541546243
 10
997.83032450837
 20
227.606165505743
 10
997.723288064069
 20
227.827509119143
 10
997.65243951447
 20
228.053646890043
 10
997.61839518037
 20
228.282611616543
 10
997.62145121777
 20
228.512411505043
 10
997.66158104187
 20
228.741047496443
 10
997.73843555807
 20
228.966530656743
 10
997.85134619907
 20
229.186899478843
 10
997.99933074047
 20
229.400236945843
  0
LWPOLYLINE
  5
299
330
1F
100
AcDbEntity
  8
0
  6
AUSGEZOGEN
 62
   136
370
    25
100
AcDbPolyline
 90
       17
 70
     0
 43
0.0
 10
1000.00537221337
 20
226.274235342743
 10
999.79890426027
 20
226.342227047543
 10
999.48473965547
 20
226.465129594643
 10
999.19216513367
 20
226.604666707743
 10
998.92381431027
 20
226.759582340543
 10
998.68210275097
 20
226.928482016943
 10
998.46920622707
 20
227.109845382843
 10
998.28704113127
 20
227.302039892343
 10
998.13724722627
 20
227.503335502443
 10
998.021172884969
 20
227.711920246743
 10
997.93986295297
 20
227.925916545243
 10
997.89404934327
 20
228.143398106043
 10
997.88414444817
 20
228.362407264243
 10
997.91023742657
 20
228.580972604443
 10
997.97209340217
 20
228.797126706243
 10
998.069155576969
 20
229.008923854043
 10
998.20055024397
 20
229.214457551543
  0
LWPOLYLINE
  5
29A
330
1F
100
AcDbEntity
  8
0
  6
AUSGEZOGEN
 62
   136
370
    25
100
AcDbPolyline
 90
        5
 70
     0
 43
0.0
 10
1003.562611141445
 20
226.183999664646
 10
1003.530531061799
 20
226.193348526839
 10
1003.499700486846
 20
226.197110905399
 10
1003.470845327071
 20
226.195044781226
 10
1003.444594484773
 20
226.187135249625
  0
LWPOLYLINE
  5
29B
330
1F
100
AcDbEntity
  8
0
  6
AUSGEZOGEN
 62
   136
370
    25
100
AcDbPolyline
 90
        3
 70
     0
 43
0.0
 10
1003.652922203464
 20
226.136488065091
 10
1003.607057292994
 20
226.163867901993
 10
1003.562611141445
 20
226.183999664647
  0
LWPOLYLINE
  5
29C
330
1F
100
AcDbEntity
  8
0
  6
AUSGEZOGEN
 62
   136
370
    25
100
AcDbPolyline
 90
        3
 70
     0
 43
0.0
 10
998.08253358725
 20
229.347581097959
 10
998.040017703151
 20
229.377677457806
 10
997.999330740488
 20
229.400236945819
  0
LWPOLYLINE
  5
29D
330
1F
100
AcDbEntity
  8
0
  6
AUSGEZOGEN
 62
   136
370
    25
100
AcDbPolyline
 90
        5
 70
     0
 43
0.0
 10
998.200550243922
 20
229.214457551501
 10
998.174061448124
 20
229.252989595946
 10
998.145181620998
 20
229.288352633934
 10
998.114586439738
 20
229.319932909227
 10
998.08253358725
 20
229.347581097959
  0
ARC
  5
29E
330
1F
100
AcDbEntity
  8
0
  6
AUSGEZOGEN
 62
   136
370
    25
100
AcDbCircle
 10
991.27704104057
 20
211.800027512943
 30
0.0
 40
18.74026022387365
100
AcDbArc
 50
64.2849555715
 51
68.3185616379
  0
LWPOLYLINE
  5
29F
330
1F
100
AcDbEntity
  8
0
  6
AUSGEZOGEN
 62
   136
370
    25
100
AcDbPolyline
 90
       16
 70
     0
 43
0.0
 10
999.40835880197
 20
228.684310877043
 10
999.38364920367
 20
228.506557238643
 10
999.39710131477
 20
228.328401333243
 10
999.44850975867
 20
228.152563107943
 10
999.53708967107
 20
227.981727124943
 10
999.66148868217
 20
227.818501576243
 10
999.81980756377
 20
227.665378463443
 10
1000.00962922557
 20
227.524695552243
 10
1000.22805561667
 20
227.398600680543
 10
1000.47175197177
 20
227.289018967743
 10
1000.73699772277
 20
227.197623422843
 10
1001.01974330237
 20
227.125809402343
 10
1001.31567196917
 20
227.074673307343
 10
1001.62026571277
 20
227.044995844343
 10
1001.92887423077
 20
227.037230105943
 10
1002.23678592677
 20
227.051494653443
  0
ARC
  5
2A0
330
1F
100
AcDbEntity
  8
0
  6
AUSGEZOGEN
 62
   136
370
    25
100
AcDbCircle
 10
987.27831977337
 20
204.873309633143
 30
0.0
 40
26.75121680323561
100
AcDbArc
 50
52.8201299974
 51
56.0016132178
  0
LWPOLYLINE
  5
2A1
330
1F
100
AcDbEntity
  8
0
  6
AUSGEZOGEN
 62
   136
370
    25
100
AcDbPolyline
 90
        5
 70
     0
 43
0.0
 10
1005.683931485005
 20
227.40861183238
 10
1005.705410222662
 20
227.399310255316
 10
1005.726447369103
 20
227.38756758248
 10
1005.747027285187
 20
227.373443263375
 10
1005.767134331767
 20
227.356996747502
  0
LWPOLYLINE
  5
2A2
330
1F
100
AcDbEntity
  8
0
  6
AUSGEZOGEN
 62
   136
370
    25
100
AcDbPolyline
 90
        2
 70
     0
 43
0.0
 10
1005.767134331767
 20
227.356996747502
 10
1005.773190103336
 20
227.351604702378
  0
LWPOLYLINE
  5
2A3
330
1F
100
AcDbEntity
  8
0
  6
AUSGEZOGEN
 62
   136
370
    25
100
AcDbPolyline
 90
        9
 70
     0
 43
0.0
 10
1005.773190103336
 20
227.351604702378
 10
1005.797789798724
 20
227.327345158976
 10
1005.820847189754
 20
227.300140814419
 10
1005.842262040151
 20
227.270285236806
 10
1005.86193411364
 20
227.238071994237
 10
1005.879754241333
 20
227.203801797346
 10
1005.895582450419
 20
227.167857288029
 10
1005.909272298742
 20
227.130654931271
 10
1005.920677344146
 20
227.09261119206
  0
LWPOLYLINE
  5
2A4
330
1F
100
AcDbEntity
  8
0
  6
AUSGEZOGEN
 62
   136
370
    25
100
AcDbPolyline
 90
       14
 70
     0
 43
0.0
 10
1006.11045067205
 20
226.462854799322
 10
1006.101352378606
 20
226.532658502468
 10
1006.090785139872
 20
226.57579183463
 10
1006.076075990706
 20
226.618803681639
 10
1006.057954903479
 20
226.661595840779
 10
1006.037151850562
 20
226.704070109334
 10
1005.990055599172
 20
226.786535400998
 10
1005.963396720393
 20
226.827052320761
 10
1005.934521315637
 20
226.86703360529
 10
1005.90241931956
 20
226.907529157235
 10
1005.867855135198
 20
226.947261476135
 10
1005.830824061764
 20
226.986080233486
 10
1005.791321398474
 20
227.023835100787
 10
1005.683931485005
 20
227.114535842693
  0
LINE
  5
2A5
330
1F
100
AcDbEntity
  8
0
  6
AUSGEZOGEN
 62
   136
370
    25
100
AcDbLine
 10
1005.68393148497
 20
227.114535842643
 30
0.0
 11
1005.68393148497
 21
227.408611832343
 31
0.0
  0
LWPOLYLINE
  5
2A6
330
1F
100
AcDbEntity
  8
0
  6
AUSGEZOGEN
 62
   136
370
    25
100
AcDbPolyline
 90
       33
 70
     0
 43
0.0
 10
1000.203853930809
 20
230.278117276006
 10
1000.134520975187
 20
230.302193834827
 10
1000.062729098676
 20
230.324586307287
 10
999.960402038774
 20
230.349840382563
 10
999.875822925389
 20
230.366298118984
 10
999.788120428681
 20
230.379785899991
 10
999.701801885564
 20
230.389733665123
 10
999.613232690795
 20
230.396805571751
 10
999.553201407436
 20
230.399915388037
 10
999.428218933096
 20
230.402258120299
 10
999.296508092061
 20
230.398976172244
 10
999.2027292163
 20
230.393171041751
 10
999.108653164029
 20
230.384502331087
 10
999.046048247039
 20
230.377155423352
 10
998.91783286876
 20
230.358138996764
 10
998.788037259554
 20
230.333313135365
 10
998.668830266795
 20
230.305316371193
 10
998.552264298997
 20
230.272766186836
 10
998.43725953807
 20
230.235136074656
 10
998.324457576125
 20
230.192207463568
 10
998.248671595815
 20
230.159527498401
 10
998.17624601884
 20
230.124966657408
 10
998.10635134456
 20
230.088033722092
 10
998.040528274316
 20
230.049454858716
 10
997.956944011682
 20
229.993851468141
 10
997.903002876047
 20
229.9529149668
 10
997.853684286013
 20
229.910910939071
 10
997.808477191164
 20
229.867287426385
 10
997.768574437116
 20
229.822922087268
 10
997.722279267635
 20
229.760884713331
 10
997.6947245292
 20
229.716001748106
 10
997.674194871598
 20
229.67100875406
 10
997.662468537059
 20
229.630283522387
  0
ARC
  5
2A7
330
1F
100
AcDbEntity
  8
0
  6
AUSGEZOGEN
 62
   136
370
    25
100
AcDbCircle
 10
991.897472057969
 20
209.561291430943
 30
0.0
 40
22.32001014593209
100
AcDbArc
 50
51.8536237421
 51
68.1517527906
  0
LWPOLYLINE
  5
2A8
330
1F
100
AcDbEntity
  8
0
  6
AUSGEZOGEN
 62
   136
370
    25
100
AcDbPolyline
 90
       14
 70
     0
 43
0.0
 10
999.62421285987
 20
228.681459561943
 10
999.62545495387
 20
228.511476050943
 10
999.66491497837
 20
228.343024308743
 10
999.74192498427
 20
228.178955757543
 10
999.85518140517
 20
228.022047623943
 10
1000.00276712307
 20
227.874955928943
 10
1000.18218391987
 20
227.740170528043
 10
1000.39039476547
 20
227.619972965343
 10
1000.62387522607
 20
227.516397853243
 10
1000.87867312307
 20
227.431198431743
 10
1001.15047543287
 20
227.365816891643
 10
1001.43468129387
 20
227.321359961543
 10
1001.72647988697
 20
227.298580174243
 10
1002.02093186887
 20
227.297863128643
  0
LWPOLYLINE
  5
2A9
330
1F
100
AcDbEntity
  8
0
  6
AUSGEZOGEN
 62
   136
370
    25
100
AcDbPolyline
 90
        9
 70
     0
 43
0.0
 10
1002.23678592672
 20
227.051494653417
 10
1002.216527539814
 20
227.090139692797
 10
1002.193284988184
 20
227.127183480484
 10
1002.167640172233
 20
227.162218322497
 10
1002.140174992365
 20
227.194836524859
 10
1002.111471577856
 20
227.224719191551
 10
1002.08187702174
 20
227.251835201815
 10
1002.051620670062
 20
227.276208524557
 10
1002.020931868869
 20
227.297863128686
  0
LWPOLYLINE
  5
2AA
330
1F
100
AcDbEntity
  8
0
  6
AUSGEZOGEN
 62
   136
370
    25
100
AcDbPolyline
 90
        9
 70
     0
 43
0.0
 10
999.624212859826
 20
228.681459561929
 10
999.593564523821
 20
228.695192940732
 10
999.563185840912
 20
228.705768501052
 10
999.533481788841
 20
228.712852987463
 10
999.504857345347
 20
228.716113144541
 10
999.477558927735
 20
228.715207915236
 10
999.451969666391
 20
228.709812103503
 10
999.428699608681
 20
228.699616245419
 10
999.408358801974
 20
228.684310877062
  0
LWPOLYLINE
  5
2AB
330
1F
100
AcDbEntity
  8
0
  6
AUSGEZOGEN
 62
   136
370
    25
100
AcDbPolyline
 90
       14
 70
     0
 43
0.0
 10
1002.01829289437
 20
227.299600880043
 10
1001.72458546497
 20
227.300487382743
 10
1001.43355656127
 20
227.323351105943
 10
1001.15011978387
 20
227.367806028643
 10
1000.87906055157
 20
227.433101594143
 10
1000.62495530627
 20
227.518135381443
 10
1000.39209424617
 20
227.621471718443
 10
1000.18440889257
 20
227.741365921143
 10
1000.00540571117
 20
227.875793749743
 10
999.85810691107
 20
228.022485585443
 10
999.74499941877
 20
228.178964749443
 10
999.66799289017
 20
228.342589318143
 10
999.62838746867
 20
228.510596728143
 10
999.62685183437
 20
228.680150418043
  0
LWPOLYLINE
  5
2AC
330
1F
100
AcDbEntity
  8
0
  6
AUSGEZOGEN
 62
   136
370
    25
100
AcDbPolyline
 90
        9
 70
     0
 43
0.0
 10
1002.02093186887
 20
227.297863128643
 10
1002.02060199867
 20
227.298080372543
 10
1002.02027212797
 20
227.298297609243
 10
1002.01994225677
 20
227.298514838843
 10
1002.01961238517
 20
227.298732061343
 10
1002.01928251317
 20
227.298949276643
 10
1002.01895264067
 20
227.299166484943
 10
1002.01862276767
 20
227.299383686043
 10
1002.01829289437
 20
227.299600880043
  0
LWPOLYLINE
  5
2AD
330
1F
100
AcDbEntity
  8
0
  6
AUSGEZOGEN
 62
   136
370
    25
100
AcDbPolyline
 90
        9
 70
     0
 43
0.0
 10
999.62685183437
 20
228.680150418043
 10
999.62652196097
 20
228.680314087843
 10
999.62619208807
 20
228.680477749843
 10
999.62586221557
 20
228.680641404343
 10
999.62553234347
 20
228.680805051143
 10
999.62520247187
 20
228.680968690343
 10
999.62487260077
 20
228.681132321843
 10
999.62454273007
 20
228.681295945743
 10
999.62421285987
 20
228.681459561943
  0
ARC
  5
2AE
330
1F
100
AcDbEntity
  8
0
  6
AUSGEZOGEN
 62
   136
370
    25
100
AcDbCircle
 10
1000.86035832607
 20
228.625248931743
 30
0.0
 40
0.9895219032448596
100
AcDbArc
 50
190.4208941999
 51
238.7288499363
  0
LWPOLYLINE
  5
2AF
330
1F
100
AcDbEntity
  8
0
  6
AUSGEZOGEN
 62
   136
370
    25
100
AcDbPolyline
 90
        8
 70
     0
 43
0.0
 10
1002.018292894321
 20
227.299600879993
 10
1001.992767970853
 20
227.315438875314
 10
1001.962326052388
 20
227.332610592703
 10
1001.931927313285
 20
227.347117576247
 10
1001.902053571044
 20
227.358099402052
 10
1001.873186643163
 20
227.364695646222
 10
1001.843673808163
 20
227.366596929904
 10
1001.815015860467
 20
227.365485552328
  0
LWPOLYLINE
  5
2B0
330
1F
100
AcDbEntity
  8
0
  6
AUSGEZOGEN
 62
   136
370
    25
100
AcDbPolyline
 90
        9
 70
     0
 43
0.0
 10
999.887158017654
 20
228.446266372205
 10
999.85846837769
 20
228.484790908288
 10
999.827964873465
 20
228.520965631543
 10
999.796085469545
 20
228.554618119744
 10
999.763268130496
 20
228.585575950663
 10
999.72973290638
 20
228.613790754296
 10
999.695613159938
 20
228.639143604433
 10
999.661216824744
 20
228.661356244539
 10
999.626851834374
 20
228.680150418077
  0
ARC
  5
2B1
330
1F
100
AcDbEntity
  8
0
  6
AUSGEZOGEN
 62
   136
370
    25
100
AcDbCircle
 10
989.52532382557
 20
208.336734310043
 30
0.0
 40
22.62213269305189
100
AcDbArc
 50
57.2660596877
 51
62.739316845
  0
LWPOLYLINE
  5
2B2
330
1F
100
AcDbEntity
  8
0
  6
AUSGEZOGEN
 62
   136
370
    25
100
AcDbPolyline
 90
       27
 70
     0
 43
0.0
 10
1005.77319010337
 20
227.351604702343
 10
1005.92191950637
 20
227.565454772943
 10
1006.03546132397
 20
227.786378778943
 10
1006.11282630857
 20
228.012451891243
 10
1006.15334040747
 20
228.241704418343
 10
1006.15665063647
 20
228.472138967843
 10
1006.12272815457
 20
228.701747848843
 10
1006.05186851597
 20
228.928530564043
 10
1005.94468909447
 20
229.150511239543
 10
1005.80212370457
 20
229.365755839943
 10
1005.62541446597
 20
229.572389018543
 10
1005.41610098077
 20
229.768610457043
 10
1005.176006919969
 20
229.952710550543
 10
1004.90722413417
 20
230.123085303143
 10
1004.61209442847
 20
230.278250302543
 10
1004.29318915877
 20
230.416853653643
 10
1003.95328682867
 20
230.537687756643
 10
1003.59534888137
 20
230.639699828743
 10
1003.22249389787
 20
230.722001076443
 10
1002.837970425669
 20
230.783874439443
 10
1002.44512867547
 20
230.824780838143
 10
1002.04739133207
 20
230.844363870043
 10
1001.64822373377
 20
230.842452915543
 10
1001.25110368037
 20
230.819064624043
 10
1000.85949113167
 20
230.774402769143
 10
1000.47679806307
 20
230.708856472943
 10
1000.10635873767
 20
230.622996816243
  0
LWPOLYLINE
  5
2B3
330
1F
100
AcDbEntity
  8
0
  6
AUSGEZOGEN
 62
   136
370
    25
100
AcDbPolyline
 90
        9
 70
     0
 43
0.0
 10
999.896013518955
 20
230.570575587789
 10
999.915217926515
 20
230.590897365682
 10
999.937341786376
 20
230.607329802693
 10
999.961938050213
 20
230.6198505515
 10
999.988559669702
 20
230.628437264781
 10
1000.016759596519
 20
230.633067595215
 10
1000.046090782342
 20
230.63371919548
 10
1000.076106178846
 20
230.630369718255
 10
1000.106358737706
 20
230.622996816217
  0
LWPOLYLINE
  5
2B4
330
1F
100
AcDbEntity
  8
0
  6
AUSGEZOGEN
 62
   136
370
    25
100
AcDbPolyline
 90
        5
 70
     0
 43
0.0
 10
1000.203853930809
 20
230.572193265693
 10
1000.235934010456
 20
230.544503256321
 10
1000.266764585408
 20
230.512669410727
 10
1000.295619745184
 20
230.477287828217
 10
1000.321870587482
 20
230.439069719236
  0
ARC
  5
2B5
330
1F
100
AcDbEntity
  8
0
  6
AUSGEZOGEN
 62
   136
370
    25
100
AcDbCircle
 10
993.39836138407
 20
213.024639680543
 30
0.0
 40
18.74026022391876
100
AcDbArc
 50
64.2849555715
 51
68.3185616379
  0
LWPOLYLINE
  5
2B6
330
1F
100
AcDbEntity
  8
0
  6
AUSGEZOGEN
 62
   136
370
    25
100
AcDbPolyline
 90
        9
 70
     0
 43
0.0
 10
1001.529679145534
 20
229.908923044796
 10
1001.550085219923
 20
229.924276845085
 10
1001.573376947447
 20
229.934467347875
 10
1001.59895119383
 20
229.939835965295
 10
1001.626204824794
 20
229.940724109474
 10
1001.654777858353
 20
229.937470753896
 10
1001.684451334004
 20
229.930399084682
 10
1001.714833649698
 20
229.919826832911
 10
1001.745533203386
 20
229.906071729663
  0
LWPOLYLINE
  5
2B7
330
1F
100
AcDbEntity
  8
0
  6
AUSGEZOGEN
 62
   136
370
    25
100
AcDbPolyline
 90
        9
 70
     0
 43
0.0
 10
1001.74553320337
 20
229.906071729643
 10
1001.74586307367
 20
229.905908113443
 10
1001.74619294437
 20
229.905744489543
 10
1001.74652281547
 20
229.905580858043
 10
1001.74685268707
 20
229.905417218843
 10
1001.74718255907
 20
229.905253572043
 10
1001.74751243157
 20
229.905089917643
 10
1001.74784230457
 20
229.904926255543
 10
1001.74817217797
 20
229.904762585843
  0
LWPOLYLINE
  5
2B8
330
1F
100
AcDbEntity
  8
0
  6
AUSGEZOGEN
 62
   136
370
    25
100
AcDbPolyline
 90
        9
 70
     0
 43
0.0
 10
1001.748172177934
 20
229.904762585811
 10
1001.782526299166
 20
229.885982680966
 10
1001.816888408886
 20
229.863800951103
 10
1001.85100303141
 20
229.838450576693
 10
1001.884614691056
 20
229.810164738206
 10
1001.917448440024
 20
229.779220745848
 10
1001.949218307836
 20
229.745716085763
 10
1001.979652284798
 20
229.709614202333
 10
1002.008478361214
 20
229.670878539939
  0
ARC
  5
2B9
330
1F
100
AcDbEntity
  8
0
  6
AUSGEZOGEN
 62
   136
370
    25
100
AcDbCircle
 10
991.64664416917
 20
209.561346477843
 30
0.0
 40
22.62213269303963
100
AcDbArc
 50
57.2660596877
 51
62.739316845
  0
LWPOLYLINE
  5
2BA
330
1F
100
AcDbEntity
  8
0
  6
AUSGEZOGEN
 62
   136
370
    25
100
AcDbPolyline
 90
        9
 70
     0
 43
0.0
 10
1003.879307054601
 20
228.59087212383
 10
1003.90808839495
 20
228.59630387584
 10
1003.938565477345
 20
228.597261492163
 10
1003.970391163747
 20
228.594090359596
 10
1004.003218316122
 20
228.587135864935
 10
1004.036819417331
 20
228.576601783293
 10
1004.070975323476
 20
228.562532459232
 10
1004.105351456384
 20
228.54503413372
 10
1004.13961323788
 20
228.524213047727
  0
LWPOLYLINE
  5
2BB
330
1F
100
AcDbEntity
  8
0
  6
AUSGEZOGEN
 62
   136
370
    25
100
AcDbPolyline
 90
        9
 70
     0
 43
0.0
 10
1004.13961323787
 20
228.524213047743
 10
1004.13994311127
 20
228.523995853743
 10
1004.14027298417
 20
228.523778652643
 10
1004.14060285667
 20
228.523561444443
 10
1004.14093272877
 20
228.523344229043
 10
1004.14126260037
 20
228.523127006543
 10
1004.14159247147
 20
228.522909776943
 10
1004.14192234217
 20
228.522692540243
 10
1004.14225221247
 20
228.522475296443
  0
LWPOLYLINE
  5
2BC
330
1F
100
AcDbEntity
  8
0
  6
AUSGEZOGEN
 62
   136
370
    25
100
AcDbPolyline
 90
        9
 70
     0
 43
0.0
 10
1004.142252212429
 20
228.522475296421
 10
1004.173030708041
 20
228.500762702104
 10
1004.203303882059
 20
228.4763739935
 10
1004.23290258632
 20
228.449234230505
 10
1004.261657672663
 20
228.419268473014
 10
1004.289157633698
 20
228.386591840665
 10
1004.314751390561
 20
228.351604383866
 10
1004.337910437879
 20
228.314658558676
 10
1004.358106270279
 20
228.276106821152
  0
ARC
  5
2BD
330
1F
100
AcDbEntity
  8
0
  6
AUSGEZOGEN
 62
   136
370
    25
100
AcDbCircle
 10
989.39964011927
 20
206.097921804143
 30
0.0
 40
26.75121679921747
100
AcDbArc
 50
52.8201299971
 51
56.001613218
  0
LWPOLYLINE
  5
2BE
330
1F
100
AcDbEntity
  8
0
  6
AUSGEZOGEN
 62
   136
370
    25
100
AcDbPolyline
 90
        5
 70
     0
 43
0.0
 10
1005.565914828333
 20
227.411747417359
 10
1005.592403624131
 20
227.419696149159
 10
1005.621283451256
 20
227.421715248494
 10
1005.651878632516
 20
227.417971079406
 10
1005.683931485005
 20
227.40861183238
  0
LINE
  5
2BF
330
1F
100
AcDbEntity
  8
0
  6
AUSGEZOGEN
 62
   136
370
    25
100
AcDbLine
 10
1000.20385393077
 20
230.278117276043
 30
0.0
 11
1000.20385393077
 21
230.572193265643
 31
0.0
  0
LWPOLYLINE
  5
2C0
330
1F
100
AcDbEntity
  8
0
  6
AUSGEZOGEN
 62
   136
370
    25
100
AcDbPolyline
 90
       27
 70
     0
 43
0.0
 10
1000.11354286877
 20
230.620745628243
 10
1000.48309424237
 20
230.706175285643
 10
1000.86482560007
 20
230.771357211143
 10
1001.25541621127
 20
230.815724379043
 10
1001.65146827797
 20
230.838890833343
 10
1002.04953649177
 20
230.840655046143
 10
1002.44615800607
 20
230.821001670443
 10
1002.83788255887
 20
230.780101673343
 10
1003.22130248767
 20
230.718310849343
 10
1003.59308237307
 20
230.636166724643
 10
1003.94998805367
 20
230.534383881743
 10
1004.28891476077
 20
230.413847742643
 10
1004.60691412717
 20
230.275606866943
 10
1004.90121983537
 20
230.120863829743
 10
1005.16927168187
 20
229.950964760843
 10
1005.40873784897
 20
229.767387634143
 10
1005.617535189569
 20
229.571729410843
 10
1005.79384734867
 20
229.365692147043
 10
1005.93614056387
 20
229.151068187643
 10
1006.04317700827
 20
228.929724574143
 10
1006.11402555777
 20
228.703586803243
 10
1006.14806989187
 20
228.474622076743
 10
1006.14501385447
 20
228.244822188343
 10
1006.10488403037
 20
228.016186196943
 10
1006.02802951417
 20
227.790703036543
 10
1005.91511887327
 20
227.570334214443
 10
1005.76713433177
 20
227.356996747543
  0
LWPOLYLINE
  5
2C1
330
1F
100
AcDbEntity
  8
0
  6
AUSGEZOGEN
 62
   136
370
    25
100
AcDbPolyline
 90
       26
 70
     0
 43
0.0
 10
1000.32187058747
 20
230.439069719243
 10
1000.67790397117
 20
230.514922245943
 10
1001.04478714457
 20
230.570955046743
 10
1001.41921760157
 20
230.606663741343
 10
1001.79782489837
 20
230.621726897143
 10
1002.17720099387
 20
230.616008922943
 10
1002.55393092627
 20
230.589561289043
 10
1002.92462355327
 20
230.542622064443
 10
1003.28594207767
 20
230.475613773443
 10
1003.63463408337
 20
230.389139592743
 10
1003.96756081197
 20
230.283977921343
 10
1004.28172541677
 20
230.161075374243
 10
1004.57429993857
 20
230.021538261143
 10
1004.84265076197
 20
229.866622628243
 10
1005.08436232127
 20
229.697722951943
 10
1005.29725884517
 20
229.516359586043
 10
1005.47942394097
 20
229.324165076543
 10
1005.62921784607
 20
229.122869466443
 10
1005.74529218727
 20
228.914284722143
 10
1005.82660211927
 20
228.700288423543
 10
1005.87241572897
 20
228.482806862843
 10
1005.88232062407
 20
228.263797704643
 10
1005.85622764567
 20
228.045232364443
 10
1005.79437167017
 20
227.829078262643
 10
1005.69730949527
 20
227.617281114843
 10
1005.56591482837
 20
227.411747417343
  0
LWPOLYLINE
  5
2C2
330
1F
100
AcDbEntity
  8
0
  6
AUSGEZOGEN
 62
   136
370
    25
100
AcDbPolyline
 90
        5
 70
     0
 43
0.0
 10
1000.11354286879
 20
230.62074562823
 10
1000.136554294749
 20
230.6122392292
 10
1000.15940777926
 20
230.601290722125
 10
1000.181906574041
 20
230.587931577469
 10
1000.20385393081
 20
230.572193265694
  0
LWPOLYLINE
  5
2C3
330
1F
100
AcDbEntity
  8
0
  6
AUSGEZOGEN
 62
   136
370
    25
100
AcDbPolyline
 90
        2
 70
     0
 43
0.0
 10
1000.106358737706
 20
230.622996816217
 10
1000.11354286879
 20
230.62074562823
  0
ARC
  5
2C4
330
1F
100
AcDbEntity
  8
0
  6
AUSGEZOGEN
 62
   136
370
    25
100
AcDbCircle
 10
1003.42945087757
 20
228.474041910943
 30
0.0
 40
0.9495152122105547
100
AcDbArc
 50
347.9679329634
 51
44.1469459136
  0
LWPOLYLINE
  5
2C5
330
1F
100
AcDbEntity
  8
0
  6
AUSGEZOGEN
 62
   136
370
    25
100
AcDbPolyline
 90
       14
 70
     0
 43
0.0
 10
1004.14225221247
 20
228.522475296443
 10
1004.14101011847
 20
228.692458807343
 10
1004.10155009397
 20
228.860910549543
 10
1004.02454008797
 20
229.024979100843
 10
1003.91128366707
 20
229.181887234343
 10
1003.76369794917
 20
229.328978929443
 10
1003.58428115237
 20
229.463764330243
 10
1003.37607030677
 20
229.583961892943
 10
1003.14258984617
 20
229.687537005143
 10
1002.88779194917
 20
229.772736426543
 10
1002.61598963937
 20
229.838117966643
 10
1002.33178377837
 20
229.882574896743
 10
1002.03998518527
 20
229.905354684043
 10
1001.74553320337
 20
229.906071729643
  0
LWPOLYLINE
  5
2C6
330
1F
100
AcDbEntity
  8
0
  6
AUSGEZOGEN
 62
   136
370
    25
100
AcDbPolyline
 90
       14
 70
     0
 43
0.0
 10
1001.74817217797
 20
229.904762585843
 10
1002.041879607269
 20
229.903876083043
 10
1002.33290851097
 20
229.881012359843
 10
1002.61634528837
 20
229.836557437143
 10
1002.88740452067
 20
229.771261871643
 10
1003.14150976597
 20
229.686228084343
 10
1003.374370826069
 20
229.582891747343
 10
1003.58205617967
 20
229.462997544743
 10
1003.76105936107
 20
229.328569716143
 10
1003.90835816117
 20
229.181877880443
 10
1004.021465653469
 20
229.025398716343
 10
1004.09847218217
 20
228.861774147643
 10
1004.13807760367
 20
228.693766737643
 10
1004.13961323787
 20
228.524213047743
  0
LWPOLYLINE
  5
2C7
330
1F
100
AcDbEntity
  8
0
  6
AUSGEZOGEN
 62
   136
370
    25
100
AcDbPolyline
 90
       11
 70
     0
 43
0.0
 10
1002.00847836117
 20
229.670878539943
 10
1002.29469480527
 20
229.648446633343
 10
1002.57232920067
 20
229.602448379443
 10
1002.83559080517
 20
229.533843183943
 10
1003.07898865627
 20
229.444061975343
 10
1003.29744609847
 20
229.334977359843
 10
1003.48640666927
 20
229.208864562843
 10
1003.64192913517
 20
229.068353974243
 10
1003.760769696069
 20
228.916376284843
 10
1003.84044964237
 20
228.756101359943
 10
1003.87930705457
 20
228.590872123843
  0
LWPOLYLINE
  5
2C8
330
1F
100
AcDbEntity
  8
0
  6
AUSGEZOGEN
 62
   136
370
    25
100
AcDbPolyline
 90
       19
 70
     0
 43
0.0
 10
1004.62327131327
 20
207.611945522343
 10
1004.871321450169
 20
207.769466760043
 10
1005.09231099117
 20
207.939886402643
 10
1005.28423862067
 20
208.121661103643
 10
1005.44536621247
 20
208.313144683043
 10
1005.57423457017
 20
208.512603035843
 10
1005.66967664177
 20
208.718229836543
 10
1005.73082808927
 20
208.928162896743
 10
1005.75713511557
 20
209.140501030343
 10
1005.74835948027
 20
209.353321270143
 10
1005.70458065677
 20
209.564696283243
 10
1005.62619511297
 20
209.772711824743
 10
1005.51391272047
 20
209.975484073743
 10
1005.36875032607
 20
210.171176693143
 10
1005.19202254267
 20
210.358017460543
 10
1004.98532984467
 20
210.534314316843
 10
1004.75054407307
 20
210.698470690543
 10
1004.48979148427
 20
210.848999956043
 10
1004.23906455657
 20
210.969839590943
  0
LWPOLYLINE
  5
2C9
330
1F
100
AcDbEntity
  8
0
  6
AUSGEZOGEN
 62
   136
370
    25
100
AcDbPolyline
 90
       37
 70
     0
 43
0.0
 10
999.52400045887
 20
210.968334910843
 10
999.41605811137
 20
210.918723251643
 10
999.14319375907
 20
210.775526955643
 10
998.89514362207
 20
210.618005717943
 10
998.674154081169
 20
210.447586075343
 10
998.48222645157
 20
210.265811374343
 10
998.32109885977
 20
210.074327794943
 10
998.19223050217
 20
209.874869442143
 10
998.09678843047
 20
209.669242641443
 10
998.03563698297
 20
209.459309581243
 10
998.00932995667
 20
209.246971447643
 10
998.01810559197
 20
209.034151207843
 10
998.06188441547
 20
208.822776194743
 10
998.14026995927
 20
208.614760653243
 10
998.25255235177
 20
208.411988404343
 10
998.39771474627
 20
208.216295784843
 10
998.57444252957
 20
208.029455017443
 10
998.78113522757
 20
207.853158161143
 10
999.01592099917
 20
207.689001787443
 10
999.27667358807
 20
207.538472521943
 10
999.56103157837
 20
207.402933581043
 10
999.86641978027
 20
207.283612426343
 10
1000.19007255067
 20
207.181589648643
 10
1000.52905884017
 20
207.097789182043
 10
1000.88030873637
 20
207.032969936543
 10
1001.24064126577
 20
206.987718925343
 10
1001.60679320127
 20
206.962445948543
 10
1001.97544861407
 20
206.957379882043
 10
1002.34326890397
 20
206.972566605143
 10
1002.70692303317
 20
207.007868584343
 10
1003.063117693669
 20
207.062966119443
 10
1003.40862713147
 20
207.137360238843
 10
1003.74032235967
 20
207.230377217643
 10
1004.05519949477
 20
207.341174679843
 10
1004.35040696087
 20
207.468749226343
 10
1004.62327131327
 20
207.611945522343
 10
1004.62327131327
 20
207.611945522343
  0
ARC
  5
2CA
330
1F
100
AcDbEntity
  8
0
  6
AUSGEZOGEN
 62
   136
370
    25
100
AcDbCircle
 10
1002.65695514257
 20
214.009837032643
 30
0.0
 40
18.93863536006822
100
AcDbArc
 50
61.5012454321
 51
85.0423357995
  0
LWPOLYLINE
  5
2CB
330
1F
100
AcDbEntity
  8
0
  6
AUSGEZOGEN
 62
   136
370
    25
100
AcDbPolyline
 90
      109
 70
     0
 43
0.0
 10
999.77302756307
 20
232.906237107643
 10
999.54090964387
 20
232.884451476443
 10
998.85680664647
 20
232.806540847443
 10
998.180348663569
 20
232.708885923043
 10
997.51324448657
 20
232.591733388143
 10
996.85717927877
 20
232.455379180043
 10
996.21381031767
 20
232.300167741543
 10
995.58476280917
 20
232.126491149943
 10
994.971625781769
 20
231.934788127643
 10
994.37594807287
 20
231.725542932843
 10
993.79923441617
 20
231.499284137343
 10
993.24294164017
 20
231.256583290343
 10
992.70847498897
 20
230.998053475243
 10
992.19718457157
 20
230.724347760843
 10
991.71036195187
 20
230.436157551543
 10
991.24923688627
 20
230.134210840743
 10
990.81497421647
 20
229.819270372043
 10
990.408670927869
 20
229.492131712543
 10
990.03135337767
 20
229.153621242743
 10
989.68397470287
 20
228.804594069443
 10
989.36741241207
 20
228.445931865743
 10
989.082466169169
 20
228.078540643343
 10
988.82985577307
 20
227.703348464443
 10
988.61021933957
 20
227.321303097043
 10
988.42411168927
 20
226.933369620843
 10
988.27200294637
 20
226.540527989543
 10
988.15427735067
 20
226.143770555043
 10
988.07123228727
 20
225.744099561243
 10
988.02307753527
 20
225.342524611743
 10
988.009934737669
 20
224.940060119643
 10
988.03183709427
 20
224.537722745143
 10
988.08872927797
 20
224.136528827443
 10
988.18046757407
 20
223.737491817143
 10
988.30682024377
 20
223.341619716443
 10
988.46746810917
 20
222.949912532643
 10
988.66200535977
 20
222.563359751943
 10
988.88994057767
 20
222.182937840343
 10
989.15069797877
 20
221.809607776443
 10
989.44361886717
 20
221.444312624643
 10
989.76796329927
 20
221.087975151943
 10
990.12291195297
 20
220.741495497943
 10
990.50756819707
 20
220.405748900143
 10
990.92096035657
 20
220.081583483743
 10
991.36204416707
 20
219.769818118543
 10
991.82970541247
 20
219.471240351143
 10
992.32276273987
 20
219.186604414643
 10
992.83997064367
 20
218.916629324243
 10
993.38002261197
 20
218.661997060443
 10
993.94155442637
 20
218.423350846543
 10
994.52314760907
 20
218.201293523443
 10
995.123333004969
 20
217.996386027243
 10
995.74059449377
 20
217.809145972043
 10
996.37337281937
 20
217.640046342543
 10
997.020069528869
 20
217.489514299143
 10
997.67905101017
 20
217.357930098643
 10
998.34865261877
 20
217.245626134343
 10
999.02718288307
 20
217.152886095643
 10
999.71292777677
 20
217.079944252143
 10
1000.40415504847
 20
217.026984861043
 10
1001.09911859837
 20
216.994141702443
 10
1001.79606288817
 20
216.981497741143
 10
1002.49322737597
 20
216.989084916643
 10
1003.18885096387
 20
217.016884063243
 10
1003.88117644637
 20
217.064824957943
 10
1004.56845494917
 20
217.132786497743
 10
1005.24895034707
 20
217.220597005943
 10
1005.92094364967
 20
217.328034665543
 10
1006.58273734357
 20
217.454828079743
 10
1007.23265968047
 20
217.600656957343
 10
1007.86906890007
 20
217.765152922043
 10
1008.49035737757
 20
217.947900442543
 10
1009.09495568437
 20
218.148437882943
 10
1009.68133655257
 20
218.366258668243
 10
1010.24801873317
 20
218.600812564143
 10
1010.79357073797
 20
218.851507067243
 10
1011.31661445507
 20
219.117708901343
 10
1011.81582863087
 20
219.398745617643
 10
1012.28995220677
 20
219.693907292943
 10
1012.73778750567
 20
220.002448323243
 10
1013.15820325667
 20
220.323589307043
 10
1013.55013745307
 20
220.656519014543
 10
1013.91260003517
 20
221.000396436243
 10
1014.24467539087
 20
221.354352907943
 10
1014.545524669169
 20
221.717494304943
 10
1014.81438789857
 20
222.088903300543
 10
1015.05058590727
 20
222.467641683343
 10
1015.25352203857
 20
222.852752727343
 10
1015.42268365817
 20
223.243263608643
 10
1015.55764344927
 20
223.638187862843
 10
1015.65806049157
 20
224.036527876943
 10
1015.72368112297
 20
224.437277409643
 10
1015.75433958007
 20
224.839424132743
 10
1015.74995841687
 20
225.241952188643
 10
1015.71054870077
 20
225.643844756743
 10
1015.63620998387
 20
226.044086621443
 10
1015.52713005237
 20
226.441666736943
 10
1015.38358445167
 20
226.835580781543
 10
1015.20593579027
 20
227.224833694043
 10
1014.99463282427
 20
227.608442187843
 10
1014.75020932317
 20
227.985437234643
 10
1014.47328272207
 20
228.354866512243
 10
1014.16455256157
 20
228.715796810143
 10
1013.82479872067
 20
229.067316387143
 10
1013.45487944737
 20
229.408537274243
 10
1013.05572918957
 20
229.738597517843
 10
1012.62835623567
 20
230.056663357243
 10
1012.17384016667
 20
230.361931330543
 10
1011.69332912977
 20
230.653630304143
 10
1011.69332912977
 20
230.653630304143
  0
LWPOLYLINE
  5
2CC
330
1F
100
AcDbEntity
  8
0
  6
AUSGEZOGEN
 62
   136
370
    25
100
AcDbPolyline
 90
       27
 70
     0
 43
0.0
 10
999.53668789017
 20
211.118857683643
 10
999.54267917237
 20
211.053453699243
 10
999.58261044457
 20
210.888200528943
 10
999.65741680267
 20
210.727032693743
 10
999.76596425827
 20
210.572393333843
 10
999.90660734287
 20
210.426626624243
 10
1000.07721405047
 20
210.291942239643
 10
1000.27519815737
 20
210.170381858043
 10
1000.49755842627
 20
210.063788210943
 10
1000.74092410227
 20
209.973777149343
 10
1001.00160600967
 20
209.901713149143
 10
1001.27565247657
 20
209.848688627343
 10
1001.55890923787
 20
209.815507381343
 10
1001.84708240967
 20
209.802672405243
 10
1002.13580358057
 20
209.810378264043
 10
1002.42069603197
 20
209.838508144843
 10
1002.69744108457
 20
209.886635627343
 10
1002.96184356557
 20
209.954031147943
 10
1003.20989540277
 20
210.039673059243
 10
1003.43783638327
 20
210.142263117243
 10
1003.64221115417
 20
210.260246161143
 10
1003.81992160217
 20
210.391833688243
 10
1003.96827381807
 20
210.535030965843
 10
1004.08501893357
 20
210.687667269143
 10
1004.16838721167
 20
210.847428787343
 10
1004.21711487417
 20
211.011893698843
 10
1004.229777182069
 20
211.118857683643
  0
ARC
  5
2CD
330
1F
100
AcDbEntity
  8
0
  6
AUSGEZOGEN
 62
   136
370
    25
100
AcDbCircle
 10
1001.88323253617
 20
204.798120496743
 30
0.0
 40
0.5787899674089005
100
AcDbArc
 50
227.7092782104
 51
312.2907217896
  0
LINE
  5
2CE
330
1F
100
AcDbEntity
  8
FORMAT
  6
DASHDOT
 62
    56
370
    18
100
AcDbLine
 10
915.375056942135
 20
286.858796384112
 30
0.0
 11
915.375056942135
 21
350.731273571444
 31
0.0
  0
LINE
  5
2CF
330
1F
100
AcDbEntity
  8
FORMAT
  6
DASHDOT
 62
    56
370
    18
100
AcDbLine
 10
915.375056942135
 20
209.856271533441
 30
0.0
 11
915.375056942135
 21
273.078083914307
 31
0.0
  0
LINE
  5
2D0
330
1F
100
AcDbEntity
  8
FORMAT
  6
DASHDOT
 62
    56
370
    18
100
AcDbLine
 10
883.479729364324
 20
241.287260322374
 30
0.0
 11
947.547305838603
 21
241.287260322374
 31
0.0
  0
TEXT
  5
2D1
330
1F
100
AcDbEntity
  8
0
  6
AUSGEZOGEN
 62
   136
370
    18
100
AcDbText
 10
996.459940301056
 20
239.009843655955
 30
0.0
 40
2.5
  1
M 1:2
 41
1.136923517617
  7
Arial
 72
     5
 11
1006.382440301056
 21
239.009843655955
 31
0.0
100
AcDbText
  0
DIMENSION
  5
2DC
330
1F
100
AcDbEntity
  8
Layer6
  6
AUSGEZOGEN
 62
   136
370
    18
100
AcDbDimension
  2
*D7
 10
945.375056942134
 20
203.481337362426
 30
0.0
 11
915.390276932701
 21
205.981337362426
 31
0.0
 70
   160
 71
     5
 42
-1.0
  3
ISO-25
100
AcDbAlignedDimension
 13
885.375056942134
 23
241.287260322374
 33
0.0
 14
945.375056942134
 24
241.287260322374
 34
0.0
100
AcDbRotatedDimension
1001
ACAD
1000
DSTYLE
1002
{
1070
     3
1000
<>
1070
    44
1040
1.785714285714
1070
   280
1070
     0
1070
    77
1070
     1
1070
    78
1070
     8
1070
   179
1070
     2
1070
   271
1070
     2
1070
   173
1070
     1
1070
    41
1040
2.5
1070
   147
1040
0.357142857143
1070
   140
1040
2.5
1070
   178
1070
   136
1070
   177
1070
   136
1070
   176
1070
   136
1002
}
  0
DIMENSION
  5
2E7
330
1F
100
AcDbEntity
  8
Layer6
  6
AUSGEZOGEN
 62
   136
370
    18
100
AcDbDimension
  2
*D8
 10
923.125056942134
 20
280.755048137473
 30
0.0
 11
914.852700377212
 21
283.255048137473
 31
0.0
 70
   160
 71
     5
 42
-1.0
  3
ISO-25
100
AcDbAlignedDimension
 13
907.625056942134
 23
300.699650381374
 33
0.0
 14
923.125056942134
 24
300.699650381374
 34
0.0
100
AcDbRotatedDimension
1001
ACAD
1000
DSTYLE
1002
{
1070
     3
1000
%%c<>
1070
    44
1040
1.785714285714
1070
   280
1070
     0
1070
    77
1070
     1
1070
    78
1070
     8
1070
   179
1070
     2
1070
   271
1070
     2
1070
   173
1070
     1
1070
    41
1040
2.5
1070
   147
1040
0.357142857143
1070
   140
1040
2.5
1070
   178
1070
   136
1070
   177
1070
   136
1070
   176
1070
   136
1002
}
  0
DIMENSION
  5
2F3
330
1F
100
AcDbEntity
  8
Layer6
  6
AUSGEZOGEN
 62
   136
370
    18
100
AcDbDimension
  2
*D9
 10
952.437268182408
 20
288.652529202974
 30
0.0
 11
949.937268182408
 21
309.009240484479
 31
0.0
 70
   160
 71
     5
 42
-1.0
 53
90.0
  3
ISO-25
100
AcDbAlignedDimension
 13
944.875056942134
 23
337.699650381374
 33
0.0
 14
915.375056942135
 24
288.652529202974
 34
0.0
 50
-90.0
100
AcDbRotatedDimension
1001
ACAD
1000
DSTYLE
1002
{
1070
     3
1000
<>
1070
    44
1040
1.785714285714
1070
   280
1070
     0
1070
    77
1070
     1
1070
    78
1070
     8
1070
   179
1070
     1
1070
   271
1070
     1
1070
   173
1070
     1
1070
    41
1040
2.5
1070
   147
1040
0.357142857143
1070
   140
1040
2.5
1070
   178
1070
   136
1070
   177
1070
   136
1070
   176
1070
   136
1002
}
  0
DIMENSION
  5
302
330
1F
100
AcDbEntity
  8
Layer6
  6
AUSGEZOGEN
 62
   136
370
    18
100
AcDbDimension
  2
*D10
 10
952.446510280099
 20
348.240578698174
 30
0.0
 11
949.946510280099
 21
342.221816362204
 31
0.0
 70
   160
 71
     5
 42
-1.0
 53
90.0
  3
ISO-25
100
AcDbAlignedDimension
 13
944.875056942134
 23
337.699650381374
 33
0.0
 14
912.358396735334
 24
348.240578698174
 34
0.0
 50
90.0
100
AcDbRotatedDimension
1001
ACAD
1000
DSTYLE
1002
{
1070
     3
1000
<>
1070
    44
1040
1.785714285714
1070
   280
1070
     0
1070
    77
1070
     1
1070
    78
1070
     8
1070
   179
1070
     1
1070
   271
1070
     1
1070
   173
1070
     1
1070
    41
1040
2.5
1070
   147
1040
0.357142857143
1070
   140
1040
2.5
1070
   178
1070
   136
1070
   177
1070
   136
1070
   176
1070
   136
1002
}
  0
INSERT
  5
30A
330
1F
100
AcDbEntity
  8
0
100
AcDbBlockReference
  2
DimBlk_nNn010
 10
0.0
 20
0.0
 30
0.0
  0
ENDSEC
  0
SECTION
  2
OBJECTS
  0
DICTIONARY
  5
C
330
0
100
AcDbDictionary
281
     1
  3
ACAD_GROUP
350
D
  3
ACAD_LAYOUT
350
1A
  3
ACAD_MATERIAL
350
3B
  3
ACAD_MLEADERSTYLE
350
332
  3
ACAD_MLINESTYLE
350
17
  3
ACAD_PLOTSETTINGS
350
19
  3
ACAD_PLOTSTYLENAME
350
E
  3
ACAD_TABLESTYLE
350
331
  3
ACAD_VISUALSTYLE
350
2A
  3
ACAD_WIPEOUT_VARS
350
3F
  0
DICTIONARY
  5
D
102
{ACAD_REACTORS
330
C
102
}
330
C
100
AcDbDictionary
281
     1
  0
DICTIONARY
  5
1A
102
{ACAD_REACTORS
330
C
102
}
330
C
100
AcDbDictionary
281
     1
  3
Layout1
350
1E
  3
Layout2
350
26
  3
Model
350
22
  0
DICTIONARY
  5
3B
102
{ACAD_REACTORS
330
C
102
}
330
C
100
AcDbDictionary
281
     1
  3
ByBlock
350
3D
  3
ByLayer
350
3C
  3
Global
350
3E
  0
DICTIONARY
  5
332
102
{ACAD_REACTORS
330
C
102
}
330
C
100
AcDbDictionary
281
     1
  0
DICTIONARY
  5
17
102
{ACAD_REACTORS
330
C
102
}
330
C
100
AcDbDictionary
281
     1
  3
Standard
350
18
  0
DICTIONARY
  5
19
102
{ACAD_REACTORS
330
C
102
}
330
C
100
AcDbDictionary
281
     1
  0
ACDBDICTIONARYWDFLT
  5
E
102
{ACAD_REACTORS
330
C
102
}
330
C
100
AcDbDictionary
281
     1
  3
Normal
350
F
100
AcDbDictionaryWithDefault
340
F
  0
DICTIONARY
  5
331
102
{ACAD_REACTORS
330
C
102
}
330
C
100
AcDbDictionary
281
     1
  0
DICTIONARY
  5
2A
102
{ACAD_REACTORS
330
C
102
}
330
C
100
AcDbDictionary
281
     1
  3
2dWireframe
350
2F
  3
3D Hidden
350
31
  3
3dWireframe
350
30
  3
Basic
350
32
  3
Brighten
350
36
  3
ColorChange
350
3A
  3
Conceptual
350
34
  3
Dim
350
35
  3
Facepattern
350
39
  3
Flat
350
2B
  3
FlatWithEdges
350
2C
  3
Gouraud
350
2D
  3
GouraudWithEdges
350
2E
  3
Linepattern
350
38
  3
Realistic
350
33
  3
Thicken
350
37
  0
WIPEOUTVARIABLES
  5
3F
102
{ACAD_REACTORS
330
C
102
}
330
C
100
AcDbWipeoutVariables
 70
     0
  0
LAYOUT
  5
1E
102
{ACAD_REACTORS
330
1A
102
}
330
1A
100
AcDbPlotSettings
  1

  2
none_device
  4

  6

 40
0.0
 41
0.0
 42
0.0
 43
0.0
 44
0.0
 45
0.0
 46
0.0
 47
0.0
 48
0.0
 49
0.0
140
0.0
141
0.0
142
1.0
143
1.0
 70
   688
 72
     0
 73
     0
 74
     5
  7

 75
    16
 76
     0
 77
     2
 78
   300
147
1.0
148
0.0
149
0.0
100
AcDbLayout
  1
Layout1
 70
     1
 71
     1
 10
0.0
 20
0.0
 11
420.0
 21
297.0
 12
0.0
 22
0.0
 32
0.0
 14
1.000000000000E+20
 24
1.000000000000E+20
 34
1.000000000000E+20
 15
-1.000000000000E+20
 25
-1.000000000000E+20
 35
-1.000000000000E+20
146
0.0
 13
0.0
 23
0.0
 33
0.0
 16
1.0
 26
0.0
 36
0.0
 17
0.0
 27
1.0
 37
0.0
 76
     0
330
1B
  0
LAYOUT
  5
26
102
{ACAD_REACTORS
330
1A
102
}
330
1A
100
AcDbPlotSettings
  1

  2
none_device
  4

  6

 40
0.0
 41
0.0
 42
0.0
 43
0.0
 44
0.0
 45
0.0
 46
0.0
 47
0.0
 48
0.0
 49
0.0
140
0.0
141
0.0
142
1.0
143
1.0
 70
   688
 72
     0
 73
     0
 74
     5
  7

 75
    16
 76
     0
 77
     2
 78
   300
147
1.0
148
0.0
149
0.0
100
AcDbLayout
  1
Layout2
 70
     1
 71
     2
 10
0.0
 20
0.0
 11
0.0
 21
0.0
 12
0.0
 22
0.0
 32
0.0
 14
0.0
 24
0.0
 34
0.0
 15
0.0
 25
0.0
 35
0.0
146
0.0
 13
0.0
 23
0.0
 33
0.0
 16
1.0
 26
0.0
 36
0.0
 17
0.0
 27
1.0
 37
0.0
 76
     0
330
23
  0
LAYOUT
  5
22
102
{ACAD_REACTORS
330
1A
102
}
330
1A
100
AcDbPlotSettings
  1

  2
none_device
  4

  6

 40
0.0
 41
0.0
 42
0.0
 43
0.0
 44
0.0
 45
0.0
 46
0.0
 47
0.0
 48
0.0
 49
0.0
140
0.0
141
0.0
142
1.0
143
1.0
 70
  1712
 72
     0
 73
     0
 74
     0
  7

 75
     0
 76
     0
 77
     2
 78
   300
147
1.0
148
0.0
149
0.0
100
AcDbLayout
  1
Model
 70
     1
 71
     0
 10
0.0
 20
0.0
 11
420.0
 21
297.0
 12
0.0
 22
0.0
 32
0.0
 14
559.989763601764
 24
101.041
 34
0.0
 15
1317.410236398236
 25
408.139
 35
0.0
146
0.0
 13
0.0
 23
0.0
 33
0.0
 16
1.0
 26
0.0
 36
0.0
 17
0.0
 27
1.0
 37
0.0
 76
     0
330
1F
331
29
  0
MATERIAL
  5
3D
102
{ACAD_REACTORS
330
3B
102
}
102
{ACAD_XDICTIONARY
360
32D
102
}
330
3B
100
AcDbMaterial
  1
ByBlock
  0
MATERIAL
  5
3C
102
{ACAD_REACTORS
330
3B
102
}
102
{ACAD_XDICTIONARY
360
32B
102
}
330
3B
100
AcDbMaterial
  1
ByLayer
  0
MATERIAL
  5
3E
102
{ACAD_REACTORS
330
3B
102
}
102
{ACAD_XDICTIONARY
360
32F
102
}
330
3B
100
AcDbMaterial
  1
Global
  0
MLINESTYLE
  5
18
102
{ACAD_REACTORS
330
17
102
}
330
17
100
AcDbMlineStyle
  2
Standard
 70
     0
  3

 62
   256
 51
90.0
 52
90.0
 71
     2
 49
0.5
 62
   256
  6
BYLAYER
 49
-0.5
 62
   256
  6
BYLAYER
  0
ACDBPLACEHOLDER
  5
F
102
{ACAD_REACTORS
330
E
102
}
330
E
  0
VISUALSTYLE
  5
2F
102
{ACAD_REACTORS
330
2A
102
}
102
{ACAD_XDICTIONARY
360
313
102
}
330
2A
100
AcDbVisualStyle
  2
2dWireframe
 70
     4
 71
     0
 72
     2
 73
     0
 90
        0
 40
-0.6
 41
-30.0
 62
     5
 63
     7
421
 16777215
 74
     1
 91
        4
 64
     7
 65
   257
 75
     1
175
     1
 42
1.0
 92
        0
 66
   257
 43
1.0
 76
     1
 77
     6
 78
     2
 67
     7
 79
     5
170
     0
171
     0
290
     0
174
     0
 93
        1
 44
0.0
173
     0
291
     0
 45
0.0
1001
ACAD
1000
AcDbSavedByObjectVersion
1070
     0
  0
VISUALSTYLE
  5
31
102
{ACAD_REACTORS
330
2A
102
}
102
{ACAD_XDICTIONARY
360
317
102
}
330
2A
100
AcDbVisualStyle
  2
3D Hidden
 70
     6
 71
     1
 72
     2
 73
     2
 90
        0
 40
-0.6
 41
-30.0
 62
     5
 63
     7
421
 16777215
 74
     2
 91
        2
 64
     7
 65
   257
 75
     2
175
     1
 42
40.0
 92
        0
 66
   257
 43
1.0
 76
     1
 77
     6
 78
     2
 67
     7
 79
     3
170
     0
171
     0
290
     0
174
     0
 93
        1
 44
0.0
173
     0
291
     0
 45
0.0
1001
ACAD
1000
AcDbSavedByObjectVersion
1070
     0
  0
VISUALSTYLE
  5
30
102
{ACAD_REACTORS
330
2A
102
}
102
{ACAD_XDICTIONARY
360
315
102
}
330
2A
100
AcDbVisualStyle
  2
3dWireframe
 70
     5
 71
     0
 72
     2
 73
     0
 90
        0
 40
-0.6
 41
-30.0
 62
     5
 63
     7
421
 16777215
 74
     1
 91
        4
 64
     7
 65
   257
 75
     1
175
     1
 42
1.0
 92
        0
 66
   257
 43
1.0
 76
     1
 77
     6
 78
     2
 67
     7
 79
     5
170
     0
171
     0
290
     0
174
     0
 93
        1
 44
0.0
173
     0
291
     0
 45
0.0
1001
ACAD
1000
AcDbSavedByObjectVersion
1070
     0
  0
VISUALSTYLE
  5
32
102
{ACAD_REACTORS
330
2A
102
}
102
{ACAD_XDICTIONARY
360
319
102
}
330
2A
100
AcDbVisualStyle
  2
Basic
 70
     7
 71
     1
 72
     0
 73
     1
 90
        0
 40
-0.6
 41
-30.0
 62
     5
 63
     7
421
 16777215
 74
     0
 91
        4
 64
     7
 65
   257
 75
     1
175
     1
 42
1.0
 92
        8
 66
     7
 43
1.0
 76
     1
 77
     6
 78
     2
 67
     7
 79
     5
170
     0
171
     0
290
     0
174
     0
 93
        1
 44
0.0
173
     0
291
     1
 45
0.0
1001
ACAD
1000
AcDbSavedByObjectVersion
1070
     0
  0
VISUALSTYLE
  5
36
102
{ACAD_REACTORS
330
2A
102
}
102
{ACAD_XDICTIONARY
360
321
102
}
330
2A
100
AcDbVisualStyle
  2
Brighten
 70
    12
 71
     2
 72
     2
 73
     0
 90
        0
 40
-0.6
 41
-30.0
 62
     5
 63
     7
421
 16777215
 74
     1
 91
        4
 64
     7
 65
   257
 75
     1
175
     1
 42
1.0
 92
        8
 66
     7
 43
1.0
 76
     1
 77
     6
 78
     2
 67
     7
 79
     5
170
     0
171
     0
290
     0
174
     0
 93
        1
 44
50.0
173
     0
291
     1
 45
0.0
1001
ACAD
1000
AcDbSavedByObjectVersion
1070
     0
  0
VISUALSTYLE
  5
3A
102
{ACAD_REACTORS
330
2A
102
}
102
{ACAD_XDICTIONARY
360
329
102
}
330
2A
100
AcDbVisualStyle
  2
ColorChange
 70
    16
 71
     2
 72
     2
 73
     3
 90
        0
 40
-0.6
 41
-30.0
 62
     5
 63
     8
421
  8421504
 74
     1
 91
        4
 64
     7
 65
   257
 75
     1
175
     1
 42
1.0
 92
        8
 66
     8
424
  8421504
 43
1.0
 76
     1
 77
     6
 78
     2
 67
     7
 79
     5
170
     0
171
     0
290
     0
174
     0
 93
        1
 44
0.0
173
     0
291
     1
 45
0.0
1001
ACAD
1000
AcDbSavedByObjectVersion
1070
     0
  0
VISUALSTYLE
  5
34
102
{ACAD_REACTORS
330
2A
102
}
102
{ACAD_XDICTIONARY
360
31D
102
}
330
2A
100
AcDbVisualStyle
  2
Conceptual
 70
     9
 71
     3
 72
     2
 73
     0
 90
        0
 40
-0.6
 41
-30.0
 62
     5
 63
     7
421
 16777215
 74
     2
 91
        2
 64
     7
 65
   257
 75
     1
175
     1
 42
40.0
 92
        8
 66
     7
 43
1.0
 76
     1
 77
     6
 78
     2
 67
     7
 79
     3
170
     0
171
     0
290
     0
174
     0
 93
        1
 44
0.0
173
     0
291
     0
 45
0.0
1001
ACAD
1000
AcDbSavedByObjectVersion
1070
     0
  0
VISUALSTYLE
  5
35
102
{ACAD_REACTORS
330
2A
102
}
102
{ACAD_XDICTIONARY
360
31F
102
}
330
2A
100
AcDbVisualStyle
  2
Dim
 70
    11
 71
     2
 72
     2
 73
     0
 90
        0
 40
-0.6
 41
-30.0
 62
     5
 63
     7
421
 16777215
 74
     1
 91
        4
 64
     7
 65
   257
 75
     1
175
     1
 42
1.0
 92
        8
 66
     7
 43
1.0
 76
     1
 77
     6
 78
     2
 67
     7
 79
     5
170
     0
171
     0
290
     0
174
     0
 93
        1
 44
-50.0
173
     0
291
     1
 45
0.0
1001
ACAD
1000
AcDbSavedByObjectVersion
1070
     0
  0
VISUALSTYLE
  5
39
102
{ACAD_REACTORS
330
2A
102
}
102
{ACAD_XDICTIONARY
360
327
102
}
330
2A
100
AcDbVisualStyle
  2
Facepattern
 70
    15
 71
     2
 72
     2
 73
     0
 90
        0
 40
-0.6
 41
-30.0
 62
     5
 63
     7
421
 16777215
 74
     1
 91
        4
 64
     7
 65
   257
 75
     1
175
     1
 42
1.0
 92
        8
 66
     7
 43
1.0
 76
     1
 77
     6
 78
     2
 67
     7
 79
     5
170
     0
171
     0
290
     0
174
     0
 93
        1
 44
0.0
173
     0
291
     1
 45
0.0
1001
ACAD
1000
AcDbSavedByObjectVersion
1070
     0
  0
VISUALSTYLE
  5
2B
102
{ACAD_REACTORS
330
2A
102
}
102
{ACAD_XDICTIONARY
360
30B
102
}
330
2A
100
AcDbVisualStyle
  2
Flat
 70
     0
 71
     2
 72
     1
 73
     1
 90
        2
 40
-0.6
 41
30.0
 62
     5
 63
     7
421
 16777215
 74
     0
 91
        4
 64
     7
 65
   257
 75
     1
175
     1
 42
1.0
 92
        8
 66
     7
 43
1.0
 76
     1
 77
     6
 78
     2
 67
     7
 79
     5
170
     0
171
     0
290
     0
174
     0
 93
       13
 44
0.0
173
     0
291
     1
 45
0.0
1001
ACAD
1000
AcDbSavedByObjectVersion
1070
     0
  0
VISUALSTYLE
  5
2C
102
{ACAD_REACTORS
330
2A
102
}
102
{ACAD_XDICTIONARY
360
30D
102
}
330
2A
100
AcDbVisualStyle
  2
FlatWithEdges
 70
     1
 71
     2
 72
     1
 73
     1
 90
        2
 40
-0.6
 41
30.0
 62
     5
 63
     7
421
 16777215
 74
     1
 91
        4
 64
     7
 65
   257
 75
     1
175
     1
 42
1.0
 92
        0
 66
   257
 43
1.0
 76
     1
 77
     6
 78
     2
 67
     7
 79
     5
170
     0
171
     0
290
     0
174
     0
 93
       13
 44
0.0
173
     0
291
     1
 45
0.0
1001
ACAD
1000
AcDbSavedByObjectVersion
1070
     0
  0
VISUALSTYLE
  5
2D
102
{ACAD_REACTORS
330
2A
102
}
102
{ACAD_XDICTIONARY
360
30F
102
}
330
2A
100
AcDbVisualStyle
  2
Gouraud
 70
     2
 71
     2
 72
     2
 73
     1
 90
        2
 40
-0.6
 41
30.0
 62
     5
 63
     7
421
 16777215
 74
     0
 91
        4
 64
     7
 65
   257
 75
     1
175
     1
 42
1.0
 92
        0
 66
     7
 43
1.0
 76
     1
 77
     6
 78
     2
 67
     7
 79
     5
170
     0
171
     0
290
     0
174
     0
 93
       13
 44
0.0
173
     0
291
     1
 45
0.0
1001
ACAD
1000
AcDbSavedByObjectVersion
1070
     0
  0
VISUALSTYLE
  5
2E
102
{ACAD_REACTORS
330
2A
102
}
102
{ACAD_XDICTIONARY
360
311
102
}
330
2A
100
AcDbVisualStyle
  2
GouraudWithEdges
 70
     3
 71
     2
 72
     2
 73
     1
 90
        2
 40
-0.6
 41
30.0
 62
     5
 63
     7
421
 16777215
 74
     1
 91
        4
 64
     7
 65
   257
 75
     1
175
     1
 42
1.0
 92
        0
 66
   257
 43
1.0
 76
     1
 77
     6
 78
     2
 67
     7
 79
     5
170
     0
171
     0
290
     0
174
     0
 93
       13
 44
0.0
173
     0
291
     1
 45
0.0
1001
ACAD
1000
AcDbSavedByObjectVersion
1070
     0
  0
VISUALSTYLE
  5
38
102
{ACAD_REACTORS
330
2A
102
}
102
{ACAD_XDICTIONARY
360
325
102
}
330
2A
100
AcDbVisualStyle
  2
Linepattern
 70
    14
 71
     2
 72
     2
 73
     0
 90
        0
 40
-0.6
 41
-30.0
 62
     5
 63
     7
421
 16777215
 74
     1
 91
        4
 64
     7
 65
   257
 75
     7
175
     7
 42
1.0
 92
        8
 66
     7
 43
1.0
 76
     1
 77
     6
 78
     2
 67
     7
 79
     5
170
     0
171
     0
290
     0
174
     0
 93
        1
 44
0.0
173
     0
291
     1
 45
0.0
1001
ACAD
1000
AcDbSavedByObjectVersion
1070
     0
  0
VISUALSTYLE
  5
33
102
{ACAD_REACTORS
330
2A
102
}
102
{ACAD_XDICTIONARY
360
31B
102
}
330
2A
100
AcDbVisualStyle
  2
Realistic
 70
     8
 71
     2
 72
     2
 73
     0
 90
        0
 40
-0.6
 41
-30.0
 62
     5
 63
     7
421
 16777215
 74
     1
 91
        0
 64
     7
 65
   257
 75
     1
175
     1
 42
1.0
 92
        8
 66
     8
424
  7895160
 43
1.0
 76
     1
 77
     6
 78
     2
 67
     7
 79
     5
170
     0
171
     0
290
     0
174
     0
 93
       13
 44
0.0
173
     0
291
     0
 45
0.0
1001
ACAD
1000
AcDbSavedByObjectVersion
1070
     0
  0
VISUALSTYLE
  5
37
102
{ACAD_REACTORS
330
2A
102
}
102
{ACAD_XDICTIONARY
360
323
102
}
330
2A
100
AcDbVisualStyle
  2
Thicken
 70
    13
 71
     2
 72
     2
 73
     0
 90
        0
 40
-0.6
 41
-30.0
 62
     5
 63
     7
421
 16777215
 74
     1
 91
        4
 64
     7
 65
   257
 75
     1
175
     1
 42
1.0
 92
       12
 66
     7
 43
1.0
 76
     1
 77
     6
 78
     2
 67
     7
 79
     5
170
     0
171
     0
290
     0
174
     0
 93
        1
 44
0.0
173
     0
291
     1
 45
0.0
1001
ACAD
1000
AcDbSavedByObjectVersion
1070
     0
  0
DICTIONARY
  5
32D
330
3D
100
AcDbDictionary
280
     1
281
     1
  3
ACAD_XREC_ROUNDTRIP
360
32E
  0
DICTIONARY
  5
32B
330
3C
100
AcDbDictionary
280
     1
281
     1
  3
ACAD_XREC_ROUNDTRIP
360
32C
  0
DICTIONARY
  5
32F
330
3E
100
AcDbDictionary
280
     1
281
     1
  3
ACAD_XREC_ROUNDTRIP
360
330
  0
DICTIONARY
  5
313
330
2F
100
AcDbDictionary
280
     1
281
     1
  3
ACAD_XREC_ROUNDTRIP
360
314
  0
DICTIONARY
  5
317
330
31
100
AcDbDictionary
280
     1
281
     1
  3
ACAD_XREC_ROUNDTRIP
360
318
  0
DICTIONARY
  5
315
330
30
100
AcDbDictionary
280
     1
281
     1
  3
ACAD_XREC_ROUNDTRIP
360
316
  0
DICTIONARY
  5
319
330
32
100
AcDbDictionary
280
     1
281
     1
  3
ACAD_XREC_ROUNDTRIP
360
31A
  0
DICTIONARY
  5
321
330
36
100
AcDbDictionary
280
     1
281
     1
  3
ACAD_XREC_ROUNDTRIP
360
322
  0
DICTIONARY
  5
329
330
3A
100
AcDbDictionary
280
     1
281
     1
  3
ACAD_XREC_ROUNDTRIP
360
32A
  0
DICTIONARY
  5
31D
330
34
100
AcDbDictionary
280
     1
281
     1
  3
ACAD_XREC_ROUNDTRIP
360
31E
  0
DICTIONARY
  5
31F
330
35
100
AcDbDictionary
280
     1
281
     1
  3
ACAD_XREC_ROUNDTRIP
360
320
  0
DICTIONARY
  5
327
330
39
100
AcDbDictionary
280
     1
281
     1
  3
ACAD_XREC_ROUNDTRIP
360
328
  0
DICTIONARY
  5
30B
330
2B
100
AcDbDictionary
280
     1
281
     1
  3
ACAD_XREC_ROUNDTRIP
360
30C
  0
DICTIONARY
  5
30D
330
2C
100
AcDbDictionary
280
     1
281
     1
  3
ACAD_XREC_ROUNDTRIP
360
30E
  0
DICTIONARY
  5
30F
330
2D
100
AcDbDictionary
280
     1
281
     1
  3
ACAD_XREC_ROUNDTRIP
360
310
  0
DICTIONARY
  5
311
330
2E
100
AcDbDictionary
280
     1
281
     1
  3
ACAD_XREC_ROUNDTRIP
360
312
  0
DICTIONARY
  5
325
330
38
100
AcDbDictionary
280
     1
281
     1
  3
ACAD_XREC_ROUNDTRIP
360
326
  0
DICTIONARY
  5
31B
330
33
100
AcDbDictionary
280
     1
281
     1
  3
ACAD_XREC_ROUNDTRIP
360
31C
  0
DICTIONARY
  5
323
330
37
100
AcDbDictionary
280
     1
281
     1
  3
ACAD_XREC_ROUNDTRIP
360
324
  0
XRECORD
  5
32E
102
{ACAD_REACTORS
330
32D
102
}
330
32D
100
AcDbXrecord
280
     1
102
MATERIAL
148
0.0
149
0.0
149
0.0
 93
        0
 94
      127
282
     0
 72
     1
 77
     1
171
     1
175
     1
179
     1
273
     0
  0
XRECORD
  5
32C
102
{ACAD_REACTORS
330
32B
102
}
330
32B
100
AcDbXrecord
280
     1
102
MATERIAL
148
0.0
149
0.0
149
0.0
 93
        0
 94
      127
282
     0
 72
     1
 77
     1
171
     1
175
     1
179
     1
273
     0
  0
XRECORD
  5
330
102
{ACAD_REACTORS
330
32F
102
}
330
32F
100
AcDbXrecord
280
     1
102
MATERIAL
148
0.0
149
0.0
149
0.0
 93
        0
 94
      127
282
     0
 72
     1
 77
     1
171
     1
175
     1
179
     1
273
     0
  0
XRECORD
  5
314
102
{ACAD_REACTORS
330
313
102
}
330
313
100
AcDbXrecord
280
     1
102
RTVSPropertyOp0
 70
     1
102
RTVSPropertyOp1
 70
     1
102
RTVSPropertyOp2
 70
     1
102
RTVSPropertyOp3
 70
     1
102
RTVSPropertyOp4
 70
     1
102
RTVSPropertyOp5
 70
     1
102
RTVSPropertyOp6
 70
     1
102
RTVSPropertyOp7
 70
     1
102
RTVSPropertyOp8
 70
     1
102
RTVSPropertyOp9
 70
     1
102
RTVSPropertyOp10
 70
     1
102
RTVSPropertyOp11
 70
     1
102
RTVSPropertyOp12
 70
     1
102
RTVSPropertyOp13
 70
     1
102
RTVSPropertyOp14
 70
     1
102
RTVSPropertyOp15
 70
     1
102
RTVSPropertyOp16
 70
     1
102
RTVSPropertyOp17
 70
     1
102
RTVSPropertyOp18
 70
     1
102
RTVSPropertyOp19
 70
     1
102
RTVSPropertyOp20
 70
     1
102
RTVSPropertyOp21
 70
     1
102
RTVSPropertyOp22
 70
     1
102
RTVSPropertyOp23
 70
     1
102
RTVSPropertyOp24
 70
     1
102
RTVSPropertyOp25
 70
     1
102
RTVSPropertyOp26
 70
     1
102
RTVSPropertyOp27
 70
     1
102
RTVSPropertyOp28
 70
     1
102
RTVSPropertyOp29
 70
     1
102
RTVSPropertyOp30
 70
     1
102
RTVSPropertyOp31
 70
     1
102
RTVSPropertyOp32
 70
     1
  0
XRECORD
  5
318
102
{ACAD_REACTORS
330
317
102
}
330
317
100
AcDbXrecord
280
     1
102
RTVSPropertyOp0
 70
     1
102
RTVSPropertyOp1
 70
     1
102
RTVSPropertyOp2
 70
     1
102
RTVSPropertyOp3
 70
     1
102
RTVSPropertyOp4
 70
     1
102
RTVSPropertyOp5
 70
     1
102
RTVSPropertyOp6
 70
     1
102
RTVSPropertyOp7
 70
     1
102
RTVSPropertyOp8
 70
     1
102
RTVSPropertyOp9
 70
     1
102
RTVSPropertyOp10
 70
     1
102
RTVSPropertyOp11
 70
     1
102
RTVSPropertyOp12
 70
     1
102
RTVSPropertyOp13
 70
     1
102
RTVSPropertyOp14
 70
     1
102
RTVSPropertyOp15
 70
     1
102
RTVSPropertyOp16
 70
     1
102
RTVSPropertyOp17
 70
     1
102
RTVSPropertyOp18
 70
     1
102
RTVSPropertyOp19
 70
     1
102
RTVSPropertyOp20
 70
     1
102
RTVSPropertyOp21
 70
     1
102
RTVSPropertyOp22
 70
     1
102
RTVSPropertyOp23
 70
     1
102
RTVSPropertyOp24
 70
     1
102
RTVSPropertyOp25
 70
     1
102
RTVSPropertyOp26
 70
     1
102
RTVSPropertyOp27
 70
     1
102
RTVSPropertyOp28
 70
     1
102
RTVSPropertyOp29
 70
     1
102
RTVSPropertyOp30
 70
     1
102
RTVSPropertyOp31
 70
     1
102
RTVSPropertyOp32
 70
     1
  0
XRECORD
  5
316
102
{ACAD_REACTORS
330
315
102
}
330
315
100
AcDbXrecord
280
     1
102
RTVSPropertyOp0
 70
     1
102
RTVSPropertyOp1
 70
     1
102
RTVSPropertyOp2
 70
     1
102
RTVSPropertyOp3
 70
     1
102
RTVSPropertyOp4
 70
     1
102
RTVSPropertyOp5
 70
     1
102
RTVSPropertyOp6
 70
     1
102
RTVSPropertyOp7
 70
     1
102
RTVSPropertyOp8
 70
     1
102
RTVSPropertyOp9
 70
     1
102
RTVSPropertyOp10
 70
     1
102
RTVSPropertyOp11
 70
     1
102
RTVSPropertyOp12
 70
     1
102
RTVSPropertyOp13
 70
     1
102
RTVSPropertyOp14
 70
     1
102
RTVSPropertyOp15
 70
     1
102
RTVSPropertyOp16
 70
     1
102
RTVSPropertyOp17
 70
     1
102
RTVSPropertyOp18
 70
     1
102
RTVSPropertyOp19
 70
     1
102
RTVSPropertyOp20
 70
     1
102
RTVSPropertyOp21
 70
     1
102
RTVSPropertyOp22
 70
     1
102
RTVSPropertyOp23
 70
     1
102
RTVSPropertyOp24
 70
     1
102
RTVSPropertyOp25
 70
     1
102
RTVSPropertyOp26
 70
     1
102
RTVSPropertyOp27
 70
     1
102
RTVSPropertyOp28
 70
     1
102
RTVSPropertyOp29
 70
     1
102
RTVSPropertyOp30
 70
     1
102
RTVSPropertyOp31
 70
     1
102
RTVSPropertyOp32
 70
     1
  0
XRECORD
  5
31A
102
{ACAD_REACTORS
330
319
102
}
330
319
100
AcDbXrecord
280
     1
102
RTVSPropertyOp0
 70
     1
102
RTVSPropertyOp1
 70
     1
102
RTVSPropertyOp2
 70
     1
102
RTVSPropertyOp3
 70
     1
102
RTVSPropertyOp4
 70
     1
102
RTVSPropertyOp5
 70
     1
102
RTVSPropertyOp6
 70
     1
102
RTVSPropertyOp7
 70
     1
102
RTVSPropertyOp8
 70
     1
102
RTVSPropertyOp9
 70
     1
102
RTVSPropertyOp10
 70
     1
102
RTVSPropertyOp11
 70
     1
102
RTVSPropertyOp12
 70
     1
102
RTVSPropertyOp13
 70
     1
102
RTVSPropertyOp14
 70
     1
102
RTVSPropertyOp15
 70
     1
102
RTVSPropertyOp16
 70
     1
102
RTVSPropertyOp17
 70
     1
102
RTVSPropertyOp18
 70
     1
102
RTVSPropertyOp19
 70
     1
102
RTVSPropertyOp20
 70
     1
102
RTVSPropertyOp21
 70
     1
102
RTVSPropertyOp22
 70
     1
102
RTVSPropertyOp23
 70
     1
102
RTVSPropertyOp24
 70
     1
102
RTVSPropertyOp25
 70
     1
102
RTVSPropertyOp26
 70
     1
102
RTVSPropertyOp27
 70
     1
102
RTVSPropertyOp28
 70
     1
102
RTVSPropertyOp29
 70
     1
102
RTVSPropertyOp30
 70
     1
102
RTVSPropertyOp31
 70
     1
102
RTVSPropertyOp32
 70
     1
  0
XRECORD
  5
322
102
{ACAD_REACTORS
330
321
102
}
330
321
100
AcDbXrecord
280
     1
102
RTVSPropertyOp0
 70
     1
102
RTVSPropertyOp1
 70
     1
102
RTVSPropertyOp2
 70
     1
102
RTVSPropertyOp3
 70
     1
102
RTVSPropertyOp4
 70
     1
102
RTVSPropertyOp5
 70
     1
102
RTVSPropertyOp6
 70
     1
102
RTVSPropertyOp7
 70
     1
102
RTVSPropertyOp8
 70
     1
102
RTVSPropertyOp9
 70
     1
102
RTVSPropertyOp10
 70
     1
102
RTVSPropertyOp11
 70
     1
102
RTVSPropertyOp12
 70
     1
102
RTVSPropertyOp13
 70
     1
102
RTVSPropertyOp14
 70
     1
102
RTVSPropertyOp15
 70
     1
102
RTVSPropertyOp16
 70
     1
102
RTVSPropertyOp17
 70
     1
102
RTVSPropertyOp18
 70
     1
102
RTVSPropertyOp19
 70
     1
102
RTVSPropertyOp20
 70
     1
102
RTVSPropertyOp21
 70
     1
102
RTVSPropertyOp22
 70
     1
102
RTVSPropertyOp23
 70
     1
102
RTVSPropertyOp24
 70
     1
102
RTVSPropertyOp25
 70
     1
102
RTVSPropertyOp26
 70
     1
102
RTVSPropertyOp27
 70
     1
102
RTVSPropertyOp28
 70
     1
102
RTVSPropertyOp29
 70
     1
102
RTVSPropertyOp30
 70
     1
102
RTVSPropertyOp31
 70
     1
102
RTVSPropertyOp32
 70
     1
  0
XRECORD
  5
32A
102
{ACAD_REACTORS
330
329
102
}
330
329
100
AcDbXrecord
280
     1
102
RTVSPropertyOp0
 70
     1
102
RTVSPropertyOp1
 70
     1
102
RTVSPropertyOp2
 70
     1
102
RTVSPropertyOp3
 70
     1
102
RTVSPropertyOp4
 70
     1
102
RTVSPropertyOp5
 70
     1
102
RTVSPropertyOp6
 70
     1
102
RTVSPropertyOp7
 70
     1
102
RTVSPropertyOp8
 70
     1
102
RTVSPropertyOp9
 70
     1
102
RTVSPropertyOp10
 70
     1
102
RTVSPropertyOp11
 70
     1
102
RTVSPropertyOp12
 70
     1
102
RTVSPropertyOp13
 70
     1
102
RTVSPropertyOp14
 70
     1
102
RTVSPropertyOp15
 70
     1
102
RTVSPropertyOp16
 70
     1
102
RTVSPropertyOp17
 70
     1
102
RTVSPropertyOp18
 70
     1
102
RTVSPropertyOp19
 70
     1
102
RTVSPropertyOp20
 70
     1
102
RTVSPropertyOp21
 70
     1
102
RTVSPropertyOp22
 70
     1
102
RTVSPropertyOp23
 70
     1
102
RTVSPropertyOp24
 70
     1
102
RTVSPropertyOp25
 70
     1
102
RTVSPropertyOp26
 70
     1
102
RTVSPropertyOp27
 70
     1
102
RTVSPropertyOp28
 70
     1
102
RTVSPropertyOp29
 70
     1
102
RTVSPropertyOp30
 70
     1
102
RTVSPropertyOp31
 70
     1
102
RTVSPropertyOp32
 70
     1
  0
XRECORD
  5
31E
102
{ACAD_REACTORS
330
31D
102
}
330
31D
100
AcDbXrecord
280
     1
102
RTVSPropertyOp0
 70
     1
102
RTVSPropertyOp1
 70
     1
102
RTVSPropertyOp2
 70
     1
102
RTVSPropertyOp3
 70
     1
102
RTVSPropertyOp4
 70
     1
102
RTVSPropertyOp5
 70
     1
102
RTVSPropertyOp6
 70
     1
102
RTVSPropertyOp7
 70
     1
102
RTVSPropertyOp8
 70
     1
102
RTVSPropertyOp9
 70
     1
102
RTVSPropertyOp10
 70
     1
102
RTVSPropertyOp11
 70
     1
102
RTVSPropertyOp12
 70
     1
102
RTVSPropertyOp13
 70
     1
102
RTVSPropertyOp14
 70
     1
102
RTVSPropertyOp15
 70
     1
102
RTVSPropertyOp16
 70
     1
102
RTVSPropertyOp17
 70
     1
102
RTVSPropertyOp18
 70
     1
102
RTVSPropertyOp19
 70
     1
102
RTVSPropertyOp20
 70
     1
102
RTVSPropertyOp21
 70
     1
102
RTVSPropertyOp22
 70
     1
102
RTVSPropertyOp23
 70
     1
102
RTVSPropertyOp24
 70
     1
102
RTVSPropertyOp25
 70
     1
102
RTVSPropertyOp26
 70
     1
102
RTVSPropertyOp27
 70
     1
102
RTVSPropertyOp28
 70
     1
102
RTVSPropertyOp29
 70
     1
102
RTVSPropertyOp30
 70
     1
102
RTVSPropertyOp31
 70
     1
102
RTVSPropertyOp32
 70
     1
  0
XRECORD
  5
320
102
{ACAD_REACTORS
330
31F
102
}
330
31F
100
AcDbXrecord
280
     1
102
RTVSPropertyOp0
 70
     1
102
RTVSPropertyOp1
 70
     1
102
RTVSPropertyOp2
 70
     1
102
RTVSPropertyOp3
 70
     1
102
RTVSPropertyOp4
 70
     1
102
RTVSPropertyOp5
 70
     1
102
RTVSPropertyOp6
 70
     1
102
RTVSPropertyOp7
 70
     1
102
RTVSPropertyOp8
 70
     1
102
RTVSPropertyOp9
 70
     1
102
RTVSPropertyOp10
 70
     1
102
RTVSPropertyOp11
 70
     1
102
RTVSPropertyOp12
 70
     1
102
RTVSPropertyOp13
 70
     1
102
RTVSPropertyOp14
 70
     1
102
RTVSPropertyOp15
 70
     1
102
RTVSPropertyOp16
 70
     1
102
RTVSPropertyOp17
 70
     1
102
RTVSPropertyOp18
 70
     1
102
RTVSPropertyOp19
 70
     1
102
RTVSPropertyOp20
 70
     1
102
RTVSPropertyOp21
 70
     1
102
RTVSPropertyOp22
 70
     1
102
RTVSPropertyOp23
 70
     1
102
RTVSPropertyOp24
 70
     1
102
RTVSPropertyOp25
 70
     1
102
RTVSPropertyOp26
 70
     1
102
RTVSPropertyOp27
 70
     1
102
RTVSPropertyOp28
 70
     1
102
RTVSPropertyOp29
 70
     1
102
RTVSPropertyOp30
 70
     1
102
RTVSPropertyOp31
 70
     1
102
RTVSPropertyOp32
 70
     1
  0
XRECORD
  5
328
102
{ACAD_REACTORS
330
327
102
}
330
327
100
AcDbXrecord
280
     1
102
RTVSPropertyOp0
 70
     1
102
RTVSPropertyOp1
 70
     1
102
RTVSPropertyOp2
 70
     1
102
RTVSPropertyOp3
 70
     1
102
RTVSPropertyOp4
 70
     1
102
RTVSPropertyOp5
 70
     1
102
RTVSPropertyOp6
 70
     1
102
RTVSPropertyOp7
 70
     1
102
RTVSPropertyOp8
 70
     1
102
RTVSPropertyOp9
 70
     1
102
RTVSPropertyOp10
 70
     1
102
RTVSPropertyOp11
 70
     1
102
RTVSPropertyOp12
 70
     1
102
RTVSPropertyOp13
 70
     1
102
RTVSPropertyOp14
 70
     1
102
RTVSPropertyOp15
 70
     1
102
RTVSPropertyOp16
 70
     1
102
RTVSPropertyOp17
 70
     1
102
RTVSPropertyOp18
 70
     1
102
RTVSPropertyOp19
 70
     1
102
RTVSPropertyOp20
 70
     1
102
RTVSPropertyOp21
 70
     1
102
RTVSPropertyOp22
 70
     1
102
RTVSPropertyOp23
 70
     1
102
RTVSPropertyOp24
 70
     1
102
RTVSPropertyOp25
 70
     1
102
RTVSPropertyOp26
 70
     1
102
RTVSPropertyOp27
 70
     1
102
RTVSPropertyOp28
 70
     1
102
RTVSPropertyOp29
 70
     1
102
RTVSPropertyOp30
 70
     1
102
RTVSPropertyOp31
 70
     1
102
RTVSPropertyOp32
 70
     1
  0
XRECORD
  5
30C
102
{ACAD_REACTORS
330
30B
102
}
330
30B
100
AcDbXrecord
280
     1
102
RTVSPropertyOp0
 70
     1
102
RTVSPropertyOp1
 70
     1
102
RTVSPropertyOp2
 70
     1
102
RTVSPropertyOp3
 70
     1
102
RTVSPropertyOp4
 70
     1
102
RTVSPropertyOp5
 70
     1
102
RTVSPropertyOp6
 70
     1
102
RTVSPropertyOp7
 70
     1
102
RTVSPropertyOp8
 70
     1
102
RTVSPropertyOp9
 70
     1
102
RTVSPropertyOp10
 70
     1
102
RTVSPropertyOp11
 70
     1
102
RTVSPropertyOp12
 70
     1
102
RTVSPropertyOp13
 70
     1
102
RTVSPropertyOp14
 70
     1
102
RTVSPropertyOp15
 70
     1
102
RTVSPropertyOp16
 70
     1
102
RTVSPropertyOp17
 70
     1
102
RTVSPropertyOp18
 70
     1
102
RTVSPropertyOp19
 70
     1
102
RTVSPropertyOp20
 70
     1
102
RTVSPropertyOp21
 70
     1
102
RTVSPropertyOp22
 70
     1
102
RTVSPropertyOp23
 70
     1
102
RTVSPropertyOp24
 70
     1
102
RTVSPropertyOp25
 70
     1
102
RTVSPropertyOp26
 70
     1
102
RTVSPropertyOp27
 70
     1
102
RTVSPropertyOp28
 70
     1
102
RTVSPropertyOp29
 70
     1
102
RTVSPropertyOp30
 70
     1
102
RTVSPropertyOp31
 70
     1
102
RTVSPropertyOp32
 70
     1
  0
XRECORD
  5
30E
102
{ACAD_REACTORS
330
30D
102
}
330
30D
100
AcDbXrecord
280
     1
102
RTVSPropertyOp0
 70
     1
102
RTVSPropertyOp1
 70
     1
102
RTVSPropertyOp2
 70
     1
102
RTVSPropertyOp3
 70
     1
102
RTVSPropertyOp4
 70
     1
102
RTVSPropertyOp5
 70
     1
102
RTVSPropertyOp6
 70
     1
102
RTVSPropertyOp7
 70
     1
102
RTVSPropertyOp8
 70
     1
102
RTVSPropertyOp9
 70
     1
102
RTVSPropertyOp10
 70
     1
102
RTVSPropertyOp11
 70
     1
102
RTVSPropertyOp12
 70
     1
102
RTVSPropertyOp13
 70
     1
102
RTVSPropertyOp14
 70
     1
102
RTVSPropertyOp15
 70
     1
102
RTVSPropertyOp16
 70
     1
102
RTVSPropertyOp17
 70
     1
102
RTVSPropertyOp18
 70
     1
102
RTVSPropertyOp19
 70
     1
102
RTVSPropertyOp20
 70
     1
102
RTVSPropertyOp21
 70
     1
102
RTVSPropertyOp22
 70
     1
102
RTVSPropertyOp23
 70
     1
102
RTVSPropertyOp24
 70
     1
102
RTVSPropertyOp25
 70
     1
102
RTVSPropertyOp26
 70
     1
102
RTVSPropertyOp27
 70
     1
102
RTVSPropertyOp28
 70
     1
102
RTVSPropertyOp29
 70
     1
102
RTVSPropertyOp30
 70
     1
102
RTVSPropertyOp31
 70
     1
102
RTVSPropertyOp32
 70
     1
  0
XRECORD
  5
310
102
{ACAD_REACTORS
330
30F
102
}
330
30F
100
AcDbXrecord
280
     1
102
RTVSPropertyOp0
 70
     1
102
RTVSPropertyOp1
 70
     1
102
RTVSPropertyOp2
 70
     1
102
RTVSPropertyOp3
 70
     1
102
RTVSPropertyOp4
 70
     1
102
RTVSPropertyOp5
 70
     1
102
RTVSPropertyOp6
 70
     1
102
RTVSPropertyOp7
 70
     1
102
RTVSPropertyOp8
 70
     1
102
RTVSPropertyOp9
 70
     1
102
RTVSPropertyOp10
 70
     1
102
RTVSPropertyOp11
 70
     1
102
RTVSPropertyOp12
 70
     1
102
RTVSPropertyOp13
 70
     1
102
RTVSPropertyOp14
 70
     1
102
RTVSPropertyOp15
 70
     1
102
RTVSPropertyOp16
 70
     1
102
RTVSPropertyOp17
 70
     1
102
RTVSPropertyOp18
 70
     1
102
RTVSPropertyOp19
 70
     1
102
RTVSPropertyOp20
 70
     1
102
RTVSPropertyOp21
 70
     1
102
RTVSPropertyOp22
 70
     1
102
RTVSPropertyOp23
 70
     1
102
RTVSPropertyOp24
 70
     1
102
RTVSPropertyOp25
 70
     1
102
RTVSPropertyOp26
 70
     1
102
RTVSPropertyOp27
 70
     1
102
RTVSPropertyOp28
 70
     1
102
RTVSPropertyOp29
 70
     1
102
RTVSPropertyOp30
 70
     1
102
RTVSPropertyOp31
 70
     1
102
RTVSPropertyOp32
 70
     1
  0
XRECORD
  5
312
102
{ACAD_REACTORS
330
311
102
}
330
311
100
AcDbXrecord
280
     1
102
RTVSPropertyOp0
 70
     1
102
RTVSPropertyOp1
 70
     1
102
RTVSPropertyOp2
 70
     1
102
RTVSPropertyOp3
 70
     1
102
RTVSPropertyOp4
 70
     1
102
RTVSPropertyOp5
 70
     1
102
RTVSPropertyOp6
 70
     1
102
RTVSPropertyOp7
 70
     1
102
RTVSPropertyOp8
 70
     1
102
RTVSPropertyOp9
 70
     1
102
RTVSPropertyOp10
 70
     1
102
RTVSPropertyOp11
 70
     1
102
RTVSPropertyOp12
 70
     1
102
RTVSPropertyOp13
 70
     1
102
RTVSPropertyOp14
 70
     1
102
RTVSPropertyOp15
 70
     1
102
RTVSPropertyOp16
 70
     1
102
RTVSPropertyOp17
 70
     1
102
RTVSPropertyOp18
 70
     1
102
RTVSPropertyOp19
 70
     1
102
RTVSPropertyOp20
 70
     1
102
RTVSPropertyOp21
 70
     1
102
RTVSPropertyOp22
 70
     1
102
RTVSPropertyOp23
 70
     1
102
RTVSPropertyOp24
 70
     1
102
RTVSPropertyOp25
 70
     1
102
RTVSPropertyOp26
 70
     1
102
RTVSPropertyOp27
 70
     1
102
RTVSPropertyOp28
 70
     1
102
RTVSPropertyOp29
 70
     1
102
RTVSPropertyOp30
 70
     1
102
RTVSPropertyOp31
 70
     1
102
RTVSPropertyOp32
 70
     1
  0
XRECORD
  5
326
102
{ACAD_REACTORS
330
325
102
}
330
325
100
AcDbXrecord
280
     1
102
RTVSPropertyOp0
 70
     1
102
RTVSPropertyOp1
 70
     1
102
RTVSPropertyOp2
 70
     1
102
RTVSPropertyOp3
 70
     1
102
RTVSPropertyOp4
 70
     1
102
RTVSPropertyOp5
 70
     1
102
RTVSPropertyOp6
 70
     1
102
RTVSPropertyOp7
 70
     1
102
RTVSPropertyOp8
 70
     1
102
RTVSPropertyOp9
 70
     1
102
RTVSPropertyOp10
 70
     1
102
RTVSPropertyOp11
 70
     1
102
RTVSPropertyOp12
 70
     1
102
RTVSPropertyOp13
 70
     1
102
RTVSPropertyOp14
 70
     1
102
RTVSPropertyOp15
 70
     1
102
RTVSPropertyOp16
 70
     1
102
RTVSPropertyOp17
 70
     1
102
RTVSPropertyOp18
 70
     1
102
RTVSPropertyOp19
 70
     1
102
RTVSPropertyOp20
 70
     1
102
RTVSPropertyOp21
 70
     1
102
RTVSPropertyOp22
 70
     1
102
RTVSPropertyOp23
 70
     1
102
RTVSPropertyOp24
 70
     1
102
RTVSPropertyOp25
 70
     1
102
RTVSPropertyOp26
 70
     1
102
RTVSPropertyOp27
 70
     1
102
RTVSPropertyOp28
 70
     1
102
RTVSPropertyOp29
 70
     1
102
RTVSPropertyOp30
 70
     1
102
RTVSPropertyOp31
 70
     1
102
RTVSPropertyOp32
 70
     1
  0
XRECORD
  5
31C
102
{ACAD_REACTORS
330
31B
102
}
330
31B
100
AcDbXrecord
280
     1
102
RTVSPropertyOp0
 70
     1
102
RTVSPropertyOp1
 70
     1
102
RTVSPropertyOp2
 70
     1
102
RTVSPropertyOp3
 70
     1
102
RTVSPropertyOp4
 70
     1
102
RTVSPropertyOp5
 70
     1
102
RTVSPropertyOp6
 70
     1
102
RTVSPropertyOp7
 70
     1
102
RTVSPropertyOp8
 70
     1
102
RTVSPropertyOp9
 70
     1
102
RTVSPropertyOp10
 70
     1
102
RTVSPropertyOp11
 70
     1
102
RTVSPropertyOp12
 70
     1
102
RTVSPropertyOp13
 70
     1
102
RTVSPropertyOp14
 70
     1
102
RTVSPropertyOp15
 70
     1
102
RTVSPropertyOp16
 70
     1
102
RTVSPropertyOp17
 70
     1
102
RTVSPropertyOp18
 70
     1
102
RTVSPropertyOp19
 70
     1
102
RTVSPropertyOp20
 70
     1
102
RTVSPropertyOp21
 70
     1
102
RTVSPropertyOp22
 70
     1
102
RTVSPropertyOp23
 70
     1
102
RTVSPropertyOp24
 70
     1
102
RTVSPropertyOp25
 70
     1
102
RTVSPropertyOp26
 70
     1
102
RTVSPropertyOp27
 70
     1
102
RTVSPropertyOp28
 70
     1
102
RTVSPropertyOp29
 70
     1
102
RTVSPropertyOp30
 70
     1
102
RTVSPropertyOp31
 70
     1
102
RTVSPropertyOp32
 70
     1
  0
XRECORD
  5
324
102
{ACAD_REACTORS
330
323
102
}
330
323
100
AcDbXrecord
280
     1
102
RTVSPropertyOp0
 70
     1
102
RTVSPropertyOp1
 70
     1
102
RTVSPropertyOp2
 70
     1
102
RTVSPropertyOp3
 70
     1
102
RTVSPropertyOp4
 70
     1
102
RTVSPropertyOp5
 70
     1
102
RTVSPropertyOp6
 70
     1
102
RTVSPropertyOp7
 70
     1
102
RTVSPropertyOp8
 70
     1
102
RTVSPropertyOp9
 70
     1
102
RTVSPropertyOp10
 70
     1
102
RTVSPropertyOp11
 70
     1
102
RTVSPropertyOp12
 70
     1
102
RTVSPropertyOp13
 70
     1
102
RTVSPropertyOp14
 70
     1
102
RTVSPropertyOp15
 70
     1
102
RTVSPropertyOp16
 70
     1
102
RTVSPropertyOp17
 70
     1
102
RTVSPropertyOp18
 70
     1
102
RTVSPropertyOp19
 70
     1
102
RTVSPropertyOp20
 70
     1
102
RTVSPropertyOp21
 70
     1
102
RTVSPropertyOp22
 70
     1
102
RTVSPropertyOp23
 70
     1
102
RTVSPropertyOp24
 70
     1
102
RTVSPropertyOp25
 70
     1
102
RTVSPropertyOp26
 70
     1
102
RTVSPropertyOp27
 70
     1
102
RTVSPropertyOp28
 70
     1
102
RTVSPropertyOp29
 70
     1
102
RTVSPropertyOp30
 70
     1
102
RTVSPropertyOp31
 70
     1
102
RTVSPropertyOp32
 70
     1
  0
ENDSEC
  0
EOF
