  0
SECTION
  2
HEADER
  9
$ACADVER
  1
AC1018
  9
$ACADMAINTVER
 70
     0
  9
$DWGCODEPAGE
  3
ANSI_1252
  9
$INSBASE
 10
0.0
 20
0.0
 30
0.0
  9
$EXTMIN
 10
246.668474214482
 20
96.506129422918
 30
0.0
  9
$EXTMAX
 10
1020.20427621939
 20
410.138129422917
 30
0.0
  9
$LIMMIN
 10
0.0
 20
0.0
  9
$LIMMAX
 10
420.0
 20
297.0
  9
$ORTHOMODE
 70
     0
  9
$REGENMODE
 70
     1
  9
$FILLMODE
 70
     1
  9
$QTEXTMODE
 70
     0
  9
$MIRRTEXT
 70
     1
  9
$LTSCALE
 40
5.0
  9
$ATTMODE
 70
     1
  9
$TEXTSIZE
 40
2.5
  9
$TRACEWID
 40
1.0
  9
$TEXTSTYLE
  7
Standard
  9
$CLAYER
  8
0
  9
$CELTYPE
  6
ByLayer
  9
$CECOLOR
 62
   256
  9
$CELTSCALE
 40
1.0
  9
$DISPSILH
 70
     0
  9
$DIMSCALE
 40
1.0
  9
$DIMASZ
 40
2.5
  9
$DIMEXO
 40
0.625
  9
$DIMDLI
 40
3.75
  9
$DIMRND
 40
0.0
  9
$DIMDLE
 40
0.0
  9
$DIMEXE
 40
1.25
  9
$DIMTP
 40
0.0
  9
$DIMTM
 40
0.0
  9
$DIMTXT
 40
2.5
  9
$DIMCEN
 40
2.5
  9
$DIMTSZ
 40
0.0
  9
$DIMTOL
 70
     0
  9
$DIMLIM
 70
     0
  9
$DIMTIH
 70
     0
  9
$DIMTOH
 70
     0
  9
$DIMSE1
 70
     0
  9
$DIMSE2
 70
     0
  9
$DIMTAD
 70
     1
  9
$DIMZIN
 70
     8
  9
$DIMBLK
  1

  9
$DIMASO
 70
     1
  9
$DIMSHO
 70
     1
  9
$DIMPOST
  1

  9
$DIMAPOST
  1

  9
$DIMALT
 70
     0
  9
$DIMALTD
 70
     3
  9
$DIMALTF
 40
0.03937007874
  9
$DIMLFAC
 40
1.0
  9
$DIMTOFL
 70
     1
  9
$DIMTVP
 40
0.0
  9
$DIMTIX
 70
     0
  9
$DIMSOXD
 70
     0
  9
$DIMSAH
 70
     0
  9
$DIMBLK1
  1

  9
$DIMBLK2
  1

  9
$DIMSTYLE
  2
ISO-25
  9
$DIMCLRD
 70
     0
  9
$DIMCLRE
 70
     0
  9
$DIMCLRT
 70
     0
  9
$DIMTFAC
 40
1.0
  9
$DIMGAP
 40
0.625
  9
$DIMJUST
 70
     0
  9
$DIMSD1
 70
     0
  9
$DIMSD2
 70
     0
  9
$DIMTOLJ
 70
     0
  9
$DIMTZIN
 70
     8
  9
$DIMALTZ
 70
     0
  9
$DIMALTTZ
 70
     0
  9
$DIMUPT
 70
     0
  9
$DIMDEC
 70
     2
  9
$DIMTDEC
 70
     2
  9
$DIMALTU
 70
     2
  9
$DIMALTTD
 70
     3
  9
$DIMTXSTY
  7
Standard
  9
$DIMAUNIT
 70
     0
  9
$DIMADEC
 70
     0
  9
$DIMALTRND
 40
0.0
  9
$DIMAZIN
 70
     0
  9
$DIMDSEP
 70
    44
  9
$DIMATFIT
 70
     3
  9
$DIMFRAC
 70
     0
  9
$DIMLDRBLK
  1

  9
$DIMLUNIT
 70
     2
  9
$DIMLWD
 70
    -2
  9
$DIMLWE
 70
    -2
  9
$DIMTMOVE
 70
     0
  9
$LUNITS
 70
     2
  9
$LUPREC
 70
     4
  9
$SKETCHINC
 40
1.0
  9
$FILLETRAD
 40
10.0
  9
$AUNITS
 70
     0
  9
$AUPREC
 70
     0
  9
$MENU
  1
.
  9
$ELEVATION
 40
0.0
  9
$PELEVATION
 40
0.0
  9
$THICKNESS
 40
0.0
  9
$LIMCHECK
 70
     0
  9
$CHAMFERA
 40
10.0
  9
$CHAMFERB
 40
10.0
  9
$CHAMFERC
 40
20.0
  9
$CHAMFERD
 40
0.0
  9
$SKPOLY
 70
     0
  9
$TDCREATE
 40
2459227.620584711
  9
$TDUCREATE
 40
2459227.578918044
  9
$TDUPDATE
 40
2459227.620587072
  9
$TDUUPDATE
 40
2459227.578920405
  9
$TDINDWG
 40
0.0000000116
  9
$TDUSRTIMER
 40
0.0000000116
  9
$USRTIMER
 70
     1
  9
$ANGBASE
 50
0.0
  9
$ANGDIR
 70
     0
  9
$PDMODE
 70
     2
  9
$PDSIZE
 40
1.0
  9
$PLINEWID
 40
0.0
  9
$SPLFRAME
 70
     0
  9
$SPLINETYPE
 70
     6
  9
$SPLINESEGS
 70
     8
  9
$HANDSEED
  5
429
  9
$SURFTAB1
 70
     6
  9
$SURFTAB2
 70
     6
  9
$SURFTYPE
 70
     6
  9
$SURFU
 70
     6
  9
$SURFV
 70
     6
  9
$UCSBASE
  2

  9
$UCSNAME
  2

  9
$UCSORG
 10
0.0
 20
0.0
 30
0.0
  9
$UCSXDIR
 10
1.0
 20
0.0
 30
0.0
  9
$UCSYDIR
 10
0.0
 20
1.0
 30
0.0
  9
$UCSORTHOREF
  2

  9
$UCSORTHOVIEW
 70
     0
  9
$UCSORGTOP
 10
0.0
 20
0.0
 30
0.0
  9
$UCSORGBOTTOM
 10
0.0
 20
0.0
 30
0.0
  9
$UCSORGLEFT
 10
0.0
 20
0.0
 30
0.0
  9
$UCSORGRIGHT
 10
0.0
 20
0.0
 30
0.0
  9
$UCSORGFRONT
 10
0.0
 20
0.0
 30
0.0
  9
$UCSORGBACK
 10
0.0
 20
0.0
 30
0.0
  9
$PUCSBASE
  2

  9
$PUCSNAME
  2

  9
$PUCSORG
 10
0.0
 20
0.0
 30
0.0
  9
$PUCSXDIR
 10
1.0
 20
0.0
 30
0.0
  9
$PUCSYDIR
 10
0.0
 20
1.0
 30
0.0
  9
$PUCSORTHOREF
  2

  9
$PUCSORTHOVIEW
 70
     0
  9
$PUCSORGTOP
 10
0.0
 20
0.0
 30
0.0
  9
$PUCSORGBOTTOM
 10
0.0
 20
0.0
 30
0.0
  9
$PUCSORGLEFT
 10
0.0
 20
0.0
 30
0.0
  9
$PUCSORGRIGHT
 10
0.0
 20
0.0
 30
0.0
  9
$PUCSORGFRONT
 10
0.0
 20
0.0
 30
0.0
  9
$PUCSORGBACK
 10
0.0
 20
0.0
 30
0.0
  9
$USERI1
 70
     0
  9
$USERI2
 70
     0
  9
$USERI3
 70
     0
  9
$USERI4
 70
     0
  9
$USERI5
 70
     0
  9
$USERR1
 40
0.0
  9
$USERR2
 40
0.0
  9
$USERR3
 40
0.0
  9
$USERR4
 40
0.0
  9
$USERR5
 40
0.0
  9
$WORLDVIEW
 70
     1
  9
$SHADEDGE
 70
     3
  9
$SHADEDIF
 70
    70
  9
$TILEMODE
 70
     1
  9
$MAXACTVP
 70
    64
  9
$PINSBASE
 10
0.0
 20
0.0
 30
0.0
  9
$PLIMCHECK
 70
     0
  9
$PEXTMIN
 10
1.000000000000E+20
 20
1.000000000000E+20
 30
1.000000000000E+20
  9
$PEXTMAX
 10
-1.000000000000E+20
 20
-1.000000000000E+20
 30
-1.000000000000E+20
  9
$PLIMMIN
 10
0.0
 20
0.0
  9
$PLIMMAX
 10
420.0
 20
297.0
  9
$UNITMODE
 70
     0
  9
$VISRETAIN
 70
     1
  9
$PLINEGEN
 70
     0
  9
$PSLTSCALE
 70
     1
  9
$TREEDEPTH
 70
  3020
  9
$CMLSTYLE
  2
Standard
  9
$CMLJUST
 70
     0
  9
$CMLSCALE
 40
20.0
  9
$PROXYGRAPHICS
 70
     1
  9
$MEASUREMENT
 70
     1
  9
$CELWEIGHT
370
    -1
  9
$ENDCAPS
280
     0
  9
$JOINSTYLE
280
     0
  9
$LWDISPLAY
290
     0
  9
$INSUNITS
 70
     4
  9
$HYPERLINKBASE
  1

  9
$STYLESHEET
  1

  9
$XEDIT
290
     1
  9
$CEPSNTYPE
380
     0
  9
$PSTYLEMODE
290
     1
  9
$FINGERPRINTGUID
  2
{F33ED445-6BAF-4915-89C2-8F29EBC43C18}
  9
$VERSIONGUID
  2
{FAEB1C32-E019-11D5-929B-00C0DF256EC4}
  9
$EXTNAMES
290
     1
  9
$PSVPSCALE
 40
0.0
  9
$OLESTARTUP
290
     0
  9
$SORTENTS
280
   127
  9
$INDEXCTL
280
     0
  9
$HIDETEXT
280
     1
  9
$XCLIPFRAME
290
     0
  9
$HALOGAP
280
     0
  9
$OBSCOLOR
 70
   257
  9
$OBSLTYPE
280
     0
  9
$INTERSECTIONDISPLAY
280
     0
  9
$INTERSECTIONCOLOR
 70
   257
  9
$DIMASSOC
280
     2
  9
$PROJECTNAME
  1

  0
ENDSEC
  0
SECTION
  2
CLASSES
  0
CLASS
  1
ACDBDICTIONARYWDFLT
  2
AcDbDictionaryWithDefault
  3
ObjectDBX Classes
 90
        0
 91
        4
280
     0
281
     0
  0
CLASS
  1
VISUALSTYLE
  2
AcDbVisualStyle
  3
ObjectDBX Classes
 90
     4095
 91
        4
280
     0
281
     0
  0
CLASS
  1
MATERIAL
  2
AcDbMaterial
  3
ObjectDBX Classes
 90
     1153
 91
        4
280
     0
281
     0
  0
CLASS
  1
WIPEOUTVARIABLES
  2
AcDbWipeoutVariables
  3
WipeOut|AutoCAD Express Tool|expresstools@autodesk.com
 90
        0
 91
        4
280
     0
281
     0
  0
CLASS
  1
WIPEOUT
  2
AcDbWipeout
  3
WipeOut|AutoCAD Express Tool|expresstools@autodesk.com
 90
      127
 91
        4
280
     0
281
     1
  0
ENDSEC
  0
SECTION
  2
TABLES
  0
TABLE
  2
VPORT
  5
8
330
0
100
AcDbSymbolTable
 70
     1
  0
VPORT
  5
29
330
8
100
AcDbSymbolTableRecord
100
AcDbViewportTableRecord
  2
*Active
 70
     0
 10
0.0
 20
0.0
 11
1.0
 21
1.0
 12
633.436375216936
 22
253.322129422918
 13
0.0
 23
0.0
 14
10.0
 24
10.0
 15
10.0
 25
10.0
 16
0.0
 26
0.0
 36
1.0
 17
0.0
 27
0.0
 37
0.0
 40
313.632
 41
2.466380350235
 42
50.0
 43
0.0
 44
0.0
 50
0.0
 51
0.0
 71
     0
 72
   100
 73
     1
 74
     3
 75
     0
 76
     0
 77
     0
 78
     0
281
     0
 65
     1
110
0.0
120
0.0
130
0.0
111
1.0
121
0.0
131
0.0
112
0.0
122
1.0
132
0.0
 79
     0
146
0.0
  0
ENDTAB
  0
TABLE
  2
LTYPE
  5
5
330
0
100
AcDbSymbolTable
 70
     3
  0
LTYPE
  5
14
330
5
100
AcDbSymbolTableRecord
100
AcDbLinetypeTableRecord
  2
ByBlock
 70
     0
  3

 72
    65
 73
     0
 40
0.0
  0
LTYPE
  5
15
330
5
100
AcDbSymbolTableRecord
100
AcDbLinetypeTableRecord
  2
ByLayer
 70
     0
  3

 72
    65
 73
     0
 40
0.0
  0
LTYPE
  5
16
330
5
100
AcDbSymbolTableRecord
100
AcDbLinetypeTableRecord
  2
Continuous
 70
     0
  3
Solid line
 72
    65
 73
     0
 40
0.0
  0
LTYPE
  5
40
330
5
100
AcDbSymbolTableRecord
100
AcDbLinetypeTableRecord
  2
AUSGEZOGEN
 70
     0
  3

 72
    65
 73
     0
 40
0.0
  0
LTYPE
  5
43
330
5
100
AcDbSymbolTableRecord
100
AcDbLinetypeTableRecord
  2
DASHDOT
 70
     0
  3

 72
    65
 73
     4
 40
1.0
 49
0.5
 74
     0
 49
-0.25
 74
     0
 49
0.0
 74
     0
 49
-0.25
 74
     0
  0
ENDTAB
  0
TABLE
  2
LAYER
  5
2
330
0
100
AcDbSymbolTable
 70
   256
  0
LAYER
  5
10
330
2
100
AcDbSymbolTableRecord
100
AcDbLayerTableRecord
  2
0
 70
     0
 62
     7
  6
Continuous
370
    -3
390
F
  0
LAYER
  5
45
330
2
100
AcDbSymbolTableRecord
100
AcDbLayerTableRecord
  2
FORMAT
 70
     0
 62
     7
  6
Continuous
370
    -3
390
F
  0
LAYER
  5
46
330
2
100
AcDbSymbolTableRecord
100
AcDbLayerTableRecord
  2
Layer2
 70
     0
 62
     7
  6
Continuous
370
    -3
390
F
  0
LAYER
  5
47
330
2
100
AcDbSymbolTableRecord
100
AcDbLayerTableRecord
  2
Layer3
 70
     0
 62
     7
  6
Continuous
370
    -3
390
F
  0
LAYER
  5
48
330
2
100
AcDbSymbolTableRecord
100
AcDbLayerTableRecord
  2
Layer4
 70
     0
 62
     7
  6
Continuous
370
    -3
390
F
  0
LAYER
  5
49
330
2
100
AcDbSymbolTableRecord
100
AcDbLayerTableRecord
  2
Layer5
 70
     0
 62
     7
  6
Continuous
370
    -3
390
F
  0
LAYER
  5
4A
330
2
100
AcDbSymbolTableRecord
100
AcDbLayerTableRecord
  2
Layer6
 70
     0
 62
     7
  6
Continuous
370
    -3
390
F
  0
LAYER
  5
4B
330
2
100
AcDbSymbolTableRecord
100
AcDbLayerTableRecord
  2
Layer7
 70
     0
 62
     7
  6
Continuous
370
    -3
390
F
  0
LAYER
  5
4C
330
2
100
AcDbSymbolTableRecord
100
AcDbLayerTableRecord
  2
Layer8
 70
     0
 62
     7
  6
Continuous
370
    -3
390
F
  0
LAYER
  5
4D
330
2
100
AcDbSymbolTableRecord
100
AcDbLayerTableRecord
  2
Layer9
 70
     0
 62
     7
  6
Continuous
370
    -3
390
F
  0
LAYER
  5
4E
330
2
100
AcDbSymbolTableRecord
100
AcDbLayerTableRecord
  2
Layer10
 70
     0
 62
     7
  6
Continuous
370
    -3
390
F
  0
LAYER
  5
4F
330
2
100
AcDbSymbolTableRecord
100
AcDbLayerTableRecord
  2
Layer11
 70
     0
 62
     7
  6
Continuous
370
    -3
390
F
  0
LAYER
  5
50
330
2
100
AcDbSymbolTableRecord
100
AcDbLayerTableRecord
  2
Layer12
 70
     0
 62
     7
  6
Continuous
370
    -3
390
F
  0
LAYER
  5
51
330
2
100
AcDbSymbolTableRecord
100
AcDbLayerTableRecord
  2
Layer13
 70
     0
 62
     7
  6
Continuous
370
    -3
390
F
  0
LAYER
  5
52
330
2
100
AcDbSymbolTableRecord
100
AcDbLayerTableRecord
  2
Layer14
 70
     0
 62
     7
  6
Continuous
370
    -3
390
F
  0
LAYER
  5
53
330
2
100
AcDbSymbolTableRecord
100
AcDbLayerTableRecord
  2
Layer15
 70
     0
 62
     7
  6
Continuous
370
    -3
390
F
  0
LAYER
  5
54
330
2
100
AcDbSymbolTableRecord
100
AcDbLayerTableRecord
  2
Layer16
 70
     0
 62
     7
  6
Continuous
370
    -3
390
F
  0
LAYER
  5
55
330
2
100
AcDbSymbolTableRecord
100
AcDbLayerTableRecord
  2
Layer17
 70
     0
 62
     7
  6
Continuous
370
    -3
390
F
  0
LAYER
  5
56
330
2
100
AcDbSymbolTableRecord
100
AcDbLayerTableRecord
  2
Layer18
 70
     0
 62
     7
  6
Continuous
370
    -3
390
F
  0
LAYER
  5
57
330
2
100
AcDbSymbolTableRecord
100
AcDbLayerTableRecord
  2
Layer19
 70
     0
 62
     7
  6
Continuous
370
    -3
390
F
  0
LAYER
  5
58
330
2
100
AcDbSymbolTableRecord
100
AcDbLayerTableRecord
  2
Layer20
 70
     0
 62
     7
  6
Continuous
370
    -3
390
F
  0
LAYER
  5
59
330
2
100
AcDbSymbolTableRecord
100
AcDbLayerTableRecord
  2
Layer21
 70
     0
 62
     7
  6
Continuous
370
    -3
390
F
  0
LAYER
  5
5A
330
2
100
AcDbSymbolTableRecord
100
AcDbLayerTableRecord
  2
Layer22
 70
     0
 62
     7
  6
Continuous
370
    -3
390
F
  0
LAYER
  5
5B
330
2
100
AcDbSymbolTableRecord
100
AcDbLayerTableRecord
  2
Layer23
 70
     0
 62
     7
  6
Continuous
370
    -3
390
F
  0
LAYER
  5
5C
330
2
100
AcDbSymbolTableRecord
100
AcDbLayerTableRecord
  2
Layer24
 70
     0
 62
     7
  6
Continuous
370
    -3
390
F
  0
LAYER
  5
5D
330
2
100
AcDbSymbolTableRecord
100
AcDbLayerTableRecord
  2
Layer25
 70
     0
 62
     7
  6
Continuous
370
    -3
390
F
  0
LAYER
  5
5E
330
2
100
AcDbSymbolTableRecord
100
AcDbLayerTableRecord
  2
Layer26
 70
     0
 62
     7
  6
Continuous
370
    -3
390
F
  0
LAYER
  5
5F
330
2
100
AcDbSymbolTableRecord
100
AcDbLayerTableRecord
  2
Layer27
 70
     0
 62
     7
  6
Continuous
370
    -3
390
F
  0
LAYER
  5
60
330
2
100
AcDbSymbolTableRecord
100
AcDbLayerTableRecord
  2
Layer28
 70
     0
 62
     7
  6
Continuous
370
    -3
390
F
  0
LAYER
  5
61
330
2
100
AcDbSymbolTableRecord
100
AcDbLayerTableRecord
  2
Layer29
 70
     0
 62
     7
  6
Continuous
370
    -3
390
F
  0
LAYER
  5
62
330
2
100
AcDbSymbolTableRecord
100
AcDbLayerTableRecord
  2
Layer30
 70
     0
 62
     7
  6
Continuous
370
    -3
390
F
  0
LAYER
  5
63
330
2
100
AcDbSymbolTableRecord
100
AcDbLayerTableRecord
  2
Layer31
 70
     0
 62
     7
  6
Continuous
370
    -3
390
F
  0
LAYER
  5
64
330
2
100
AcDbSymbolTableRecord
100
AcDbLayerTableRecord
  2
Layer32
 70
     0
 62
     7
  6
Continuous
370
    -3
390
F
  0
LAYER
  5
65
330
2
100
AcDbSymbolTableRecord
100
AcDbLayerTableRecord
  2
Layer33
 70
     0
 62
     7
  6
Continuous
370
    -3
390
F
  0
LAYER
  5
66
330
2
100
AcDbSymbolTableRecord
100
AcDbLayerTableRecord
  2
Layer34
 70
     0
 62
     7
  6
Continuous
370
    -3
390
F
  0
LAYER
  5
67
330
2
100
AcDbSymbolTableRecord
100
AcDbLayerTableRecord
  2
Layer35
 70
     0
 62
     7
  6
Continuous
370
    -3
390
F
  0
LAYER
  5
68
330
2
100
AcDbSymbolTableRecord
100
AcDbLayerTableRecord
  2
Layer36
 70
     0
 62
     7
  6
Continuous
370
    -3
390
F
  0
LAYER
  5
69
330
2
100
AcDbSymbolTableRecord
100
AcDbLayerTableRecord
  2
Layer37
 70
     0
 62
     7
  6
Continuous
370
    -3
390
F
  0
LAYER
  5
6A
330
2
100
AcDbSymbolTableRecord
100
AcDbLayerTableRecord
  2
Layer38
 70
     0
 62
     7
  6
Continuous
370
    -3
390
F
  0
LAYER
  5
6B
330
2
100
AcDbSymbolTableRecord
100
AcDbLayerTableRecord
  2
Layer39
 70
     0
 62
     7
  6
Continuous
370
    -3
390
F
  0
LAYER
  5
6C
330
2
100
AcDbSymbolTableRecord
100
AcDbLayerTableRecord
  2
Layer40
 70
     0
 62
     7
  6
Continuous
370
    -3
390
F
  0
LAYER
  5
6D
330
2
100
AcDbSymbolTableRecord
100
AcDbLayerTableRecord
  2
Layer41
 70
     0
 62
     7
  6
Continuous
370
    -3
390
F
  0
LAYER
  5
6E
330
2
100
AcDbSymbolTableRecord
100
AcDbLayerTableRecord
  2
Layer42
 70
     0
 62
     7
  6
Continuous
370
    -3
390
F
  0
LAYER
  5
6F
330
2
100
AcDbSymbolTableRecord
100
AcDbLayerTableRecord
  2
Layer43
 70
     0
 62
     7
  6
Continuous
370
    -3
390
F
  0
LAYER
  5
70
330
2
100
AcDbSymbolTableRecord
100
AcDbLayerTableRecord
  2
Layer44
 70
     0
 62
     7
  6
Continuous
370
    -3
390
F
  0
LAYER
  5
71
330
2
100
AcDbSymbolTableRecord
100
AcDbLayerTableRecord
  2
Layer45
 70
     0
 62
     7
  6
Continuous
370
    -3
390
F
  0
LAYER
  5
72
330
2
100
AcDbSymbolTableRecord
100
AcDbLayerTableRecord
  2
Layer46
 70
     0
 62
     7
  6
Continuous
370
    -3
390
F
  0
LAYER
  5
73
330
2
100
AcDbSymbolTableRecord
100
AcDbLayerTableRecord
  2
Layer47
 70
     0
 62
     7
  6
Continuous
370
    -3
390
F
  0
LAYER
  5
74
330
2
100
AcDbSymbolTableRecord
100
AcDbLayerTableRecord
  2
Layer48
 70
     0
 62
     7
  6
Continuous
370
    -3
390
F
  0
LAYER
  5
75
330
2
100
AcDbSymbolTableRecord
100
AcDbLayerTableRecord
  2
Layer49
 70
     0
 62
     7
  6
Continuous
370
    -3
390
F
  0
LAYER
  5
76
330
2
100
AcDbSymbolTableRecord
100
AcDbLayerTableRecord
  2
Layer50
 70
     0
 62
     7
  6
Continuous
370
    -3
390
F
  0
LAYER
  5
77
330
2
100
AcDbSymbolTableRecord
100
AcDbLayerTableRecord
  2
Layer51
 70
     0
 62
     7
  6
Continuous
370
    -3
390
F
  0
LAYER
  5
78
330
2
100
AcDbSymbolTableRecord
100
AcDbLayerTableRecord
  2
Layer52
 70
     0
 62
     7
  6
Continuous
370
    -3
390
F
  0
LAYER
  5
79
330
2
100
AcDbSymbolTableRecord
100
AcDbLayerTableRecord
  2
Layer53
 70
     0
 62
     7
  6
Continuous
370
    -3
390
F
  0
LAYER
  5
7A
330
2
100
AcDbSymbolTableRecord
100
AcDbLayerTableRecord
  2
Layer54
 70
     0
 62
     7
  6
Continuous
370
    -3
390
F
  0
LAYER
  5
7B
330
2
100
AcDbSymbolTableRecord
100
AcDbLayerTableRecord
  2
Layer55
 70
     0
 62
     7
  6
Continuous
370
    -3
390
F
  0
LAYER
  5
7C
330
2
100
AcDbSymbolTableRecord
100
AcDbLayerTableRecord
  2
Layer56
 70
     0
 62
     7
  6
Continuous
370
    -3
390
F
  0
LAYER
  5
7D
330
2
100
AcDbSymbolTableRecord
100
AcDbLayerTableRecord
  2
Layer57
 70
     0
 62
     7
  6
Continuous
370
    -3
390
F
  0
LAYER
  5
7E
330
2
100
AcDbSymbolTableRecord
100
AcDbLayerTableRecord
  2
Layer58
 70
     0
 62
     7
  6
Continuous
370
    -3
390
F
  0
LAYER
  5
7F
330
2
100
AcDbSymbolTableRecord
100
AcDbLayerTableRecord
  2
Layer59
 70
     0
 62
     7
  6
Continuous
370
    -3
390
F
  0
LAYER
  5
80
330
2
100
AcDbSymbolTableRecord
100
AcDbLayerTableRecord
  2
Layer60
 70
     0
 62
     7
  6
Continuous
370
    -3
390
F
  0
LAYER
  5
81
330
2
100
AcDbSymbolTableRecord
100
AcDbLayerTableRecord
  2
Layer61
 70
     0
 62
     7
  6
Continuous
370
    -3
390
F
  0
LAYER
  5
82
330
2
100
AcDbSymbolTableRecord
100
AcDbLayerTableRecord
  2
Layer62
 70
     0
 62
     7
  6
Continuous
370
    -3
390
F
  0
LAYER
  5
83
330
2
100
AcDbSymbolTableRecord
100
AcDbLayerTableRecord
  2
Layer63
 70
     0
 62
     7
  6
Continuous
370
    -3
390
F
  0
LAYER
  5
84
330
2
100
AcDbSymbolTableRecord
100
AcDbLayerTableRecord
  2
Layer64
 70
     0
 62
     7
  6
Continuous
370
    -3
390
F
  0
LAYER
  5
85
330
2
100
AcDbSymbolTableRecord
100
AcDbLayerTableRecord
  2
Layer65
 70
     0
 62
     7
  6
Continuous
370
    -3
390
F
  0
LAYER
  5
86
330
2
100
AcDbSymbolTableRecord
100
AcDbLayerTableRecord
  2
Layer66
 70
     0
 62
     7
  6
Continuous
370
    -3
390
F
  0
LAYER
  5
87
330
2
100
AcDbSymbolTableRecord
100
AcDbLayerTableRecord
  2
Layer67
 70
     0
 62
     7
  6
Continuous
370
    -3
390
F
  0
LAYER
  5
88
330
2
100
AcDbSymbolTableRecord
100
AcDbLayerTableRecord
  2
Layer68
 70
     0
 62
     7
  6
Continuous
370
    -3
390
F
  0
LAYER
  5
89
330
2
100
AcDbSymbolTableRecord
100
AcDbLayerTableRecord
  2
Layer69
 70
     0
 62
     7
  6
Continuous
370
    -3
390
F
  0
LAYER
  5
8A
330
2
100
AcDbSymbolTableRecord
100
AcDbLayerTableRecord
  2
Layer70
 70
     0
 62
     7
  6
Continuous
370
    -3
390
F
  0
LAYER
  5
8B
330
2
100
AcDbSymbolTableRecord
100
AcDbLayerTableRecord
  2
Layer71
 70
     0
 62
     7
  6
Continuous
370
    -3
390
F
  0
LAYER
  5
8C
330
2
100
AcDbSymbolTableRecord
100
AcDbLayerTableRecord
  2
Layer72
 70
     0
 62
     7
  6
Continuous
370
    -3
390
F
  0
LAYER
  5
8D
330
2
100
AcDbSymbolTableRecord
100
AcDbLayerTableRecord
  2
Layer73
 70
     0
 62
     7
  6
Continuous
370
    -3
390
F
  0
LAYER
  5
8E
330
2
100
AcDbSymbolTableRecord
100
AcDbLayerTableRecord
  2
Layer74
 70
     0
 62
     7
  6
Continuous
370
    -3
390
F
  0
LAYER
  5
8F
330
2
100
AcDbSymbolTableRecord
100
AcDbLayerTableRecord
  2
Layer75
 70
     0
 62
     7
  6
Continuous
370
    -3
390
F
  0
LAYER
  5
90
330
2
100
AcDbSymbolTableRecord
100
AcDbLayerTableRecord
  2
Layer76
 70
     0
 62
     7
  6
Continuous
370
    -3
390
F
  0
LAYER
  5
91
330
2
100
AcDbSymbolTableRecord
100
AcDbLayerTableRecord
  2
Layer77
 70
     0
 62
     7
  6
Continuous
370
    -3
390
F
  0
LAYER
  5
92
330
2
100
AcDbSymbolTableRecord
100
AcDbLayerTableRecord
  2
Layer78
 70
     0
 62
     7
  6
Continuous
370
    -3
390
F
  0
LAYER
  5
93
330
2
100
AcDbSymbolTableRecord
100
AcDbLayerTableRecord
  2
Layer79
 70
     0
 62
     7
  6
Continuous
370
    -3
390
F
  0
LAYER
  5
94
330
2
100
AcDbSymbolTableRecord
100
AcDbLayerTableRecord
  2
Layer80
 70
     0
 62
     7
  6
Continuous
370
    -3
390
F
  0
LAYER
  5
95
330
2
100
AcDbSymbolTableRecord
100
AcDbLayerTableRecord
  2
Layer81
 70
     0
 62
     7
  6
Continuous
370
    -3
390
F
  0
LAYER
  5
96
330
2
100
AcDbSymbolTableRecord
100
AcDbLayerTableRecord
  2
Layer82
 70
     0
 62
     7
  6
Continuous
370
    -3
390
F
  0
LAYER
  5
97
330
2
100
AcDbSymbolTableRecord
100
AcDbLayerTableRecord
  2
Layer83
 70
     0
 62
     7
  6
Continuous
370
    -3
390
F
  0
LAYER
  5
98
330
2
100
AcDbSymbolTableRecord
100
AcDbLayerTableRecord
  2
Layer84
 70
     0
 62
     7
  6
Continuous
370
    -3
390
F
  0
LAYER
  5
99
330
2
100
AcDbSymbolTableRecord
100
AcDbLayerTableRecord
  2
Layer85
 70
     0
 62
     7
  6
Continuous
370
    -3
390
F
  0
LAYER
  5
9A
330
2
100
AcDbSymbolTableRecord
100
AcDbLayerTableRecord
  2
Layer86
 70
     0
 62
     7
  6
Continuous
370
    -3
390
F
  0
LAYER
  5
9B
330
2
100
AcDbSymbolTableRecord
100
AcDbLayerTableRecord
  2
Layer87
 70
     0
 62
     7
  6
Continuous
370
    -3
390
F
  0
LAYER
  5
9C
330
2
100
AcDbSymbolTableRecord
100
AcDbLayerTableRecord
  2
Layer88
 70
     0
 62
     7
  6
Continuous
370
    -3
390
F
  0
LAYER
  5
9D
330
2
100
AcDbSymbolTableRecord
100
AcDbLayerTableRecord
  2
Layer89
 70
     0
 62
     7
  6
Continuous
370
    -3
390
F
  0
LAYER
  5
9E
330
2
100
AcDbSymbolTableRecord
100
AcDbLayerTableRecord
  2
Layer90
 70
     0
 62
     7
  6
Continuous
370
    -3
390
F
  0
LAYER
  5
9F
330
2
100
AcDbSymbolTableRecord
100
AcDbLayerTableRecord
  2
Layer91
 70
     0
 62
     7
  6
Continuous
370
    -3
390
F
  0
LAYER
  5
A0
330
2
100
AcDbSymbolTableRecord
100
AcDbLayerTableRecord
  2
Layer92
 70
     0
 62
     7
  6
Continuous
370
    -3
390
F
  0
LAYER
  5
A1
330
2
100
AcDbSymbolTableRecord
100
AcDbLayerTableRecord
  2
Layer93
 70
     0
 62
     7
  6
Continuous
370
    -3
390
F
  0
LAYER
  5
A2
330
2
100
AcDbSymbolTableRecord
100
AcDbLayerTableRecord
  2
Layer94
 70
     0
 62
     7
  6
Continuous
370
    -3
390
F
  0
LAYER
  5
A3
330
2
100
AcDbSymbolTableRecord
100
AcDbLayerTableRecord
  2
Layer95
 70
     0
 62
     7
  6
Continuous
370
    -3
390
F
  0
LAYER
  5
A4
330
2
100
AcDbSymbolTableRecord
100
AcDbLayerTableRecord
  2
Layer96
 70
     0
 62
     7
  6
Continuous
370
    -3
390
F
  0
LAYER
  5
A5
330
2
100
AcDbSymbolTableRecord
100
AcDbLayerTableRecord
  2
Layer97
 70
     0
 62
     7
  6
Continuous
370
    -3
390
F
  0
LAYER
  5
A6
330
2
100
AcDbSymbolTableRecord
100
AcDbLayerTableRecord
  2
Layer98
 70
     0
 62
     7
  6
Continuous
370
    -3
390
F
  0
LAYER
  5
A7
330
2
100
AcDbSymbolTableRecord
100
AcDbLayerTableRecord
  2
Layer99
 70
     0
 62
     7
  6
Continuous
370
    -3
390
F
  0
LAYER
  5
A8
330
2
100
AcDbSymbolTableRecord
100
AcDbLayerTableRecord
  2
Layer100
 70
     0
 62
     7
  6
Continuous
370
    -3
390
F
  0
LAYER
  5
A9
330
2
100
AcDbSymbolTableRecord
100
AcDbLayerTableRecord
  2
Layer101
 70
     0
 62
     7
  6
Continuous
370
    -3
390
F
  0
LAYER
  5
AA
330
2
100
AcDbSymbolTableRecord
100
AcDbLayerTableRecord
  2
Layer102
 70
     0
 62
     7
  6
Continuous
370
    -3
390
F
  0
LAYER
  5
AB
330
2
100
AcDbSymbolTableRecord
100
AcDbLayerTableRecord
  2
Layer103
 70
     0
 62
     7
  6
Continuous
370
    -3
390
F
  0
LAYER
  5
AC
330
2
100
AcDbSymbolTableRecord
100
AcDbLayerTableRecord
  2
Layer104
 70
     0
 62
     7
  6
Continuous
370
    -3
390
F
  0
LAYER
  5
AD
330
2
100
AcDbSymbolTableRecord
100
AcDbLayerTableRecord
  2
Layer105
 70
     0
 62
     7
  6
Continuous
370
    -3
390
F
  0
LAYER
  5
AE
330
2
100
AcDbSymbolTableRecord
100
AcDbLayerTableRecord
  2
Layer106
 70
     0
 62
     7
  6
Continuous
370
    -3
390
F
  0
LAYER
  5
AF
330
2
100
AcDbSymbolTableRecord
100
AcDbLayerTableRecord
  2
Layer107
 70
     0
 62
     7
  6
Continuous
370
    -3
390
F
  0
LAYER
  5
B0
330
2
100
AcDbSymbolTableRecord
100
AcDbLayerTableRecord
  2
Layer108
 70
     0
 62
     7
  6
Continuous
370
    -3
390
F
  0
LAYER
  5
B1
330
2
100
AcDbSymbolTableRecord
100
AcDbLayerTableRecord
  2
Layer109
 70
     0
 62
     7
  6
Continuous
370
    -3
390
F
  0
LAYER
  5
B2
330
2
100
AcDbSymbolTableRecord
100
AcDbLayerTableRecord
  2
Layer110
 70
     0
 62
     7
  6
Continuous
370
    -3
390
F
  0
LAYER
  5
B3
330
2
100
AcDbSymbolTableRecord
100
AcDbLayerTableRecord
  2
Layer111
 70
     0
 62
     7
  6
Continuous
370
    -3
390
F
  0
LAYER
  5
B4
330
2
100
AcDbSymbolTableRecord
100
AcDbLayerTableRecord
  2
Layer112
 70
     0
 62
     7
  6
Continuous
370
    -3
390
F
  0
LAYER
  5
B5
330
2
100
AcDbSymbolTableRecord
100
AcDbLayerTableRecord
  2
Layer113
 70
     0
 62
     7
  6
Continuous
370
    -3
390
F
  0
LAYER
  5
B6
330
2
100
AcDbSymbolTableRecord
100
AcDbLayerTableRecord
  2
Layer114
 70
     0
 62
     7
  6
Continuous
370
    -3
390
F
  0
LAYER
  5
B7
330
2
100
AcDbSymbolTableRecord
100
AcDbLayerTableRecord
  2
Layer115
 70
     0
 62
     7
  6
Continuous
370
    -3
390
F
  0
LAYER
  5
B8
330
2
100
AcDbSymbolTableRecord
100
AcDbLayerTableRecord
  2
Layer116
 70
     0
 62
     7
  6
Continuous
370
    -3
390
F
  0
LAYER
  5
B9
330
2
100
AcDbSymbolTableRecord
100
AcDbLayerTableRecord
  2
Layer117
 70
     0
 62
     7
  6
Continuous
370
    -3
390
F
  0
LAYER
  5
BA
330
2
100
AcDbSymbolTableRecord
100
AcDbLayerTableRecord
  2
Layer118
 70
     0
 62
     7
  6
Continuous
370
    -3
390
F
  0
LAYER
  5
BB
330
2
100
AcDbSymbolTableRecord
100
AcDbLayerTableRecord
  2
Layer119
 70
     0
 62
     7
  6
Continuous
370
    -3
390
F
  0
LAYER
  5
BC
330
2
100
AcDbSymbolTableRecord
100
AcDbLayerTableRecord
  2
Layer120
 70
     0
 62
     7
  6
Continuous
370
    -3
390
F
  0
LAYER
  5
BD
330
2
100
AcDbSymbolTableRecord
100
AcDbLayerTableRecord
  2
Layer121
 70
     0
 62
     7
  6
Continuous
370
    -3
390
F
  0
LAYER
  5
BE
330
2
100
AcDbSymbolTableRecord
100
AcDbLayerTableRecord
  2
Layer122
 70
     0
 62
     7
  6
Continuous
370
    -3
390
F
  0
LAYER
  5
BF
330
2
100
AcDbSymbolTableRecord
100
AcDbLayerTableRecord
  2
Layer123
 70
     0
 62
     7
  6
Continuous
370
    -3
390
F
  0
LAYER
  5
C0
330
2
100
AcDbSymbolTableRecord
100
AcDbLayerTableRecord
  2
Layer124
 70
     0
 62
     7
  6
Continuous
370
    -3
390
F
  0
LAYER
  5
C1
330
2
100
AcDbSymbolTableRecord
100
AcDbLayerTableRecord
  2
Layer125
 70
     0
 62
     7
  6
Continuous
370
    -3
390
F
  0
LAYER
  5
C2
330
2
100
AcDbSymbolTableRecord
100
AcDbLayerTableRecord
  2
Layer126
 70
     0
 62
     7
  6
Continuous
370
    -3
390
F
  0
LAYER
  5
C3
330
2
100
AcDbSymbolTableRecord
100
AcDbLayerTableRecord
  2
Layer127
 70
     0
 62
     7
  6
Continuous
370
    -3
390
F
  0
LAYER
  5
C4
330
2
100
AcDbSymbolTableRecord
100
AcDbLayerTableRecord
  2
Layer128
 70
     0
 62
     7
  6
Continuous
370
    -3
390
F
  0
LAYER
  5
C5
330
2
100
AcDbSymbolTableRecord
100
AcDbLayerTableRecord
  2
Layer129
 70
     0
 62
     7
  6
Continuous
370
    -3
390
F
  0
LAYER
  5
C6
330
2
100
AcDbSymbolTableRecord
100
AcDbLayerTableRecord
  2
Layer130
 70
     0
 62
     7
  6
Continuous
370
    -3
390
F
  0
LAYER
  5
C7
330
2
100
AcDbSymbolTableRecord
100
AcDbLayerTableRecord
  2
Layer131
 70
     0
 62
     7
  6
Continuous
370
    -3
390
F
  0
LAYER
  5
C8
330
2
100
AcDbSymbolTableRecord
100
AcDbLayerTableRecord
  2
Layer132
 70
     0
 62
     7
  6
Continuous
370
    -3
390
F
  0
LAYER
  5
C9
330
2
100
AcDbSymbolTableRecord
100
AcDbLayerTableRecord
  2
Layer133
 70
     0
 62
     7
  6
Continuous
370
    -3
390
F
  0
LAYER
  5
CA
330
2
100
AcDbSymbolTableRecord
100
AcDbLayerTableRecord
  2
Layer134
 70
     0
 62
     7
  6
Continuous
370
    -3
390
F
  0
LAYER
  5
CB
330
2
100
AcDbSymbolTableRecord
100
AcDbLayerTableRecord
  2
Layer135
 70
     0
 62
     7
  6
Continuous
370
    -3
390
F
  0
LAYER
  5
CC
330
2
100
AcDbSymbolTableRecord
100
AcDbLayerTableRecord
  2
Layer136
 70
     0
 62
     7
  6
Continuous
370
    -3
390
F
  0
LAYER
  5
CD
330
2
100
AcDbSymbolTableRecord
100
AcDbLayerTableRecord
  2
Layer137
 70
     0
 62
     7
  6
Continuous
370
    -3
390
F
  0
LAYER
  5
CE
330
2
100
AcDbSymbolTableRecord
100
AcDbLayerTableRecord
  2
Layer138
 70
     0
 62
     7
  6
Continuous
370
    -3
390
F
  0
LAYER
  5
CF
330
2
100
AcDbSymbolTableRecord
100
AcDbLayerTableRecord
  2
Layer139
 70
     0
 62
     7
  6
Continuous
370
    -3
390
F
  0
LAYER
  5
D0
330
2
100
AcDbSymbolTableRecord
100
AcDbLayerTableRecord
  2
Layer140
 70
     0
 62
     7
  6
Continuous
370
    -3
390
F
  0
LAYER
  5
D1
330
2
100
AcDbSymbolTableRecord
100
AcDbLayerTableRecord
  2
Layer141
 70
     0
 62
     7
  6
Continuous
370
    -3
390
F
  0
LAYER
  5
D2
330
2
100
AcDbSymbolTableRecord
100
AcDbLayerTableRecord
  2
Layer142
 70
     0
 62
     7
  6
Continuous
370
    -3
390
F
  0
LAYER
  5
D3
330
2
100
AcDbSymbolTableRecord
100
AcDbLayerTableRecord
  2
Layer143
 70
     0
 62
     7
  6
Continuous
370
    -3
390
F
  0
LAYER
  5
D4
330
2
100
AcDbSymbolTableRecord
100
AcDbLayerTableRecord
  2
Layer144
 70
     0
 62
     7
  6
Continuous
370
    -3
390
F
  0
LAYER
  5
D5
330
2
100
AcDbSymbolTableRecord
100
AcDbLayerTableRecord
  2
Layer145
 70
     0
 62
     7
  6
Continuous
370
    -3
390
F
  0
LAYER
  5
D6
330
2
100
AcDbSymbolTableRecord
100
AcDbLayerTableRecord
  2
Layer146
 70
     0
 62
     7
  6
Continuous
370
    -3
390
F
  0
LAYER
  5
D7
330
2
100
AcDbSymbolTableRecord
100
AcDbLayerTableRecord
  2
Layer147
 70
     0
 62
     7
  6
Continuous
370
    -3
390
F
  0
LAYER
  5
D8
330
2
100
AcDbSymbolTableRecord
100
AcDbLayerTableRecord
  2
Layer148
 70
     0
 62
     7
  6
Continuous
370
    -3
390
F
  0
LAYER
  5
D9
330
2
100
AcDbSymbolTableRecord
100
AcDbLayerTableRecord
  2
Layer149
 70
     0
 62
     7
  6
Continuous
370
    -3
390
F
  0
LAYER
  5
DA
330
2
100
AcDbSymbolTableRecord
100
AcDbLayerTableRecord
  2
Layer150
 70
     0
 62
     7
  6
Continuous
370
    -3
390
F
  0
LAYER
  5
DB
330
2
100
AcDbSymbolTableRecord
100
AcDbLayerTableRecord
  2
Layer151
 70
     0
 62
     7
  6
Continuous
370
    -3
390
F
  0
LAYER
  5
DC
330
2
100
AcDbSymbolTableRecord
100
AcDbLayerTableRecord
  2
Layer152
 70
     0
 62
     7
  6
Continuous
370
    -3
390
F
  0
LAYER
  5
DD
330
2
100
AcDbSymbolTableRecord
100
AcDbLayerTableRecord
  2
Layer153
 70
     0
 62
     7
  6
Continuous
370
    -3
390
F
  0
LAYER
  5
DE
330
2
100
AcDbSymbolTableRecord
100
AcDbLayerTableRecord
  2
Layer154
 70
     0
 62
     7
  6
Continuous
370
    -3
390
F
  0
LAYER
  5
DF
330
2
100
AcDbSymbolTableRecord
100
AcDbLayerTableRecord
  2
Layer155
 70
     0
 62
     7
  6
Continuous
370
    -3
390
F
  0
LAYER
  5
E0
330
2
100
AcDbSymbolTableRecord
100
AcDbLayerTableRecord
  2
Layer156
 70
     0
 62
     7
  6
Continuous
370
    -3
390
F
  0
LAYER
  5
E1
330
2
100
AcDbSymbolTableRecord
100
AcDbLayerTableRecord
  2
Layer157
 70
     0
 62
     7
  6
Continuous
370
    -3
390
F
  0
LAYER
  5
E2
330
2
100
AcDbSymbolTableRecord
100
AcDbLayerTableRecord
  2
Layer158
 70
     0
 62
     7
  6
Continuous
370
    -3
390
F
  0
LAYER
  5
E3
330
2
100
AcDbSymbolTableRecord
100
AcDbLayerTableRecord
  2
Layer159
 70
     0
 62
     7
  6
Continuous
370
    -3
390
F
  0
LAYER
  5
E4
330
2
100
AcDbSymbolTableRecord
100
AcDbLayerTableRecord
  2
Layer160
 70
     0
 62
     7
  6
Continuous
370
    -3
390
F
  0
LAYER
  5
E5
330
2
100
AcDbSymbolTableRecord
100
AcDbLayerTableRecord
  2
Layer161
 70
     0
 62
     7
  6
Continuous
370
    -3
390
F
  0
LAYER
  5
E6
330
2
100
AcDbSymbolTableRecord
100
AcDbLayerTableRecord
  2
Layer162
 70
     0
 62
     7
  6
Continuous
370
    -3
390
F
  0
LAYER
  5
E7
330
2
100
AcDbSymbolTableRecord
100
AcDbLayerTableRecord
  2
Layer163
 70
     0
 62
     7
  6
Continuous
370
    -3
390
F
  0
LAYER
  5
E8
330
2
100
AcDbSymbolTableRecord
100
AcDbLayerTableRecord
  2
Layer164
 70
     0
 62
     7
  6
Continuous
370
    -3
390
F
  0
LAYER
  5
E9
330
2
100
AcDbSymbolTableRecord
100
AcDbLayerTableRecord
  2
Layer165
 70
     0
 62
     7
  6
Continuous
370
    -3
390
F
  0
LAYER
  5
EA
330
2
100
AcDbSymbolTableRecord
100
AcDbLayerTableRecord
  2
Layer166
 70
     0
 62
     7
  6
Continuous
370
    -3
390
F
  0
LAYER
  5
EB
330
2
100
AcDbSymbolTableRecord
100
AcDbLayerTableRecord
  2
Layer167
 70
     0
 62
     7
  6
Continuous
370
    -3
390
F
  0
LAYER
  5
EC
330
2
100
AcDbSymbolTableRecord
100
AcDbLayerTableRecord
  2
Layer168
 70
     0
 62
     7
  6
Continuous
370
    -3
390
F
  0
LAYER
  5
ED
330
2
100
AcDbSymbolTableRecord
100
AcDbLayerTableRecord
  2
Layer169
 70
     0
 62
     7
  6
Continuous
370
    -3
390
F
  0
LAYER
  5
EE
330
2
100
AcDbSymbolTableRecord
100
AcDbLayerTableRecord
  2
Layer170
 70
     0
 62
     7
  6
Continuous
370
    -3
390
F
  0
LAYER
  5
EF
330
2
100
AcDbSymbolTableRecord
100
AcDbLayerTableRecord
  2
Layer171
 70
     0
 62
     7
  6
Continuous
370
    -3
390
F
  0
LAYER
  5
F0
330
2
100
AcDbSymbolTableRecord
100
AcDbLayerTableRecord
  2
Layer172
 70
     0
 62
     7
  6
Continuous
370
    -3
390
F
  0
LAYER
  5
F1
330
2
100
AcDbSymbolTableRecord
100
AcDbLayerTableRecord
  2
Layer173
 70
     0
 62
     7
  6
Continuous
370
    -3
390
F
  0
LAYER
  5
F2
330
2
100
AcDbSymbolTableRecord
100
AcDbLayerTableRecord
  2
Layer174
 70
     0
 62
     7
  6
Continuous
370
    -3
390
F
  0
LAYER
  5
F3
330
2
100
AcDbSymbolTableRecord
100
AcDbLayerTableRecord
  2
Layer175
 70
     0
 62
     7
  6
Continuous
370
    -3
390
F
  0
LAYER
  5
F4
330
2
100
AcDbSymbolTableRecord
100
AcDbLayerTableRecord
  2
Layer176
 70
     0
 62
     7
  6
Continuous
370
    -3
390
F
  0
LAYER
  5
F5
330
2
100
AcDbSymbolTableRecord
100
AcDbLayerTableRecord
  2
Layer177
 70
     0
 62
     7
  6
Continuous
370
    -3
390
F
  0
LAYER
  5
F6
330
2
100
AcDbSymbolTableRecord
100
AcDbLayerTableRecord
  2
Layer178
 70
     0
 62
     7
  6
Continuous
370
    -3
390
F
  0
LAYER
  5
F7
330
2
100
AcDbSymbolTableRecord
100
AcDbLayerTableRecord
  2
Layer179
 70
     0
 62
     7
  6
Continuous
370
    -3
390
F
  0
LAYER
  5
F8
330
2
100
AcDbSymbolTableRecord
100
AcDbLayerTableRecord
  2
Layer180
 70
     0
 62
     7
  6
Continuous
370
    -3
390
F
  0
LAYER
  5
F9
330
2
100
AcDbSymbolTableRecord
100
AcDbLayerTableRecord
  2
Layer181
 70
     0
 62
     7
  6
Continuous
370
    -3
390
F
  0
LAYER
  5
FA
330
2
100
AcDbSymbolTableRecord
100
AcDbLayerTableRecord
  2
Layer182
 70
     0
 62
     7
  6
Continuous
370
    -3
390
F
  0
LAYER
  5
FB
330
2
100
AcDbSymbolTableRecord
100
AcDbLayerTableRecord
  2
Layer183
 70
     0
 62
     7
  6
Continuous
370
    -3
390
F
  0
LAYER
  5
FC
330
2
100
AcDbSymbolTableRecord
100
AcDbLayerTableRecord
  2
Layer184
 70
     0
 62
     7
  6
Continuous
370
    -3
390
F
  0
LAYER
  5
FD
330
2
100
AcDbSymbolTableRecord
100
AcDbLayerTableRecord
  2
Layer185
 70
     0
 62
     7
  6
Continuous
370
    -3
390
F
  0
LAYER
  5
FE
330
2
100
AcDbSymbolTableRecord
100
AcDbLayerTableRecord
  2
Layer186
 70
     0
 62
     7
  6
Continuous
370
    -3
390
F
  0
LAYER
  5
FF
330
2
100
AcDbSymbolTableRecord
100
AcDbLayerTableRecord
  2
Layer187
 70
     0
 62
     7
  6
Continuous
370
    -3
390
F
  0
LAYER
  5
100
330
2
100
AcDbSymbolTableRecord
100
AcDbLayerTableRecord
  2
Layer188
 70
     0
 62
     7
  6
Continuous
370
    -3
390
F
  0
LAYER
  5
101
330
2
100
AcDbSymbolTableRecord
100
AcDbLayerTableRecord
  2
Layer189
 70
     0
 62
     7
  6
Continuous
370
    -3
390
F
  0
LAYER
  5
102
330
2
100
AcDbSymbolTableRecord
100
AcDbLayerTableRecord
  2
Layer190
 70
     0
 62
     7
  6
Continuous
370
    -3
390
F
  0
LAYER
  5
103
330
2
100
AcDbSymbolTableRecord
100
AcDbLayerTableRecord
  2
Layer191
 70
     0
 62
     7
  6
Continuous
370
    -3
390
F
  0
LAYER
  5
104
330
2
100
AcDbSymbolTableRecord
100
AcDbLayerTableRecord
  2
Layer192
 70
     0
 62
     7
  6
Continuous
370
    -3
390
F
  0
LAYER
  5
105
330
2
100
AcDbSymbolTableRecord
100
AcDbLayerTableRecord
  2
Layer193
 70
     0
 62
     7
  6
Continuous
370
    -3
390
F
  0
LAYER
  5
106
330
2
100
AcDbSymbolTableRecord
100
AcDbLayerTableRecord
  2
Layer194
 70
     0
 62
     7
  6
Continuous
370
    -3
390
F
  0
LAYER
  5
107
330
2
100
AcDbSymbolTableRecord
100
AcDbLayerTableRecord
  2
Layer195
 70
     0
 62
     7
  6
Continuous
370
    -3
390
F
  0
LAYER
  5
108
330
2
100
AcDbSymbolTableRecord
100
AcDbLayerTableRecord
  2
Layer196
 70
     0
 62
     7
  6
Continuous
370
    -3
390
F
  0
LAYER
  5
109
330
2
100
AcDbSymbolTableRecord
100
AcDbLayerTableRecord
  2
Layer197
 70
     0
 62
     7
  6
Continuous
370
    -3
390
F
  0
LAYER
  5
10A
330
2
100
AcDbSymbolTableRecord
100
AcDbLayerTableRecord
  2
Layer198
 70
     0
 62
     7
  6
Continuous
370
    -3
390
F
  0
LAYER
  5
10B
330
2
100
AcDbSymbolTableRecord
100
AcDbLayerTableRecord
  2
Layer199
 70
     0
 62
     7
  6
Continuous
370
    -3
390
F
  0
LAYER
  5
10C
330
2
100
AcDbSymbolTableRecord
100
AcDbLayerTableRecord
  2
Layer200
 70
     0
 62
     7
  6
Continuous
370
    -3
390
F
  0
LAYER
  5
10D
330
2
100
AcDbSymbolTableRecord
100
AcDbLayerTableRecord
  2
Layer201
 70
     0
 62
     7
  6
Continuous
370
    -3
390
F
  0
LAYER
  5
10E
330
2
100
AcDbSymbolTableRecord
100
AcDbLayerTableRecord
  2
Layer202
 70
     0
 62
     7
  6
Continuous
370
    -3
390
F
  0
LAYER
  5
10F
330
2
100
AcDbSymbolTableRecord
100
AcDbLayerTableRecord
  2
Layer203
 70
     0
 62
     7
  6
Continuous
370
    -3
390
F
  0
LAYER
  5
110
330
2
100
AcDbSymbolTableRecord
100
AcDbLayerTableRecord
  2
Layer204
 70
     0
 62
     7
  6
Continuous
370
    -3
390
F
  0
LAYER
  5
111
330
2
100
AcDbSymbolTableRecord
100
AcDbLayerTableRecord
  2
Layer205
 70
     0
 62
     7
  6
Continuous
370
    -3
390
F
  0
LAYER
  5
112
330
2
100
AcDbSymbolTableRecord
100
AcDbLayerTableRecord
  2
Layer206
 70
     0
 62
     7
  6
Continuous
370
    -3
390
F
  0
LAYER
  5
113
330
2
100
AcDbSymbolTableRecord
100
AcDbLayerTableRecord
  2
Layer207
 70
     0
 62
     7
  6
Continuous
370
    -3
390
F
  0
LAYER
  5
114
330
2
100
AcDbSymbolTableRecord
100
AcDbLayerTableRecord
  2
Layer208
 70
     0
 62
     7
  6
Continuous
370
    -3
390
F
  0
LAYER
  5
115
330
2
100
AcDbSymbolTableRecord
100
AcDbLayerTableRecord
  2
Layer209
 70
     0
 62
     7
  6
Continuous
370
    -3
390
F
  0
LAYER
  5
116
330
2
100
AcDbSymbolTableRecord
100
AcDbLayerTableRecord
  2
Layer210
 70
     0
 62
     7
  6
Continuous
370
    -3
390
F
  0
LAYER
  5
117
330
2
100
AcDbSymbolTableRecord
100
AcDbLayerTableRecord
  2
Layer211
 70
     0
 62
     7
  6
Continuous
370
    -3
390
F
  0
LAYER
  5
118
330
2
100
AcDbSymbolTableRecord
100
AcDbLayerTableRecord
  2
Layer212
 70
     0
 62
     7
  6
Continuous
370
    -3
390
F
  0
LAYER
  5
119
330
2
100
AcDbSymbolTableRecord
100
AcDbLayerTableRecord
  2
Layer213
 70
     0
 62
     7
  6
Continuous
370
    -3
390
F
  0
LAYER
  5
11A
330
2
100
AcDbSymbolTableRecord
100
AcDbLayerTableRecord
  2
Layer214
 70
     0
 62
     7
  6
Continuous
370
    -3
390
F
  0
LAYER
  5
11B
330
2
100
AcDbSymbolTableRecord
100
AcDbLayerTableRecord
  2
Layer215
 70
     0
 62
     7
  6
Continuous
370
    -3
390
F
  0
LAYER
  5
11C
330
2
100
AcDbSymbolTableRecord
100
AcDbLayerTableRecord
  2
Layer216
 70
     0
 62
     7
  6
Continuous
370
    -3
390
F
  0
LAYER
  5
11D
330
2
100
AcDbSymbolTableRecord
100
AcDbLayerTableRecord
  2
Layer217
 70
     0
 62
     7
  6
Continuous
370
    -3
390
F
  0
LAYER
  5
11E
330
2
100
AcDbSymbolTableRecord
100
AcDbLayerTableRecord
  2
Layer218
 70
     0
 62
     7
  6
Continuous
370
    -3
390
F
  0
LAYER
  5
11F
330
2
100
AcDbSymbolTableRecord
100
AcDbLayerTableRecord
  2
Layer219
 70
     0
 62
     7
  6
Continuous
370
    -3
390
F
  0
LAYER
  5
120
330
2
100
AcDbSymbolTableRecord
100
AcDbLayerTableRecord
  2
Layer220
 70
     0
 62
     7
  6
Continuous
370
    -3
390
F
  0
LAYER
  5
121
330
2
100
AcDbSymbolTableRecord
100
AcDbLayerTableRecord
  2
Layer221
 70
     0
 62
     7
  6
Continuous
370
    -3
390
F
  0
LAYER
  5
122
330
2
100
AcDbSymbolTableRecord
100
AcDbLayerTableRecord
  2
Layer222
 70
     0
 62
     7
  6
Continuous
370
    -3
390
F
  0
LAYER
  5
123
330
2
100
AcDbSymbolTableRecord
100
AcDbLayerTableRecord
  2
Layer223
 70
     0
 62
     7
  6
Continuous
370
    -3
390
F
  0
LAYER
  5
124
330
2
100
AcDbSymbolTableRecord
100
AcDbLayerTableRecord
  2
Layer224
 70
     0
 62
     7
  6
Continuous
370
    -3
390
F
  0
LAYER
  5
125
330
2
100
AcDbSymbolTableRecord
100
AcDbLayerTableRecord
  2
Layer225
 70
     0
 62
     7
  6
Continuous
370
    -3
390
F
  0
LAYER
  5
126
330
2
100
AcDbSymbolTableRecord
100
AcDbLayerTableRecord
  2
Layer226
 70
     0
 62
     7
  6
Continuous
370
    -3
390
F
  0
LAYER
  5
127
330
2
100
AcDbSymbolTableRecord
100
AcDbLayerTableRecord
  2
Layer227
 70
     0
 62
     7
  6
Continuous
370
    -3
390
F
  0
LAYER
  5
128
330
2
100
AcDbSymbolTableRecord
100
AcDbLayerTableRecord
  2
Layer228
 70
     0
 62
     7
  6
Continuous
370
    -3
390
F
  0
LAYER
  5
129
330
2
100
AcDbSymbolTableRecord
100
AcDbLayerTableRecord
  2
Layer229
 70
     0
 62
     7
  6
Continuous
370
    -3
390
F
  0
LAYER
  5
12A
330
2
100
AcDbSymbolTableRecord
100
AcDbLayerTableRecord
  2
Layer230
 70
     0
 62
     7
  6
Continuous
370
    -3
390
F
  0
LAYER
  5
12B
330
2
100
AcDbSymbolTableRecord
100
AcDbLayerTableRecord
  2
Layer231
 70
     0
 62
     7
  6
Continuous
370
    -3
390
F
  0
LAYER
  5
12C
330
2
100
AcDbSymbolTableRecord
100
AcDbLayerTableRecord
  2
Layer232
 70
     0
 62
     7
  6
Continuous
370
    -3
390
F
  0
LAYER
  5
12D
330
2
100
AcDbSymbolTableRecord
100
AcDbLayerTableRecord
  2
Layer233
 70
     0
 62
     7
  6
Continuous
370
    -3
390
F
  0
LAYER
  5
12E
330
2
100
AcDbSymbolTableRecord
100
AcDbLayerTableRecord
  2
Layer234
 70
     0
 62
     7
  6
Continuous
370
    -3
390
F
  0
LAYER
  5
12F
330
2
100
AcDbSymbolTableRecord
100
AcDbLayerTableRecord
  2
Layer235
 70
     0
 62
     7
  6
Continuous
370
    -3
390
F
  0
LAYER
  5
130
330
2
100
AcDbSymbolTableRecord
100
AcDbLayerTableRecord
  2
Layer236
 70
     0
 62
     7
  6
Continuous
370
    -3
390
F
  0
LAYER
  5
131
330
2
100
AcDbSymbolTableRecord
100
AcDbLayerTableRecord
  2
Layer237
 70
     0
 62
     7
  6
Continuous
370
    -3
390
F
  0
LAYER
  5
132
330
2
100
AcDbSymbolTableRecord
100
AcDbLayerTableRecord
  2
Layer238
 70
     0
 62
     7
  6
Continuous
370
    -3
390
F
  0
LAYER
  5
133
330
2
100
AcDbSymbolTableRecord
100
AcDbLayerTableRecord
  2
Layer239
 70
     0
 62
     7
  6
Continuous
370
    -3
390
F
  0
LAYER
  5
134
330
2
100
AcDbSymbolTableRecord
100
AcDbLayerTableRecord
  2
Layer240
 70
     0
 62
     7
  6
Continuous
370
    -3
390
F
  0
LAYER
  5
135
330
2
100
AcDbSymbolTableRecord
100
AcDbLayerTableRecord
  2
Layer241
 70
     0
 62
     7
  6
Continuous
370
    -3
390
F
  0
LAYER
  5
136
330
2
100
AcDbSymbolTableRecord
100
AcDbLayerTableRecord
  2
Layer242
 70
     0
 62
     7
  6
Continuous
370
    -3
390
F
  0
LAYER
  5
137
330
2
100
AcDbSymbolTableRecord
100
AcDbLayerTableRecord
  2
Layer243
 70
     0
 62
     7
  6
Continuous
370
    -3
390
F
  0
LAYER
  5
138
330
2
100
AcDbSymbolTableRecord
100
AcDbLayerTableRecord
  2
Layer244
 70
     0
 62
     7
  6
Continuous
370
    -3
390
F
  0
LAYER
  5
139
330
2
100
AcDbSymbolTableRecord
100
AcDbLayerTableRecord
  2
Layer245
 70
     0
 62
     7
  6
Continuous
370
    -3
390
F
  0
LAYER
  5
13A
330
2
100
AcDbSymbolTableRecord
100
AcDbLayerTableRecord
  2
Layer246
 70
     0
 62
     7
  6
Continuous
370
    -3
390
F
  0
LAYER
  5
13B
330
2
100
AcDbSymbolTableRecord
100
AcDbLayerTableRecord
  2
Layer247
 70
     0
 62
     7
  6
Continuous
370
    -3
390
F
  0
LAYER
  5
13C
330
2
100
AcDbSymbolTableRecord
100
AcDbLayerTableRecord
  2
Layer248
 70
     0
 62
     7
  6
Continuous
370
    -3
390
F
  0
LAYER
  5
13D
330
2
100
AcDbSymbolTableRecord
100
AcDbLayerTableRecord
  2
Layer249
 70
     0
 62
     7
  6
Continuous
370
    -3
390
F
  0
LAYER
  5
13E
330
2
100
AcDbSymbolTableRecord
100
AcDbLayerTableRecord
  2
Layer250
 70
     0
 62
     7
  6
Continuous
370
    -3
390
F
  0
LAYER
  5
13F
330
2
100
AcDbSymbolTableRecord
100
AcDbLayerTableRecord
  2
Layer251
 70
     0
 62
     7
  6
Continuous
370
    -3
390
F
  0
LAYER
  5
140
330
2
100
AcDbSymbolTableRecord
100
AcDbLayerTableRecord
  2
Layer252
 70
     0
 62
     7
  6
Continuous
370
    -3
390
F
  0
LAYER
  5
141
330
2
100
AcDbSymbolTableRecord
100
AcDbLayerTableRecord
  2
Layer253
 70
     0
 62
     7
  6
Continuous
370
    -3
390
F
  0
LAYER
  5
142
330
2
100
AcDbSymbolTableRecord
100
AcDbLayerTableRecord
  2
Layer254
 70
     0
 62
     7
  6
Continuous
370
    -3
390
F
  0
LAYER
  5
143
330
2
100
AcDbSymbolTableRecord
100
AcDbLayerTableRecord
  2
Layer255
 70
     0
 62
     7
  6
Continuous
370
    -3
390
F
  0
ENDTAB
  0
TABLE
  2
STYLE
  5
3
330
0
100
AcDbSymbolTable
 70
     4
  0
STYLE
  5
11
330
3
100
AcDbSymbolTableRecord
100
AcDbTextStyleTableRecord
  2
Standard
 70
     0
 40
0.0
 41
1.0
 50
0.0
 71
     0
 42
2.5
  3
txt
  4

  0
STYLE
  5
41
330
3
100
AcDbSymbolTableRecord
100
AcDbTextStyleTableRecord
  2
Arial
 70
     0
 40
0.0
 41
1.0
 50
0.0
 71
     0
 42
0.2
  3
arial.ttf
  4

1001
ACAD
1000
Arial
1071
       34
  0
STYLE
  5
42
330
3
100
AcDbSymbolTableRecord
100
AcDbTextStyleTableRecord
  2
Arial Black
 70
     0
 40
0.0
 41
1.0
 50
0.0
 71
     0
 42
0.2
  3
ariblk.ttf
  4

1001
ACAD
1000
Arial Black
1071
       34
  0
STYLE
  5
44
330
3
100
AcDbSymbolTableRecord
100
AcDbTextStyleTableRecord
  2
Toleranzfont
 70
     0
 40
0.0
 41
1.0
 50
0.0
 71
     0
 42
0.2
  3
IGES1003.SHX
  4

  0
ENDTAB
  0
TABLE
  2
VIEW
  5
6
330
0
100
AcDbSymbolTable
 70
     0
  0
ENDTAB
  0
TABLE
  2
UCS
  5
7
330
0
100
AcDbSymbolTable
 70
     0
  0
ENDTAB
  0
TABLE
  2
APPID
  5
9
330
0
100
AcDbSymbolTable
 70
     1
  0
APPID
  5
12
330
9
100
AcDbSymbolTableRecord
100
AcDbRegAppTableRecord
  2
ACAD
 70
     0
  0
ENDTAB
  0
TABLE
  2
DIMSTYLE
  5
A
330
0
100
AcDbSymbolTable
 70
     1
100
AcDbDimStyleTable
  0
DIMSTYLE
105
27
102
{ACAD_REACTORS
330
3D0
330
3DD
330
3E9
330
3F5
330
400
102
}
330
A
100
AcDbSymbolTableRecord
100
AcDbDimStyleTableRecord
  2
ISO-25
 70
     0
 41
2.5
 42
0.625
 43
3.75
 44
1.25
 73
     0
 74
     0
 77
     1
 78
     8
140
2.5
141
2.5
143
0.03937007874
147
0.625
171
     3
172
     1
178
     0
271
     2
272
     2
274
     3
278
    44
283
     0
284
     8
340
11
  0
ENDTAB
  0
TABLE
  2
BLOCK_RECORD
  5
1
330
0
100
AcDbSymbolTable
 70
    13
  0
BLOCK_RECORD
  5
1F
330
1
100
AcDbSymbolTableRecord
100
AcDbBlockTableRecord
  2
*Model_Space
340
22
  0
BLOCK_RECORD
  5
1B
330
1
100
AcDbSymbolTableRecord
100
AcDbBlockTableRecord
  2
*Paper_Space
340
1E
  0
BLOCK_RECORD
  5
23
330
1
100
AcDbSymbolTableRecord
100
AcDbBlockTableRecord
  2
*Paper_Space0
340
26
  0
BLOCK_RECORD
  5
144
330
1
100
AcDbSymbolTableRecord
100
AcDbBlockTableRecord
  2
QS_nNn00
340
0
102
{BLKREFS
331
14A
102
}
  0
BLOCK_RECORD
  5
14B
330
1
100
AcDbSymbolTableRecord
100
AcDbBlockTableRecord
  2
A3_nNn01
340
0
102
{BLKREFS
331
1B7
102
}
  0
BLOCK_RECORD
  5
159
330
1
100
AcDbSymbolTableRecord
100
AcDbBlockTableRecord
  2
Schriftfeld_nNn02
340
0
102
{BLKREFS
331
18E
102
}
  0
BLOCK_RECORD
  5
18F
330
1
100
AcDbSymbolTableRecord
100
AcDbBlockTableRecord
  2
L1_nNn03
340
0
102
{BLKREFS
331
1B6
102
}
  0
BLOCK_RECORD
  5
193
330
1
100
AcDbSymbolTableRecord
100
AcDbBlockTableRecord
  2
ULTRAREFLEX_nNn04
340
0
102
{BLKREFS
331
1AB
102
}
  0
BLOCK_RECORD
  5
1BA
330
1
100
AcDbSymbolTableRecord
100
AcDbBlockTableRecord
  2
A3_nNn05
340
0
102
{BLKREFS
331
1BE
102
}
  0
BLOCK_RECORD
  5
1BF
330
1
100
AcDbSymbolTableRecord
100
AcDbBlockTableRecord
  2
Abartenfeld_nNn06
340
0
102
{BLKREFS
331
1CE
102
}
  0
BLOCK_RECORD
  5
3C6
330
1
100
AcDbSymbolTableRecord
100
AcDbBlockTableRecord
  2
*D8
340
0
  0
BLOCK_RECORD
  5
3D1
330
1
100
AcDbSymbolTableRecord
100
AcDbBlockTableRecord
  2
*D9
340
0
  0
BLOCK_RECORD
  5
3DE
330
1
100
AcDbSymbolTableRecord
100
AcDbBlockTableRecord
  2
*D10
340
0
  0
BLOCK_RECORD
  5
3EA
330
1
100
AcDbSymbolTableRecord
100
AcDbBlockTableRecord
  2
*D11
340
0
  0
BLOCK_RECORD
  5
3F6
330
1
100
AcDbSymbolTableRecord
100
AcDbBlockTableRecord
  2
*D12
340
0
  0
ENDTAB
  0
ENDSEC
  0
SECTION
  2
BLOCKS
  0
BLOCK
  5
20
330
1F
100
AcDbEntity
  8
0
100
AcDbBlockBegin
  2
*Model_Space
 70
     0
 10
0.0
 20
0.0
 30
0.0
  3
*Model_Space
  1

  0
ENDBLK
  5
21
330
1F
100
AcDbEntity
  8
0
100
AcDbBlockEnd
  0
BLOCK
  5
1C
330
1B
100
AcDbEntity
 67
     1
  8
0
100
AcDbBlockBegin
  2
*Paper_Space
 70
     0
 10
0.0
 20
0.0
 30
0.0
  3
*Paper_Space
  1

  0
ENDBLK
  5
1D
330
1B
100
AcDbEntity
 67
     1
  8
0
100
AcDbBlockEnd
  0
BLOCK
  5
24
330
23
100
AcDbEntity
  8
0
100
AcDbBlockBegin
  2
*Paper_Space0
 70
     0
 10
0.0
 20
0.0
 30
0.0
  3
*Paper_Space0
  1

  0
ENDBLK
  5
25
330
23
100
AcDbEntity
  8
0
100
AcDbBlockEnd
  0
BLOCK
  5
145
330
144
100
AcDbEntity
  8
0
100
AcDbBlockBegin
  2
QS_nNn00
 70
     0
 10
0.0
 20
0.0
 30
0.0
  3
QS_nNn00
  1

  0
TEXT
  5
147
330
144
100
AcDbEntity
  8
0
  6
AUSGEZOGEN
 62
   136
370
    18
100
AcDbText
 10
653.77720094145
 20
181.155606675222
 30
0.0
 40
2.5
  1
Teil frei von Rissen, Grat, Blasen, Einfallstellen,
 41
1.13496141796
  7
Arial
 72
     5
 11
737.19970256508
 21
181.155606675222
 31
0.0
100
AcDbText
  0
TEXT
  5
148
330
144
100
AcDbEntity
  8
0
  6
AUSGEZOGEN
 62
   136
370
    18
100
AcDbText
 10
653.77720094145
 20
177.155606615617
 30
0.0
 40
2.5
  1
Fliesslinien, Einschlüssen, Formbelag, Kratzer, Schlieren
 41
1.134732261281
  7
Arial
 72
     5
 11
753.684702885924
 21
177.155606615617
 31
0.0
100
AcDbText
  0
TEXT
  5
149
330
144
100
AcDbEntity
  8
0
  6
AUSGEZOGEN
 62
   136
370
    18
100
AcDbText
 10
653.77720094145
 20
173.155606556012
 30
0.0
 40
2.5
  1
Grenzwertmuster werden gesondert vereinbart
 41
1.135456394682
  7
Arial
 72
     5
 11
735.694702535789
 21
173.155606556012
 31
0.0
100
AcDbText
  0
ENDBLK
  5
146
330
144
100
AcDbEntity
  8
0
100
AcDbBlockEnd
  0
BLOCK
  5
14C
330
14B
100
AcDbEntity
  8
0
100
AcDbBlockBegin
  2
A3_nNn01
 70
     0
 10
0.0
 20
0.0
 30
0.0
  3
A3_nNn01
  1

  0
LINE
  5
14E
330
14B
100
AcDbEntity
  8
Layer99
  6
AUSGEZOGEN
 62
     9
370
    18
100
AcDbLine
 10
436.636375216936
 20
115.562129422918
 30
0.0
 11
830.236375216936
 21
115.562129422918
 31
0.0
  0
LINE
  5
14F
330
14B
100
AcDbEntity
  8
Layer99
  6
AUSGEZOGEN
 62
     9
370
    18
100
AcDbLine
 10
830.236375216936
 20
115.562129422918
 30
0.0
 11
830.236375216936
 21
391.082129422918
 31
0.0
  0
LINE
  5
150
330
14B
100
AcDbEntity
  8
0
  6
AUSGEZOGEN
 62
     9
370
    18
100
AcDbLine
 10
436.636375216936
 20
115.562129422918
 30
0.0
 11
436.636375216936
 21
391.082129422918
 31
0.0
  0
LINE
  5
151
330
14B
100
AcDbEntity
  8
0
  6
AUSGEZOGEN
 62
     9
370
    18
100
AcDbLine
 10
436.636375216936
 20
391.082129422918
 30
0.0
 11
830.236375216936
 21
391.082129422918
 31
0.0
  0
LINE
  5
152
330
14B
100
AcDbEntity
  8
0
  6
AUSGEZOGEN
 62
    56
370
    18
100
AcDbLine
 10
431.836375216936
 20
395.882129422918
 30
0.0
 11
835.036375216936
 21
395.882129422918
 31
0.0
  0
LINE
  5
153
330
14B
100
AcDbEntity
  8
0
  6
AUSGEZOGEN
 62
    56
370
    18
100
AcDbLine
 10
431.836375216936
 20
110.762129422918
 30
0.0
 11
431.836375216936
 21
395.882129422918
 31
0.0
  0
LINE
  5
154
330
14B
100
AcDbEntity
  8
0
  6
AUSGEZOGEN
 62
    56
370
    18
100
AcDbLine
 10
431.836375216936
 20
110.762129422918
 30
0.0
 11
835.036375216936
 21
110.762129422918
 31
0.0
  0
LINE
  5
155
330
14B
100
AcDbEntity
  8
0
  6
AUSGEZOGEN
 62
    56
370
    18
100
AcDbLine
 10
835.036375216936
 20
110.762129422918
 30
0.0
 11
835.036375216936
 21
395.882129422918
 31
0.0
  0
LINE
  5
156
330
14B
100
AcDbEntity
  8
0
  6
AUSGEZOGEN
 62
    56
370
    18
100
AcDbLine
 10
551.836375216936
 20
391.082129422918
 30
0.0
 11
551.836375216936
 21
395.882129422918
 31
0.0
  0
LINE
  5
157
330
14B
100
AcDbEntity
  8
0
  6
AUSGEZOGEN
 62
    56
370
    18
100
AcDbLine
 10
652.636375216936
 20
391.082129422918
 30
0.0
 11
652.636375216936
 21
395.882129422918
 31
0.0
  0
LINE
  5
158
330
14B
100
AcDbEntity
  8
0
  6
AUSGEZOGEN
 62
    56
370
    18
100
AcDbLine
 10
551.836375216936
 20
115.562129422918
 30
0.0
 11
551.836375216936
 21
110.762129422918
 31
0.0
  0
INSERT
  5
18E
330
14B
100
AcDbEntity
  8
0
100
AcDbBlockReference
  2
Schriftfeld_nNn02
 10
0.0
 20
0.0
 30
0.0
  0
INSERT
  5
1B6
330
14B
100
AcDbEntity
  8
0
100
AcDbBlockReference
  2
L1_nNn03
 10
0.0
 20
0.0
 30
0.0
  0
ENDBLK
  5
14D
330
14B
100
AcDbEntity
  8
0
100
AcDbBlockEnd
  0
BLOCK
  5
15A
330
159
100
AcDbEntity
  8
0
100
AcDbBlockBegin
  2
Schriftfeld_nNn02
 70
     0
 10
0.0
 20
0.0
 30
0.0
  3
Schriftfeld_nNn02
  1

  0
LINE
  5
15C
330
159
100
AcDbEntity
  8
Layer99
  6
AUSGEZOGEN
 62
    56
370
    18
100
AcDbLine
 10
715.036375216936
 20
152.282129422918
 30
0.0
 11
715.036375216936
 21
135.962129422918
 31
0.0
  0
LINE
  5
15D
330
159
100
AcDbEntity
  8
Layer99
  6
AUSGEZOGEN
 62
    56
370
    18
100
AcDbLine
 10
660.124422091936
 20
152.282129422918
 30
0.0
 11
660.124422091936
 21
115.562129422918
 31
0.0
  0
LINE
  5
15E
330
159
100
AcDbEntity
  8
Layer99
  6
AUSGEZOGEN
 62
     9
370
    18
100
AcDbLine
 10
817.756375216936
 20
131.882129422918
 30
0.0
 11
817.756375216936
 21
120.218131620183
 31
0.0
  0
LINE
  5
15F
330
159
100
AcDbEntity
  8
Layer99
  6
AUSGEZOGEN
 62
    56
370
    18
100
AcDbLine
 10
705.052351779436
 20
119.642129422918
 30
0.0
 11
652.636375216936
 21
119.642129422918
 31
0.0
  0
LINE
  5
160
330
159
100
AcDbEntity
  8
Layer99
  6
AUSGEZOGEN
 62
    56
370
    18
100
AcDbLine
 10
705.052351779436
 20
123.722129422918
 30
0.0
 11
652.636375216936
 21
123.722129422918
 31
0.0
  0
LINE
  5
161
330
159
100
AcDbEntity
  8
Layer99
  6
AUSGEZOGEN
 62
    56
370
    18
100
AcDbLine
 10
705.052351779436
 20
127.802129422918
 30
0.0
 11
652.636375216936
 21
127.802129422918
 31
0.0
  0
LINE
  5
162
330
159
100
AcDbEntity
  8
Layer99
  6
AUSGEZOGEN
 62
    56
370
    18
100
AcDbLine
 10
705.052351779436
 20
131.882129422918
 30
0.0
 11
652.636375216936
 21
131.882129422918
 31
0.0
  0
LINE
  5
163
330
159
100
AcDbEntity
  8
Layer99
  6
AUSGEZOGEN
 62
     9
370
    18
100
AcDbLine
 10
830.236375216936
 20
131.882129422918
 30
0.0
 11
747.484422091936
 21
131.882129422918
 31
0.0
  0
LINE
  5
164
330
159
100
AcDbEntity
  8
Layer99
  6
AUSGEZOGEN
 62
    56
370
    18
100
AcDbLine
 10
747.484422091936
 20
135.962129422918
 30
0.0
 11
652.636375216936
 21
135.962129422918
 31
0.0
  0
LINE
  5
165
330
159
100
AcDbEntity
  8
Layer99
  6
AUSGEZOGEN
 62
    56
370
    18
100
AcDbLine
 10
747.484422091936
 20
140.042129422918
 30
0.0
 11
652.636375216936
 21
140.042129422918
 31
0.0
  0
LINE
  5
166
330
159
100
AcDbEntity
  8
Layer99
  6
AUSGEZOGEN
 62
    56
370
    18
100
AcDbLine
 10
747.484422091936
 20
144.122129422918
 30
0.0
 11
652.636375216936
 21
144.122129422918
 31
0.0
  0
LINE
  5
167
330
159
100
AcDbEntity
  8
Layer99
  6
AUSGEZOGEN
 62
    56
370
    18
100
AcDbLine
 10
747.484422091936
 20
148.202129422918
 30
0.0
 11
652.636375216936
 21
148.202129422918
 31
0.0
  0
LINE
  5
168
330
159
100
AcDbEntity
  8
Layer99
  6
AUSGEZOGEN
 62
     9
370
    18
100
AcDbLine
 10
830.236375216936
 20
152.282129422918
 30
0.0
 11
652.636375216936
 21
152.282129422918
 31
0.0
  0
LINE
  5
169
330
159
100
AcDbEntity
  8
Layer99
  6
AUSGEZOGEN
 62
    56
370
    18
100
AcDbLine
 10
705.052351779436
 20
162.482129422918
 30
0.0
 11
652.636375216936
 21
162.482129422918
 31
0.0
  0
LINE
  5
16A
330
159
100
AcDbEntity
  8
Layer99
  6
AUSGEZOGEN
 62
    56
370
    18
100
AcDbLine
 10
830.236375216936
 20
162.482129422918
 30
0.0
 11
747.484422091936
 21
162.482129422918
 31
0.0
  0
LINE
  5
16B
330
159
100
AcDbEntity
  8
Layer99
  6
AUSGEZOGEN
 62
    56
370
    18
100
AcDbLine
 10
795.292351779436
 20
168.602129422918
 30
0.0
 11
795.292351779436
 21
162.482129422918
 31
0.0
  0
LINE
  5
16C
330
159
100
AcDbEntity
  8
Layer99
  6
AUSGEZOGEN
 62
     9
370
    18
100
AcDbLine
 10
747.484422091936
 20
168.602129422918
 30
0.0
 11
747.484422091936
 21
120.218131620183
 31
0.0
  0
LINE
  5
16D
330
159
100
AcDbEntity
  8
Layer99
  6
AUSGEZOGEN
 62
    56
370
    18
100
AcDbLine
 10
730.012351779436
 20
152.282129422918
 30
0.0
 11
730.012351779436
 21
135.962129422918
 31
0.0
  0
LINE
  5
16E
330
159
100
AcDbEntity
  8
Layer99
  6
AUSGEZOGEN
 62
     9
370
    18
100
AcDbLine
 10
705.052351779436
 20
168.602129422918
 30
0.0
 11
705.052351779436
 21
115.562129422918
 31
0.0
  0
LINE
  5
16F
330
159
100
AcDbEntity
  8
Layer99
  6
AUSGEZOGEN
 62
     9
370
    18
100
AcDbLine
 10
652.636375216936
 20
168.602129422918
 30
0.0
 11
652.636375216936
 21
115.562129422918
 31
0.0
  0
LINE
  5
170
330
159
100
AcDbEntity
  8
Layer99
  6
AUSGEZOGEN
 62
     9
370
    18
100
AcDbLine
 10
830.236375216936
 20
168.602129422918
 30
0.0
 11
652.636375216936
 21
168.602129422918
 31
0.0
  0
TEXT
  5
171
330
159
100
AcDbEntity
  8
Layer99
  6
AUSGEZOGEN
 62
    56
370
    18
100
AcDbText
 10
705.721726779436
 20
145.034446561589
 30
0.0
 40
1.92
  1
Bearb. 24.04.20   MS
 41
1.267237127053
  7
Arial
 72
     5
 11
737.814253574633
 21
145.034446561589
 31
0.0
100
AcDbText
  0
TEXT
  5
172
330
159
100
AcDbEntity
  8
Layer99
  6
AUSGEZOGEN
 62
    56
370
    18
100
AcDbText
 10
705.943797091936
 20
141.034837186589
 30
0.0
 40
1.92
  1
Gepr.
 41
1.215533862924
  7
Arial
 72
     5
 11
714.091180225634
 21
141.034837186589
 31
0.0
100
AcDbText
  0
TEXT
  5
173
330
159
100
AcDbEntity
  8
Layer99
  6
AUSGEZOGEN
 62
    56
370
    18
100
AcDbText
 10
705.943797091936
 20
136.813040311589
 30
0.0
 40
1.92
  1
Norm
 41
1.171328125812
  7
Arial
 72
     5
 11
713.617214497256
 21
136.813040311589
 31
0.0
100
AcDbText
  0
TEXT
  5
174
330
159
100
AcDbEntity
  8
Layer99
  6
AUSGEZOGEN
 62
    56
370
    18
100
AcDbText
 10
819.618718966936
 20
128.762722684636
 30
0.0
 40
2.4
  1
Blatt
 41
1.26499927539
  7
Arial
 72
     5
 11
828.098262109732
 21
128.762722684636
 31
0.0
100
AcDbText
  0
TEXT
  5
175
330
159
100
AcDbEntity
  8
0
  6
AUSGEZOGEN
 62
   136
370
    18
100
AcDbText
 10
707.970203341936
 20
164.27895071198
 30
0.0
 40
2.4
  1
Allgemeintoleranzen
 41
1.263559891189
  7
Arial
 72
     5
 11
746.316718919729
 21
164.27895071198
 31
0.0
100
AcDbText
  0
TEXT
  5
176
330
159
100
AcDbEntity
  8
0
  6
AUSGEZOGEN
 62
   136
370
    18
100
AcDbText
 10
707.302820529436
 20
159.828491727605
 30
0.0
 40
2.4
  1
Nach: TG5
 41
1.223038375192
  7
Arial
 72
     5
 11
727.113106915449
 21
159.828491727605
 31
0.0
100
AcDbText
  0
TEXT
  5
177
330
159
100
AcDbEntity
  8
0
  6
AUSGEZOGEN
 62
   136
370
    18
100
AcDbText
 10
707.464304904436
 20
155.378018094793
 30
0.0
 40
2.4
  1
DIN: 16742
 41
1.239741037486
  7
Arial
 72
     5
 11
728.470477043604
 21
155.378018094793
 31
0.0
100
AcDbText
  0
TEXT
  5
178
330
159
100
AcDbEntity
  8
0
  6
AUSGEZOGEN
 62
    56
370
    18
100
AcDbText
 10
796.840398654436
 20
164.501475126043
 30
0.0
 40
2.4
  1
Gewicht:
 41
1.240831402125
  7
Arial
 72
     5
 11
813.010913486933
 21
164.501475126043
 31
0.0
100
AcDbText
  0
TEXT
  5
179
330
159
100
AcDbEntity
  8
0
  6
AUSGEZOGEN
 62
    56
370
    18
100
AcDbText
 10
748.745242404436
 20
157.846558133855
 30
0.0
 40
2.4
  1
Werkstoff/Farbe: PE weiss
 41
1.269582634061
  7
Arial
 72
     5
 11
798.85312980554
 21
157.846558133855
 31
0.0
100
AcDbText
  0
TEXT
  5
17A
330
159
100
AcDbEntity
  8
0
  6
AUSGEZOGEN
 62
    56
370
    18
100
AcDbText
 10
748.745242404436
 20
154.006558076635
 30
0.0
 40
2.4
  1
                        TPE rot
 41
1.386214799561
  7
Arial
 72
     5
 11
795.468443952536
 21
154.006558076635
 31
0.0
100
AcDbText
  0
TEXT
  5
17B
330
159
100
AcDbEntity
  8
0
  6
AUSGEZOGEN
 62
    56
370
    18
100
AcDbText
 10
748.745242404436
 20
164.52182180573
 30
0.0
 40
2.4
  1
Maßstab: 1:1, 1:2
 41
1.272746445757
  7
Arial
 72
     5
 11
781.924214949583
 21
164.52182180573
 31
0.0
100
AcDbText
  0
TEXT
  5
17C
330
159
100
AcDbEntity
  8
0
  6
AUSGEZOGEN
 62
    56
370
    18
100
AcDbText
 10
653.788445529436
 20
164.522129422918
 30
0.0
 40
2.4
  1
Schwindung:
 41
1.234746274162
  7
Arial
 72
     5
 11
677.46890347383
 21
164.522129422918
 31
0.0
100
AcDbText
  0
TEXT
  5
17D
330
159
100
AcDbEntity
  8
0
  6
AUSGEZOGEN
 62
    56
370
    18
100
AcDbText
 10
653.904226779436
 20
158.516387235418
 30
0.0
 40
2.4
  1
Diese Zeichnung darf nur
 41
1.271210741346
  7
Arial
 72
     5
 11
701.714971245741
 21
158.516387235418
 31
0.0
100
AcDbText
  0
TEXT
  5
17E
330
159
100
AcDbEntity
  8
0
  6
AUSGEZOGEN
 62
    56
370
    18
100
AcDbText
 10
653.904226779436
 20
154.676387178197
 30
0.0
 40
2.4
  1
mit CAD geändert werden
 41
1.255342283876
  7
Arial
 72
     5
 11
702.284114126181
 21
154.676387178197
 31
0.0
100
AcDbText
  0
LINE
  5
17F
330
159
100
AcDbEntity
  8
Layer99
  6
AUSGEZOGEN
 62
    56
370
    18
100
AcDbLine
 10
830.236375216936
 20
120.218131620183
 30
0.0
 11
747.484422091936
 21
120.218131620183
 31
0.0
  0
LINE
  5
180
330
159
100
AcDbEntity
  8
Layer99
  6
AUSGEZOGEN
 62
    56
370
    18
100
AcDbLine
 10
830.236375216936
 20
124.298131620183
 30
0.0
 11
817.756375216936
 21
124.298131620183
 31
0.0
  0
TEXT
  5
181
330
159
100
AcDbEntity
  8
Layer99
  6
AUSGEZOGEN
 62
    56
370
    18
100
AcDbText
 10
824.840008029436
 20
121.131198026433
 30
0.0
 40
2.4
  1
Bl.
 41
1.229150265254
  7
Arial
 72
     5
 11
829.645493906473
 21
121.131198026433
 31
0.0
100
AcDbText
  0
LINE
  5
182
330
159
100
AcDbEntity
  8
Layer99
  6
AUSGEZOGEN
 62
    56
370
    18
100
AcDbLine
 10
689.020164279436
 20
152.282129422918
 30
0.0
 11
689.020164279436
 21
115.562129422918
 31
0.0
  0
TEXT
  5
183
330
159
100
AcDbEntity
  8
Layer50
  6
AUSGEZOGEN
 62
   136
370
    18
100
AcDbText
 10
656.797644748186
 20
120.523115384832
 30
0.0
 40
1.92
  1
-  ---
 41
1.340992890965
  7
Arial
 72
     5
 11
663.584570688509
 21
120.523115384832
 31
0.0
100
AcDbText
  0
TEXT
  5
184
330
159
100
AcDbEntity
  8
Layer50
  6
AUSGEZOGEN
 62
   136
370
    18
100
AcDbText
 10
689.245281466936
 20
120.758319852605
 30
0.0
 40
1.92
  1
--.--.--/--
 41
1.366444411798
  7
Arial
 72
     5
 11
702.058813320803
 21
120.758319852605
 31
0.0
100
AcDbText
  0
TEXT
  5
185
330
159
100
AcDbEntity
  8
0
  6
AUSGEZOGEN
 62
    56
370
    18
100
AcDbText
 10
706.247312716936
 20
116.613446409002
 30
0.0
 40
2.4
  1
Schutzvermerk nach DIN 34 beachten .        Copyright reserved
 41
1.286227457357
  7
Arial
 72
     5
 11
827.425373929476
 21
116.613446409002
 31
0.0
100
AcDbText
  0
TEXT
  5
186
330
159
100
AcDbEntity
  8
Layer50
  6
AUSGEZOGEN
 62
     9
370
    18
100
AcDbText
 10
753.827679796692
 20
140.632422031194
 30
0.0
 40
4.0
  1
MK R4/120D mit Fahne
 41
1.243946441233
  7
Arial
 72
     5
 11
826.394539392468
 21
140.632422031194
 31
0.0
100
AcDbText
  0
TEXT
  5
187
330
159
100
AcDbEntity
  8
Layer50
  6
AUSGEZOGEN
 62
     9
370
    18
100
AcDbText
 10
764.162051507328
 20
123.780852681196
 30
0.0
 40
4.8
  1
81874500k
 41
1.218898721598
  7
Arial
 72
     5
 11
804.567081449841
 21
123.780852681196
 31
0.0
100
AcDbText
  0
TEXT
  5
188
330
159
100
AcDbEntity
  8
Layer50
  6
AUSGEZOGEN
 62
   136
370
    18
100
AcDbText
 10
749.550855179943
 20
133.12460113485
 30
0.0
 40
1.92
  1
---
 41
1.259600656861
  7
Arial
 72
     5
 11
752.924569579281
 21
133.12460113485
 31
0.0
100
AcDbText
  0
TEXT
  5
189
330
159
100
AcDbEntity
  8
Layer99
  6
AUSGEZOGEN
 62
    56
370
    18
100
AcDbText
 10
689.534971514627
 20
116.515696541418
 30
0.0
 40
1.92
  1
Dat./Nam.
 41
1.239717192527
  7
Arial
 72
     5
 11
704.490126306269
 21
116.515696541418
 31
0.0
100
AcDbText
  0
TEXT
  5
18A
330
159
100
AcDbEntity
  8
Layer99
  6
AUSGEZOGEN
 62
    56
370
    18
100
AcDbText
 10
652.825347703759
 20
116.51134366162
 30
0.0
 40
1.92
  1
Zust.
 41
1.239906123597
  7
Arial
 72
     5
 11
660.212410810677
 21
116.51134366162
 31
0.0
100
AcDbText
  0
TEXT
  5
18B
330
159
100
AcDbEntity
  8
0
  6
AUSGEZOGEN
 62
    56
370
    18
100
AcDbText
 10
716.622018940456
 20
149.025679227605
 30
0.0
 40
2.4
  1
Datum
 41
1.188171149402
  7
Arial
 72
     5
 11
728.344990768917
 21
149.025679227605
 31
0.0
100
AcDbText
  0
TEXT
  5
18C
330
159
100
AcDbEntity
  8
0
  6
AUSGEZOGEN
 62
    56
370
    18
100
AcDbText
 10
733.580601133252
 20
149.033701673943
 30
0.0
 40
2.4
  1
Name
 41
1.15958716227
  7
Arial
 72
     5
 11
743.94174434557
 21
149.033701673943
 31
0.0
100
AcDbText
  0
TEXT
  5
18D
330
159
100
AcDbEntity
  8
Layer99
  6
AUSGEZOGEN
 62
    56
370
    18
100
AcDbText
 10
661.493457541843
 20
116.511572082136
 30
0.0
 40
1.92
  1
Änderung
 41
1.218204176926
  7
Arial
 72
     5
 11
675.648795165058
 21
116.511572082136
 31
0.0
100
AcDbText
  0
ENDBLK
  5
15B
330
159
100
AcDbEntity
  8
0
100
AcDbBlockEnd
  0
BLOCK
  5
190
330
18F
100
AcDbEntity
  8
0
100
AcDbBlockBegin
  2
L1_nNn03
 70
     0
 10
0.0
 20
0.0
 30
0.0
  3
L1_nNn03
  1

  0
LINE
  5
192
330
18F
100
AcDbEntity
  8
Layer99
  6
AUSGEZOGEN
 62
    56
370
    18
100
AcDbLine
 10
747.484422091936
 20
120.218131620183
 30
0.0
 11
705.052351779436
 21
120.218131620183
 31
0.0
  0
INSERT
  5
1AB
330
18F
100
AcDbEntity
  8
0
100
AcDbBlockReference
  2
ULTRAREFLEX_nNn04
 10
0.0
 20
0.0
 30
0.0
  0
LINE
  5
1AC
330
18F
100
AcDbEntity
  8
Layer99
  6
AUSGEZOGEN
 62
     9
370
    18
100
AcDbLine
 10
747.484422091936
 20
127.747622883001
 30
0.0
 11
705.052351779436
 21
127.747622883001
 31
0.0
  0
TEXT
  5
1AD
330
18F
100
AcDbEntity
  8
Layer99
  6
AUSGEZOGEN
 62
    56
370
    18
100
AcDbText
 10
706.004551191653
 20
133.154411590333
 30
0.0
 40
1.5
  1
Projektionsmethode
 41
1.255938429073
  7
Arial
 72
     5
 11
729.242551975573
 21
133.154411590333
 31
0.0
100
AcDbText
  0
LINE
  5
1AE
330
18F
100
AcDbEntity
  8
0
  6
AUSGEZOGEN
 62
     9
370
    18
100
AcDbLine
 10
731.054903826267
 20
130.581340707547
 30
0.0
 11
731.054903826267
 21
132.581340707547
 31
0.0
  0
LINE
  5
1AF
330
18F
100
AcDbEntity
  8
0
  6
AUSGEZOGEN
 62
     9
370
    18
100
AcDbLine
 10
736.054903826267
 20
129.699705804004
 30
0.0
 11
736.054903826267
 21
133.462975611089
 31
0.0
  0
LINE
  5
1B0
330
18F
100
AcDbEntity
  8
0
  6
DASHDOT
 62
    56
370
    18
100
AcDbLine
 10
730.049494454225
 20
131.581340707547
 30
0.0
 11
742.114406918729
 21
131.581340707547
 31
0.0
  0
LINE
  5
1B1
330
18F
100
AcDbEntity
  8
0
  6
AUSGEZOGEN
 62
     9
370
    18
100
AcDbLine
 10
736.054903826267
 20
133.462975611089
 30
0.0
 11
731.054903826267
 21
132.581340707547
 31
0.0
  0
LINE
  5
1B2
330
18F
100
AcDbEntity
  8
0
  6
AUSGEZOGEN
 62
     9
370
    18
100
AcDbLine
 10
736.054903826267
 20
129.699705804004
 30
0.0
 11
731.054903826267
 21
130.581340707547
 31
0.0
  0
LINE
  5
1B3
330
18F
100
AcDbEntity
  8
0
  6
DASHDOT
 62
    56
370
    18
100
AcDbLine
 10
739.43331525995
 20
128.941252214763
 30
0.0
 11
739.43331525995
 21
134.347147699986
 31
0.0
  0
CIRCLE
  5
1B4
330
18F
100
AcDbEntity
  8
0
  6
AUSGEZOGEN
 62
     9
370
    18
100
AcDbCircle
 10
739.43331525995
 20
131.581340707547
 30
0.0
 40
1.0
  0
CIRCLE
  5
1B5
330
18F
100
AcDbEntity
  8
0
  6
AUSGEZOGEN
 62
     9
370
    18
100
AcDbCircle
 10
739.43331525995
 20
131.581340707547
 30
0.0
 40
1.881634903542341
  0
ENDBLK
  5
191
330
18F
100
AcDbEntity
  8
0
100
AcDbBlockEnd
  0
BLOCK
  5
194
330
193
100
AcDbEntity
  8
0
100
AcDbBlockBegin
  2
ULTRAREFLEX_nNn04
 70
     0
 10
0.0
 20
0.0
 30
0.0
  3
ULTRAREFLEX_nNn04
  1

  0
LINE
  5
196
330
193
100
AcDbEntity
  8
0
  6
AUSGEZOGEN
 62
    30
370
    18
100
AcDbLine
 10
743.602357494834
 20
126.587305887204
 30
0.0
 11
740.742279731323
 21
126.587305887204
 31
0.0
  0
LINE
  5
197
330
193
100
AcDbEntity
  8
0
  6
AUSGEZOGEN
 62
    30
370
    18
100
AcDbLine
 10
740.465498012273
 20
126.427505887204
 30
0.0
 11
739.035459130518
 21
123.950605887204
 31
0.0
  0
LINE
  5
198
330
193
100
AcDbEntity
  8
0
  6
AUSGEZOGEN
 62
    30
370
    18
100
AcDbLine
 10
739.035459130518
 20
123.631005887204
 30
0.0
 11
740.465498012273
 21
121.154105887204
 31
0.0
  0
LINE
  5
199
330
193
100
AcDbEntity
  8
0
  6
AUSGEZOGEN
 62
    30
370
    18
100
AcDbLine
 10
740.742279731323
 20
120.994305887204
 30
0.0
 11
743.602357494834
 21
120.994305887204
 31
0.0
  0
LINE
  5
19A
330
193
100
AcDbEntity
  8
0
  6
AUSGEZOGEN
 62
    30
370
    18
100
AcDbLine
 10
743.879139213884
 20
121.154105887204
 30
0.0
 11
745.30917809564
 21
123.631005887204
 31
0.0
  0
LINE
  5
19B
330
193
100
AcDbEntity
  8
0
  6
AUSGEZOGEN
 62
    30
370
    18
100
AcDbLine
 10
745.30917809564
 20
123.950605887204
 30
0.0
 11
743.879139213884
 21
126.427505887204
 31
0.0
  0
LINE
  5
19C
330
193
100
AcDbEntity
  8
0
  6
AUSGEZOGEN
 62
    30
370
    18
100
AcDbLine
 10
742.449100332128
 20
123.950605887204
 30
0.0
 11
745.30917809564
 21
123.950605887204
 31
0.0
  0
LINE
  5
19D
330
193
100
AcDbEntity
  8
0
  6
AUSGEZOGEN
 62
    30
370
    18
100
AcDbLine
 10
739.035459130518
 20
123.950605887204
 30
0.0
 11
741.895536894029
 21
123.950605887204
 31
0.0
  0
LINE
  5
19E
330
193
100
AcDbEntity
  8
0
  6
AUSGEZOGEN
 62
    30
370
    18
100
AcDbLine
 10
742.449100332128
 20
123.631005887204
 30
0.0
 11
745.30917809564
 21
123.631005887204
 31
0.0
  0
LINE
  5
19F
330
193
100
AcDbEntity
  8
0
  6
AUSGEZOGEN
 62
    30
370
    18
100
AcDbLine
 10
739.035459130518
 20
123.631005887204
 30
0.0
 11
741.895536894029
 21
123.631005887204
 31
0.0
  0
LINE
  5
1A0
330
193
100
AcDbEntity
  8
0
  6
AUSGEZOGEN
 62
    30
370
    18
100
AcDbLine
 10
742.449100332128
 20
123.631005887204
 30
0.0
 11
743.879139213884
 21
121.154105887204
 31
0.0
  0
LINE
  5
1A1
330
193
100
AcDbEntity
  8
0
  6
AUSGEZOGEN
 62
    30
370
    18
100
AcDbLine
 10
740.742279731323
 20
126.587305887204
 30
0.0
 11
742.172318613079
 21
124.110405887204
 31
0.0
  0
LINE
  5
1A2
330
193
100
AcDbEntity
  8
0
  6
AUSGEZOGEN
 62
    30
370
    18
100
AcDbLine
 10
742.172318613079
 20
123.471205887204
 30
0.0
 11
743.602357494834
 21
120.994305887204
 31
0.0
  0
LINE
  5
1A3
330
193
100
AcDbEntity
  8
0
  6
AUSGEZOGEN
 62
    30
370
    18
100
AcDbLine
 10
740.465498012273
 20
126.427505887204
 30
0.0
 11
741.895536894029
 21
123.950605887204
 31
0.0
  0
LINE
  5
1A4
330
193
100
AcDbEntity
  8
0
  6
AUSGEZOGEN
 62
    30
370
    18
100
AcDbLine
 10
742.172318613079
 20
123.471205887204
 30
0.0
 11
740.742279731323
 21
120.994305887204
 31
0.0
  0
LINE
  5
1A5
330
193
100
AcDbEntity
  8
0
  6
AUSGEZOGEN
 62
    30
370
    18
100
AcDbLine
 10
743.879139213884
 20
126.427505887204
 30
0.0
 11
742.449100332128
 21
123.950605887204
 31
0.0
  0
LINE
  5
1A6
330
193
100
AcDbEntity
  8
0
  6
AUSGEZOGEN
 62
    30
370
    18
100
AcDbLine
 10
741.895536894029
 20
123.631005887204
 30
0.0
 11
740.465498012273
 21
121.154105887204
 31
0.0
  0
LINE
  5
1A7
330
193
100
AcDbEntity
  8
0
  6
AUSGEZOGEN
 62
    30
370
    18
100
AcDbLine
 10
743.602357494834
 20
126.587305887204
 30
0.0
 11
742.172318613079
 21
124.110405887204
 31
0.0
  0
HATCH
  5
1A8
330
193
100
AcDbEntity
  8
0
  6
AUSGEZOGEN
 62
    30
370
    18
100
AcDbHatch
 10
0.0
 20
0.0
 30
0.0
210
0.0
220
0.0
230
1.0
  2
SOLID
 70
     1
 71
     0
 91
        6
 92
        2
 72
     0
 73
     1
 93
        3
 10
741.8955368940292
 20
123.6310058872041
 10
739.0354591305176
 20
123.6310058872041
 10
740.4654980122734
 20
121.1541058872041
 97
        0
 92
        2
 72
     0
 73
     1
 93
        3
 10
741.8955368940292
 20
123.9506058872041
 10
740.4654980122734
 20
126.4275058872041
 10
739.0354591305176
 20
123.9506058872041
 97
        0
 92
        2
 72
     0
 73
     1
 93
        3
 10
742.1723186130787
 20
124.1104058872041
 10
743.6023574948345
 20
126.5873058872041
 10
740.7422797313229
 20
126.5873058872041
 97
        0
 92
        2
 72
     0
 73
     1
 93
        3
 10
742.4491003321282
 20
123.9506058872041
 10
745.3091780956397
 20
123.9506058872041
 10
743.8791392138841
 20
126.4275058872041
 97
        0
 92
        2
 72
     0
 73
     1
 93
        3
 10
743.8791392138841
 20
121.1541058872041
 10
745.3091780956397
 20
123.6310058872041
 10
742.4491003321282
 20
123.6310058872041
 97
        0
 92
        2
 72
     0
 73
     1
 93
        3
 10
742.1723186130787
 20
123.4712058872041
 10
740.7422797313229
 20
120.9943058872041
 10
743.6023574948345
 20
120.9943058872041
 97
        0
 75
     0
 76
     1
 98
        0
  0
TEXT
  5
1A9
330
193
100
AcDbEntity
  8
0
  6
AUSGEZOGEN
 62
     9
370
    70
100
AcDbText
 10
721.954629334139
 20
121.99057165669
 30
0.0
 40
3.6754
  1
REFLEX
 41
0.705366510959
  7
Arial Black
 72
     5
 11
737.654979334139
 21
121.99057165669
 31
0.0
100
AcDbText
  0
TEXT
  5
1AA
330
193
100
AcDbEntity
  8
0
  6
AUSGEZOGEN
 62
     9
370
    18
100
AcDbText
 10
706.455617296037
 20
122.163956893549
 30
0.0
 40
2.7965
  1
ULTRA
 41
1.159777722278
  7
Arial
 72
     5
 11
721.297042296037
 21
122.163956893549
 31
0.0
100
AcDbText
  0
ENDBLK
  5
195
330
193
100
AcDbEntity
  8
0
100
AcDbBlockEnd
  0
BLOCK
  5
1BB
330
1BA
100
AcDbEntity
  8
0
100
AcDbBlockBegin
  2
A3_nNn05
 70
     0
 10
0.0
 20
0.0
 30
0.0
  3
A3_nNn05
  1

  0
LINE
  5
1BD
330
1BA
100
AcDbEntity
  8
0
  6
AUSGEZOGEN
 62
    56
370
    18
100
AcDbLine
 10
551.836375216936
 20
391.082129422918
 30
0.0
 11
551.836375216936
 21
395.882129422918
 31
0.0
  0
ENDBLK
  5
1BC
330
1BA
100
AcDbEntity
  8
0
100
AcDbBlockEnd
  0
BLOCK
  5
1C0
330
1BF
100
AcDbEntity
  8
0
100
AcDbBlockBegin
  2
Abartenfeld_nNn06
 70
     0
 10
0.0
 20
0.0
 30
0.0
  3
Abartenfeld_nNn06
  1

  0
LINE
  5
1C2
330
1BF
100
AcDbEntity
  8
0
  6
AUSGEZOGEN
 62
    56
370
    18
100
AcDbLine
 10
436.636375216936
 20
385.082129422918
 30
0.0
 11
556.636375216936
 21
385.082129422918
 31
0.0
  0
LINE
  5
1C3
330
1BF
100
AcDbEntity
  8
0
  6
AUSGEZOGEN
 62
    56
370
    18
100
AcDbLine
 10
436.636375216936
 20
379.082129422918
 30
0.0
 11
556.636375216936
 21
379.082129422918
 31
0.0
  0
LINE
  5
1C4
330
1BF
100
AcDbEntity
  8
0
  6
AUSGEZOGEN
 62
    56
370
    18
100
AcDbLine
 10
436.636375216936
 20
373.082129422918
 30
0.0
 11
556.636375216936
 21
373.082129422918
 31
0.0
  0
LINE
  5
1C5
330
1BF
100
AcDbEntity
  8
0
  6
AUSGEZOGEN
 62
    56
370
    18
100
AcDbLine
 10
456.636375216936
 20
373.082129422918
 30
0.0
 11
456.636375216936
 21
391.082129422918
 31
0.0
  0
LINE
  5
1C6
330
1BF
100
AcDbEntity
  8
0
  6
AUSGEZOGEN
 62
    56
370
    18
100
AcDbLine
 10
556.636375216936
 20
373.082129422918
 30
0.0
 11
556.636375216936
 21
391.082129422918
 31
0.0
  0
TEXT
  5
1C7
330
1BF
100
AcDbEntity
  8
0
  6
AUSGEZOGEN
 62
   136
370
    18
100
AcDbText
 10
440.66045444359
 20
386.639288138679
 30
0.0
 40
2.5
  1
Abart
 41
1.135191846523
  7
Arial
 72
     5
 11
450.12795444359
 21
386.639288138679
 31
0.0
100
AcDbText
  0
TEXT
  5
1C8
330
1BF
100
AcDbEntity
  8
0
  6
AUSGEZOGEN
 62
   136
370
    18
100
AcDbText
 10
486.919836854162
 20
386.615939798341
 30
0.0
 40
2.5
  1
Abartenmerkmale
 41
1.135633227417
  7
Arial
 72
     5
 11
518.192336854162
 21
386.615939798341
 31
0.0
100
AcDbText
  0
TEXT
  5
1C9
330
1BF
100
AcDbEntity
  8
0
  6
AUSGEZOGEN
 62
   136
370
    18
100
AcDbText
 10
437.669910798126
 20
380.300418191771
 30
0.0
 40
2.5
  1
81872500
 41
1.136597938144
  7
Arial
 72
     5
 11
455.309910798126
 21
380.300418191771
 31
0.0
100
AcDbText
  0
TEXT
  5
1CA
330
1BF
100
AcDbEntity
  8
0
  6
AUSGEZOGEN
 62
   136
370
    18
100
AcDbText
 10
457.641483455355
 20
380.200870248697
 30
0.0
 40
2.5
  1
Werkstoff PE weiß, Reflektoren weiß
 41
1.135559662091
  7
Arial
 72
     5
 11
522.163983455355
 21
380.200870248697
 31
0.0
100
AcDbText
  0
TEXT
  5
1CB
330
1BF
100
AcDbEntity
  8
0
  6
AUSGEZOGEN
 62
   136
370
    18
100
AcDbText
 10
437.669910798126
 20
374.300418191771
 30
0.0
 40
2.5
  1
81872520
 41
1.136597938144
  7
Arial
 72
     5
 11
455.309910798126
 21
374.300418191771
 31
0.0
100
AcDbText
  0
TEXT
  5
1CC
330
1BF
100
AcDbEntity
  8
0
  6
AUSGEZOGEN
 62
   136
370
    18
100
AcDbText
 10
457.641483455355
 20
374.200870248697
 30
0.0
 40
2.5
  1
Werkstoff PE gelb, Reflektoren gelb
 41
1.135639981909
  7
Arial
 72
     5
 11
520.413983455355
 21
374.200870248697
 31
0.0
100
AcDbText
  0
POINT
  5
1CD
330
1BF
100
AcDbEntity
  8
0
  6
AUSGEZOGEN
 62
   136
370
    18
100
AcDbPoint
 10
436.636375216936
 20
391.082129422918
 30
0.0
  0
ENDBLK
  5
1C1
330
1BF
100
AcDbEntity
  8
0
100
AcDbBlockEnd
  0
BLOCK
  5
3C7
330
3C6
100
AcDbEntity
  8
0
100
AcDbBlockBegin
  2
*D8
 70
     1
 10
0.0
 20
0.0
 30
0.0
  3
*D8
  1

  0
HATCH
  5
3C9
330
3C6
100
AcDbEntity
  8
Layer6
  6
AUSGEZOGEN
 62
   136
370
    18
100
AcDbHatch
 10
0.0
 20
0.0
 30
0.0
210
0.0
220
0.0
230
1.0
  2
SOLID
 70
     1
 71
     0
 91
        1
 92
        2
 72
     0
 73
     1
 93
        3
 10
605.2826115600799
 20
231.8334542462935
 10
602.7826115600799
 20
232.2084542462935
 10
602.7826115600799
 20
231.4584542462935
 97
        0
 75
     0
 76
     1
 98
        0
  0
HATCH
  5
3CA
330
3C6
100
AcDbEntity
  8
Layer6
  6
AUSGEZOGEN
 62
   136
370
    18
100
AcDbHatch
 10
0.0
 20
0.0
 30
0.0
210
0.0
220
0.0
230
1.0
  2
SOLID
 70
     1
 71
     0
 91
        1
 92
        2
 72
     0
 73
     1
 93
        3
 10
487.2826115600799
 20
231.8334542462935
 10
489.7826115600799
 20
231.4584542462935
 10
489.7826115600799
 20
232.2084542462935
 97
        0
 75
     0
 76
     1
 98
        0
  0
LINE
  5
3CB
330
3C6
100
AcDbEntity
  8
Layer6
  6
AUSGEZOGEN
 62
   136
370
    18
100
AcDbLine
 10
489.78261156008
 20
231.833454246294
 30
0.0
 11
602.78261156008
 21
231.833454246294
 31
0.0
  0
LINE
  5
3CC
330
3C6
100
AcDbEntity
  8
Layer6
  6
AUSGEZOGEN
 62
   136
370
    18
100
AcDbLine
 10
487.28261156008
 20
299.91643912651
 30
0.0
 11
487.28261156008
 21
230.404882817722
 31
0.0
  0
LINE
  5
3CD
330
3C6
100
AcDbEntity
  8
Layer6
  6
AUSGEZOGEN
 62
   136
370
    18
100
AcDbLine
 10
605.28261156008
 20
299.91643912651
 30
0.0
 11
605.28261156008
 21
230.404882817722
 31
0.0
  0
WIPEOUT
  5
3CE
330
3C6
100
AcDbEntity
  8
Layer6
  6
AUSGEZOGEN
 62
   136
370
    18
 92
      152
310
98000000040000000C0000000E000000120000000C00000016000000000000C20C00000014000000010000006C000000070000000400000030F801179B04814060513DA8AB0A6D400000000000000000585479DB3B34814060513DA8AB0A6D400000000000000000585479DB3B34814060513DA8AB8A6D4000000000000000
310
0030F801179B04814060513DA8AB8A6D400000000000000000
100
AcDbWipeout
 90
        0
 10
544.575727477442
 20
232.333454246294
 30
0.0
 11
5.953499729633336
 21
0.0
 31
0.0
 12
0.0
 22
5.953499729633336
 32
0.0
 13
1.0
 23
1.0
340
0
 70
     7
280
     1
281
    50
282
    50
283
     0
360
0
 71
     2
 91
        5
 14
-0.5
 24
0.5
 14
0.5
 24
0.5
 14
0.5
 24
-0.171873718259
 14
-0.5
 24
-0.171873718259
 14
-0.5
 24
0.5
  0
TEXT
  5
3CF
330
3C6
100
AcDbEntity
  8
Layer6
  6
AUSGEZOGEN
 62
   136
370
    18
100
AcDbText
 10
544.575727477442
 20
233.083454246294
 30
0.0
 40
2.5
  1
118
 41
1.022938097875
  7
Arial
 72
     5
 11
550.529227207076
 21
233.083454246294
 31
0.0
100
AcDbText
  0
ENDBLK
  5
3C8
330
3C6
100
AcDbEntity
  8
0
100
AcDbBlockEnd
  0
BLOCK
  5
3D2
330
3D1
100
AcDbEntity
  8
0
100
AcDbBlockBegin
  2
*D9
 70
     1
 10
0.0
 20
0.0
 30
0.0
  3
*D9
  1

  0
HATCH
  5
3D4
330
3D1
100
AcDbEntity
  8
Layer6
  6
AUSGEZOGEN
 62
   136
370
    18
100
AcDbHatch
 10
0.0
 20
0.0
 30
0.0
210
0.0
220
0.0
230
1.0
  2
SOLID
 70
     1
 71
     0
 91
        1
 92
        2
 72
     0
 73
     1
 93
        3
 10
480.0
 20
309.9164391265102
 10
479.625
 20
307.4164391265102
 10
480.375
 20
307.4164391265102
 97
        0
 75
     0
 76
     1
 98
        0
  0
HATCH
  5
3D5
330
3D1
100
AcDbEntity
  8
Layer6
  6
AUSGEZOGEN
 62
   136
370
    18
100
AcDbHatch
 10
0.0
 20
0.0
 30
0.0
210
0.0
220
0.0
230
1.0
  2
SOLID
 70
     1
 71
     0
 91
        1
 92
        2
 72
     0
 73
     1
 93
        3
 10
480.0
 20
289.9164391265102
 10
480.375
 20
292.4164391265102
 10
479.625
 20
292.4164391265102
 97
        0
 75
     0
 76
     1
 98
        0
  0
LINE
  5
3D6
330
3D1
100
AcDbEntity
  8
Layer6
  6
AUSGEZOGEN
 62
   136
370
    18
100
AcDbLine
 10
480.0
 20
292.41643912651
 30
0.0
 11
480.0
 21
307.41643912651
 31
0.0
  0
LINE
  5
3D7
330
3D1
100
AcDbEntity
  8
Layer6
  6
AUSGEZOGEN
 62
   136
370
    18
100
AcDbLine
 10
509.033650505138
 20
289.91643912651
 30
0.0
 11
488.825517793532
 21
289.91643912651
 31
0.0
  0
LINE
  5
3D8
330
3D1
100
AcDbEntity
  8
Layer6
  6
AUSGEZOGEN
 62
   136
370
    18
100
AcDbLine
 10
487.636244519653
 20
289.91643912651
 30
0.0
 11
478.571428571429
 21
289.91643912651
 31
0.0
  0
LINE
  5
3D9
330
3D1
100
AcDbEntity
  8
Layer6
  6
AUSGEZOGEN
 62
   136
370
    18
100
AcDbLine
 10
509.201883626813
 20
309.91643912651
 30
0.0
 11
488.825517793532
 21
309.91643912651
 31
0.0
  0
LINE
  5
3DA
330
3D1
100
AcDbEntity
  8
Layer6
  6
AUSGEZOGEN
 62
   136
370
    18
100
AcDbLine
 10
487.636244519653
 20
309.91643912651
 30
0.0
 11
478.571428571429
 21
309.91643912651
 31
0.0
  0
WIPEOUT
  5
3DB
330
3D1
100
AcDbEntity
  8
Layer6
  6
AUSGEZOGEN
 62
   136
370
    18
 92
      152
310
98000000040000000C0000000E000000120000000C00000016000000000000C20C00000014000000010000006C00000007000000040000000000000000F87D4052FDF1D7F79E724000000000000000000000000000F87D403378E6DD78DE724000000000000000000000000000B87D403378E6DD78DE724000000000000000
310
000000000000B87D4052FDF1D7F79E72400000000000000000
100
AcDbWipeout
 90
        0
 10
475.5
 20
297.935508675834
 30
0.0
 11
4.0
 21
0.0
 31
0.0
 12
0.0
 22
4.0
 32
0.0
 13
1.0
 23
1.0
340
0
 70
     7
280
     1
281
    50
282
    50
283
     0
360
0
 71
     2
 91
        5
 14
0.5
 24
0.5
 14
0.5
 24
-0.492249954939
 14
-0.5
 24
-0.492249954939
 14
-0.5
 24
0.5
 14
0.5
 24
0.5
  0
TEXT
  5
3DC
330
3D1
100
AcDbEntity
  8
Layer6
  6
AUSGEZOGEN
 62
   136
370
    18
100
AcDbText
 10
478.75
 20
297.935508675834
 30
0.0
 40
2.5
  1
20
 50
90.0
 41
1.022938097875
  7
Arial
 72
     5
 11
478.75
 21
301.90450849559
 31
0.0
100
AcDbText
  0
ENDBLK
  5
3D3
330
3D1
100
AcDbEntity
  8
0
100
AcDbBlockEnd
  0
BLOCK
  5
3DF
330
3DE
100
AcDbEntity
  8
0
100
AcDbBlockBegin
  2
*D10
 70
     1
 10
0.0
 20
0.0
 30
0.0
  3
*D10
  1

  0
HATCH
  5
3E1
330
3DE
100
AcDbEntity
  8
Layer6
  6
AUSGEZOGEN
 62
   136
370
    18
100
AcDbHatch
 10
0.0
 20
0.0
 30
0.0
210
0.0
220
0.0
230
1.0
  2
SOLID
 70
     1
 71
     0
 91
        1
 92
        2
 72
     0
 73
     1
 93
        3
 10
698.0950652020126
 20
232.9962294053425
 10
695.5950652020126
 20
233.3712294053425
 10
695.5950652020126
 20
232.6212294053425
 97
        0
 75
     0
 76
     1
 98
        0
  0
HATCH
  5
3E2
330
3DE
100
AcDbEntity
  8
Layer6
  6
AUSGEZOGEN
 62
   136
370
    18
100
AcDbHatch
 10
0.0
 20
0.0
 30
0.0
210
0.0
220
0.0
230
1.0
  2
SOLID
 70
     1
 71
     0
 91
        1
 92
        2
 72
     0
 73
     1
 93
        3
 10
675.6315125818799
 20
232.9962294053425
 10
678.1315125818799
 20
232.6212294053425
 10
678.1315125818799
 20
233.3712294053425
 97
        0
 75
     0
 76
     1
 98
        0
  0
LINE
  5
3E3
330
3DE
100
AcDbEntity
  8
Layer6
  6
AUSGEZOGEN
 62
   136
370
    18
100
AcDbLine
 10
678.13151258188
 20
232.996229405343
 30
0.0
 11
695.595065202013
 21
232.996229405343
 31
0.0
  0
LINE
  5
3E4
330
3DE
100
AcDbEntity
  8
Layer6
  6
AUSGEZOGEN
 62
   136
370
    18
100
AcDbLine
 10
675.63151258188
 20
240.91643912651
 30
0.0
 11
675.63151258188
 21
231.567657976771
 31
0.0
  0
LINE
  5
3E5
330
3DE
100
AcDbEntity
  8
Layer6
  6
AUSGEZOGEN
 62
   136
370
    18
100
AcDbLine
 10
698.095065202013
 20
299.91643912651
 30
0.0
 11
698.095065202013
 21
270.51643912651
 31
0.0
  0
LINE
  5
3E6
330
3DE
100
AcDbEntity
  8
Layer6
  6
AUSGEZOGEN
 62
   136
370
    18
100
AcDbLine
 10
698.095065202013
 20
269.51643912651
 30
0.0
 11
698.095065202013
 21
231.567657976771
 31
0.0
  0
WIPEOUT
  5
3E7
330
3DE
100
AcDbEntity
  8
Layer6
  6
AUSGEZOGEN
 62
   136
370
    18
 92
      152
310
98000000040000000C0000000E000000120000000C00000016000000000000C20C00000014000000010000006C00000007000000040000003885D2217D5785404F687D1CE12F6D400000000000000000BC7008070E8F85404F687D1CE12F6D400000000000000000BC7008070E8F85404F687D1CE1AF6D4000000000000000
310
003885D2217D5785404F687D1CE1AF6D400000000000000000
100
AcDbWipeout
 90
        0
 10
682.936099667254
 20
233.496229405343
 30
0.0
 11
6.945749684572206
 21
0.0
 31
0.0
 12
0.0
 22
6.945749684572206
 32
0.0
 13
1.0
 23
1.0
340
0
 70
     7
280
     1
281
    50
282
    50
283
     0
360
0
 71
     2
 91
        5
 14
-0.5
 24
0.5
 14
0.5
 24
0.5
 14
0.5
 24
-0.075891758507
 14
-0.5
 24
-0.075891758507
 14
-0.5
 24
0.5
  0
TEXT
  5
3E8
330
3DE
100
AcDbEntity
  8
Layer6
  6
AUSGEZOGEN
 62
   136
370
    18
100
AcDbText
 10
682.936099667254
 20
234.246229405343
 30
0.0
 40
2.5
  1
22.5
 41
1.022938097875
  7
Arial
 72
     5
 11
689.881849351826
 21
234.246229405343
 31
0.0
100
AcDbText
  0
ENDBLK
  5
3E0
330
3DE
100
AcDbEntity
  8
0
100
AcDbBlockEnd
  0
BLOCK
  5
3EB
330
3EA
100
AcDbEntity
  8
0
100
AcDbBlockBegin
  2
*D11
 70
     1
 10
0.0
 20
0.0
 30
0.0
  3
*D11
  1

  0
HATCH
  5
3ED
330
3EA
100
AcDbEntity
  8
Layer6
  6
AUSGEZOGEN
 62
   136
370
    18
100
AcDbHatch
 10
0.0
 20
0.0
 30
0.0
210
0.0
220
0.0
230
1.0
  2
SOLID
 70
     1
 71
     0
 91
        1
 92
        2
 72
     0
 73
     1
 93
        3
 10
756.0890946626798
 20
225.9974488643448
 10
753.5890946626798
 20
226.3724488643448
 10
753.5890946626798
 20
225.6224488643448
 97
        0
 75
     0
 76
     1
 98
        0
  0
HATCH
  5
3EE
330
3EA
100
AcDbEntity
  8
Layer6
  6
AUSGEZOGEN
 62
   136
370
    18
100
AcDbHatch
 10
0.0
 20
0.0
 30
0.0
210
0.0
220
0.0
230
1.0
  2
SOLID
 70
     1
 71
     0
 91
        1
 92
        2
 72
     0
 73
     1
 93
        3
 10
675.6315125818799
 20
225.9974488643448
 10
678.1315125818799
 20
225.6224488643448
 10
678.1315125818799
 20
226.3724488643448
 97
        0
 75
     0
 76
     1
 98
        0
  0
LINE
  5
3EF
330
3EA
100
AcDbEntity
  8
Layer6
  6
AUSGEZOGEN
 62
   136
370
    18
100
AcDbLine
 10
678.13151258188
 20
225.997448864345
 30
0.0
 11
753.58909466268
 21
225.997448864345
 31
0.0
  0
LINE
  5
3F0
330
3EA
100
AcDbEntity
  8
Layer6
  6
AUSGEZOGEN
 62
   136
370
    18
100
AcDbLine
 10
675.63151258188
 20
240.91643912651
 30
0.0
 11
675.63151258188
 21
233.496229405343
 31
0.0
  0
LINE
  5
3F1
330
3EA
100
AcDbEntity
  8
Layer6
  6
AUSGEZOGEN
 62
   136
370
    18
100
AcDbLine
 10
675.63151258188
 20
232.496229405343
 30
0.0
 11
675.63151258188
 21
224.568877435773
 31
0.0
  0
LINE
  5
3F2
330
3EA
100
AcDbEntity
  8
Layer6
  6
AUSGEZOGEN
 62
   136
370
    18
100
AcDbLine
 10
756.08909466268
 20
275.01643912651
 30
0.0
 11
756.08909466268
 21
224.568877435773
 31
0.0
  0
WIPEOUT
  5
3F3
330
3EA
100
AcDbEntity
  8
Layer6
  6
AUSGEZOGEN
 62
   136
370
    18
 92
      152
310
98000000040000000C0000000E000000120000000C00000016000000000000C20C00000014000000010000006C000000070000000400000080815137F83D86406379E119EB4F6C400000000000000000046D871C897586406379E119EB4F6C400000000000000000046D871C897586406379E119EBCF6C4000000000000000
310
0080815137F83D86406379E119EBCF6C400000000000000000
100
AcDbWipeout
 90
        0
 10
711.746199261441
 20
226.497448864345
 30
0.0
 11
6.945749684572206
 21
0.0
 31
0.0
 12
0.0
 22
6.945749684572206
 32
0.0
 13
1.0
 23
1.0
340
0
 70
     7
280
     1
281
    50
282
    50
283
     0
360
0
 71
     2
 91
        5
 14
-0.5
 24
0.5
 14
0.5
 24
0.5
 14
0.5
 24
-0.075891758507
 14
-0.5
 24
-0.075891758507
 14
-0.5
 24
0.5
  0
TEXT
  5
3F4
330
3EA
100
AcDbEntity
  8
Layer6
  6
AUSGEZOGEN
 62
   136
370
    18
100
AcDbText
 10
711.746199261441
 20
227.247448864345
 30
0.0
 40
2.5
  1
80.5
 41
1.022938097875
  7
Arial
 72
     5
 11
718.691948946013
 21
227.247448864345
 31
0.0
100
AcDbText
  0
ENDBLK
  5
3EC
330
3EA
100
AcDbEntity
  8
0
100
AcDbBlockEnd
  0
BLOCK
  5
3F7
330
3F6
100
AcDbEntity
  8
0
100
AcDbBlockBegin
  2
*D12
 70
     1
 10
0.0
 20
0.0
 30
0.0
  3
*D12
  1

  0
HATCH
  5
3F9
330
3F6
100
AcDbEntity
  8
Layer6
  6
AUSGEZOGEN
 62
   136
370
    18
100
AcDbHatch
 10
0.0
 20
0.0
 30
0.0
210
0.0
220
0.0
230
1.0
  2
SOLID
 70
     1
 71
     0
 91
        1
 92
        2
 72
     0
 73
     1
 93
        3
 10
767.5143206187599
 20
329.8164391265103
 10
767.1393206187599
 20
327.3164391265103
 10
767.8893206187599
 20
327.3164391265103
 97
        0
 75
     0
 76
     1
 98
        0
  0
HATCH
  5
3FA
330
3F6
100
AcDbEntity
  8
Layer6
  6
AUSGEZOGEN
 62
   136
370
    18
100
AcDbHatch
 10
0.0
 20
0.0
 30
0.0
210
0.0
220
0.0
230
1.0
  2
SOLID
 70
     1
 71
     0
 91
        1
 92
        2
 72
     0
 73
     1
 93
        3
 10
767.5143206187599
 20
270.0164391265104
 10
767.8893206187599
 20
272.5164391265104
 10
767.1393206187599
 20
272.5164391265104
 97
        0
 75
     0
 76
     1
 98
        0
  0
LINE
  5
3FB
330
3F6
100
AcDbEntity
  8
Layer6
  6
AUSGEZOGEN
 62
   136
370
    18
100
AcDbLine
 10
767.51432061876
 20
272.51643912651
 30
0.0
 11
767.51432061876
 21
327.31643912651
 31
0.0
  0
LINE
  5
3FC
330
3F6
100
AcDbEntity
  8
Layer6
  6
AUSGEZOGEN
 62
   136
370
    18
100
AcDbLine
 10
751.08909466268
 20
270.01643912651
 30
0.0
 11
768.942892047331
 21
270.01643912651
 31
0.0
  0
LINE
  5
3FD
330
3F6
100
AcDbEntity
  8
Layer6
  6
AUSGEZOGEN
 62
   136
370
    18
100
AcDbLine
 10
751.08909466268
 20
329.81643912651
 30
0.0
 11
768.942892047331
 21
329.81643912651
 31
0.0
  0
WIPEOUT
  5
3FE
330
3F6
100
AcDbEntity
  8
Layer6
  6
AUSGEZOGEN
 62
   136
370
    18
 92
      152
310
98000000040000000C0000000E000000120000000C00000016000000000000C20C00000014000000010000006C0000000700000004000000DCE920541DF887400096DFB7006C72400000000000000000DCE920541DF887400A6D4B8222DB72400000000000000000DCE920541DD887400A6D4B8222DB724000000000000000
310
00DCE920541DD887400096DFB7006C72400000000000000000
100
AcDbWipeout
 90
        0
 10
763.01432061876
 20
294.750175355322
 30
0.0
 11
6.945749684572206
 21
0.0
 31
0.0
 12
0.0
 22
6.945749684572206
 32
0.0
 13
1.0
 23
1.0
340
0
 70
     7
280
     1
281
    50
282
    50
283
     0
360
0
 71
     2
 91
        5
 14
0.075891758507
 24
0.5
 14
0.075891758507
 24
-0.5
 14
-0.5
 24
-0.5
 14
-0.5
 24
0.5
 14
0.075891758507
 24
0.5
  0
TEXT
  5
3FF
330
3F6
100
AcDbEntity
  8
Layer6
  6
AUSGEZOGEN
 62
   136
370
    18
100
AcDbText
 10
766.26432061876
 20
294.750175355322
 30
0.0
 40
2.5
  1
59.8
 50
90.0
 41
1.022938097875
  7
Arial
 72
     5
 11
766.26432061876
 21
301.695925039895
 31
0.0
100
AcDbText
  0
ENDBLK
  5
3F8
330
3F6
100
AcDbEntity
  8
0
100
AcDbBlockEnd
  0
ENDSEC
  0
SECTION
  2
ENTITIES
  0
INSERT
  5
14A
330
1F
100
AcDbEntity
  8
0
100
AcDbBlockReference
  2
QS_nNn00
 10
0.0
 20
0.0
 30
0.0
  0
INSERT
  5
1B7
330
1F
100
AcDbEntity
  8
0
100
AcDbBlockReference
  2
A3_nNn01
 10
0.0
 20
0.0
 30
0.0
  0
WIPEOUT
  5
1B8
330
1F
100
AcDbEntity
  8
Layer5
  6
AUSGEZOGEN
 62
   136
370
    18
 92
      152
310
98000000040000000C0000000E000000120000000C00000016000000000000C20C00000014000000010000006C000000070000000400000044170EA97E6D88409FBA78AA0CF66D4000000000000000008021C1CFEFB488409FBA78AA0CF66D4000000000000000008021C1CFEFB488409FBA78AA0C766E4000000000000000
310
0044170EA97E6D88409FBA78AA0C766E400000000000000000
100
AcDbWipeout
 90
        0
 10
781.686845884404
 20
239.689046130942
 30
0.0
 11
8.930249594449947
 21
0.0
 31
0.0
 12
0.0
 22
8.930249594449947
 32
0.0
 13
1.0
 23
1.0
340
0
 70
     7
280
     1
281
    50
282
    50
283
     0
360
0
 71
     2
 91
        5
 14
-0.5
 24
0.5
 14
0.5
 24
0.5
 14
0.5
 24
0.052084187828
 14
-0.5
 24
0.052084187828
 14
-0.5
 24
0.5
  0
TEXT
  5
1B9
330
1F
100
AcDbEntity
  8
Layer5
  6
AUSGEZOGEN
 62
   136
370
    18
100
AcDbText
 10
781.686845884404
 20
240.439046130942
 30
0.0
 40
2.5
  1
M 1:2
 41
1.023231119387
  7
Arial
 72
     5
 11
790.617095478854
 21
240.439046130942
 31
0.0
100
AcDbText
  0
INSERT
  5
1BE
330
1F
100
AcDbEntity
  8
0
100
AcDbBlockReference
  2
A3_nNn05
 10
0.0
 20
0.0
 30
0.0
  0
INSERT
  5
1CE
330
1F
100
AcDbEntity
  8
0
100
AcDbBlockReference
  2
Abartenfeld_nNn06
 10
0.0
 20
0.0
 30
0.0
  0
ARC
  5
1CF
330
1F
100
AcDbEntity
  8
0
  6
AUSGEZOGEN
 62
     9
370
    25
100
AcDbCircle
 10
602.97907355748
 20
299.91643912651
 30
0.0
 40
95.15243902439023
100
AcDbArc
 50
32.5890261284
 51
38.320346244
  0
ARC
  5
1D0
330
1F
100
AcDbEntity
  8
0
  6
AUSGEZOGEN
 62
     9
370
    25
100
AcDbCircle
 10
602.97907355748
 20
299.91643912651
 30
0.0
 40
95.15243902439022
100
AcDbArc
 50
321.679653756
 51
327.4109738716
  0
LINE
  5
1D1
330
1F
100
AcDbEntity
  8
0
  6
AUSGEZOGEN
 62
     9
370
    25
100
AcDbLine
 10
675.63151258188
 20
240.91643912651
 30
0.0
 11
677.63151258188
 21
240.91643912651
 31
0.0
  0
LINE
  5
1D2
330
1F
100
AcDbEntity
  8
0
  6
AUSGEZOGEN
 62
     9
370
    25
100
AcDbLine
 10
677.63151258188
 20
358.91643912651
 30
0.0
 11
675.63151258188
 21
358.91643912651
 31
0.0
  0
ARC
  5
1D3
330
1F
100
AcDbEntity
  8
0
  6
AUSGEZOGEN
 62
     9
370
    25
100
AcDbCircle
 10
683.11634703348
 20
249.26547817991
 30
0.0
 40
0.5999999999999852
100
AcDbArc
 50
273.2431690543
 51
327.7049656585
  0
ARC
  5
1D4
330
1F
100
AcDbEntity
  8
0
  6
AUSGEZOGEN
 62
     9
370
    25
100
AcDbCircle
 10
683.11634703348
 20
350.56740007291
 30
0.0
 40
0.5999999999999994
100
AcDbArc
 50
32.2950343415
 51
86.7568309457
  0
ARC
  5
1D5
330
1F
100
AcDbEntity
  8
0
  6
AUSGEZOGEN
 62
     9
370
    25
100
AcDbCircle
 10
602.97907355748
 20
299.91643912651
 30
0.0
 40
95.40243902439028
100
AcDbArc
 50
327.7049656585
 51
327.8288412287
  0
ARC
  5
1D6
330
1F
100
AcDbEntity
  8
0
  6
AUSGEZOGEN
 62
     9
370
    25
100
AcDbCircle
 10
602.97907355748
 20
299.91643912651
 30
0.0
 40
95.40243902439028
100
AcDbArc
 50
32.1711587713
 51
32.2950343415
  0
ARC
  5
1D7
330
1F
100
AcDbEntity
  8
0
  6
AUSGEZOGEN
 62
     9
370
    25
100
AcDbCircle
 10
683.22566888088
 20
249.43885614171
 30
0.0
 40
0.6000000000000232
100
AcDbArc
 50
327.8288412287
 51
0.0
  0
LINE
  5
1D8
330
1F
100
AcDbEntity
  8
0
  6
AUSGEZOGEN
 62
     9
370
    25
100
AcDbLine
 10
683.82566888088
 20
249.43885614171
 30
0.0
 11
683.82566888088
 21
275.81070822471
 31
0.0
  0
ARC
  5
1D9
330
1F
100
AcDbEntity
  8
0
  6
AUSGEZOGEN
 62
     9
370
    25
100
AcDbCircle
 10
683.22566888088
 20
350.39402211131
 30
0.0
 40
0.600000000000008
100
AcDbArc
 50
0.0
 51
32.1711587713
  0
LINE
  5
1DA
330
1F
100
AcDbEntity
  8
0
  6
AUSGEZOGEN
 62
     9
370
    25
100
AcDbLine
 10
683.82566888088
 20
324.02017565371
 30
0.0
 11
683.82566888088
 21
350.39402211131
 31
0.0
  0
ARC
  5
1DB
330
1F
100
AcDbEntity
  8
0
  6
AUSGEZOGEN
 62
     9
370
    25
100
AcDbCircle
 10
602.97907355748
 20
299.91643912651
 30
0.0
 40
95.15243902439023
100
AcDbArc
 50
328.1739935199
 51
333.6390660811
  0
ARC
  5
1DC
330
1F
100
AcDbEntity
  8
0
  6
AUSGEZOGEN
 62
     9
370
    25
100
AcDbCircle
 10
602.97907355748
 20
299.91643912651
 30
0.0
 40
95.15243902439022
100
AcDbArc
 50
26.3609339189
 51
31.8260064801
  0
ARC
  5
1DD
330
1F
100
AcDbEntity
  8
0
  6
AUSGEZOGEN
 62
     9
370
    25
100
AcDbCircle
 10
688.13832768688
 20
341.57461816871
 30
0.0
 40
0.6000000000000262
100
AcDbArc
 50
26.066942132
 51
80.5287387361
  0
ARC
  5
1DE
330
1F
100
AcDbEntity
  8
0
  6
AUSGEZOGEN
 62
     9
370
    25
100
AcDbCircle
 10
688.13832768688
 20
258.25826008431
 30
0.0
 40
0.6000000000000326
100
AcDbArc
 50
279.4712612639
 51
333.933057868
  0
ARC
  5
1DF
330
1F
100
AcDbEntity
  8
0
  6
AUSGEZOGEN
 62
     9
370
    25
100
AcDbCircle
 10
602.97907355748
 20
299.91643912651
 30
0.0
 40
95.40243902439026
100
AcDbArc
 50
333.933057868
 51
334.0151760237
  0
ARC
  5
1E0
330
1F
100
AcDbEntity
  8
0
  6
AUSGEZOGEN
 62
     9
370
    25
100
AcDbCircle
 10
602.97907355748
 20
299.91643912651
 30
0.0
 40
95.40243902439028
100
AcDbArc
 50
25.9848239763
 51
26.066942132
  0
ARC
  5
1E1
330
1F
100
AcDbEntity
  8
0
  6
AUSGEZOGEN
 62
     9
370
    25
100
AcDbCircle
 10
688.19794604448
 20
341.45252243971
 30
0.0
 40
0.6000000000000302
100
AcDbArc
 50
0.0
 51
25.9848239762
  0
LINE
  5
1E2
330
1F
100
AcDbEntity
  8
0
  6
AUSGEZOGEN
 62
     9
370
    25
100
AcDbLine
 10
688.79794604448
 20
318.79899333731
 30
0.0
 11
688.79794604448
 21
341.45252243971
 31
0.0
  0
ARC
  5
1E3
330
1F
100
AcDbEntity
  8
0
  6
AUSGEZOGEN
 62
     9
370
    25
100
AcDbCircle
 10
688.19794604448
 20
258.38035581331
 30
0.0
 40
0.6000000000000332
100
AcDbArc
 50
334.0151760238
 51
0.0
  0
LINE
  5
1E4
330
1F
100
AcDbEntity
  8
0
  6
AUSGEZOGEN
 62
     9
370
    25
100
AcDbLine
 10
688.79794604448
 20
258.38035581331
 30
0.0
 11
688.79794604448
 21
281.03130006891
 31
0.0
  0
ARC
  5
1E5
330
1F
100
AcDbEntity
  8
0
  6
AUSGEZOGEN
 62
     9
370
    25
100
AcDbCircle
 10
602.97907355748
 20
299.91643912651
 30
0.0
 40
95.15243902439026
100
AcDbArc
 50
334.410186204
 51
339.5469770435
  0
ARC
  5
1E6
330
1F
100
AcDbEntity
  8
0
  6
AUSGEZOGEN
 62
     9
370
    25
100
AcDbCircle
 10
602.97907355748
 20
299.91643912651
 30
0.0
 40
95.15243902439026
100
AcDbArc
 50
20.4530229565
 51
25.589813796
  0
LINE
  5
1E7
330
1F
100
AcDbEntity
  8
0
  6
AUSGEZOGEN
 62
     9
370
    25
100
AcDbLine
 10
692.56770573208
 20
332.71129172411
 30
0.0
 11
692.53712913308
 21
332.79470023211
 31
0.0
  0
ARC
  5
1E8
330
1F
100
AcDbEntity
  8
0
  6
AUSGEZOGEN
 62
     9
370
    25
100
AcDbCircle
 10
691.97388532188
 20
267.24495425071
 30
0.0
 40
0.6000000000000038
100
AcDbArc
 50
285.3791722264
 51
339.8409688305
  0
ARC
  5
1E9
330
1F
100
AcDbEntity
  8
0
  6
AUSGEZOGEN
 62
     9
370
    25
100
AcDbCircle
 10
692.00426962028
 20
332.50504006251
 30
0.0
 40
0.5999999999999658
100
AcDbArc
 50
0.0
 51
20.1056787441
  0
LINE
  5
1EA
330
1F
100
AcDbEntity
  8
0
  6
AUSGEZOGEN
 62
     9
370
    25
100
AcDbLine
 10
692.60426962028
 20
306.61996004071
 30
0.0
 11
692.60426962028
 21
332.50504006251
 31
0.0
  0
ARC
  5
1EB
330
1F
100
AcDbEntity
  8
0
  6
AUSGEZOGEN
 62
     9
370
    25
100
AcDbCircle
 10
602.97907355748
 20
299.91643912651
 30
0.0
 40
95.15243902439023
100
AcDbArc
 50
18.4508601949
 51
19.6248788614
  0
ARC
  5
1EC
330
1F
100
AcDbEntity
  8
0
  6
AUSGEZOGEN
 62
     9
370
    25
100
AcDbCircle
 10
602.97907355748
 20
299.91643912651
 30
0.0
 40
95.15243902439026
100
AcDbArc
 50
340.3751211386
 51
341.5491398051
  0
ARC
  5
1ED
330
1F
100
AcDbEntity
  8
0
  6
AUSGEZOGEN
 62
     9
370
    25
100
AcDbCircle
 10
692.00426962028
 20
267.32783819051
 30
0.0
 40
0.5999999999999658
100
AcDbArc
 50
339.8943212559
 51
0.0
  0
LINE
  5
1EE
330
1F
100
AcDbEntity
  8
0
  6
AUSGEZOGEN
 62
     9
370
    25
100
AcDbLine
 10
692.60426962028
 20
267.32783819051
 30
0.0
 11
692.60426962028
 21
293.12415185571
 31
0.0
  0
LINE
  5
1EF
330
1F
100
AcDbEntity
  8
0
  6
AUSGEZOGEN
 62
     9
370
    25
100
AcDbLine
 10
692.53712913308
 20
267.03817802091
 30
0.0
 11
692.56770573208
 21
267.12158652891
 31
0.0
  0
ARC
  5
1F0
330
1F
100
AcDbEntity
  8
0
  6
AUSGEZOGEN
 62
     9
370
    25
100
AcDbCircle
 10
691.97388532188
 20
332.58792400231
 30
0.0
 40
0.6000000000000038
100
AcDbArc
 50
20.1590311695
 51
74.6208277736
  0
LINE
  5
1F1
330
1F
100
AcDbEntity
  8
0
  6
AUSGEZOGEN
 62
     9
370
    25
100
AcDbLine
 10
751.08909466268
 20
329.81643912651
 30
0.0
 11
693.27799032228
 21
329.81643912651
 31
0.0
  0
ARC
  5
1F2
330
1F
100
AcDbEntity
  8
0
  6
AUSGEZOGEN
 62
     9
370
    25
100
AcDbCircle
 10
751.08909466268
 20
324.81643912651
 30
0.0
 40
5.000000000000014
100
AcDbArc
 50
0.0
 51
90.0
  0
ARC
  5
1F3
330
1F
100
AcDbEntity
  8
0
  6
AUSGEZOGEN
 62
     9
370
    25
100
AcDbCircle
 10
751.08909466268
 20
275.01643912651
 30
0.0
 40
5.0
100
AcDbArc
 50
270.0
 51
0.0
  0
ARC
  5
1F4
330
1F
100
AcDbEntity
  8
0
  6
AUSGEZOGEN
 62
     9
370
    25
100
AcDbCircle
 10
677.68909466268
 20
335.51643912651
 30
0.0
 40
5.000000000000008
100
AcDbArc
 50
114.3001293478
 51
180.0
  0
LINE
  5
1F5
330
1F
100
AcDbEntity
  8
0
  6
AUSGEZOGEN
 62
     9
370
    25
100
AcDbLine
 10
693.27799032228
 20
270.01643912651
 30
0.0
 11
751.08909466268
 21
270.01643912651
 31
0.0
  0
ARC
  5
1F6
330
1F
100
AcDbEntity
  8
0
  6
AUSGEZOGEN
 62
     9
370
    25
100
AcDbCircle
 10
677.68909466268
 20
264.31643912651
 30
0.0
 40
5.000000000000022
100
AcDbArc
 50
180.0
 51
245.6998706522
  0
LINE
  5
1F7
330
1F
100
AcDbEntity
  8
0
  6
AUSGEZOGEN
 62
     9
370
    25
100
AcDbLine
 10
756.08909466268
 20
275.01643912651
 30
0.0
 11
756.08909466268
 21
324.81643912651
 31
0.0
  0
LINE
  5
1F8
330
1F
100
AcDbEntity
  8
0
  6
AUSGEZOGEN
 62
     9
370
    25
100
AcDbLine
 10
672.68909466268
 20
335.51643912651
 30
0.0
 11
672.68909466268
 21
264.31643912651
 31
0.0
  0
LINE
  5
1F9
330
1F
100
AcDbEntity
  8
0
  6
AUSGEZOGEN
 62
     9
370
    25
100
AcDbLine
 10
677.63151258188
 20
240.91643912651
 30
0.0
 11
677.63151258188
 21
358.91643912651
 31
0.0
  0
LINE
  5
1FA
330
1F
100
AcDbEntity
  8
0
  6
AUSGEZOGEN
 62
     9
370
    25
100
AcDbLine
 10
683.15029128728
 20
351.16643912651
 30
0.0
 11
683.15029128728
 21
324.51930974011
 31
0.0
  0
ARC
  5
1FB
330
1F
100
AcDbEntity
  8
0
  6
AUSGEZOGEN
 62
     9
370
    25
100
AcDbCircle
 10
636.11608145048
 20
276.98909592371
 30
0.0
 40
66.86806502680106
100
AcDbArc
 50
45.3005218342
 51
48.8758387694
  0
LWPOLYLINE
  5
1FC
330
1F
100
AcDbEntity
  8
0
  6
AUSGEZOGEN
 62
     9
370
    25
100
AcDbPolyline
 90
       26
 70
     0
 43
0.0
 10
678.020394246244
 20
327.371420514922
 10
678.027381710199
 20
327.483368396887
 10
678.043279755082
 20
327.586919526665
 10
678.068167145001
 20
327.682248625496
 10
678.101501210034
 20
327.767976351091
 10
678.142417797224
 20
327.842720911749
 10
678.190042781555
 20
327.906807157793
 10
678.243367799714
 20
327.960525184894
 10
678.301384488387
 20
328.004165088723
 10
678.363322849159
 20
328.038358625238
 10
678.428670499925
 20
328.063957969183
 10
678.49680550183
 20
328.081583844412
 10
678.567105916023
 20
328.091856974778
 10
678.638922830377
 20
328.095432037681
 10
678.711953402588
 20
328.092859046092
 10
678.786094798539
 20
328.084601727216
 10
678.861244184114
 20
328.07112380826
 10
678.937368317658
 20
328.052778858471
 10
679.014276782484
 20
328.029848348043
 10
679.16909231932
 20
327.97165295977
 10
679.323848970324
 20
327.8990633204
 10
679.478484187697
 20
327.813546039429
 10
679.633071296796
 20
327.71618728652
 10
679.78750966958
 20
327.607679689945
 10
679.941498517373
 20
327.488688965441
 10
680.094737051498
 20
327.359880828744
  0
LWPOLYLINE
  5
1FD
330
1F
100
AcDbEntity
  8
0
  6
AUSGEZOGEN
 62
     9
370
    25
100
AcDbPolyline
 90
       22
 70
     0
 43
0.0
 10
678.02039424628
 20
327.37142051491
 10
677.97115884508
 20
324.95831694791
 10
677.92650585648
 20
322.48545904831
 10
677.88654183048
 20
319.95874749111
 10
677.85136212828
 20
317.38421145511
 10
677.82105069488
 20
314.76799423671
 10
677.79567985868
 20
312.11633859131
 10
677.77531015888
 20
309.43557183651
 10
677.75999020108
 20
306.73209075391
 10
677.74975654168
 20
304.01234632571
 10
677.74463359988
 20
301.28282834131
 10
677.74463359988
 20
298.55004991151
 10
677.74975654168
 20
295.82053192731
 10
677.75999020108
 20
293.10078749911
 10
677.77531015888
 20
290.39730641651
 10
677.79567985868
 20
287.71653966151
 10
677.82105069488
 20
285.06488401631
 10
677.85136212828
 20
282.44866679791
 10
677.88654183048
 20
279.87413076191
 10
677.92650585648
 20
277.34741920471
 10
677.97115884508
 20
274.87456130511
 10
678.02039424628
 20
272.46145773811
  0
LWPOLYLINE
  5
1FE
330
1F
100
AcDbEntity
  8
0
  6
AUSGEZOGEN
 62
     9
370
    25
100
AcDbPolyline
 90
       26
 70
     0
 43
0.0
 10
680.094737051498
 20
272.472997424233
 10
679.941810068158
 20
272.344413984567
 10
679.788628899008
 20
272.225977255468
 10
679.6352139601
 20
272.118094237781
 10
679.481585667488
 20
272.021171932354
 10
679.327768073057
 20
271.935827437879
 10
679.173795355709
 20
271.863228139109
 10
679.0194876568
 20
271.804713222318
 10
678.94246335159
 20
271.781473443579
 10
678.865820085624
 20
271.762727183764
 10
678.789763678593
 20
271.748748608757
 10
678.714596215644
 20
271.739950729897
 10
678.640683102263
 20
271.736903114725
 10
678.568389743937
 20
271.740175330786
 10
678.498081546153
 20
271.750336945623
 10
678.430123914397
 20
271.767957526778
 10
678.364882254156
 20
271.793606641797
 10
678.302721970918
 20
271.827853858221
 10
678.244379375051
 20
271.871378283621
 10
678.190899943736
 20
271.924874877216
 10
678.143112832676
 20
271.988936984026
 10
678.101847197576
 20
272.064157949069
 10
678.068369724621
 20
272.149975358316
 10
678.043514702301
 20
272.245114513642
 10
678.027462689786
 20
272.349100333929
 10
678.020394246244
 20
272.461457738055
  0
ARC
  5
1FF
330
1F
100
AcDbEntity
  8
0
  6
AUSGEZOGEN
 62
     9
370
    25
100
AcDbCircle
 10
636.11608144988
 20
322.84378232991
 30
0.0
 40
66.86806502771312
100
AcDbArc
 50
311.1241612306
 51
314.6994781658
  0
LINE
  5
200
330
1F
100
AcDbEntity
  8
0
  6
AUSGEZOGEN
 62
     9
370
    25
100
AcDbLine
 10
683.15029128728
 20
275.31356851271
 30
0.0
 11
683.15029128728
 21
248.66643912651
 31
0.0
  0
LINE
  5
201
330
1F
100
AcDbEntity
  8
0
  6
AUSGEZOGEN
 62
     9
370
    25
100
AcDbLine
 10
675.63151258188
 20
240.91643912651
 30
0.0
 11
675.63151258188
 21
358.91643912651
 31
0.0
  0
LWPOLYLINE
  5
202
330
1F
100
AcDbEntity
  8
0
  6
AUSGEZOGEN
 62
     9
370
    25
100
AcDbPolyline
 90
        5
 70
     0
 43
0.0
 10
678.519167592747
 20
282.821724062959
 10
678.585737087803
 20
284.088997929789
 10
678.653329844482
 20
285.318903674906
 10
678.718959251431
 20
286.614139997199
 10
678.781512581895
 20
288.009583306566
  0
LINE
  5
203
330
1F
100
AcDbEntity
  8
0
  6
AUSGEZOGEN
 62
     9
370
    25
100
AcDbLine
 10
678.02039424628
 20
272.46145773811
 30
0.0
 11
678.51916759268
 21
282.82172406291
 31
0.0
  0
LINE
  5
204
330
1F
100
AcDbEntity
  8
0
  6
AUSGEZOGEN
 62
     9
370
    25
100
AcDbLine
 10
678.51916759268
 20
317.01115419011
 30
0.0
 11
678.02039424628
 21
327.37142051491
 31
0.0
  0
LWPOLYLINE
  5
205
330
1F
100
AcDbEntity
  8
0
  6
AUSGEZOGEN
 62
     9
370
    25
100
AcDbPolyline
 90
        5
 70
     0
 43
0.0
 10
678.781512581895
 20
311.823294946412
 10
678.718956485986
 20
313.218796340697
 10
678.653295819692
 20
314.51460996209
 10
678.585709476847
 20
315.744380142261
 10
678.519167592747
 20
317.011154190018
  0
LINE
  5
206
330
1F
100
AcDbEntity
  8
0
  6
AUSGEZOGEN
 62
     9
370
    25
100
AcDbLine
 10
678.78151258188
 20
311.82329494651
 30
0.0
 11
678.78151258188
 21
288.00958330651
 31
0.0
  0
ARC
  5
207
330
1F
100
AcDbEntity
  8
0
  6
AUSGEZOGEN
 62
     9
370
    25
100
AcDbCircle
 10
680.36977886448
 20
283.12844917071
 30
0.0
 40
1.875857769348647
100
AcDbArc
 50
189.4107998454
 51
274.5225640772
  0
LINE
  5
208
330
1F
100
AcDbEntity
  8
0
  6
AUSGEZOGEN
 62
     9
370
    25
100
AcDbLine
 10
680.51769342548
 20
281.25843215111
 30
0.0
 11
680.09473705148
 21
272.47299742431
 31
0.0
  0
LINE
  5
209
330
1F
100
AcDbEntity
  8
0
  6
AUSGEZOGEN
 62
     9
370
    25
100
AcDbLine
 10
680.09473705148
 20
327.35988082871
 30
0.0
 11
680.51769342548
 21
318.57444610191
 31
0.0
  0
ARC
  5
20A
330
1F
100
AcDbEntity
  8
0
  6
AUSGEZOGEN
 62
     9
370
    25
100
AcDbCircle
 10
680.36977886448
 20
316.70442908231
 30
0.0
 40
1.87585776934864
100
AcDbArc
 50
85.4774359228
 51
170.5892001546
  0
LWPOLYLINE
  5
20B
330
1F
100
AcDbEntity
  8
0
  6
AUSGEZOGEN
 62
     9
370
    25
100
AcDbPolyline
 90
        9
 70
     0
 43
0.0
 10
683.150291287375
 20
324.519309740201
 10
683.221667459677
 20
324.513934454208
 10
683.291056664822
 20
324.503186946861
 10
683.357706515892
 20
324.487372498918
 10
683.42086462597
 20
324.466796391138
 10
683.479778608139
 20
324.441763904279
 10
683.53369607548
 20
324.4125803191
 10
683.581864641077
 20
324.379550916359
 10
683.623531918011
 20
324.342980976815
  0
ARC
  5
20C
330
1F
100
AcDbEntity
  8
0
  6
AUSGEZOGEN
 62
     9
370
    25
100
AcDbCircle
 10
638.56136555128
 20
279.36632365671
 30
0.0
 40
63.66709151008112
100
AcDbArc
 50
44.8052679082
 51
44.9455867391
  0
LWPOLYLINE
  5
20D
330
1F
100
AcDbEntity
  8
0
  6
AUSGEZOGEN
 62
     9
370
    25
100
AcDbPolyline
 90
        9
 70
     0
 43
0.0
 10
683.733545657968
 20
324.232487809244
 10
683.767983995556
 20
324.192526591107
 10
683.794351935825
 20
324.150467777621
 10
683.812609312217
 20
324.10688106654
 10
683.822715958174
 20
324.062336155615
 10
683.824631707139
 20
324.0174027426
 10
683.818316392555
 20
323.972650525247
 10
683.803729847863
 20
323.928649201311
 10
683.780831906505
 20
323.885968468543
  0
ARC
  5
20E
330
1F
100
AcDbEntity
  8
0
  6
AUSGEZOGEN
 62
     9
370
    25
100
AcDbCircle
 10
640.85818868408
 20
281.70891845091
 30
0.0
 40
60.17687969138286
100
AcDbArc
 50
40.4825017965
 51
44.4980210949
  0
LINE
  5
20F
330
1F
100
AcDbEntity
  8
0
  6
AUSGEZOGEN
 62
     9
370
    25
100
AcDbLine
 10
683.63151258188
 20
320.77669888551
 30
0.0
 11
686.62898047648
 21
320.77669888551
 31
0.0
  0
ELLIPSE
  5
210
330
1F
100
AcDbEntity
  8
0
  6
AUSGEZOGEN
 62
     9
370
    25
100
AcDbEllipse
 10
683.63151258188
 20
315.05573981411
 30
0.0
 11
0.0
 21
-5.720959071373045
 31
0.0
210
0.0
220
0.0
230
1.0
 40
0.6902901577
 41
3.141592653589793
 42
4.049932861297236
  0
LINE
  5
211
330
1F
100
AcDbEntity
  8
0
  6
AUSGEZOGEN
 62
     9
370
    25
100
AcDbLine
 10
686.62898047648
 20
279.05617936751
 30
0.0
 11
683.63151258188
 21
279.05617936751
 31
0.0
  0
ARC
  5
212
330
1F
100
AcDbEntity
  8
0
  6
AUSGEZOGEN
 62
     9
370
    25
100
AcDbCircle
 10
640.85818868408
 20
318.12395980211
 30
0.0
 40
60.17687969137326
100
AcDbArc
 50
315.5019789051
 51
319.5174982035
  0
LWPOLYLINE
  5
213
330
1F
100
AcDbEntity
  8
0
  6
AUSGEZOGEN
 62
     9
370
    25
100
AcDbPolyline
 90
        9
 70
     0
 43
0.0
 10
683.780831906505
 20
275.946909784433
 10
683.803775380444
 20
275.904386506433
 10
683.818658456207
 20
275.860391634222
 10
683.825292468962
 20
275.815520394115
 10
683.823488753875
 20
275.770368012427
 10
683.813214728686
 20
275.725695131672
 10
683.794681562664
 20
275.682170076729
 10
683.768066218271
 20
275.640249597461
 10
683.733545657969
 20
275.600390443733
  0
ARC
  5
214
330
1F
100
AcDbEntity
  8
0
  6
AUSGEZOGEN
 62
     9
370
    25
100
AcDbCircle
 10
638.56136555128
 20
320.46655459631
 30
0.0
 40
63.66709151007286
100
AcDbArc
 50
315.0544132609
 51
315.1947320918
  0
LWPOLYLINE
  5
215
330
1F
100
AcDbEntity
  8
0
  6
AUSGEZOGEN
 62
     9
370
    25
100
AcDbPolyline
 90
        9
 70
     0
 43
0.0
 10
683.623531918011
 20
275.489897276162
 10
683.581864778164
 20
275.453326988575
 10
683.533697261327
 20
275.420297457785
 10
683.479781278997
 20
275.391113904273
 10
683.420868742673
 20
275.366081548521
 10
683.357711563851
 20
275.345505611012
 10
683.29106165403
 20
275.329691312229
 10
683.221670924706
 20
275.318943872653
 10
683.150291287378
 20
275.313568512768
  0
ELLIPSE
  5
216
330
1F
100
AcDbEntity
  8
0
  6
AUSGEZOGEN
 62
     9
370
    25
100
AcDbEllipse
 10
683.63151258188
 20
284.77713843891
 30
0.0
 11
0.0
 21
-5.720959071373045
 31
0.0
210
0.0
220
0.0
230
1.0
 40
0.6902901577
 41
5.374845099472181
 42
6.283185307179586
  0
ARC
  5
217
330
1F
100
AcDbEntity
  8
0
  6
AUSGEZOGEN
 62
     9
370
    25
100
AcDbCircle
 10
652.37271624488
 20
316.17002649911
 30
0.0
 40
50.50672517609204
100
AcDbArc
 50
312.7071629936
 51
314.27484639
  0
LWPOLYLINE
  5
218
330
1F
100
AcDbEntity
  8
0
  6
AUSGEZOGEN
 62
     9
370
    25
100
AcDbPolyline
 90
        3
 70
     0
 43
0.0
 10
687.631512581895
 20
280.007247722011
 10
687.936541711343
 20
280.311493973449
 10
688.237059413906
 20
280.625262547214
  0
LINE
  5
219
330
1F
100
AcDbEntity
  8
0
  6
AUSGEZOGEN
 62
     9
370
    25
100
AcDbLine
 10
688.23705941388
 20
280.62526254731
 30
0.0
 11
688.23705941388
 21
257.66643912651
 31
0.0
  0
LINE
  5
21A
330
1F
100
AcDbEntity
  8
0
  6
AUSGEZOGEN
 62
     9
370
    25
100
AcDbLine
 10
688.23705941388
 20
342.16643912651
 30
0.0
 11
688.23705941388
 21
319.20761570571
 31
0.0
  0
LWPOLYLINE
  5
21B
330
1F
100
AcDbEntity
  8
0
  6
AUSGEZOGEN
 62
     9
370
    25
100
AcDbPolyline
 90
        3
 70
     0
 43
0.0
 10
688.237059413906
 20
319.207615705762
 10
687.936541711343
 20
319.521384279528
 10
687.631512581895
 20
319.825630530966
  0
ARC
  5
21C
330
1F
100
AcDbEntity
  8
0
  6
AUSGEZOGEN
 62
     9
370
    25
100
AcDbCircle
 10
652.37271624468
 20
283.66285175371
 30
0.0
 40
50.50672517641332
100
AcDbArc
 50
45.72515361
 51
47.2928370064
  0
LINE
  5
21D
330
1F
100
AcDbEntity
  8
0
  6
AUSGEZOGEN
 62
     9
370
    25
100
AcDbLine
 10
683.63151258188
 20
279.05617936751
 30
0.0
 11
683.63151258188
 21
283.91643912651
 31
0.0
  0
ELLIPSE
  5
21E
330
1F
100
AcDbEntity
  8
0
  6
AUSGEZOGEN
 62
     9
370
    25
100
AcDbEllipse
 10
683.63151258188
 20
284.77713843891
 30
0.0
 11
0.0
 21
-5.720959071373045
 31
0.0
210
0.0
220
0.0
230
1.0
 40
0.6902901577
 41
4.537321970077343
 42
5.374845099472181
  0
ARC
  5
21F
330
1F
100
AcDbEntity
  8
0
  6
AUSGEZOGEN
 62
     9
370
    25
100
AcDbCircle
 10
683.63151258188
 20
288.91643912651
 30
0.0
 40
5.00000000000004
100
AcDbArc
 50
218.9448111073
 51
270.0
  0
LINE
  5
220
330
1F
100
AcDbEntity
  8
0
  6
AUSGEZOGEN
 62
     9
370
    25
100
AcDbLine
 10
683.63151258188
 20
320.77669888551
 30
0.0
 11
683.63151258188
 21
315.91643912651
 31
0.0
  0
ARC
  5
221
330
1F
100
AcDbEntity
  8
0
  6
AUSGEZOGEN
 62
     9
370
    25
100
AcDbCircle
 10
683.63151258188
 20
310.91643912651
 30
0.0
 40
5.00000000000004
100
AcDbArc
 50
90.0
 51
141.0551888927
  0
ELLIPSE
  5
222
330
1F
100
AcDbEntity
  8
0
  6
AUSGEZOGEN
 62
     9
370
    25
100
AcDbEllipse
 10
683.63151258188
 20
315.05573981411
 30
0.0
 11
0.0
 21
-5.720959071373045
 31
0.0
210
0.0
220
0.0
230
1.0
 40
0.6902901577
 41
4.049932861297236
 42
4.887455990692055
  0
LINE
  5
223
330
1F
100
AcDbEntity
  8
0
  6
AUSGEZOGEN
 62
     9
370
    25
100
AcDbLine
 10
687.63151258188
 20
319.82563053091
 30
0.0
 11
687.63151258188
 21
315.91643912651
 31
0.0
  0
LINE
  5
224
330
1F
100
AcDbEntity
  8
0
  6
AUSGEZOGEN
 62
     9
370
    25
100
AcDbLine
 10
683.63151258188
 20
315.91643912651
 30
0.0
 11
687.63151258188
 21
315.91643912651
 31
0.0
  0
LINE
  5
225
330
1F
100
AcDbEntity
  8
0
  6
AUSGEZOGEN
 62
     9
370
    25
100
AcDbLine
 10
687.63151258188
 20
283.91643912651
 30
0.0
 11
683.63151258188
 21
283.91643912651
 31
0.0
  0
LINE
  5
226
330
1F
100
AcDbEntity
  8
0
  6
AUSGEZOGEN
 62
     9
370
    25
100
AcDbLine
 10
687.63151258188
 20
280.00724772211
 30
0.0
 11
687.63151258188
 21
283.91643912651
 31
0.0
  0
LWPOLYLINE
  5
227
330
1F
100
AcDbEntity
  8
0
  6
AUSGEZOGEN
 62
     9
370
    25
100
AcDbPolyline
 90
       17
 70
     0
 43
0.0
 10
678.781512581895
 20
288.009583306565
 10
678.784938792822
 20
287.851763884243
 10
678.795270680018
 20
287.694955987334
 10
678.812588125106
 20
287.539171316687
 10
678.836971009709
 20
287.384421573155
 10
678.868666076098
 20
287.230477356749
 10
678.907900760102
 20
287.077713510106
 10
678.954725983688
 20
286.92704809802
 10
679.009192668819
 20
286.779399185285
 10
679.071327450955
 20
286.635421996816
 10
679.14145720398
 20
286.495325186972
 10
679.220083207501
 20
286.359356964717
 10
679.307706741126
 20
286.227765539013
 10
679.40386552902
 20
286.102150665761
 10
679.508094695448
 20
285.98426416267
 10
679.620891620165
 20
285.874582331422
 10
679.742753682927
 20
285.773581473698
  0
LWPOLYLINE
  5
228
330
1F
100
AcDbEntity
  8
0
  6
AUSGEZOGEN
 62
     9
370
    25
100
AcDbPolyline
 90
       17
 70
     0
 43
0.0
 10
679.742753682927
 20
314.059296779278
 10
679.620925586707
 20
313.958333315819
 10
679.508405694848
 20
313.848952581982
 10
679.404630876021
 20
313.73166380903
 10
679.309037998894
 20
313.606976228226
 10
679.221604387238
 20
313.475825512538
 10
679.142629488703
 20
313.339446642541
 10
679.072033357783
 20
313.198797810912
 10
679.00973604897
 20
313.054837210325
 10
678.955351073014
 20
312.907706875836
 10
678.908513309273
 20
312.75740054256
 10
678.869174865156
 20
312.604653953262
 10
678.837287848071
 20
312.450202850707
 10
678.812723249613
 20
312.294721155584
 10
678.7953115811
 20
312.138400783283
 10
678.784944229529
 20
311.98125446862
 10
678.781512581895
 20
311.823294946412
  0
LWPOLYLINE
  5
229
330
1F
100
AcDbEntity
  8
0
  6
AUSGEZOGEN
 62
     9
370
    25
100
AcDbPolyline
 90
        9
 70
     0
 43
0.0
 10
688.677296441235
 20
319.00843383224
 10
688.641966262418
 20
319.04322766654
 10
688.59962516077
 20
319.075973086608
 10
688.55096439062
 20
319.106280570972
 10
688.496675206299
 20
319.133760598163
 10
688.437448862137
 20
319.158023646708
 10
688.373976612465
 20
319.178680195138
 10
688.306949711612
 20
319.195340721982
 10
688.237059413909
 20
319.207615705768
  0
LWPOLYLINE
  5
22A
330
1F
100
AcDbEntity
  8
0
  6
AUSGEZOGEN
 62
     9
370
    25
100
AcDbPolyline
 90
        2
 70
     0
 43
0.0
 10
688.737292120672
 20
318.940327323776
 10
688.677296441235
 20
319.00843383224
  0
LWPOLYLINE
  5
22B
330
1F
100
AcDbEntity
  8
0
  6
AUSGEZOGEN
 62
     9
370
    25
100
AcDbPolyline
 90
        9
 70
     0
 43
0.0
 10
688.725351332637
 20
318.664715540027
 10
688.755602662014
 20
318.694278212225
 10
688.777606928979
 20
318.726181940709
 10
688.791379274614
 20
318.759954597447
 10
688.796934839999
 20
318.795124054404
 10
688.794288766217
 20
318.831218183549
 10
688.783456194348
 20
318.867764856847
 10
688.764452265472
 20
318.904291946268
 10
688.737292120672
 20
318.940327323776
  0
LWPOLYLINE
  5
22C
330
1F
100
AcDbEntity
  8
0
  6
AUSGEZOGEN
 62
     9
370
    25
100
AcDbPolyline
 90
       17
 70
     0
 43
0.0
 10
691.520271480862
 20
314.059296779278
 10
691.376202262051
 20
314.429597134513
 10
691.226299809285
 20
314.78270463704
 10
691.071062921835
 20
315.120768981759
 10
690.910990398973
 20
315.44593986357
 10
690.746381888884
 20
315.760148970069
 10
690.577518192285
 20
316.06423927976
 10
690.404869837245
 20
316.358727423911
 10
690.228907351833
 20
316.64413003379
 10
690.050085060979
 20
316.921053307449
 10
689.868571809167
 20
317.190074120035
 10
689.6844099038
 20
317.45166511846
 10
689.497641652276
 20
317.706298949634
 10
689.308309361997
 20
317.954448260467
 10
689.116455340364
 20
318.196585697869
 10
688.922121894777
 20
318.433183908753
 10
688.725351332638
 20
318.664715540027
  0
ARC
  5
22D
330
1F
100
AcDbEntity
  8
0
  6
AUSGEZOGEN
 62
     9
370
    25
100
AcDbCircle
 10
687.63151258188
 20
310.91643912651
 30
0.0
 40
5.00000000000004
100
AcDbArc
 50
38.9448111073
 51
90.0
  0
ARC
  5
22E
330
1F
100
AcDbEntity
  8
0
  6
AUSGEZOGEN
 62
     9
370
    25
100
AcDbCircle
 10
687.63151258188
 20
288.91643912651
 30
0.0
 40
5.00000000000004
100
AcDbArc
 50
270.0
 51
321.0551888927
  0
LWPOLYLINE
  5
22F
330
1F
100
AcDbEntity
  8
0
  6
AUSGEZOGEN
 62
     9
370
    25
100
AcDbPolyline
 90
       17
 70
     0
 43
0.0
 10
688.725351332638
 20
281.16816271295
 10
688.921985843426
 20
281.399539583233
 10
689.116094682024
 20
281.635870237768
 10
689.307632597485
 20
281.877600322926
 10
689.496554338863
 20
282.125175485077
 10
689.682814655212
 20
282.379041370593
 10
689.866368295585
 20
282.639643625844
 10
690.047170009036
 20
282.907427897202
 10
690.225174544619
 20
283.182839831038
 10
690.400311803463
 20
283.46651981968
 10
690.57243969129
 20
283.759642045785
 10
690.741404964043
 20
284.063452841211
 10
690.907054377666
 20
284.379198537817
 10
691.068659877994
 20
284.707114367313
 10
691.225163401101
 20
285.047710736648
 10
691.37591668829
 20
285.402646740538
 10
691.520271480862
 20
285.773581473699
  0
LWPOLYLINE
  5
230
330
1F
100
AcDbEntity
  8
0
  6
AUSGEZOGEN
 62
     9
370
    25
100
AcDbPolyline
 90
        9
 70
     0
 43
0.0
 10
688.737292120672
 20
280.892550929201
 10
688.764446763332
 20
280.928579958827
 10
688.783448180276
 20
280.965104010561
 10
688.794280521339
 20
281.001650208113
 10
688.796927936354
 20
281.037745675191
 10
688.791374575157
 20
281.072917535504
 10
688.777604587582
 20
281.106692912762
 10
688.755602123464
 20
281.138598930674
 10
688.725351332637
 20
281.16816271295
  0
LWPOLYLINE
  5
231
330
1F
100
AcDbEntity
  8
0
  6
AUSGEZOGEN
 62
     9
370
    25
100
AcDbPolyline
 90
        2
 70
     0
 43
0.0
 10
688.677296441235
 20
280.824444420737
 10
688.737292120672
 20
280.892550929201
  0
LWPOLYLINE
  5
232
330
1F
100
AcDbEntity
  8
0
  6
AUSGEZOGEN
 62
     9
370
    25
100
AcDbPolyline
 90
        9
 70
     0
 43
0.0
 10
688.237059413906
 20
280.625262547215
 10
688.306949251723
 20
280.637537495096
 10
688.373975993089
 20
280.654198068768
 10
688.437448299171
 20
280.674854710522
 10
688.496674831139
 20
280.69911786265
 10
688.55096425016
 20
280.726597967444
 10
688.599625217405
 20
280.756905467195
 10
688.64196639404
 20
280.789650804195
 10
688.677296441235
 20
280.824444420737
  0
ARC
  5
233
330
1F
100
AcDbEntity
  8
0
  6
AUSGEZOGEN
 62
     9
370
    25
100
AcDbCircle
 10
602.97907355748
 20
299.91643912651
 30
0.0
 40
89.66361665854419
100
AcDbArc
 50
350.9246988295
 51
353.8879783651
  0
LINE
  5
234
330
1F
100
AcDbEntity
  8
0
  6
AUSGEZOGEN
 62
     9
370
    25
100
AcDbLine
 10
692.13300870508
 20
290.36971193851
 30
0.0
 11
692.13300870508
 21
266.66643912651
 31
0.0
  0
LINE
  5
235
330
1F
100
AcDbEntity
  8
0
  6
AUSGEZOGEN
 62
     9
370
    25
100
AcDbLine
 10
692.13300870508
 20
333.16643912651
 30
0.0
 11
692.13300870508
 21
309.46316631431
 31
0.0
  0
ARC
  5
236
330
1F
100
AcDbEntity
  8
0
  6
AUSGEZOGEN
 62
     9
370
    25
100
AcDbCircle
 10
602.97907355748
 20
299.91643912651
 30
0.0
 40
89.66361665854426
100
AcDbArc
 50
6.1120216349
 51
9.0753011705
  0
CIRCLE
  5
237
330
1F
100
AcDbEntity
  8
0
  6
AUSGEZOGEN
 62
     9
370
    25
100
AcDbCircle
 10
684.13151258188
 20
289.91643912651
 30
0.0
 40
5.0
  0
CIRCLE
  5
238
330
1F
100
AcDbEntity
  8
0
  6
AUSGEZOGEN
 62
     9
370
    25
100
AcDbCircle
 10
684.13151258188
 20
309.91643912651
 30
0.0
 40
5.0
  0
LWPOLYLINE
  5
239
330
1F
100
AcDbEntity
  8
0
  6
AUSGEZOGEN
 62
     9
370
    25
100
AcDbPolyline
 90
       12
 70
     0
 43
0.0
 10
692.133008705042
 20
309.463166314384
 10
692.16479569771
 20
309.429465774397
 10
692.193479543017
 20
309.392996182086
 10
692.243072599518
 20
309.314819549792
 10
692.284841029148
 20
309.232993735856
 10
692.320874223406
 20
309.148320604551
 10
692.380427650166
 20
308.974018281426
 10
692.427025858298
 20
308.796513086357
 10
692.464461191558
 20
308.617756732957
 10
692.494525323142
 20
308.437741918958
 10
692.518365540988
 20
308.25666451699
 10
692.537129133036
 20
308.074720399685
  0
ARC
  5
23A
330
1F
100
AcDbEntity
  8
0
  6
AUSGEZOGEN
 62
     9
370
    25
100
AcDbCircle
 10
602.97907355748
 20
299.91643912651
 30
0.0
 40
89.92887674046916
100
AcDbArc
 50
4.9856371601
 51
5.2049870092
  0
LWPOLYLINE
  5
23B
330
1F
100
AcDbEntity
  8
0
  6
AUSGEZOGEN
 62
     9
370
    25
100
AcDbPolyline
 90
        9
 70
     0
 43
0.0
 10
692.567705732067
 20
307.731799444064
 10
692.591096465292
 20
307.388435726695
 10
692.602624017305
 20
307.043863096297
 10
692.603960293648
 20
306.698815619283
 10
692.596777199867
 20
306.35402736207
 10
692.582365335498
 20
306.009854234575
 10
692.561132704787
 20
305.666146924334
 10
692.533427320342
 20
305.322881664183
 10
692.49959719477
 20
304.980034686957
  0
ARC
  5
23C
330
1F
100
AcDbEntity
  8
0
  6
AUSGEZOGEN
 62
     9
370
    25
100
AcDbCircle
 10
602.97907355748
 20
299.91643912651
 30
0.0
 40
89.66361665854355
100
AcDbArc
 50
356.7625989389
 51
3.2374010611
  0
LWPOLYLINE
  5
23D
330
1F
100
AcDbEntity
  8
0
  6
AUSGEZOGEN
 62
     9
370
    25
100
AcDbPolyline
 90
        9
 70
     0
 43
0.0
 10
692.49959719477
 20
294.852843566019
 10
692.533393785502
 20
294.510372586013
 10
692.56108645301
 20
294.167383459943
 10
692.582322532238
 20
293.823846250995
 10
692.596749358132
 20
293.479731022356
 10
692.603957459808
 20
293.134918309786
 10
692.602646016223
 20
292.789756988473
 10
692.591125337075
 20
292.44491963074
 10
692.567705732067
 20
292.101078808913
  0
ARC
  5
23E
330
1F
100
AcDbEntity
  8
0
  6
AUSGEZOGEN
 62
     9
370
    25
100
AcDbCircle
 10
602.97907355748
 20
299.91643912651
 30
0.0
 40
89.92887674046916
100
AcDbArc
 50
354.7950129908
 51
355.0143628399
  0
LWPOLYLINE
  5
23F
330
1F
100
AcDbEntity
  8
0
  6
AUSGEZOGEN
 62
     9
370
    25
100
AcDbPolyline
 90
       12
 70
     0
 43
0.0
 10
692.537129133035
 20
291.758157853291
 10
692.518361402495
 20
291.576259673259
 10
692.494440816224
 20
291.39468964117
 10
692.464232176816
 20
291.213949628038
 10
692.426600286861
 20
291.034541504877
 10
692.380025615888
 20
290.857454096287
 10
692.320756447913
 20
290.684257837074
 10
692.284669949331
 20
290.59954258767
 10
692.242720731214
 20
290.517435105986
 10
692.193235041822
 20
290.439517542062
 10
692.164682990772
 20
290.403264598075
 10
692.133008705041
 20
290.369711938594
  0
LINE
  5
240
330
1F
100
AcDbEntity
  8
0
  6
AUSGEZOGEN
 62
     9
370
    25
100
AcDbLine
 10
693.24024362308
 20
330.03134956431
 30
0.0
 11
693.20699982868
 21
330.03018866531
 31
0.0
  0
ARC
  5
241
330
1F
100
AcDbEntity
  8
0
  6
AUSGEZOGEN
 62
     9
370
    25
100
AcDbCircle
 10
602.89062097868
 20
299.91643912651
 30
0.0
 40
95.20444422333271
100
AcDbArc
 50
341.5603181704
 51
18.4396818296
  0
LINE
  5
242
330
1F
100
AcDbEntity
  8
0
  6
AUSGEZOGEN
 62
     9
370
    25
100
AcDbLine
 10
693.20699982868
 20
269.80268958771
 30
0.0
 11
693.24024362308
 21
269.80152868871
 31
0.0
  0
LINE
  5
243
330
1F
100
AcDbEntity
  8
0
  6
AUSGEZOGEN
 62
     9
370
    25
100
AcDbLine
 10
683.62353191808
 20
275.48989727611
 30
0.0
 11
683.62353191808
 21
248.94491072531
 31
0.0
  0
LINE
  5
244
330
1F
100
AcDbEntity
  8
0
  6
AUSGEZOGEN
 62
     9
370
    25
100
AcDbLine
 10
683.62353191808
 20
350.88796752751
 30
0.0
 11
683.62353191808
 21
324.34298097691
 31
0.0
  0
LINE
  5
245
330
1F
100
AcDbEntity
  8
0
  6
AUSGEZOGEN
 62
     9
370
    25
100
AcDbLine
 10
683.73354565788
 20
249.11938598771
 30
0.0
 11
683.73354565788
 21
275.60039044371
 31
0.0
  0
LINE
  5
246
330
1F
100
AcDbEntity
  8
0
  6
AUSGEZOGEN
 62
     9
370
    25
100
AcDbLine
 10
683.73354565788
 20
324.23248780931
 30
0.0
 11
683.73354565788
 21
350.71349226511
 31
0.0
  0
LINE
  5
247
330
1F
100
AcDbEntity
  8
0
  6
AUSGEZOGEN
 62
     9
370
    25
100
AcDbLine
 10
688.67729644128
 20
341.83827074651
 30
0.0
 11
688.67729644128
 21
319.00843383231
 31
0.0
  0
LINE
  5
248
330
1F
100
AcDbEntity
  8
0
  6
AUSGEZOGEN
 62
     9
370
    25
100
AcDbLine
 10
688.67729644128
 20
280.82444442071
 30
0.0
 11
688.67729644128
 21
257.99460750651
 31
0.0
  0
LINE
  5
249
330
1F
100
AcDbEntity
  8
0
  6
AUSGEZOGEN
 62
     9
370
    25
100
AcDbLine
 10
688.73729212068
 20
258.11747597331
 30
0.0
 11
688.73729212068
 21
280.89255092911
 31
0.0
  0
LINE
  5
24A
330
1F
100
AcDbEntity
  8
0
  6
AUSGEZOGEN
 62
     9
370
    25
100
AcDbLine
 10
688.73729212068
 20
318.94032732371
 30
0.0
 11
688.73729212068
 21
341.71540227951
 31
0.0
  0
LINE
  5
24B
330
1F
100
AcDbEntity
  8
0
  6
AUSGEZOGEN
 62
     9
370
    25
100
AcDbLine
 10
692.56770573208
 20
307.73179944411
 30
0.0
 11
692.56770573208
 21
332.71129172411
 31
0.0
  0
LINE
  5
24C
330
1F
100
AcDbEntity
  8
0
  6
AUSGEZOGEN
 62
     9
370
    25
100
AcDbLine
 10
692.53712913308
 20
332.79470023211
 30
0.0
 11
692.53712913308
 21
308.07472039971
 31
0.0
  0
LINE
  5
24D
330
1F
100
AcDbEntity
  8
0
  6
AUSGEZOGEN
 62
     9
370
    25
100
AcDbLine
 10
692.53712913308
 20
291.75815785331
 30
0.0
 11
692.53712913308
 21
267.03817802091
 31
0.0
  0
LINE
  5
24E
330
1F
100
AcDbEntity
  8
0
  6
AUSGEZOGEN
 62
     9
370
    25
100
AcDbLine
 10
692.56770573208
 20
267.12158652891
 30
0.0
 11
692.56770573208
 21
292.10107880891
 31
0.0
  0
ARC
  5
24F
330
1F
100
AcDbEntity
  8
0
  6
AUSGEZOGEN
 62
     9
370
    25
100
AcDbCircle
 10
516.93261156008
 20
309.91643912651
 30
0.0
 40
5.499999999999996
100
AcDbArc
 50
121.6115738815
 51
240.0
  0
ARC
  5
250
330
1F
100
AcDbEntity
  8
0
  6
AUSGEZOGEN
 62
     9
370
    25
100
AcDbCircle
 10
575.63261156008
 20
289.91643912651
 30
0.0
 40
5.499999999999996
100
AcDbArc
 50
301.6115738815
 51
60.0
  0
ARC
  5
251
330
1F
100
AcDbEntity
  8
0
  6
AUSGEZOGEN
 62
     9
370
    25
100
AcDbCircle
 10
575.63261156008
 20
309.91643912651
 30
0.0
 40
5.499999999999996
100
AcDbArc
 50
300.0
 51
58.6172256613
  0
ARC
  5
252
330
1F
100
AcDbEntity
  8
0
  6
AUSGEZOGEN
 62
     9
370
    25
100
AcDbCircle
 10
516.93261156008
 20
289.91643912651
 30
0.0
 40
5.499999999999996
100
AcDbArc
 50
120.0
 51
238.3312976451
  0
LINE
  5
253
330
1F
100
AcDbEntity
  8
0
  6
AUSGEZOGEN
 62
     9
370
    25
100
AcDbLine
 10
578.13261156008
 20
304.91643912651
 30
0.0
 11
578.38261156008
 21
304.91643912651
 31
0.0
  0
LINE
  5
254
330
1F
100
AcDbEntity
  8
0
  6
AUSGEZOGEN
 62
     9
370
    25
100
AcDbLine
 10
578.38261156008
 20
294.91643912651
 30
0.0
 11
578.13261156008
 21
294.91643912651
 31
0.0
  0
LINE
  5
255
330
1F
100
AcDbEntity
  8
0
  6
AUSGEZOGEN
 62
     9
370
    25
100
AcDbLine
 10
514.18261156008
 20
304.91643912651
 30
0.0
 11
514.43261156008
 21
304.91643912651
 31
0.0
  0
LINE
  5
256
330
1F
100
AcDbEntity
  8
0
  6
AUSGEZOGEN
 62
     9
370
    25
100
AcDbLine
 10
514.43261156008
 20
294.91643912651
 30
0.0
 11
514.18261156008
 21
294.91643912651
 31
0.0
  0
LINE
  5
257
330
1F
100
AcDbEntity
  8
0
  6
AUSGEZOGEN
 62
     9
370
    25
100
AcDbLine
 10
544.78261156008
 20
324.81643912651
 30
0.0
 11
547.78261156008
 21
324.81643912651
 31
0.0
  0
LINE
  5
258
330
1F
100
AcDbEntity
  8
0
  6
AUSGEZOGEN
 62
     9
370
    25
100
AcDbLine
 10
544.78261156008
 20
329.81643912651
 30
0.0
 11
547.78261156008
 21
329.81643912651
 31
0.0
  0
LINE
  5
259
330
1F
100
AcDbEntity
  8
0
  6
AUSGEZOGEN
 62
     9
370
    25
100
AcDbLine
 10
547.78261156008
 20
324.81643912651
 30
0.0
 11
547.78261156008
 21
329.81643912651
 31
0.0
  0
LINE
  5
25A
330
1F
100
AcDbEntity
  8
0
  6
AUSGEZOGEN
 62
     9
370
    25
100
AcDbLine
 10
544.78261156008
 20
324.81643912651
 30
0.0
 11
544.78261156008
 21
329.81643912651
 31
0.0
  0
LINE
  5
25B
330
1F
100
AcDbEntity
  8
0
  6
AUSGEZOGEN
 62
     9
370
    25
100
AcDbLine
 10
544.78261156008
 20
275.01643912651
 30
0.0
 11
547.78261156008
 21
275.01643912651
 31
0.0
  0
LINE
  5
25C
330
1F
100
AcDbEntity
  8
0
  6
AUSGEZOGEN
 62
     9
370
    25
100
AcDbLine
 10
547.78261156008
 20
275.01643912651
 30
0.0
 11
547.78261156008
 21
324.81643912651
 31
0.0
  0
LINE
  5
25D
330
1F
100
AcDbEntity
  8
0
  6
AUSGEZOGEN
 62
     9
370
    25
100
AcDbLine
 10
544.78261156008
 20
275.01643912651
 30
0.0
 11
544.78261156008
 21
324.81643912651
 31
0.0
  0
LINE
  5
25E
330
1F
100
AcDbEntity
  8
0
  6
AUSGEZOGEN
 62
     9
370
    25
100
AcDbLine
 10
544.78261156008
 20
270.01643912651
 30
0.0
 11
547.78261156008
 21
270.01643912651
 31
0.0
  0
LINE
  5
25F
330
1F
100
AcDbEntity
  8
0
  6
AUSGEZOGEN
 62
     9
370
    25
100
AcDbLine
 10
547.78261156008
 20
270.01643912651
 30
0.0
 11
547.78261156008
 21
275.01643912651
 31
0.0
  0
LINE
  5
260
330
1F
100
AcDbEntity
  8
0
  6
AUSGEZOGEN
 62
     9
370
    25
100
AcDbLine
 10
544.78261156008
 20
270.01643912651
 30
0.0
 11
544.78261156008
 21
275.01643912651
 31
0.0
  0
LINE
  5
261
330
1F
100
AcDbEntity
  8
0
  6
AUSGEZOGEN
 62
     9
370
    25
100
AcDbLine
 10
547.78261156008
 20
329.81643912651
 30
0.0
 11
547.78261156008
 21
329.96398190071
 31
0.0
  0
LINE
  5
262
330
1F
100
AcDbEntity
  8
0
  6
AUSGEZOGEN
 62
     9
370
    25
100
AcDbLine
 10
544.78261156008
 20
329.81643912651
 30
0.0
 11
544.78261156008
 21
329.96398190071
 31
0.0
  0
LINE
  5
263
330
1F
100
AcDbEntity
  8
0
  6
AUSGEZOGEN
 62
     9
370
    25
100
AcDbLine
 10
547.78261156008
 20
269.86889635231
 30
0.0
 11
547.78261156008
 21
270.01643912651
 31
0.0
  0
LINE
  5
264
330
1F
100
AcDbEntity
  8
0
  6
AUSGEZOGEN
 62
     9
370
    25
100
AcDbLine
 10
544.78261156008
 20
269.86889635231
 30
0.0
 11
544.78261156008
 21
270.01643912651
 31
0.0
  0
LINE
  5
265
330
1F
100
AcDbEntity
  8
0
  6
AUSGEZOGEN
 62
     9
370
    25
100
AcDbLine
 10
578.13261156008
 20
294.85284356611
 30
0.0
 11
578.13261156008
 21
304.98003468691
 31
0.0
  0
ARC
  5
266
330
1F
100
AcDbEntity
  8
0
  6
AUSGEZOGEN
 62
     9
370
    25
100
AcDbCircle
 10
546.28261156008
 20
299.91643912651
 30
0.0
 40
32.25000000000002
100
AcDbArc
 50
189.0334297975
 51
350.9665702025
  0
LINE
  5
267
330
1F
100
AcDbEntity
  8
0
  6
AUSGEZOGEN
 62
     9
370
    25
100
AcDbLine
 10
514.43261156008
 20
304.98003468691
 30
0.0
 11
514.43261156008
 21
294.85284356611
 31
0.0
  0
ARC
  5
268
330
1F
100
AcDbEntity
  8
0
  6
AUSGEZOGEN
 62
     9
370
    25
100
AcDbCircle
 10
546.28261156008
 20
299.91643912651
 30
0.0
 40
32.25000000000002
100
AcDbArc
 50
9.0334297975
 51
170.9665702025
  0
LWPOLYLINE
  5
269
330
1F
100
AcDbEntity
  8
0
  6
AUSGEZOGEN
 62
     9
370
    25
100
AcDbPolyline
 90
       18
 70
     0
 43
0.0
 10
548.74636109888
 20
269.80268958771
 10
548.78390688888
 20
273.24295700751
 10
548.81687819348
 20
276.72150396051
 10
548.84522769528
 20
280.23333832911
 10
548.86891470968
 20
283.77342022471
 10
548.88790524248
 20
287.33666922031
 10
548.90217204068
 20
290.91797164111
 10
548.91169462928
 20
294.51218790391
 10
548.91645934268
 20
298.11415989251
 10
548.91645934268
 20
301.71871836031
 10
548.91169462928
 20
305.32069034911
 10
548.90217204068
 20
308.91490661191
 10
548.88790524248
 20
312.49620903271
 10
548.86891470968
 20
316.05945802831
 10
548.84522769528
 20
319.59953992391
 10
548.81687819348
 20
323.11137429251
 10
548.78390688888
 20
326.58992124531
 10
548.74636109888
 20
330.03018866531
  0
LWPOLYLINE
  5
26A
330
1F
100
AcDbEntity
  8
0
  6
AUSGEZOGEN
 62
     9
370
    25
100
AcDbPolyline
 90
        9
 70
     0
 43
0.0
 10
548.74636109888
 20
330.03018866531
 10
548.13052195168
 20
330.03069654131
 10
547.51459860208
 20
330.03105932631
 10
546.89861911568
 20
330.03127700391
 10
546.28261156008
 20
330.03134956431
 10
545.66660400448
 20
330.03127700391
 10
545.05062451788
 20
330.03105932631
 10
544.43470116848
 20
330.03069654131
 10
543.81886202108
 20
330.03018866531
  0
LWPOLYLINE
  5
26B
330
1F
100
AcDbEntity
  8
0
  6
AUSGEZOGEN
 62
     9
370
    25
100
AcDbPolyline
 90
       18
 70
     0
 43
0.0
 10
543.81886202108
 20
330.03018866531
 10
543.78131623128
 20
326.58992124531
 10
543.74834492648
 20
323.11137429251
 10
543.71999542468
 20
319.59953992391
 10
543.69630841048
 20
316.05945802831
 10
543.67731787748
 20
312.49620903271
 10
543.66305107948
 20
308.91490661191
 10
543.65352849068
 20
305.32069034911
 10
543.64876377748
 20
301.71871836031
 10
543.64876377748
 20
298.11415989251
 10
543.65352849068
 20
294.51218790391
 10
543.66305107948
 20
290.91797164111
 10
543.67731787748
 20
287.33666922031
 10
543.69630841048
 20
283.77342022471
 10
543.71999542468
 20
280.23333832911
 10
543.74834492648
 20
276.72150396051
 10
543.78131623128
 20
273.24295700751
 10
543.81886202108
 20
269.80268958771
  0
LWPOLYLINE
  5
26C
330
1F
100
AcDbEntity
  8
0
  6
AUSGEZOGEN
 62
     9
370
    25
100
AcDbPolyline
 90
        9
 70
     0
 43
0.0
 10
543.81886202108
 20
269.80268958771
 10
544.43470116848
 20
269.80218171171
 10
545.05062451788
 20
269.80181892671
 10
545.66660400448
 20
269.80160124911
 10
546.28261156008
 20
269.80152868871
 10
546.89861911568
 20
269.80160124911
 10
547.51459860208
 20
269.80181892671
 10
548.13052195168
 20
269.80218171171
 10
548.74636109888
 20
269.80268958771
  0
LINE
  5
26D
330
1F
100
AcDbEntity
  8
0
  6
AUSGEZOGEN
 62
     9
370
    25
100
AcDbLine
 10
548.70761156008
 20
305.05311615831
 30
0.0
 11
548.70761156008
 21
312.77976209471
 31
0.0
  0
ELLIPSE
  5
26E
330
1F
100
AcDbEntity
  8
0
  6
AUSGEZOGEN
 62
     9
370
    25
100
AcDbEllipse
 10
548.63896271768
 20
317.91643912651
 30
0.0
 11
0.0
 21
-5.5
 31
0.0
210
0.0
220
0.0
230
1.0
 40
0.0349207695
 41
0.3655108870196783
 42
2.776081766570113
  0
LINE
  5
26F
330
1F
100
AcDbEntity
  8
0
  6
AUSGEZOGEN
 62
     9
370
    25
100
AcDbLine
 10
548.70761156008
 20
327.49905628991
 30
0.0
 11
548.70761156008
 21
323.05311615831
 31
0.0
  0
LWPOLYLINE
  5
270
330
1F
100
AcDbEntity
  8
0
  6
AUSGEZOGEN
 62
     9
370
    25
100
AcDbPolyline
 90
        9
 70
     0
 43
0.0
 10
548.67946614748
 20
329.96329371391
 10
548.68311579828
 20
329.65651154231
 10
548.68672797228
 20
329.34936541171
 10
548.69030262528
 20
329.04185908111
 10
548.69383971368
 20
328.73399631331
 10
548.69733919388
 20
328.42578087631
 10
548.70080102308
 20
328.11721654191
 10
548.70422515908
 20
327.80830708631
 10
548.70761156008
 20
327.49905628991
  0
LINE
  5
271
330
1F
100
AcDbEntity
  8
0
  6
AUSGEZOGEN
 62
     9
370
    25
100
AcDbLine
 10
548.67946614748
 20
329.96329371391
 30
0.0
 11
548.74636109888
 21
330.03018866531
 31
0.0
  0
LINE
  5
272
330
1F
100
AcDbEntity
  8
0
  6
AUSGEZOGEN
 62
     9
370
    25
100
AcDbLine
 10
548.67946614748
 20
269.86958453911
 30
0.0
 11
548.74636109888
 21
269.80268958771
 31
0.0
  0
LWPOLYLINE
  5
273
330
1F
100
AcDbEntity
  8
0
  6
AUSGEZOGEN
 62
     9
370
    25
100
AcDbPolyline
 90
        9
 70
     0
 43
0.0
 10
548.70761156008
 20
272.33382196311
 10
548.70422515908
 20
272.02457116671
 10
548.70080102308
 20
271.71566171111
 10
548.69733919388
 20
271.40709737671
 10
548.69383971368
 20
271.09888193971
 10
548.69030262528
 20
270.79101917191
 10
548.68672797228
 20
270.48351284111
 10
548.68311579828
 20
270.17636671051
 10
548.67946614748
 20
269.86958453911
  0
LINE
  5
274
330
1F
100
AcDbEntity
  8
0
  6
AUSGEZOGEN
 62
     9
370
    25
100
AcDbLine
 10
548.70761156008
 20
272.33382196311
 30
0.0
 11
548.70761156008
 21
276.77976209471
 31
0.0
  0
ELLIPSE
  5
275
330
1F
100
AcDbEntity
  8
0
  6
AUSGEZOGEN
 62
     9
370
    25
100
AcDbEllipse
 10
548.63896271768
 20
281.91643912651
 30
0.0
 11
0.0
 21
-5.5
 31
0.0
210
0.0
220
0.0
230
1.0
 40
0.0349207695
 41
0.3655108870196802
 42
2.776081766570114
  0
LINE
  5
276
330
1F
100
AcDbEntity
  8
0
  6
AUSGEZOGEN
 62
     9
370
    25
100
AcDbLine
 10
548.70761156008
 20
287.05311615831
 30
0.0
 11
548.70761156008
 21
294.77976209471
 31
0.0
  0
ELLIPSE
  5
277
330
1F
100
AcDbEntity
  8
0
  6
AUSGEZOGEN
 62
     9
370
    25
100
AcDbEllipse
 10
548.63896271768
 20
299.91643912651
 30
0.0
 11
0.0
 21
-5.5
 31
0.0
210
0.0
220
0.0
230
1.0
 40
0.0349207695
 41
0.3655108870196811
 42
2.776081766570114
  0
LINE
  5
278
330
1F
100
AcDbEntity
  8
0
  6
AUSGEZOGEN
 62
     9
370
    25
100
AcDbLine
 10
543.88575697268
 20
269.86958453911
 30
0.0
 11
543.81886202108
 21
269.80268958771
 31
0.0
  0
LINE
  5
279
330
1F
100
AcDbEntity
  8
0
  6
AUSGEZOGEN
 62
     9
370
    25
100
AcDbLine
 10
543.88575697268
 20
329.96329371391
 30
0.0
 11
543.81886202108
 21
330.03018866531
 31
0.0
  0
LWPOLYLINE
  5
27A
330
1F
100
AcDbEntity
  8
0
  6
AUSGEZOGEN
 62
     9
370
    25
100
AcDbPolyline
 90
        9
 70
     0
 43
0.0
 10
543.85761156008
 20
327.49905628991
 10
543.86099796088
 20
327.80830708631
 10
543.86442209688
 20
328.11721654191
 10
543.86788392628
 20
328.42578087631
 10
543.87138340648
 20
328.73399631331
 10
543.87492049468
 20
329.04185908111
 10
543.87849514768
 20
329.34936541171
 10
543.88210732168
 20
329.65651154231
 10
543.88575697268
 20
329.96329371391
  0
LINE
  5
27B
330
1F
100
AcDbEntity
  8
0
  6
AUSGEZOGEN
 62
     9
370
    25
100
AcDbLine
 10
543.85761156008
 20
327.49905628991
 30
0.0
 11
543.85761156008
 21
323.05311615831
 31
0.0
  0
ELLIPSE
  5
27C
330
1F
100
AcDbEntity
  8
0
  6
AUSGEZOGEN
 62
     9
370
    25
100
AcDbEllipse
 10
543.92626040248
 20
317.91643912651
 30
0.0
 11
0.0
 21
-5.5
 31
0.0
210
0.0
220
0.0
230
1.0
 40
0.0349207695
 41
3.507103540609823
 42
5.917674420160246
  0
LINE
  5
27D
330
1F
100
AcDbEntity
  8
0
  6
AUSGEZOGEN
 62
     9
370
    25
100
AcDbLine
 10
543.85761156008
 20
312.77976209471
 30
0.0
 11
543.85761156008
 21
305.05311615831
 31
0.0
  0
ELLIPSE
  5
27E
330
1F
100
AcDbEntity
  8
0
  6
AUSGEZOGEN
 62
     9
370
    25
100
AcDbEllipse
 10
543.92626040248
 20
299.91643912651
 30
0.0
 11
0.0
 21
-5.5
 31
0.0
210
0.0
220
0.0
230
1.0
 40
0.0349207695
 41
3.507103540609823
 42
5.917674420160247
  0
LINE
  5
27F
330
1F
100
AcDbEntity
  8
0
  6
AUSGEZOGEN
 62
     9
370
    25
100
AcDbLine
 10
543.85761156008
 20
294.77976209471
 30
0.0
 11
543.85761156008
 21
287.05311615831
 31
0.0
  0
ELLIPSE
  5
280
330
1F
100
AcDbEntity
  8
0
  6
AUSGEZOGEN
 62
     9
370
    25
100
AcDbEllipse
 10
543.92626040248
 20
281.91643912651
 30
0.0
 11
0.0
 21
-5.5
 31
0.0
210
0.0
220
0.0
230
1.0
 40
0.0349207695
 41
3.5071035406101
 42
5.917674420160247
  0
LINE
  5
281
330
1F
100
AcDbEntity
  8
0
  6
AUSGEZOGEN
 62
     9
370
    25
100
AcDbLine
 10
543.85761156008
 20
272.33382196311
 30
0.0
 11
543.85761156008
 21
276.77976209471
 31
0.0
  0
LWPOLYLINE
  5
282
330
1F
100
AcDbEntity
  8
0
  6
AUSGEZOGEN
 62
     9
370
    25
100
AcDbPolyline
 90
        9
 70
     0
 43
0.0
 10
543.88575697268
 20
269.86958453911
 10
543.88210732168
 20
270.17636671051
 10
543.87849514768
 20
270.48351284111
 10
543.87492049468
 20
270.79101917191
 10
543.87138340648
 20
271.09888193971
 10
543.86788392628
 20
271.40709737671
 10
543.86442209688
 20
271.71566171111
 10
543.86099796088
 20
272.02457116671
 10
543.85761156008
 20
272.33382196311
  0
LWPOLYLINE
  5
283
330
1F
100
AcDbEntity
  8
0
  6
AUSGEZOGEN
 62
     9
370
    25
100
AcDbPolyline
 90
        3
 70
     0
 43
0.0
 10
543.88575697268
 20
329.96329371391
 10
544.48487474828
 20
329.96378857751
 10
544.78261156008
 20
329.96398190071
  0
LWPOLYLINE
  5
284
330
1F
100
AcDbEntity
  8
0
  6
AUSGEZOGEN
 62
     9
370
    25
100
AcDbPolyline
 90
        3
 70
     0
 43
0.0
 10
547.78261156008
 20
329.96398190071
 10
548.08034837168
 20
329.96378857751
 10
548.67946614748
 20
329.96329371391
  0
LWPOLYLINE
  5
285
330
1F
100
AcDbEntity
  8
0
  6
AUSGEZOGEN
 62
     9
370
    25
100
AcDbPolyline
 90
        3
 70
     0
 43
0.0
 10
548.67946614748
 20
269.86958453911
 10
548.08034837168
 20
269.86908967551
 10
547.78261156008
 20
269.86889635231
  0
LWPOLYLINE
  5
286
330
1F
100
AcDbEntity
  8
0
  6
AUSGEZOGEN
 62
     9
370
    25
100
AcDbPolyline
 90
        3
 70
     0
 43
0.0
 10
544.78261156008
 20
269.86889635231
 10
544.48487474828
 20
269.86908967551
 10
543.88575697268
 20
269.86958453911
  0
LINE
  5
287
330
1F
100
AcDbEntity
  8
0
  6
AUSGEZOGEN
 62
     9
370
    25
100
AcDbLine
 10
578.132611560017
 20
304.980034686957
 30
0.0
 11
578.132611560017
 21
307.731799444064
 31
0.0
  0
LINE
  5
288
330
1F
100
AcDbEntity
  8
0
  6
AUSGEZOGEN
 62
     9
370
    25
100
AcDbLine
 10
514.432611560017
 20
307.731799444064
 30
0.0
 11
514.432611560017
 21
304.980034686957
 31
0.0
  0
ARC
  5
289
330
1F
100
AcDbEntity
  8
0
  6
AUSGEZOGEN
 62
     9
370
    25
100
AcDbCircle
 10
546.28261156008
 20
299.91643912651
 30
0.0
 40
32.7948525975272
100
AcDbArc
 50
13.786850809
 51
166.213149191
  0
LINE
  5
28A
330
1F
100
AcDbEntity
  8
0
  6
AUSGEZOGEN
 62
     9
370
    25
100
AcDbLine
 10
514.432611560017
 20
294.852843566019
 30
0.0
 11
514.432611560017
 21
292.101078808913
 31
0.0
  0
LINE
  5
28B
330
1F
100
AcDbEntity
  8
0
  6
AUSGEZOGEN
 62
     9
370
    25
100
AcDbLine
 10
578.132611560017
 20
292.101078808913
 30
0.0
 11
578.132611560017
 21
294.852843566019
 31
0.0
  0
ARC
  5
28C
330
1F
100
AcDbEntity
  8
0
  6
AUSGEZOGEN
 62
     9
370
    25
100
AcDbCircle
 10
546.28261156008
 20
299.91643912651
 30
0.0
 40
32.79485259752718
100
AcDbArc
 50
193.786850809
 51
346.213149191
  0
ARC
  5
28D
330
1F
100
AcDbEntity
  8
0
  6
AUSGEZOGEN
 62
     9
370
    25
100
AcDbCircle
 10
546.28261156008
 20
299.91643912651
 30
0.0
 40
32.87826110566976
100
AcDbArc
 50
194.3672395758
 51
345.6327604242
  0
ARC
  5
28E
330
1F
100
AcDbEntity
  8
0
  6
AUSGEZOGEN
 62
     9
370
    25
100
AcDbCircle
 10
546.28261156008
 20
299.91643912651
 30
0.0
 40
33.25000000000014
100
AcDbArc
 50
196.6855898881
 51
343.3144101119
  0
LINE
  5
28F
330
1F
100
AcDbEntity
  8
0
  6
AUSGEZOGEN
 62
     9
370
    25
100
AcDbLine
 10
514.432611560017
 20
291.758157853291
 30
0.0
 11
514.432611560017
 21
290.369711938594
 31
0.0
  0
LINE
  5
290
330
1F
100
AcDbEntity
  8
0
  6
AUSGEZOGEN
 62
     9
370
    25
100
AcDbLine
 10
578.132611560017
 20
290.369711938593
 30
0.0
 11
578.132611560017
 21
291.758157853291
 31
0.0
  0
ARC
  5
291
330
1F
100
AcDbEntity
  8
0
  6
AUSGEZOGEN
 62
     9
370
    25
100
AcDbCircle
 10
546.28261156008
 20
299.91643912651
 30
0.0
 40
32.87826110566976
100
AcDbArc
 50
14.3672395758
 51
165.6327604242
  0
ARC
  5
292
330
1F
100
AcDbEntity
  8
0
  6
AUSGEZOGEN
 62
     9
370
    25
100
AcDbCircle
 10
546.28261156008
 20
299.91643912651
 30
0.0
 40
33.25000000000014
100
AcDbArc
 50
16.6855898881
 51
163.3144101119
  0
LINE
  5
293
330
1F
100
AcDbEntity
  8
0
  6
AUSGEZOGEN
 62
     9
370
    25
100
AcDbLine
 10
514.432611560017
 20
309.463166314384
 30
0.0
 11
514.432611560017
 21
308.074720399685
 31
0.0
  0
LINE
  5
294
330
1F
100
AcDbEntity
  8
0
  6
AUSGEZOGEN
 62
     9
370
    25
100
AcDbLine
 10
578.132611560017
 20
308.074720399685
 30
0.0
 11
578.132611560017
 21
309.463166314383
 31
0.0
  0
LINE
  5
295
330
1F
100
AcDbEntity
  8
0
  6
AUSGEZOGEN
 62
     9
370
    25
100
AcDbLine
 10
514.43261156008
 20
308.07472039971
 30
0.0
 11
514.43261156008
 21
307.73179944411
 31
0.0
  0
LINE
  5
296
330
1F
100
AcDbEntity
  8
0
  6
AUSGEZOGEN
 62
     9
370
    25
100
AcDbLine
 10
578.13261156008
 20
307.73179944411
 30
0.0
 11
578.13261156008
 21
308.07472039971
 31
0.0
  0
LINE
  5
297
330
1F
100
AcDbEntity
  8
0
  6
AUSGEZOGEN
 62
     9
370
    25
100
AcDbLine
 10
514.43261156008
 20
292.10107880891
 30
0.0
 11
514.43261156008
 21
291.75815785331
 31
0.0
  0
LINE
  5
298
330
1F
100
AcDbEntity
  8
0
  6
AUSGEZOGEN
 62
     9
370
    25
100
AcDbLine
 10
578.13261156008
 20
291.75815785331
 30
0.0
 11
578.13261156008
 21
292.10107880891
 31
0.0
  0
LWPOLYLINE
  5
299
330
1F
100
AcDbEntity
  8
0
  6
AUSGEZOGEN
 62
     9
370
    25
100
AcDbPolyline
 90
       21
 70
     0
 43
0.0
 10
583.025837214845
 20
318.664715540027
 10
582.682163316892
 20
318.433338669744
 10
582.341209458895
 20
318.197008015209
 10
582.00332318984
 20
317.955277930051
 10
581.668852058715
 20
317.7077027679
 10
581.33814361451
 20
317.453836882385
 10
581.011545406211
 20
317.193234627133
 10
580.689404982808
 20
316.925450355775
 10
580.372069893288
 20
316.650038421939
 10
580.060036696657
 20
316.366358433296
 10
579.754208184154
 20
316.073236207192
 10
579.455541253116
 20
315.769425411766
 10
579.164992800878
 20
315.45367971516
 10
579.02329451611
 20
315.291203174472
 10
578.88458010589
 20
315.125763885664
 10
578.749164865751
 20
314.957154461896
 10
578.61736409123
 20
314.785167516329
 10
578.489493077861
 20
314.609595662123
 10
578.365867121179
 20
314.430231512439
 10
578.246801516719
 20
314.246867680437
 10
578.132611560017
 20
314.059296779278
  0
LWPOLYLINE
  5
29A
330
1F
100
AcDbEntity
  8
0
  6
AUSGEZOGEN
 62
     9
370
    25
100
AcDbPolyline
 90
        5
 70
     0
 43
0.0
 10
583.501491158034
 20
318.940327323776
 10
583.387992276628
 20
318.867774242416
 10
583.266671590553
 20
318.795132577786
 10
583.143847202421
 20
318.726185340215
 10
583.025837214845
 20
318.664715540027
  0
LWPOLYLINE
  5
29B
330
1F
100
AcDbEntity
  8
0
  6
AUSGEZOGEN
 62
     9
370
    25
100
AcDbPolyline
 90
        2
 70
     0
 43
0.0
 10
583.604665422693
 20
319.00843383224
 10
583.501491158034
 20
318.940327323776
  0
LWPOLYLINE
  5
29C
330
1F
100
AcDbEntity
  8
0
  6
AUSGEZOGEN
 62
     9
370
    25
100
AcDbPolyline
 90
        4
 70
     0
 43
0.0
 10
583.871346656948
 20
319.207615705762
 10
583.840785532023
 20
319.178680184209
 10
583.784072724409
 20
319.133760390327
 10
583.604665422693
 20
319.00843383224
  0
LWPOLYLINE
  5
29D
330
1F
100
AcDbEntity
  8
0
  6
AUSGEZOGEN
 62
     9
370
    25
100
AcDbPolyline
 90
        3
 70
     0
 43
0.0
 10
584.903529689084
 20
319.825630530966
 10
584.385910797955
 20
319.521384279528
 10
583.871346656948
 20
319.207615705762
  0
LWPOLYLINE
  5
29E
330
1F
100
AcDbEntity
  8
0
  6
AUSGEZOGEN
 62
     9
370
    25
100
AcDbPolyline
 90
       21
 70
     0
 43
0.0
 10
514.432611560017
 20
314.059296779278
 10
514.318529857331
 20
314.246730419415
 10
514.199844192603
 20
314.429597134513
 10
514.076841226687
 20
314.608165636433
 10
513.949807620435
 20
314.78270463704
 10
513.8190300347
 20
314.953482848194
 10
513.684795130336
 20
315.120768981759
 10
513.547389568196
 20
315.284831749597
 10
513.407100009133
 20
315.44593986357
 10
513.118438360015
 20
315.760148970069
 10
512.819999935307
 20
316.06423927976
 10
512.513288495527
 20
316.358727423911
 10
512.199807801198
 20
316.64413003379
 10
511.881019655225
 20
316.921053307449
 10
511.557612207368
 20
317.190074120035
 10
511.229928738422
 20
317.45166511846
 10
510.898312529182
 20
317.706298949634
 10
510.563106860443
 20
317.954448260467
 10
510.224655013001
 20
318.196585697869
 10
509.883300267651
 20
318.433183908753
 10
509.539385905189
 20
318.664715540027
  0
ARC
  5
29F
330
1F
100
AcDbEntity
  8
0
  6
AUSGEZOGEN
 62
     9
370
    25
100
AcDbCircle
 10
546.28261156008
 20
299.91643912651
 30
0.0
 40
41.25000000000034
100
AcDbArc
 50
27.0330040719
 51
152.9669959281
  0
LINE
  5
2A0
330
1F
100
AcDbEntity
  8
0
  6
AUSGEZOGEN
 62
     9
370
    25
100
AcDbLine
 10
514.43261156008
 20
314.05929677931
 30
0.0
 11
514.43261156008
 21
309.46316631431
 31
0.0
  0
LINE
  5
2A1
330
1F
100
AcDbEntity
  8
0
  6
AUSGEZOGEN
 62
     9
370
    25
100
AcDbLine
 10
578.13261156008
 20
309.46316631431
 30
0.0
 11
578.13261156008
 21
314.05929677931
 31
0.0
  0
LWPOLYLINE
  5
2A2
330
1F
100
AcDbEntity
  8
0
  6
AUSGEZOGEN
 62
     9
370
    25
100
AcDbPolyline
 90
       21
 70
     0
 43
0.0
 10
509.539385905189
 20
281.16816271295
 10
509.883059803142
 20
281.399539583233
 10
510.224013661139
 20
281.635870237768
 10
510.561899930194
 20
281.877600322926
 10
510.896371061319
 20
282.125175485077
 10
511.227079505524
 20
282.379041370593
 10
511.553677713823
 20
282.639643625844
 10
511.875818137226
 20
282.907427897202
 10
512.193153226747
 20
283.182839831038
 10
512.505186423377
 20
283.46651981968
 10
512.81101493588
 20
283.759642045785
 10
513.109681866918
 20
284.063452841211
 10
513.400230319156
 20
284.379198537817
 10
513.541928603924
 20
284.541675078505
 10
513.680643014144
 20
284.707114367313
 10
513.816058254283
 20
284.875723791081
 10
513.947859028804
 20
285.047710736648
 10
514.075730042173
 20
285.223282590854
 10
514.199355998855
 20
285.402646740538
 10
514.318421603315
 20
285.58601057254
 10
514.432611560017
 20
285.773581473699
  0
LWPOLYLINE
  5
2A3
330
1F
100
AcDbEntity
  8
0
  6
AUSGEZOGEN
 62
     9
370
    25
100
AcDbPolyline
 90
       21
 70
     0
 43
0.0
 10
578.132611560017
 20
285.773581473699
 10
578.246693262703
 20
285.586147833562
 10
578.365378927431
 20
285.403281118464
 10
578.488381893347
 20
285.224712616543
 10
578.615415499599
 20
285.050173615937
 10
578.746193085334
 20
284.879395404783
 10
578.880427989698
 20
284.712109271218
 10
579.017833551838
 20
284.54804650338
 10
579.158123110901
 20
284.386938389407
 10
579.446784760019
 20
284.072729282908
 10
579.745223184727
 20
283.768638973217
 10
580.051934624507
 20
283.474150829066
 10
580.365415318836
 20
283.188748219187
 10
580.684203464808
 20
282.911824945528
 10
581.007610912666
 20
282.642804132942
 10
581.335294381612
 20
282.381213134517
 10
581.666910590853
 20
282.126579303343
 10
582.002116259592
 20
281.87842999251
 10
582.340568107034
 20
281.636292555107
 10
582.681922852383
 20
281.399694344224
 10
583.025837214845
 20
281.16816271295
  0
ARC
  5
2A4
330
1F
100
AcDbEntity
  8
0
  6
AUSGEZOGEN
 62
     9
370
    25
100
AcDbCircle
 10
546.28261156008
 20
299.91643912651
 30
0.0
 40
41.25000000000034
100
AcDbArc
 50
207.0330040719
 51
332.9669959281
  0
LINE
  5
2A5
330
1F
100
AcDbEntity
  8
0
  6
AUSGEZOGEN
 62
     9
370
    25
100
AcDbLine
 10
514.43261156008
 20
290.36971193851
 30
0.0
 11
514.43261156008
 21
285.77358147371
 31
0.0
  0
LINE
  5
2A6
330
1F
100
AcDbEntity
  8
0
  6
AUSGEZOGEN
 62
     9
370
    25
100
AcDbLine
 10
578.13261156008
 20
285.77358147371
 30
0.0
 11
578.13261156008
 21
290.36971193851
 31
0.0
  0
LWPOLYLINE
  5
2A7
330
1F
100
AcDbEntity
  8
0
  6
AUSGEZOGEN
 62
     9
370
    25
100
AcDbPolyline
 90
        5
 70
     0
 43
0.0
 10
509.063731962
 20
280.892550929201
 10
509.177230843406
 20
280.965104010561
 10
509.298551529482
 20
281.037745675191
 10
509.421375917614
 20
281.106692912762
 10
509.539385905189
 20
281.16816271295
  0
LWPOLYLINE
  5
2A8
330
1F
100
AcDbEntity
  8
0
  6
AUSGEZOGEN
 62
     9
370
    25
100
AcDbPolyline
 90
        2
 70
     0
 43
0.0
 10
508.960557697341
 20
280.824444420737
 10
509.063731962
 20
280.892550929201
  0
LWPOLYLINE
  5
2A9
330
1F
100
AcDbEntity
  8
0
  6
AUSGEZOGEN
 62
     9
370
    25
100
AcDbPolyline
 90
        4
 70
     0
 43
0.0
 10
508.693876463086
 20
280.625262547215
 10
508.724437588011
 20
280.654198068768
 10
508.781150395625
 20
280.69911786265
 10
508.960557697341
 20
280.824444420737
  0
LWPOLYLINE
  5
2AA
330
1F
100
AcDbEntity
  8
0
  6
AUSGEZOGEN
 62
     9
370
    25
100
AcDbPolyline
 90
        3
 70
     0
 43
0.0
 10
507.66169343095
 20
280.007247722011
 10
508.179312322079
 20
280.311493973449
 10
508.693876463086
 20
280.625262547214
  0
LWPOLYLINE
  5
2AB
330
1F
100
AcDbEntity
  8
0
  6
AUSGEZOGEN
 62
     9
370
    25
100
AcDbPolyline
 90
        4
 70
     0
 43
0.0
 10
583.604665422693
 20
280.824444420737
 10
583.784073102675
 20
280.699117654814
 10
583.84078561851
 20
280.654198057839
 10
583.871346656958
 20
280.625262547208
  0
LWPOLYLINE
  5
2AC
330
1F
100
AcDbEntity
  8
0
  6
AUSGEZOGEN
 62
     9
370
    25
100
AcDbPolyline
 90
        2
 70
     0
 43
0.0
 10
583.501491158034
 20
280.892550929201
 10
583.604665422693
 20
280.824444420737
  0
LWPOLYLINE
  5
2AD
330
1F
100
AcDbEntity
  8
0
  6
AUSGEZOGEN
 62
     9
370
    25
100
AcDbPolyline
 90
        5
 70
     0
 43
0.0
 10
583.025837214845
 20
281.16816271295
 10
583.143841921223
 20
281.106696312267
 10
583.266658596632
 20
281.037754198573
 10
583.387978066944
 20
280.965113396129
 10
583.501491158034
 20
280.892550929201
  0
LWPOLYLINE
  5
2AE
330
1F
100
AcDbEntity
  8
0
  6
AUSGEZOGEN
 62
     9
370
    25
100
AcDbPolyline
 90
        3
 70
     0
 43
0.0
 10
583.871346656948
 20
280.625262547214
 10
584.385910797955
 20
280.311493973449
 10
584.903529689084
 20
280.007247722011
  0
LWPOLYLINE
  5
2AF
330
1F
100
AcDbEntity
  8
0
  6
AUSGEZOGEN
 62
     9
370
    25
100
AcDbPolyline
 90
        4
 70
     0
 43
0.0
 10
508.960557697341
 20
319.00843383224
 10
508.781150017359
 20
319.133760598163
 10
508.724437501524
 20
319.178680195138
 10
508.693876463077
 20
319.207615705768
  0
LWPOLYLINE
  5
2B0
330
1F
100
AcDbEntity
  8
0
  6
AUSGEZOGEN
 62
     9
370
    25
100
AcDbPolyline
 90
        2
 70
     0
 43
0.0
 10
509.063731962
 20
318.940327323776
 10
508.960557697341
 20
319.00843383224
  0
LWPOLYLINE
  5
2B1
330
1F
100
AcDbEntity
  8
0
  6
AUSGEZOGEN
 62
     9
370
    25
100
AcDbPolyline
 90
        5
 70
     0
 43
0.0
 10
509.539385905189
 20
318.664715540027
 10
509.421381198811
 20
318.726181940709
 10
509.298564523402
 20
318.795124054404
 10
509.17724505309
 20
318.867764856847
 10
509.063731962
 20
318.940327323776
  0
LWPOLYLINE
  5
2B2
330
1F
100
AcDbEntity
  8
0
  6
AUSGEZOGEN
 62
     9
370
    25
100
AcDbPolyline
 90
        3
 70
     0
 43
0.0
 10
508.693876463086
 20
319.207615705762
 10
508.179312322079
 20
319.521384279528
 10
507.66169343095
 20
319.825630530966
  0
LINE
  5
2B3
330
1F
100
AcDbEntity
  8
0
  6
AUSGEZOGEN
 62
     9
370
    25
100
AcDbLine
 10
578.38261156008
 20
314.48470779231
 30
0.0
 11
578.38261156008
 21
304.91643912651
 31
0.0
  0
LINE
  5
2B4
330
1F
100
AcDbEntity
  8
0
  6
AUSGEZOGEN
 62
     9
370
    25
100
AcDbLine
 10
578.38261156008
 20
294.91643912651
 30
0.0
 11
578.38261156008
 21
285.36822251031
 31
0.0
  0
LINE
  5
2B5
330
1F
100
AcDbEntity
  8
0
  6
AUSGEZOGEN
 62
     9
370
    25
100
AcDbLine
 10
514.18261156008
 20
304.91643912651
 30
0.0
 11
514.18261156008
 21
314.46465574271
 31
0.0
  0
LINE
  5
2B6
330
1F
100
AcDbEntity
  8
0
  6
AUSGEZOGEN
 62
     9
370
    25
100
AcDbLine
 10
514.18261156008
 20
285.37957485751
 30
0.0
 11
514.18261156008
 21
294.91643912651
 31
0.0
  0
ARC
  5
2B7
330
1F
100
AcDbEntity
  8
0
  6
AUSGEZOGEN
 62
     9
370
    25
100
AcDbCircle
 10
546.28261156008
 20
299.91643912651
 30
0.0
 40
41.79896315310444
100
AcDbArc
 50
27.0731852009
 51
152.9268147991
  0
ARC
  5
2B8
330
1F
100
AcDbEntity
  8
0
  6
AUSGEZOGEN
 62
     9
370
    25
100
AcDbCircle
 10
546.28261156008
 20
299.91643912651
 30
0.0
 40
41.79896315310442
100
AcDbArc
 50
207.0731852009
 51
332.9268147991
  0
ARC
  5
2B9
330
1F
100
AcDbEntity
  8
0
  6
AUSGEZOGEN
 62
     9
370
    25
100
AcDbCircle
 10
546.28261156008
 20
299.91643912651
 30
0.0
 40
41.92183161996776
100
AcDbArc
 50
27.0918906342
 51
152.9081093658
  0
ARC
  5
2BA
330
1F
100
AcDbEntity
  8
0
  6
AUSGEZOGEN
 62
     9
370
    25
100
AcDbCircle
 10
546.28261156008
 20
299.91643912651
 30
0.0
 40
41.92183161996774
100
AcDbArc
 50
207.0918906342
 51
332.9081093658
  0
ARC
  5
2BB
330
1F
100
AcDbEntity
  8
0
  6
AUSGEZOGEN
 62
     9
370
    25
100
AcDbCircle
 10
546.28261156008
 20
299.91643912651
 30
0.0
 40
42.24999999999962
100
AcDbArc
 50
27.1676640451
 51
152.8323359549
  0
ARC
  5
2BC
330
1F
100
AcDbEntity
  8
0
  6
AUSGEZOGEN
 62
     9
370
    25
100
AcDbCircle
 10
546.28261156008
 20
299.91643912651
 30
0.0
 40
42.2499999999996
100
AcDbArc
 50
207.1676640451
 51
332.8323359549
  0
LINE
  5
2BD
330
1F
100
AcDbEntity
  8
0
  6
AUSGEZOGEN
 62
     9
370
    25
100
AcDbLine
 10
586.55082840068
 20
320.77669888551
 30
0.0
 11
590.44735047148
 21
323.88596846851
 31
0.0
  0
LINE
  5
2BE
330
1F
100
AcDbEntity
  8
0
  6
AUSGEZOGEN
 62
     9
370
    25
100
AcDbLine
 10
586.55082840068
 20
320.77669888551
 30
0.0
 11
584.90352968908
 21
319.82563053091
 31
0.0
  0
LINE
  5
2BF
330
1F
100
AcDbEntity
  8
0
  6
AUSGEZOGEN
 62
     9
370
    25
100
AcDbLine
 10
507.66169343088
 20
319.82563053091
 30
0.0
 11
506.01439471948
 21
320.77669888551
 31
0.0
  0
LINE
  5
2C0
330
1F
100
AcDbEntity
  8
0
  6
AUSGEZOGEN
 62
     9
370
    25
100
AcDbLine
 10
502.11787264848
 20
323.88596846851
 30
0.0
 11
506.01439471948
 21
320.77669888551
 31
0.0
  0
ARC
  5
2C1
330
1F
100
AcDbEntity
  8
0
  6
AUSGEZOGEN
 62
     9
370
    25
100
AcDbCircle
 10
546.28261156008
 20
299.91643912651
 30
0.0
 40
50.2500000000001
100
AcDbArc
 50
28.4900122932
 51
151.5099877068
  0
LINE
  5
2C2
330
1F
100
AcDbEntity
  8
0
  6
AUSGEZOGEN
 62
     9
370
    25
100
AcDbLine
 10
506.01439471948
 20
279.05617936751
 30
0.0
 11
502.11787264848
 21
275.94690978451
 31
0.0
  0
LINE
  5
2C3
330
1F
100
AcDbEntity
  8
0
  6
AUSGEZOGEN
 62
     9
370
    25
100
AcDbLine
 10
506.01439471948
 20
279.05617936751
 30
0.0
 11
507.66169343088
 21
280.00724772211
 31
0.0
  0
LINE
  5
2C4
330
1F
100
AcDbEntity
  8
0
  6
AUSGEZOGEN
 62
     9
370
    25
100
AcDbLine
 10
584.90352968908
 20
280.00724772211
 30
0.0
 11
586.55082840068
 21
279.05617936751
 31
0.0
  0
LINE
  5
2C5
330
1F
100
AcDbEntity
  8
0
  6
AUSGEZOGEN
 62
     9
370
    25
100
AcDbLine
 10
590.44735047148
 20
275.94690978451
 30
0.0
 11
586.55082840068
 21
279.05617936751
 31
0.0
  0
ARC
  5
2C6
330
1F
100
AcDbEntity
  8
0
  6
AUSGEZOGEN
 62
     9
370
    25
100
AcDbCircle
 10
546.28261156008
 20
299.91643912651
 30
0.0
 40
50.25000000000002
100
AcDbArc
 50
208.4900122932
 51
331.5099877068
  0
ARC
  5
2C7
330
1F
100
AcDbEntity
  8
0
  6
AUSGEZOGEN
 62
     9
370
    25
100
AcDbCircle
 10
546.28261156008
 20
299.91643912651
 30
0.0
 40
50.79705313872014
100
AcDbArc
 50
28.5998881523
 51
151.4001118477
  0
LINE
  5
2C8
330
1F
100
AcDbEntity
  8
0
  6
AUSGEZOGEN
 62
     9
370
    25
100
AcDbLine
 10
501.683616234608
 20
324.232487809244
 30
0.0
 11
502.117872648524
 21
323.885968468543
 31
0.0
  0
LINE
  5
2C9
330
1F
100
AcDbEntity
  8
0
  6
AUSGEZOGEN
 62
     9
370
    25
100
AcDbLine
 10
590.44735047151
 20
323.885968468543
 30
0.0
 11
590.881606885426
 21
324.232487809244
 31
0.0
  0
ARC
  5
2CA
330
1F
100
AcDbEntity
  8
0
  6
AUSGEZOGEN
 62
     9
370
    25
100
AcDbCircle
 10
546.28261156008
 20
299.91643912651
 30
0.0
 40
50.79705313872012
100
AcDbArc
 50
208.5998881523
 51
331.4001118477
  0
LINE
  5
2CB
330
1F
100
AcDbEntity
  8
0
  6
AUSGEZOGEN
 62
     9
370
    25
100
AcDbLine
 10
502.117872648524
 20
275.946909784433
 30
0.0
 11
501.683616234608
 21
275.600390443733
 31
0.0
  0
LINE
  5
2CC
330
1F
100
AcDbEntity
  8
0
  6
AUSGEZOGEN
 62
     9
370
    25
100
AcDbLine
 10
590.881606885426
 20
275.600390443733
 30
0.0
 11
590.44735047151
 21
275.946909784433
 31
0.0
  0
ARC
  5
2CD
330
1F
100
AcDbEntity
  8
0
  6
AUSGEZOGEN
 62
     9
370
    25
100
AcDbCircle
 10
546.28261156008
 20
299.91643912651
 30
0.0
 40
50.97152840108872
100
AcDbArc
 50
208.6344278393
 51
331.3655721607
  0
LINE
  5
2CE
330
1F
100
AcDbEntity
  8
0
  6
AUSGEZOGEN
 62
     9
370
    25
100
AcDbLine
 10
501.68361623468
 20
275.60039044371
 30
0.0
 11
501.54514671488
 21
275.48989727611
 31
0.0
  0
LINE
  5
2CF
330
1F
100
AcDbEntity
  8
0
  6
AUSGEZOGEN
 62
     9
370
    25
100
AcDbLine
 10
591.02007640528
 20
275.48989727611
 30
0.0
 11
590.88160688548
 21
275.60039044371
 31
0.0
  0
ARC
  5
2D0
330
1F
100
AcDbEntity
  8
0
  6
AUSGEZOGEN
 62
     9
370
    25
100
AcDbCircle
 10
546.28261156008
 20
299.91643912651
 30
0.0
 40
50.97152840108874
100
AcDbArc
 50
28.6344278393
 51
151.3655721607
  0
LINE
  5
2D1
330
1F
100
AcDbEntity
  8
0
  6
AUSGEZOGEN
 62
     9
370
    25
100
AcDbLine
 10
501.54514671488
 20
324.34298097691
 30
0.0
 11
501.68361623468
 21
324.23248780931
 31
0.0
  0
LINE
  5
2D2
330
1F
100
AcDbEntity
  8
0
  6
AUSGEZOGEN
 62
     9
370
    25
100
AcDbLine
 10
590.88160688548
 20
324.23248780931
 30
0.0
 11
591.02007640528
 21
324.34298097691
 31
0.0
  0
LINE
  5
2D3
330
1F
100
AcDbEntity
  8
0
  6
AUSGEZOGEN
 62
     9
370
    25
100
AcDbLine
 10
578.67926972728
 20
285.33737000591
 30
0.0
 11
583.79097553228
 21
281.25843215111
 31
0.0
  0
LINE
  5
2D4
330
1F
100
AcDbEntity
  8
0
  6
AUSGEZOGEN
 62
     9
370
    25
100
AcDbLine
 10
583.79097553228
 20
281.25843215111
 30
0.0
 11
586.55082840068
 21
279.05617936751
 31
0.0
  0
LINE
  5
2D5
330
1F
100
AcDbEntity
  8
0
  6
AUSGEZOGEN
 62
     9
370
    25
100
AcDbLine
 10
583.79097553228
 20
318.57444610191
 30
0.0
 11
578.67926972728
 21
314.49550824711
 31
0.0
  0
LINE
  5
2D6
330
1F
100
AcDbEntity
  8
0
  6
AUSGEZOGEN
 62
     9
370
    25
100
AcDbLine
 10
586.55082840068
 20
320.77669888551
 30
0.0
 11
583.79097553228
 21
318.57444610191
 31
0.0
  0
LINE
  5
2D7
330
1F
100
AcDbEntity
  8
0
  6
AUSGEZOGEN
 62
     9
370
    25
100
AcDbLine
 10
513.88595339268
 20
314.49550824711
 30
0.0
 11
508.77424758768
 21
318.57444610191
 31
0.0
  0
LINE
  5
2D8
330
1F
100
AcDbEntity
  8
0
  6
AUSGEZOGEN
 62
     9
370
    25
100
AcDbLine
 10
508.77424758768
 20
318.57444610191
 30
0.0
 11
506.01439471948
 21
320.77669888551
 31
0.0
  0
LINE
  5
2D9
330
1F
100
AcDbEntity
  8
0
  6
AUSGEZOGEN
 62
     9
370
    25
100
AcDbLine
 10
508.77424758768
 20
281.25843215111
 30
0.0
 11
513.88595339268
 21
285.33737000591
 31
0.0
  0
LINE
  5
2DA
330
1F
100
AcDbEntity
  8
0
  6
AUSGEZOGEN
 62
     9
370
    25
100
AcDbLine
 10
506.01439471948
 20
279.05617936751
 30
0.0
 11
508.77424758768
 21
281.25843215111
 31
0.0
  0
ARC
  5
2DB
330
1F
100
AcDbEntity
  8
0
  6
AUSGEZOGEN
 62
     9
370
    25
100
AcDbCircle
 10
546.28261156008
 20
299.91643912651
 30
0.0
 40
51.24999999999936
100
AcDbArc
 50
208.6890603079
 51
331.3109396921
  0
LINE
  5
2DC
330
1F
100
AcDbEntity
  8
0
  6
AUSGEZOGEN
 62
     9
370
    25
100
AcDbLine
 10
501.545146714798
 20
275.489897276162
 30
0.0
 11
501.32417233482
 21
275.313568512768
 31
0.0
  0
LINE
  5
2DD
330
1F
100
AcDbEntity
  8
0
  6
AUSGEZOGEN
 62
     9
370
    25
100
AcDbLine
 10
591.241050785204
 20
275.313568512776
 30
0.0
 11
591.020076405236
 21
275.489897276162
 31
0.0
  0
ARC
  5
2DE
330
1F
100
AcDbEntity
  8
0
  6
AUSGEZOGEN
 62
     9
370
    25
100
AcDbCircle
 10
546.28261156008
 20
299.91643912651
 30
0.0
 40
51.24999999999936
100
AcDbArc
 50
28.6890603079
 51
151.3109396921
  0
LINE
  5
2DF
330
1F
100
AcDbEntity
  8
0
  6
AUSGEZOGEN
 62
     9
370
    25
100
AcDbLine
 10
501.32417233483
 20
324.519309740201
 30
0.0
 11
501.545146714798
 21
324.342980976815
 31
0.0
  0
LINE
  5
2E0
330
1F
100
AcDbEntity
  8
0
  6
AUSGEZOGEN
 62
     9
370
    25
100
AcDbLine
 10
591.020076405236
 20
324.342980976815
 30
0.0
 11
591.241050785214
 21
324.519309740209
 31
0.0
  0
CIRCLE
  5
2E1
330
1F
100
AcDbEntity
  8
0
  6
AUSGEZOGEN
 62
     9
370
    25
100
AcDbCircle
 10
546.28261156008
 20
299.91643912651
 30
0.0
 40
59.00000000000006
  0
LWPOLYLINE
  5
2E2
330
1F
100
AcDbEntity
  8
0
  6
AUSGEZOGEN
 62
     9
370
    25
100
AcDbPolyline
 90
       27
 70
     0
 43
0.0
 10
597.945081870106
 20
272.461457738055
 10
597.875271537503
 20
272.34950985609
 10
597.796649594726
 20
272.245958726312
 10
597.709009399205
 20
272.150629627481
 10
597.613882634357
 20
272.064901901885
 10
597.513275773925
 20
271.990157341228
 10
597.408297175969
 20
271.926071095184
 10
597.300272212368
 20
271.872353068083
 10
597.190526255005
 20
271.828713164254
 10
597.079847204667
 20
271.794519627739
 10
596.968526273961
 20
271.768920283794
 10
596.857143802504
 20
271.751294408565
 10
596.746280129911
 20
271.741021278199
 10
596.636541948077
 20
271.737446215295
 10
596.528079709655
 20
271.740019206885
 10
596.4207893954
 20
271.748276525761
 10
596.31456698607
 20
271.761754444717
 10
596.209261156072
 20
271.780099394506
 10
596.105000743834
 20
271.803029904934
 10
596.002101976134
 20
271.830190397376
 10
595.900881079755
 20
271.861225293207
 10
595.70360628909
 20
271.933814932577
 10
595.51246278274
 20
272.019332213548
 10
595.326726334235
 20
272.116690966457
 10
595.146154319949
 20
272.225198563032
 10
594.970831131862
 20
272.344189287536
 10
594.800841161956
 20
272.472997424233
  0
ARC
  5
2E3
330
1F
100
AcDbEntity
  8
0
  6
AUSGEZOGEN
 62
     9
370
    25
100
AcDbCircle
 10
549.16109003628
 20
299.91643912651
 30
0.0
 40
55.97904842242368
100
AcDbArc
 50
330.6297698898
 51
29.3702301102
  0
LWPOLYLINE
  5
2E4
330
1F
100
AcDbEntity
  8
0
  6
AUSGEZOGEN
 62
     9
370
    25
100
AcDbPolyline
 90
       27
 70
     0
 43
0.0
 10
594.800841161956
 20
327.359880828744
 10
594.970469757104
 20
327.488464268409
 10
595.144843063506
 20
327.606900997509
 10
595.324176518309
 20
327.714784015196
 10
595.508685558661
 20
327.811706320623
 10
595.698691167983
 20
327.897050815098
 10
595.894791271073
 20
327.969650113868
 10
595.995455461751
 20
328.000793032361
 10
596.097998823849
 20
328.028165030659
 10
596.202283992034
 20
328.051404809398
 10
596.308173600972
 20
328.070151069213
 10
596.415503956957
 20
328.084129644219
 10
596.524050577581
 20
328.09292752308
 10
596.633584914461
 20
328.095975138252
 10
596.743878419211
 20
328.092702922191
 10
596.854702543447
 20
328.082541307355
 10
596.965828738784
 20
328.064920726199
 10
597.077028456837
 20
328.03927161118
 10
597.188073149222
 20
328.005024394756
 10
597.298246149864
 20
327.961499969356
 10
597.406385109735
 20
327.90800337576
 10
597.511592956018
 20
327.843941268951
 10
597.612972615895
 20
327.768720303908
 10
597.708363560382
 20
327.682902894661
 10
597.795857696641
 20
327.587763739335
 10
597.87493660608
 20
327.483777919048
 10
597.945081870106
 20
327.371420514922
  0
LWPOLYLINE
  5
2E5
330
1F
100
AcDbEntity
  8
0
  6
AUSGEZOGEN
 62
     9
370
    25
100
AcDbPolyline
 90
       27
 70
     0
 43
0.0
 10
494.620141249928
 20
327.371420514922
 10
494.689951582531
 20
327.483368396887
 10
494.768573525309
 20
327.586919526665
 10
494.856213720829
 20
327.682248625496
 10
494.951340485678
 20
327.767976351091
 10
495.051947346109
 20
327.842720911749
 10
495.156925944066
 20
327.906807157793
 10
495.264950907667
 20
327.960525184894
 10
495.374696865029
 20
328.004165088723
 10
495.485375915367
 20
328.038358625238
 10
495.596696846073
 20
328.063957969183
 10
495.708079317531
 20
328.081583844412
 10
495.818942990123
 20
328.091856974778
 10
495.928681171957
 20
328.095432037681
 10
496.037143410379
 20
328.092859046092
 10
496.144433724634
 20
328.084601727216
 10
496.250656133965
 20
328.07112380826
 10
496.355961963961
 20
328.052778858471
 10
496.4602223762
 20
328.029848348043
 10
496.5631211439
 20
328.002687855601
 10
496.664342040279
 20
327.97165295977
 10
496.861616830944
 20
327.8990633204
 10
497.052760337294
 20
327.813546039429
 10
497.238496785799
 20
327.71618728652
 10
497.419068800085
 20
327.607679689945
 10
497.594391988172
 20
327.488688965441
 10
497.764381958079
 20
327.359880828744
  0
ARC
  5
2E6
330
1F
100
AcDbEntity
  8
0
  6
AUSGEZOGEN
 62
     9
370
    25
100
AcDbCircle
 10
543.40413308368
 20
299.91643912651
 30
0.0
 40
55.97904842242394
100
AcDbArc
 50
150.6297698898
 51
209.3702301102
  0
LWPOLYLINE
  5
2E7
330
1F
100
AcDbEntity
  8
0
  6
AUSGEZOGEN
 62
     9
370
    25
100
AcDbPolyline
 90
       27
 70
     0
 43
0.0
 10
497.764381958079
 20
272.472997424233
 10
497.59475336293
 20
272.344413984567
 10
497.420380056528
 20
272.225977255468
 10
497.241046601726
 20
272.118094237781
 10
497.056537561373
 20
272.021171932354
 10
496.866531952051
 20
271.935827437879
 10
496.670431848961
 20
271.863228139109
 10
496.569767658283
 20
271.832085220616
 10
496.467224296185
 20
271.804713222318
 10
496.362939128
 20
271.781473443579
 10
496.257049519062
 20
271.762727183764
 10
496.149719163077
 20
271.748748608757
 10
496.041172542453
 20
271.739950729897
 10
495.931638205573
 20
271.736903114725
 10
495.821344700823
 20
271.740175330786
 10
495.710520576587
 20
271.750336945623
 10
495.59939438125
 20
271.767957526778
 10
495.488194663197
 20
271.793606641797
 10
495.377149970812
 20
271.827853858221
 10
495.26697697017
 20
271.871378283621
 10
495.158838010299
 20
271.924874877216
 10
495.053630164016
 20
271.988936984026
 10
494.952250504139
 20
272.064157949069
 10
494.856859559652
 20
272.149975358316
 10
494.769365423393
 20
272.245114513642
 10
494.690286513954
 20
272.349100333929
 10
494.620141249928
 20
272.461457738055
  0
LINE
  5
2E8
330
1F
100
AcDbEntity
  8
0
  6
AUSGEZOGEN
 62
     9
370
    25
100
AcDbLine
 10
501.32417233488
 20
275.31356851271
 30
0.0
 11
497.76438195808
 21
272.47299742431
 31
0.0
  0
LINE
  5
2E9
330
1F
100
AcDbEntity
  8
0
  6
AUSGEZOGEN
 62
     9
370
    25
100
AcDbLine
 10
497.76438195808
 20
327.35988082871
 30
0.0
 11
501.32417233488
 21
324.51930974011
 31
0.0
  0
LINE
  5
2EA
330
1F
100
AcDbEntity
  8
0
  6
AUSGEZOGEN
 62
     9
370
    25
100
AcDbLine
 10
591.24105078528
 20
324.51930974011
 30
0.0
 11
594.80084116188
 21
327.35988082871
 31
0.0
  0
LINE
  5
2EB
330
1F
100
AcDbEntity
  8
0
  6
AUSGEZOGEN
 62
     9
370
    25
100
AcDbLine
 10
594.80084116188
 20
272.47299742431
 30
0.0
 11
591.24105078528
 21
275.31356851271
 31
0.0
  0
LINE
  5
2EC
330
1F
100
AcDbEntity
  8
0
  6
AUSGEZOGEN
 62
     9
370
    25
100
AcDbLine
 10
597.94508187008
 20
327.37142051491
 30
0.0
 11
584.96164466168
 21
317.01115419011
 31
0.0
  0
ARC
  5
2ED
330
1F
100
AcDbEntity
  8
0
  6
AUSGEZOGEN
 62
     9
370
    25
100
AcDbCircle
 10
597.30122049828
 20
327.47160260871
 30
0.0
 40
16.1767151469745
100
AcDbArc
 50
213.3668568014
 51
220.2884577226
  0
LINE
  5
2EE
330
1F
100
AcDbEntity
  8
0
  6
AUSGEZOGEN
 62
     9
370
    25
100
AcDbLine
 10
494.62014124988
 20
272.46145773811
 30
0.0
 11
507.60357845828
 21
282.82172406291
 31
0.0
  0
ARC
  5
2EF
330
1F
100
AcDbEntity
  8
0
  6
AUSGEZOGEN
 62
     9
370
    25
100
AcDbCircle
 10
495.26400262168
 20
272.36127564431
 30
0.0
 40
16.17671514699881
100
AcDbArc
 50
33.3668568014
 51
40.2884577226
  0
ARC
  5
2F0
330
1F
100
AcDbEntity
  8
0
  6
AUSGEZOGEN
 62
     9
370
    25
100
AcDbCircle
 10
597.30122049828
 20
272.36127564431
 30
0.0
 40
16.17671514697271
100
AcDbArc
 50
139.7115422774
 51
146.6331431986
  0
LINE
  5
2F1
330
1F
100
AcDbEntity
  8
0
  6
AUSGEZOGEN
 62
     9
370
    25
100
AcDbLine
 10
584.96164466168
 20
282.82172406291
 30
0.0
 11
597.94508187008
 21
272.46145773811
 31
0.0
  0
ARC
  5
2F2
330
1F
100
AcDbEntity
  8
0
  6
AUSGEZOGEN
 62
     9
370
    25
100
AcDbCircle
 10
495.26400262168
 20
327.47160260871
 30
0.0
 40
16.17671514700688
100
AcDbArc
 50
319.7115422774
 51
326.6331431986
  0
LINE
  5
2F3
330
1F
100
AcDbEntity
  8
0
  6
AUSGEZOGEN
 62
     9
370
    25
100
AcDbLine
 10
507.60357845828
 20
317.01115419011
 30
0.0
 11
494.62014124988
 21
327.37142051491
 31
0.0
  0
LWPOLYLINE
  5
2F4
330
1F
100
AcDbEntity
  8
0
  6
AUSGEZOGEN
 62
     9
370
    25
100
AcDbPolyline
 90
        8
 70
     0
 43
0.0
 10
584.961644661748
 20
317.011154190018
 10
584.158983375683
 20
316.413993630993
 10
583.75528515824
 20
316.118719976779
 10
583.348745851506
 20
315.827414272924
 10
581.705139980801
 20
314.682213091707
 10
581.244059470235
 20
314.347398935779
 10
580.787301528401
 20
314.006586179627
 10
579.880989925953
 20
313.314963000285
  0
LWPOLYLINE
  5
2F5
330
1F
100
AcDbEntity
  8
0
  6
AUSGEZOGEN
 62
     9
370
    25
100
AcDbPolyline
 90
       11
 70
     0
 43
0.0
 10
579.922411371374
 20
286.495133802457
 10
580.577137077065
 20
285.984763963381
 10
580.906894490912
 20
285.732814342305
 10
581.23952537796
 20
285.484747079386
 10
581.773892856814
 20
285.100643640313
 10
582.313451078905
 20
284.723705609995
 10
583.395003705035
 20
283.973180541064
 10
583.792832799185
 20
283.694066814471
 10
584.187003515003
 20
283.40989856114
 10
584.575958862044
 20
283.118027235199
 10
584.961644661748
 20
282.821724062959
  0
LWPOLYLINE
  5
2F6
330
1F
100
AcDbEntity
  8
0
  6
AUSGEZOGEN
 62
     9
370
    25
100
AcDbPolyline
 90
        8
 70
     0
 43
0.0
 10
507.603578458286
 20
282.821724062959
 10
508.406239744351
 20
283.418884621984
 10
508.809937961794
 20
283.714158276198
 10
509.216477268528
 20
284.005463980052
 10
510.860083139233
 20
285.15066516127
 10
511.321163649799
 20
285.485479317198
 10
511.777921591633
 20
285.82629207335
 10
512.684233194081
 20
286.517915252692
  0
LWPOLYLINE
  5
2F7
330
1F
100
AcDbEntity
  8
0
  6
AUSGEZOGEN
 62
     9
370
    25
100
AcDbPolyline
 90
       11
 70
     0
 43
0.0
 10
512.64281174866
 20
313.337744450519
 10
511.988086042969
 20
313.848114289596
 10
511.658328629122
 20
314.100063910672
 10
511.325697742074
 20
314.348131173591
 10
510.79133026322
 20
314.732234612664
 10
510.251772041129
 20
315.109172642982
 10
509.170219414999
 20
315.859697711912
 10
508.772390320849
 20
316.138811438506
 10
508.378219605031
 20
316.422979691836
 10
507.98926425799
 20
316.714851017778
 10
507.603578458286
 20
317.011154190018
  0
LINE
  5
2F8
330
1F
100
AcDbEntity
  8
0
  6
AUSGEZOGEN
 62
   136
370
    25
100
AcDbLine
 10
799.397916017899
 20
236.432243750797
 30
0.0
 11
798.337255846199
 21
237.044549834597
 31
0.0
  0
ARC
  5
2F9
330
1F
100
AcDbEntity
  8
0
  6
AUSGEZOGEN
 62
   136
370
    25
100
AcDbCircle
 10
795.655466198499
 20
194.122920123597
 30
0.0
 40
2.750000000000017
100
AcDbArc
 50
277.7651343636
 51
22.2402421691
  0
ARC
  5
2FA
330
1F
100
AcDbEntity
  8
0
  6
AUSGEZOGEN
 62
   136
370
    25
100
AcDbCircle
 10
802.726534010299
 20
198.204960682697
 30
0.0
 40
2.749999999999995
100
AcDbArc
 50
277.7651343636
 51
22.2402421691
  0
ARC
  5
2FB
330
1F
100
AcDbEntity
  8
0
  6
AUSGEZOGEN
 62
   136
370
    25
100
AcDbCircle
 10
788.814208090499
 20
169.022195699897
 30
0.0
 40
47.57621951219513
100
AcDbArc
 50
105.4160157141
 51
106.0896626725
  0
LINE
  5
2FC
330
1F
100
AcDbEntity
  8
0
  6
AUSGEZOGEN
 62
   136
370
    25
100
AcDbLine
 10
801.999543635399
 20
214.734815288297
 30
0.0
 11
799.915784555099
 21
215.285049730597
 31
0.0
  0
LINE
  5
2FD
330
1F
100
AcDbEntity
  8
0
  6
AUSGEZOGEN
 62
   136
370
    25
100
AcDbLine
 10
818.314208090499
 20
198.684036473097
 30
0.0
 11
818.314208090499
 21
199.500577284997
 31
0.0
  0
LINE
  5
2FE
330
1F
100
AcDbEntity
  8
0
  6
AUSGEZOGEN
 62
   136
370
    25
100
AcDbLine
 10
759.314208090499
 20
199.500577284997
 30
0.0
 11
759.314208090499
 21
198.684036473097
 31
0.0
  0
LINE
  5
2FF
330
1F
100
AcDbEntity
  8
0
  6
AUSGEZOGEN
 62
   136
370
    25
100
AcDbLine
 10
764.244433870899
 20
205.983311222397
 30
0.0
 11
764.208967041199
 21
205.912982483797
 31
0.0
  0
LINE
  5
300
330
1F
100
AcDbEntity
  8
0
  6
AUSGEZOGEN
 62
   136
370
    25
100
AcDbLine
 10
774.293873065999
 20
210.113089868697
 30
0.0
 11
774.151690157699
 21
209.954224172897
 31
0.0
  0
LINE
  5
301
330
1F
100
AcDbEntity
  8
0
  6
AUSGEZOGEN
 62
   136
370
    25
100
AcDbLine
 10
797.877636438399
 20
195.726761702597
 30
0.0
 11
797.789248090699
 21
195.777787209597
 31
0.0
  0
LWPOLYLINE
  5
302
330
1F
100
AcDbEntity
  8
0
  6
AUSGEZOGEN
 62
   136
370
    25
100
AcDbPolyline
 90
       21
 70
     0
 43
0.0
 10
803.223828533353
 20
210.220515910451
 10
803.096616816205
 20
210.353372224939
 10
802.966262845179
 20
210.48505207527
 10
802.810268039206
 20
210.633076336468
 10
802.64731992952
 20
210.778430992495
 10
802.478687237166
 20
210.921524775515
 10
802.305638683192
 20
211.06276641769
 10
802.128954464061
 20
211.202621272671
 10
801.948724479456
 20
211.34078483423
 10
801.764557602102
 20
211.477012656345
 10
801.576062704721
 20
211.611060292996
 10
801.382892867676
 20
211.742865561484
 10
801.185640407587
 20
211.872579324633
 10
800.984948034734
 20
212.000537886879
 10
800.781458459396
 20
212.127077552662
 10
800.57535265896
 20
212.252290707623
 10
800.365287216388
 20
212.37509810778
 10
800.149458105736
 20
212.494177155139
 10
800.038818416771
 20
212.551905234646
 10
799.926061301057
 20
212.608205251705
 10
799.915784555101
 20
212.61320856328
  0
LINE
  5
303
330
1F
100
AcDbEntity
  8
0
  6
AUSGEZOGEN
 62
   136
370
    25
100
AcDbLine
 10
802.360519070999
 20
195.529583456797
 30
0.0
 11
802.448907418699
 21
195.478557949797
 31
0.0
  0
LINE
  5
304
330
1F
100
AcDbEntity
  8
0
  6
AUSGEZOGEN
 62
   136
370
    25
100
AcDbLine
 10
804.948704250199
 20
199.808802261697
 30
0.0
 11
804.860315902599
 21
199.859827768697
 31
0.0
  0
LWPOLYLINE
  5
305
330
1F
100
AcDbEntity
  8
0
  6
AUSGEZOGEN
 62
   136
370
    25
100
AcDbPolyline
 90
       34
 70
     0
 43
0.0
 10
808.297599498616
 20
208.568731988277
 10
808.270868363582
 20
208.609123210506
 10
808.208503970439
 20
208.699868287971
 10
808.143327002258
 20
208.789874143657
 10
808.075645024521
 20
208.879212648734
 10
808.005765602707
 20
208.967955674368
 10
807.860644688776
 20
209.143942771977
 10
807.710424784313
 20
209.318410405825
 10
807.556771493315
 20
209.492120980842
 10
807.399862191721
 20
209.664679956592
 10
807.239089022553
 20
209.835883695872
 10
807.073844128833
 20
210.005528561478
 10
806.903416436096
 20
210.173678241692
 10
806.728111670965
 20
210.340064891105
 10
806.548146502662
 20
210.504692903053
 10
806.36373760041
 20
210.667566670873
 10
806.174883898309
 20
210.828838321955
 10
805.981811168158
 20
210.988318621604
 10
805.784535618336
 20
211.145969451965
 10
805.583073457223
 20
211.301752695185
 10
805.377315807288
 20
211.45571703126
 10
805.16739649382
 20
211.607705305135
 10
804.953329263892
 20
211.757649447923
 10
804.735127864582
 20
211.905481390736
 10
804.512774707956
 20
212.051206775103
 10
804.28654508057
 20
212.194853603276
 10
804.056685510055
 20
212.336524951031
 10
803.823442524047
 20
212.476323894143
 10
803.586890002928
 20
212.614258336616
 10
803.346539671137
 20
212.749880846994
 10
803.101731172658
 20
212.882649141748
 10
802.85180415148
 20
213.012020937349
 10
802.572892001677
 20
213.149327086449
 10
802.290532208417
 20
213.284283382054
  0
LWPOLYLINE
  5
306
330
1F
100
AcDbEntity
  8
0
  6
AUSGEZOGEN
 62
   136
370
    25
100
AcDbPolyline
 90
       29
 70
     0
 43
0.0
 10
813.392386344735
 20
205.9539765692
 10
813.266546661021
 20
206.214110770738
 10
813.213174508585
 20
206.316887050012
 10
813.157484696073
 20
206.419209060842
 10
813.039970832517
 20
206.622619050199
 10
812.915642553752
 20
206.824598284871
 10
812.786137343174
 20
207.025404310917
 10
812.652513745629
 20
207.225583556087
 10
812.514932907485
 20
207.424722834392
 10
812.372989544076
 20
207.622701077248
 10
812.226278370733
 20
207.819397216076
 10
812.07424978008
 20
208.015012686381
 10
811.917204293339
 20
208.20921515158
 10
811.755314242659
 20
208.401999155336
 10
811.588751960191
 20
208.593359241312
 10
811.41742848241
 20
208.783518467669
 10
811.241521791111
 20
208.972165526615
 10
811.060960032893
 20
209.159221265229
 10
810.875671354355
 20
209.344606530589
 10
810.685467388063
 20
209.528450002857
 10
810.490800434521
 20
209.710648573123
 10
810.292015559283
 20
209.891310348701
 10
810.089457827904
 20
210.070543436905
 10
809.88309678474
 20
210.248464957925
 10
809.672242319341
 20
210.424503654416
 10
809.455833460343
 20
210.598099077313
 10
809.232809236383
 20
210.768690777554
 10
809.042377868584
 20
210.907913840009
 10
808.84930021885
 20
211.045908216952
  0
LINE
  5
307
330
1F
100
AcDbEntity
  8
0
  6
AUSGEZOGEN
 62
   136
370
    25
100
AcDbLine
 10
778.773291797599
 20
223.082330462797
 30
0.0
 11
778.773291797599
 21
199.370287808197
 31
0.0
  0
ARC
  5
308
330
1F
100
AcDbEntity
  8
0
  6
AUSGEZOGEN
 62
   136
370
    25
100
AcDbCircle
 10
782.611332050999
 20
222.907678332197
 30
0.0
 40
3.842012018930199
100
AcDbArc
 50
122.60547834
 51
177.3945215143
  0
LINE
  5
309
330
1F
100
AcDbEntity
  8
0
  6
AUSGEZOGEN
 62
   136
370
    25
100
AcDbLine
 10
798.148017602099
 20
236.308473624497
 30
0.0
 11
780.541058750599
 21
226.144192632297
 31
0.0
  0
ARC
  5
30A
330
1F
100
AcDbEntity
  8
0
  6
AUSGEZOGEN
 62
   136
370
    25
100
AcDbCircle
 10
798.838098636499
 20
235.462449726797
 30
0.0
 40
1.091772993571166
100
AcDbArc
 50
350.7859630095
 51
129.2032852357
  0
LINE
  5
30B
330
1F
100
AcDbEntity
  8
0
  6
AUSGEZOGEN
 62
   136
370
    25
100
AcDbLine
 10
799.915784555099
 20
211.415734668497
 30
0.0
 11
799.915784555099
 21
235.287631734597
 31
0.0
  0
LINE
  5
30C
330
1F
100
AcDbEntity
  8
0
  6
AUSGEZOGEN
 62
   136
370
    25
100
AcDbLine
 10
780.541058750599
 20
226.144192632297
 30
0.0
 11
779.480398578799
 21
226.756498716197
 31
0.0
  0
LINE
  5
30D
330
1F
100
AcDbEntity
  8
0
  6
AUSGEZOGEN
 62
   136
370
    25
100
AcDbLine
 10
778.773291797599
 20
223.082330462797
 30
0.0
 11
777.712631625799
 21
223.694636546697
 31
0.0
  0
ARC
  5
30E
330
1F
100
AcDbEntity
  8
0
  6
AUSGEZOGEN
 62
   136
370
    25
100
AcDbCircle
 10
781.550671879299
 20
223.519984416097
 30
0.0
 40
3.842012018930229
100
AcDbArc
 50
122.60547834
 51
177.3945215143
  0
LINE
  5
30F
330
1F
100
AcDbEntity
  8
0
  6
AUSGEZOGEN
 62
   136
370
    25
100
AcDbLine
 10
777.712631625799
 20
223.694636546697
 30
0.0
 11
777.712631625799
 21
199.985370385897
 31
0.0
  0
LINE
  5
310
330
1F
100
AcDbEntity
  8
0
  6
AUSGEZOGEN
 62
   136
370
    25
100
AcDbLine
 10
798.148017602099
 20
236.308473624497
 30
0.0
 11
797.087357430399
 21
236.920779708397
 31
0.0
  0
LINE
  5
311
330
1F
100
AcDbEntity
  8
0
  6
AUSGEZOGEN
 62
   136
370
    25
100
AcDbLine
 10
797.087357430399
 20
236.920779708397
 30
0.0
 11
779.480398578799
 21
226.756498716197
 31
0.0
  0
ARC
  5
312
330
1F
100
AcDbEntity
  8
0
  6
AUSGEZOGEN
 62
   136
370
    25
100
AcDbCircle
 10
797.819657567499
 20
235.898576385597
 30
0.0
 40
1.257443089754429
100
AcDbArc
 50
65.6928809539
 51
125.6175774752
  0
ARC
  5
313
330
1F
100
AcDbEntity
  8
0
  6
AUSGEZOGEN
 62
   136
370
    25
100
AcDbCircle
 10
784.998957300699
 20
181.387579594397
 30
0.0
 40
34.63865783696304
100
AcDbArc
 50
105.6945851509
 51
119.4762619908
  0
LWPOLYLINE
  5
314
330
1F
100
AcDbEntity
  8
0
  6
AUSGEZOGEN
 62
   136
370
    25
100
AcDbPolyline
 90
       91
 70
     0
 43
0.0
 10
801.999543635399
 20
214.734815288297
 10
803.383073204999
 20
214.308858594897
 10
804.810972430699
 20
213.809320589797
 10
806.187629197699
 20
213.263947366097
 10
807.508633659199
 20
212.674485918797
 10
808.769754239699
 20
212.042824470497
 10
809.966951189699
 20
211.370986423297
 10
811.096389526599
 20
210.661123877097
 10
812.154451318899
 20
209.915510735397
 10
813.137747275499
 20
209.136535422097
 10
814.043127603199
 20
208.326693229797
 10
814.867692095799
 20
207.488578327297
 10
815.608799424699
 20
206.624875449297
 10
816.264075599599
 20
205.738351296497
 10
816.831421573499
 20
204.831845672897
 10
817.309019965999
 20
203.908262389497
 10
817.695340885599
 20
202.970559961897
 10
817.989146829999
 20
202.021742133697
 10
818.189496649999
 20
201.064848254397
 10
818.295748564899
 20
200.102943543497
 10
818.307562217599
 20
199.139109271997
 10
818.224899765599
 20
198.176432891497
 10
818.048026001599
 20
197.217998144597
 10
817.777507505499
 20
196.266875186897
 10
817.414210829599
 20
195.326110751897
 10
816.959299722799
 20
194.398718391697
 10
816.414231402499
 20
193.487668823597
 10
815.780751886699
 20
192.595880414097
 10
815.060890401499
 20
191.726209830197
 10
814.256952879999
 20
190.881442889097
 10
813.371514576699
 20
190.064285633897
 10
812.407411817199
 20
189.277355665597
 10
811.367732913499
 20
188.523173758297
 10
810.255808270399
 20
187.804155783797
 10
809.075199717799
 20
187.122604973697
 10
807.829689100899
 20
186.480704540397
 10
806.523266165599
 20
185.880510684797
 10
805.160115778399
 20
185.323946008597
 10
803.744604520999
 20
184.812793356197
 10
802.281266702699
 20
184.348690103797
 10
800.774789835699
 20
183.933122913997
 10
799.229999619499
 20
183.567422973697
 10
797.651844482999
 20
183.252761730097
 10
796.045379732799
 20
182.990147138097
 10
794.415751359799
 20
182.780420431297
 10
792.768179554899
 20
182.624253427597
 10
791.107941987499
 20
182.522146376997
 10
789.440356898799
 20
182.474426359197
 10
787.770766066799
 20
182.481246235797
 10
786.104517694099
 20
182.542584160597
 10
784.446949276699
 20
182.658243649797
 10
782.803370505899
 20
182.827854211197
 10
781.179046259899
 20
183.050872531097
 10
779.579179739199
 20
183.326584214397
 10
778.008895798399
 20
183.654106073597
 10
776.473224530299
 20
184.032388957397
 10
774.977085153199
 20
184.460221111697
 10
773.525270252299
 20
184.936232061097
 10
772.122430428599
 20
185.458896998997
 10
770.773059400899
 20
186.026541672197
 10
769.481479611399
 20
186.637347743397
 10
768.251828379499
 20
187.289358616897
 10
767.088044648999
 20
187.980485705097
 10
765.993856369799
 20
188.708515119697
 10
764.972768556899
 20
189.471114762897
 10
764.028052062499
 20
190.265841798197
 10
763.162733098299
 20
191.090150475397
 10
762.379583541699
 20
191.941400285097
 10
761.681112056999
 20
192.816864417697
 10
761.069556058799
 20
193.713738497497
 10
760.546874545399
 20
194.629149566597
 10
760.114741823199
 20
195.560165287297
 10
759.774542143599
 20
196.503803335497
 10
759.527365268899
 20
197.457040954197
 10
759.374002980899
 20
198.416824635797
 10
759.314946545399
 20
199.380079903897
 10
759.350385137999
 20
200.343721161397
 10
759.480205237999
 20
201.304661574797
 10
759.703990992699
 20
202.259822962497
 10
760.021025548799
 20
203.206145654297
 10
760.430293348899
 20
204.140598293597
 10
760.930483384999
 20
205.060187546697
 10
761.519993397599
 20
205.961967691997
 10
762.196935008399
 20
206.843050055897
 10
762.959139769399
 20
207.700612265997
 10
763.804166108799
 20
208.531907291897
 10
764.729307152599
 20
209.334272245097
 10
765.731599395099
 20
210.105136908697
 10
766.807832192099
 20
210.842031970797
 10
767.954558045499
 20
211.542596934397
 10
767.954558045499
 20
211.542596934397
  0
LWPOLYLINE
  5
315
330
1F
100
AcDbEntity
  8
0
  6
AUSGEZOGEN
 62
   136
370
    25
100
AcDbPolyline
 90
       17
 70
     0
 43
0.0
 10
777.712631625799
 20
215.282157652097
 10
777.067381010099
 20
215.124377603897
 10
775.528862641099
 20
214.705215188397
 10
774.034910345899
 20
214.236250621897
 10
772.590963318499
 20
213.719191314497
 10
771.202278693299
 20
213.155919780097
 10
769.873912404899
 20
212.548486782497
 10
768.610700780499
 20
211.899103868697
 10
767.417242931399
 20
211.210135317597
 10
766.297884009099
 20
210.484089531497
 10
765.256699384799
 20
209.723609904097
 10
764.297479812299
 20
208.931465195997
 10
763.423717626199
 20
208.110539454197
 10
762.638594027099
 20
207.263821511997
 10
761.944967499799
 20
206.394394107297
 10
761.345363405299
 20
205.505422658597
 10
760.841964787399
 20
204.600143740597
  0
LWPOLYLINE
  5
316
330
1F
100
AcDbEntity
  8
0
  6
AUSGEZOGEN
 62
   136
370
    25
100
AcDbPolyline
 90
       22
 70
     0
 43
0.0
 10
761.957701645743
 20
204.80764588818
 10
761.748743788868
 20
204.702465156837
 10
761.647197431185
 20
204.654413556565
 10
761.547696424665
 20
204.609568301396
 10
761.450345461868
 20
204.568130675465
 10
761.355345877289
 20
204.530474936265
 10
761.26281301078
 20
204.497007729826
 10
761.173660699422
 20
204.468597470783
 10
761.089283969901
 20
204.446269448289
 10
761.011642499551
 20
204.431490822509
 10
760.976052928048
 20
204.427479500757
 10
760.942993701115
 20
204.426011889028
 10
760.912746995344
 20
204.42730677427
 10
760.88559498733
 20
204.431582943433
 10
760.862031157575
 20
204.439133344481
 10
760.842712163708
 20
204.4502894196
 10
760.828164948008
 20
204.465327697067
 10
760.818916452756
 20
204.484524705158
 10
760.815531696912
 20
204.507841836164
 10
760.818234619324
 20
204.534970091297
 10
760.827040542104
 20
204.565780412215
 10
760.841964787361
 20
204.600143740578
  0
ARC
  5
317
330
1F
100
AcDbEntity
  8
0
  6
AUSGEZOGEN
 62
   136
370
    25
100
AcDbCircle
 10
782.814941087999
 20
164.804717469897
 30
0.0
 40
45.11384176933333
100
AcDbArc
 50
114.3409420152
 51
117.5372125608
  0
LWPOLYLINE
  5
318
330
1F
100
AcDbEntity
  8
0
  6
AUSGEZOGEN
 62
   136
370
    25
100
AcDbPolyline
 90
       36
 70
     0
 43
0.0
 10
764.186604507499
 20
205.840739412497
 10
763.826745020499
 20
205.032975236797
 10
763.526317725999
 20
204.145349084197
 10
763.320412204499
 20
203.248783476797
 10
763.209798095399
 20
202.346629622197
 10
763.194888855299
 20
201.442259615897
 10
763.275740212199
 20
200.539053837097
 10
763.452049957699
 20
199.640388313197
 10
763.723159076499
 20
198.749622100997
 10
764.088054209299
 20
197.870084730897
 10
764.545371441199
 20
197.005063761997
 10
765.093401399099
 20
196.157792493297
 10
765.730095641599
 20
195.331437878997
 10
766.453074315399
 20
194.529088689797
 10
767.259635050899
 20
193.753743968897
 10
768.146763063199
 20
193.008301820897
 10
769.111142420699
 20
192.295548580197
 10
770.149168439799
 20
191.618148395297
 10
771.256961158199
 20
190.978633271497
 10
772.430379837799
 20
190.379393605797
 10
773.665038441799
 20
189.822669252897
 10
774.956322029399
 20
189.310541152397
 10
776.299404005199
 20
188.844923550697
 10
777.689264160499
 20
188.427556846197
 10
779.120707437499
 20
188.060001083697
 10
780.588383348299
 20
187.743630123097
 10
782.086805973399
 20
187.479626504697
 10
783.610374467299
 20
187.268977028297
 10
785.153393993999
 20
187.112469065397
 10
786.710097012399
 20
187.010687615797
 10
788.274664835099
 20
186.964013120897
 10
789.841249377499
 20
186.972620041997
 10
791.403995016599
 20
187.036476207997
 10
792.957060478899
 20
187.155342935397
 10
794.494640673399
 20
187.328775920897
 10
796.010988390499
 20
187.556126901997
  0
ARC
  5
319
330
1F
100
AcDbEntity
  8
0
  6
AUSGEZOGEN
 62
   136
370
    25
100
AcDbCircle
 10
372.419346490399
 20
144.089762449097
 30
0.0
 40
425.8159272812496
100
AcDbArc
 50
5.5135040373
 51
5.858833582
  0
LWPOLYLINE
  5
31A
330
1F
100
AcDbEntity
  8
0
  6
AUSGEZOGEN
 62
   136
370
    25
100
AcDbPolyline
 90
       26
 70
     0
 43
0.0
 10
797.372847876473
 20
183.5113138216
 10
797.308586643444
 20
183.505566237067
 10
797.244178735968
 20
183.506968840683
 10
797.179489321575
 20
183.51556030471
 10
797.115547603275
 20
183.531087979945
 10
797.053551513804
 20
183.553071559439
 10
796.993778064977
 20
183.580861643078
 10
796.93659328221
 20
183.61371682576
 10
796.882363190916
 20
183.650895702382
 10
796.83114299663
 20
183.691794150559
 10
796.782734369286
 20
183.735969612162
 10
796.737123030901
 20
183.782923028473
 10
796.694294703489
 20
183.832155340775
 10
796.654232421613
 20
183.88314416942
 10
796.616794919368
 20
183.935622906403
 10
796.581781468071
 20
183.989476150472
 10
796.54899133904
 20
184.044588500377
 10
796.518246024994
 20
184.100905106194
 10
796.489491562452
 20
184.158264481603
 10
796.437899539971
 20
184.275010117821
 10
796.393816681974
 20
184.393272555993
 10
796.356472171856
 20
184.51287256671
 10
796.325225937925
 20
184.633766213209
 10
796.299747318702
 20
184.755820565176
 10
796.279830785202
 20
184.87875972099
 10
796.26527080844
 20
185.002307779031
  0
LWPOLYLINE
  5
31B
330
1F
100
AcDbEntity
  8
0
  6
AUSGEZOGEN
 62
   136
370
    25
100
AcDbPolyline
 90
       18
 70
     0
 43
0.0
 10
797.372847876499
 20
183.511313821597
 10
798.983552178599
 20
183.777358774597
 10
800.561035170799
 20
184.101812751797
 10
802.099553539799
 20
184.483494478297
 10
803.593505834999
 20
184.921014324097
 10
805.037452862399
 20
185.412779363397
 10
806.426137487599
 20
185.956999173897
 10
807.754503775999
 20
186.551692355497
 10
809.017715400499
 20
187.194693744297
 10
810.211173249499
 20
187.883662295397
 10
811.330532171799
 20
188.616089606497
 10
812.371716796099
 20
189.389309049897
 10
813.330936368599
 20
190.200505481997
 10
814.204698554799
 20
191.046725491797
 10
814.989822153799
 20
191.924888154597
 10
815.683448681199
 20
192.831796248397
 10
816.283052775699
 20
193.764147894497
 10
816.786451393599
 20
194.718548579297
  0
LWPOLYLINE
  5
31C
330
1F
100
AcDbEntity
  8
0
  6
AUSGEZOGEN
 62
   136
370
    25
100
AcDbPolyline
 90
       24
 70
     0
 43
0.0
 10
815.670714535202
 20
196.204831990058
 10
815.776148411227
 20
196.134019029019
 10
815.879672392078
 20
196.060062922043
 10
815.981218749761
 20
195.982844963543
 10
816.08071975628
 20
195.902246447934
 10
816.178070719078
 20
195.818085730426
 10
816.273070303656
 20
195.730016461994
 10
816.365603170166
 20
195.637485134686
 10
816.454755481523
 20
195.5404195504
 10
816.539132211045
 20
195.439267111325
 10
816.578935941912
 20
195.387356418669
 10
816.616773681394
 20
195.334662185995
 10
816.652363252898
 20
195.281263994846
 10
816.685422479831
 20
195.227241426767
 10
816.715669185601
 20
195.172674063303
 10
816.742821193616
 20
195.117641485998
 10
816.766385023371
 20
195.062451974353
 10
816.785704017238
 20
195.007627760968
 10
816.800251232937
 20
194.953569357039
 10
816.809499728189
 20
194.90067727376
 10
816.812884484033
 20
194.850024419808
 10
816.810181561621
 20
194.802601024571
 10
816.801375638842
 20
194.758683580321
 10
816.786451393585
 20
194.718548579329
  0
ARC
  5
31D
330
1F
100
AcDbEntity
  8
0
  6
AUSGEZOGEN
 62
   136
370
    25
100
AcDbCircle
 10
786.660513803299
 20
151.655887067597
 30
0.0
 40
53.16201877479543
100
AcDbArc
 50
56.9278902787
 51
59.7927977802
  0
ARC
  5
31E
330
1F
100
AcDbEntity
  8
0
  6
AUSGEZOGEN
 62
   136
370
    25
100
AcDbCircle
 10
805.460464986799
 20
201.753347319597
 30
0.0
 40
8.96763441411832
100
AcDbArc
 50
332.4031766662
 51
27.4167714474
  0
LWPOLYLINE
  5
31F
330
1F
100
AcDbEntity
  8
0
  6
AUSGEZOGEN
 62
   136
370
    25
100
AcDbPolyline
 90
       58
 70
     0
 43
0.0
 10
818.314208090499
 20
198.684036473097
 10
818.307562217599
 20
198.322568460097
 10
818.224899765599
 20
197.359892079597
 10
818.048026001599
 20
196.401457332697
 10
817.777507505499
 20
195.450334374997
 10
817.414210829599
 20
194.509569939997
 10
816.959299722799
 20
193.582177579797
 10
816.414231402499
 20
192.671128011697
 10
815.780751886699
 20
191.779339602197
 10
815.060890401499
 20
190.909669018297
 10
814.256952879999
 20
190.064902077197
 10
813.371514576699
 20
189.247744821997
 10
812.407411817199
 20
188.460814853697
 10
811.367732913499
 20
187.706632946397
 10
810.255808270399
 20
186.987614971997
 10
809.075199717799
 20
186.306064161797
 10
807.829689100899
 20
185.664163728597
 10
806.523266165599
 20
185.063969872897
 10
805.160115778399
 20
184.507405196697
 10
803.744604520999
 20
183.996252544397
 10
802.281266702699
 20
183.532149291997
 10
800.774789835699
 20
183.116582102097
 10
799.229999619499
 20
182.750882161797
 10
797.651844482999
 20
182.436220918197
 10
796.045379732799
 20
182.173606326197
 10
794.415751359799
 20
181.963879619397
 10
792.768179554899
 20
181.807712615697
 10
791.107941987499
 20
181.705605565097
 10
789.440356898799
 20
181.657885547297
 10
787.770766066799
 20
181.664705423897
 10
786.104517694099
 20
181.726043348697
 10
784.446949276699
 20
181.841702837897
 10
782.803370505899
 20
182.011313399297
 10
781.179046259899
 20
182.234331719197
 10
779.579179739199
 20
182.510043402497
 10
778.008895798399
 20
182.837565261697
 10
776.473224530299
 20
183.215848145497
 10
774.977085153199
 20
183.643680299797
 10
773.525270252299
 20
184.119691249197
 10
772.122430428599
 20
184.642356187097
 10
770.773059400899
 20
185.210000860297
 10
769.481479611399
 20
185.820806931497
 10
768.251828379499
 20
186.472817804997
 10
767.088044648999
 20
187.163944893197
 10
765.993856369799
 20
187.891974307797
 10
764.972768556899
 20
188.654573950997
 10
764.028052062499
 20
189.449300986297
 10
763.162733098299
 20
190.273609663497
 10
762.379583541699
 20
191.124859473197
 10
761.681112056999
 20
192.000323605797
 10
761.069556058799
 20
192.897197685597
 10
760.546874545399
 20
193.812608754697
 10
760.114741823199
 20
194.743624475397
 10
759.774542143599
 20
195.687262523697
 10
759.527365268899
 20
196.640500142297
 10
759.374002980899
 20
197.600283823897
 10
759.314946545399
 20
198.563539091997
 10
759.314208090499
 20
198.684036473097
  0
ARC
  5
320
330
1F
100
AcDbEntity
  8
0
  6
AUSGEZOGEN
 62
   136
370
    25
100
AcDbCircle
 10
783.612780100799
 20
163.011531901997
 30
0.0
 40
47.0766306913322
100
AcDbArc
 50
110.4014993154
 51
113.6539210567
  0
ARC
  5
321
330
1F
100
AcDbEntity
  8
0
  6
AUSGEZOGEN
 62
   136
370
    25
100
AcDbCircle
 10
779.530915348999
 20
166.460337182997
 30
0.0
 40
42.50228638892762
100
AcDbArc
 50
105.5727353614
 51
106.8624979093
  0
LINE
  5
322
330
1F
100
AcDbEntity
  8
0
  6
AUSGEZOGEN
 62
   136
370
    25
100
AcDbLine
 10
768.120689413092
 20
207.402382715456
 30
0.0
 11
768.704122460705
 21
207.565076995429
 31
0.0
  0
LWPOLYLINE
  5
323
330
1F
100
AcDbEntity
  8
0
  6
AUSGEZOGEN
 62
   136
370
    25
100
AcDbPolyline
 90
       33
 70
     0
 43
0.0
 10
768.704122460699
 20
207.565076995397
 10
768.308293263199
 20
206.761236049597
 10
768.008756088699
 20
205.943632942097
 10
767.806917508899
 20
205.116106987597
 10
767.703725320799
 20
204.282544096497
 10
767.699664095999
 20
203.446858527397
 10
767.794752905399
 20
202.612974507097
 10
767.988545229199
 20
201.784807801997
 10
768.280131054199
 20
200.966247331697
 10
768.668141146799
 20
200.161136905997
 10
769.150753482399
 20
199.373257176397
 10
769.725701801999
 20
198.606307881797
 10
770.390286253499
 20
197.863890475697
 10
771.141386069899
 20
197.149491214397
 10
771.975474223999
 20
196.466464785997
 10
772.888633990299
 20
195.818018557697
 10
773.876577337899
 20
195.207197514197
 10
774.934665065499
 20
194.636869959397
 10
776.057928586899
 20
194.109714047097
 10
777.241093262099
 20
193.628205204997
 10
778.478603166399
 20
193.194604510397
 10
779.764647179799
 20
192.810948072997
 10
781.093186274799
 20
192.479037472997
 10
782.457981875199
 20
192.200431301897
 10
783.852625150599
 20
191.976437843297
 10
785.270567111299
 20
191.808108929497
 10
786.705149361499
 20
191.696235002297
 10
788.149635365499
 20
191.641341401097
 10
789.597242081399
 20
191.643685896197
 10
791.041171812999
 20
191.703257478397
 10
792.474644130499
 20
191.819776410297
 10
793.890927710299
 20
191.992695540497
 10
795.283371943999
 20
192.221202872297
  0
LWPOLYLINE
  5
324
330
1F
100
AcDbEntity
  8
0
  6
AUSGEZOGEN
 62
   136
370
    25
100
AcDbPolyline
 90
        3
 70
     0
 43
0.0
 10
795.283371943969
 20
192.221202872284
 10
795.354363897583
 20
191.929446000959
 10
795.429802517806
 20
191.637167292151
  0
ARC
  5
325
330
1F
100
AcDbEntity
  8
0
  6
AUSGEZOGEN
 62
   136
370
    25
100
AcDbCircle
 10
634.978638959499
 20
149.102037622397
 30
0.0
 40
165.9934129513942
100
AcDbArc
 50
14.5121443233
 51
14.8474224682
  0
ARC
  5
326
330
1F
100
AcDbEntity
  8
0
  6
AUSGEZOGEN
 62
   136
370
    25
100
AcDbCircle
 10
408.757053530999
 20
147.849259341397
 30
0.0
 40
389.2842307998132
100
AcDbArc
 50
5.9355199936
 51
6.3193147173
  0
LWPOLYLINE
  5
327
330
1F
100
AcDbEntity
  8
0
  6
AUSGEZOGEN
 62
   136
370
    25
100
AcDbPolyline
 90
       36
 70
     0
 43
0.0
 10
795.954292907499
 20
188.104820058097
 10
794.464023022799
 20
187.878277058897
 10
792.952497803999
 20
187.704903801397
 10
791.425403804299
 20
187.585352538097
 10
789.888486148699
 20
187.520073036497
 10
788.347526920199
 20
187.509310886297
 10
786.808323406599
 20
187.553106576297
 10
785.276666290499
 20
187.651295341397
 10
783.758317863899
 20
187.803507782697
 10
782.258990350099
 20
188.009171257297
 10
780.784324412799
 20
188.267512032697
 10
779.339867935999
 20
188.577558197597
 10
777.931055151699
 20
188.938143317997
 10
776.563186195699
 20
189.347910826197
 10
775.241407167899
 20
189.805319123897
 10
773.970690771899
 20
190.308647381897
 10
772.755817606899
 20
190.856002014197
 10
771.601358182999
 20
191.445323801997
 10
770.511655725699
 20
192.074395640397
 10
769.490809836599
 20
192.740850879897
 10
768.542661069799
 20
193.442182229797
 10
767.670776483499
 20
194.175751190697
 10
766.878436220399
 20
194.938797981597
 10
766.168621166899
 20
195.728451921597
 10
765.544001739099
 20
196.541742230597
 10
765.006927835799
 20
197.375609205297
 10
764.559419998699
 20
198.226915730297
 10
764.203161809999
 20
199.092459080497
 10
763.939493559199
 20
199.968982969797
 10
763.769407200199
 20
200.853189802097
 10
763.693542619899
 20
201.741753076897
 10
763.712185230699
 20
202.631329904297
 10
763.825264896699
 20
203.518573581397
 10
764.032356197499
 20
204.400146182597
 10
764.332680028899
 20
205.272731117897
 10
764.725106533799
 20
206.133045609997
  0
LWPOLYLINE
  5
328
330
1F
100
AcDbEntity
  8
0
  6
AUSGEZOGEN
 62
   136
370
    25
100
AcDbPolyline
 90
        3
 70
     0
 43
0.0
 10
796.010988390514
 20
187.556126902009
 10
796.006287497293
 20
187.690743918764
 10
795.995203781396
 20
187.830427423659
  0
LWPOLYLINE
  5
329
330
1F
100
AcDbEntity
  8
0
  6
AUSGEZOGEN
 62
   136
370
    25
100
AcDbPolyline
 90
        6
 70
     0
 43
0.0
 10
764.361039016247
 20
206.092442024669
 10
764.320722540344
 20
206.069460018023
 10
764.302230336306
 20
206.056759493675
 10
764.285737372964
 20
206.042607544097
 10
764.262875577842
 20
206.014539644155
 10
764.243909434379
 20
205.983643546929
  0
LWPOLYLINE
  5
32A
330
1F
100
AcDbEntity
  8
0
  6
AUSGEZOGEN
 62
   136
370
    25
100
AcDbPolyline
 90
       36
 70
     0
 43
0.0
 10
764.361039016199
 20
206.092442024697
 10
763.967605876399
 20
205.221263986697
 10
763.667210584499
 20
204.337825281397
 10
763.460977967699
 20
203.445433936097
 10
763.349680261999
 20
202.547431501097
 10
763.333734220399
 20
201.647180537097
 10
763.413199552799
 20
200.748052024797
 10
763.587778701999
 20
199.853412741797
 10
763.856817958199
 20
198.966612655597
 10
764.219309906599
 20
198.090972380097
 10
764.673897199899
 20
197.229770741397
 10
765.218877640499
 20
196.386232500097
 10
765.852210554899
 20
195.563516276797
 10
766.571524434199
 20
194.764702723697
 10
767.374125815199
 20
193.992782990097
 10
768.257009365099
 20
193.250647521597
 10
769.216869135499
 20
192.541075236797
 10
770.250110941299
 20
191.866723121897
 10
771.352865818999
 20
191.230116281597
 10
772.521004514499
 20
190.633638483497
 10
773.750152944199
 20
190.079523232697
 10
775.035708574399
 20
189.569845408197
 10
776.372857655099
 20
189.106513493197
 10
777.756593245499
 20
188.691262429497
 10
779.181733961499
 20
188.325647120397
 10
780.642943378499
 20
188.011036608697
 10
782.134750012699
 20
187.748608950197
 10
783.651567809399
 20
187.539346802697
 10
785.187717059799
 20
187.384033745997
 10
786.737445668899
 20
187.283251348397
 10
788.294950693499
 20
187.237376988497
 10
789.854400072199
 20
187.246582442297
 10
791.409954462699
 20
187.310833240197
 10
792.955789107399
 20
187.429888795697
 10
794.486115644299
 20
187.603303306497
 10
795.995203781399
 20
187.830427423697
  0
LWPOLYLINE
  5
32B
330
1F
100
AcDbEntity
  8
0
  6
AUSGEZOGEN
 62
   136
370
    25
100
AcDbPolyline
 90
        9
 70
     0
 43
0.0
 10
795.995203781399
 20
187.830427423697
 10
795.993968127399
 20
187.842398457797
 10
795.992732262399
 20
187.854368096297
 10
795.991496186499
 20
187.866336338197
 10
795.990259899799
 20
187.878303182597
 10
795.989023402499
 20
187.890268628597
 10
795.987786694499
 20
187.902232675297
 10
795.986549776099
 20
187.914195321897
 10
795.985312647199
 20
187.926156567297
  0
ARC
  5
32C
330
1F
100
AcDbEntity
  8
0
  6
AUSGEZOGEN
 62
   136
370
    25
100
AcDbCircle
 10
783.202923141099
 20
163.908110163497
 30
0.0
 40
46.20102219592842
100
AcDbArc
 50
113.948715387
 51
114.0682128827
  0
LWPOLYLINE
  5
32D
330
1F
100
AcDbEntity
  8
0
  6
AUSGEZOGEN
 62
   136
370
    25
100
AcDbPolyline
 90
       36
 70
     0
 43
0.0
 10
795.985312647199
 20
187.926156567297
 10
794.480773886299
 20
187.699173865697
 10
792.954992842899
 20
187.525770213697
 10
791.413689219699
 20
187.406595650297
 10
789.862640909099
 20
187.342096925797
 10
788.307662333199
 20
187.332515826897
 10
786.754582647899
 20
187.377888270297
 10
785.209223890399
 20
187.478044168197
 10
783.677379154599
 20
187.632608065497
 10
782.164790874299
 20
187.841000547897
 10
780.677129296299
 20
188.102440413497
 10
779.219971224999
 20
188.415947601397
 10
777.798779115599
 20
188.780346865597
 10
776.418880598099
 20
189.194272180997
 10
775.085448504599
 20
189.656171863597
 10
773.803481478399
 20
190.164314387897
 10
772.577785235499
 20
190.716794877597
 10
771.412954549399
 20
191.311542246397
 10
770.313356026499
 20
191.946326961897
 10
769.283111736999
 20
192.618769403697
 10
768.326083762699
 20
193.326348783397
 10
767.445859718899
 20
194.066412594897
 10
766.645739305899
 20
194.836186557397
 10
765.928721938899
 20
195.632785015497
 10
765.297495504299
 20
196.453221756697
 10
764.754426283599
 20
197.294421205897
 10
764.301550083199
 20
198.153229954597
 10
763.940564602299
 20
199.026428582297
 10
763.672823068699
 20
199.910743725097
 10
763.499329166599
 20
200.802860346497
 10
763.420733273299
 20
201.699434164797
 10
763.437330021699
 20
202.597104189197
 10
763.549057195399
 20
203.492505319797
 10
763.755495962199
 20
204.382280961997
 10
764.055872444199
 20
205.263095609697
 10
764.449060618499
 20
206.131647348697
  0
LWPOLYLINE
  5
32E
330
1F
100
AcDbEntity
  8
0
  6
AUSGEZOGEN
 62
   136
370
    25
100
AcDbPolyline
 90
        4
 70
     0
 43
0.0
 10
795.985312647205
 20
187.92615656731
 10
795.97008100098
 20
188.040811799306
 10
795.962052517189
 20
188.080260369977
 10
795.954292907489
 20
188.104820058092
  0
LWPOLYLINE
  5
32F
330
1F
100
AcDbEntity
  8
0
  6
AUSGEZOGEN
 62
   136
370
    25
100
AcDbPolyline
 90
        9
 70
     0
 43
0.0
 10
764.725106533839
 20
206.133045610029
 10
764.691231434183
 20
206.144610255675
 10
764.656184026021
 20
206.152960127855
 10
764.620438481421
 20
206.157987440389
 10
764.584468972454
 20
206.159584407096
 10
764.548881445842
 20
206.157698417364
 10
764.514208305787
 20
206.152381147881
 10
764.480813410577
 20
206.143681243409
 10
764.449060618501
 20
206.131647348714
  0
LWPOLYLINE
  5
330
330
1F
100
AcDbEntity
  8
0
  6
AUSGEZOGEN
 62
   136
370
    25
100
AcDbPolyline
 90
       11
 70
     0
 43
0.0
 10
769.194999385088
 20
207.702668968323
 10
770.013121198449
 20
207.935893158038
 10
770.427406149622
 20
208.057723622357
 10
770.845543745521
 20
208.184562793347
 10
771.267921226428
 20
208.317960549677
 10
771.480929269377
 20
208.387993943327
 10
771.695286621397
 20
208.460766505346
 10
771.910363233824
 20
208.536440734654
 10
772.12525736303
 20
208.615313570766
 10
772.339663797134
 20
208.6979737931
 10
772.553277324255
 20
208.785010181076
  0
ARC
  5
331
330
1F
100
AcDbEntity
  8
0
  6
AUSGEZOGEN
 62
   136
370
    25
100
AcDbCircle
 10
803.361082073399
 20
168.359109260797
 30
0.0
 40
50.8269052636535
100
AcDbArc
 50
125.0408983338
 51
127.310331063
  0
LWPOLYLINE
  5
332
330
1F
100
AcDbEntity
  8
0
  6
AUSGEZOGEN
 62
   136
370
    25
100
AcDbPolyline
 90
       35
 70
     0
 43
0.0
 10
774.107083996899
 20
209.896154788997
 10
773.626727033799
 20
209.325001691497
 10
773.161202764599
 20
208.654644249597
 10
772.784318192799
 20
207.965975973497
 10
772.498207537099
 20
207.262896647597
 10
772.304490982099
 20
206.549387663097
 10
772.204265504299
 20
205.829489472397
 10
772.198098659699
 20
205.107278708397
 10
772.286025369699
 20
204.386845099697
 10
772.467547723799
 20
203.672268311297
 10
772.741637798799
 20
202.967594842097
 10
773.106743479999
 20
202.276815110697
 10
773.560797250099
 20
201.603840858397
 10
774.101227897599
 20
200.952482997597
 10
774.724975076699
 20
200.326430031897
 10
775.428506637399
 20
199.729227168197
 10
776.207838627699
 20
199.164256241697
 10
777.058557853199
 20
198.634716564397
 10
777.975846868999
 20
198.143606809097
 10
778.954511258899
 20
197.693708027497
 10
779.989009051199
 20
197.287567902397
 10
781.073482100999
 20
196.927486320497
 10
782.201789264199
 20
196.615502348397
 10
783.367541172999
 20
196.353382686297
 10
784.564136418199
 20
196.142611662997
 10
785.784798930899
 20
195.984382830597
 10
787.022616354499
 20
195.879592206197
 10
788.270579187599
 20
195.828833196897
 10
789.521620477599
 20
195.832393240497
 10
790.768655838999
 20
195.890252177297
 10
792.004623571399
 20
196.002082364097
 10
793.222524647799
 20
196.167250529997
 10
794.415462348899
 20
196.384821362097
 10
795.576681317899
 20
196.653562802397
 10
796.699605814499
 20
196.971953024197
  0
ARC
  5
333
330
1F
100
AcDbEntity
  8
0
  6
AUSGEZOGEN
 62
   136
370
    25
100
AcDbCircle
 10
825.882433054699
 20
155.357810079397
 30
0.0
 40
50.82690526440285
100
AcDbArc
 50
125.0408983338
 51
127.310331063
  0
LWPOLYLINE
  5
334
330
1F
100
AcDbEntity
  8
0
  6
AUSGEZOGEN
 62
   136
370
    25
100
AcDbPolyline
 90
       21
 70
     0
 43
0.0
 10
795.074628305047
 20
195.783711000299
 10
795.048694478854
 20
195.693071928056
 10
795.026003050884
 20
195.601804456664
 10
795.00635766723
 20
195.509937705172
 10
794.989561973984
 20
195.417500792627
 10
794.975419617241
 20
195.324522838077
 10
794.963734243094
 20
195.231032960571
 10
794.954309497636
 20
195.137060279156
 10
794.94694902696
 20
195.042633912881
 10
794.937916636782
 20
194.852381985829
 10
794.935918393683
 20
194.660462599277
 10
794.940239981297
 20
194.467269330993
 10
794.950167083256
 20
194.273195758745
 10
794.964968550809
 20
194.078602000643
 10
794.984197130112
 20
193.883579702268
 10
795.007564347158
 20
193.688119732591
 10
795.034781727939
 20
193.492212960586
 10
795.065560798449
 20
193.295850255227
 10
795.099613084682
 20
193.099022485487
 10
795.136650112629
 20
192.901720520339
 10
795.176383408284
 20
192.703935228756
  0
LWPOLYLINE
  5
335
330
1F
100
AcDbEntity
  8
0
  6
AUSGEZOGEN
 62
   136
370
    25
100
AcDbPolyline
 90
       33
 70
     0
 43
0.0
 10
795.176383408299
 20
192.703935228797
 10
793.814869290199
 20
192.478568279597
 10
792.429772261799
 20
192.307676757797
 10
791.027624383099
 20
192.192066580597
 10
789.615038125099
 20
192.132282960797
 10
788.198675185999
 20
192.128607835397
 10
786.785215074499
 20
192.181058536197
 10
785.381323609699
 20
192.289387707897
 10
783.993621485399
 20
192.453084474497
 10
782.628653047099
 20
192.671376849097
 10
781.292855429299
 20
192.943235373697
 10
779.992528197899
 20
193.267377974897
 10
778.733803642299
 20
193.642276009697
 10
777.522617854899
 20
194.066161474397
 10
776.364682737699
 20
194.537035342997
 10
775.265459064499
 20
195.052676993697
 10
774.230130728499
 20
195.610654681997
 10
773.263580295099
 20
196.208337008397
 10
772.370365975899
 20
196.842905327797
 10
771.554700132499
 20
197.511367042297
 10
770.820429411199
 20
198.210569714397
 10
770.171016602099
 20
198.937215933297
 10
769.609524308999
 20
199.687878865697
 10
769.138600506299
 20
200.459018416297
 10
768.760466051099
 20
201.246997923097
 10
768.476904209599
 20
202.048101307397
 10
768.289252247899
 20
202.858550599197
 10
768.198395124599
 20
203.674523753097
 10
768.204761318299
 20
204.492172673697
 10
768.308320806199
 20
205.307641362697
 10
768.508585206099
 20
206.117084103597
 10
768.804610079399
 20
206.916683598097
 10
769.194999385099
 20
207.702668968297
  0
LWPOLYLINE
  5
336
330
1F
100
AcDbEntity
  8
0
  6
AUSGEZOGEN
 62
   136
370
    25
100
AcDbPolyline
 90
        5
 70
     0
 43
0.0
 10
795.259507316119
 20
192.49602222719
 10
795.2708642919
 20
192.430185301853
 10
795.278627806651
 20
192.360083003884
 10
795.282797233099
 20
192.289245478841
 10
795.28337194397
 20
192.221202872282
  0
LWPOLYLINE
  5
337
330
1F
100
AcDbEntity
  8
0
  6
AUSGEZOGEN
 62
   136
370
    25
100
AcDbPolyline
 90
        9
 70
     0
 43
0.0
 10
768.704122460705
 20
207.565076995429
 10
768.712640146567
 20
207.593704476013
 10
768.725157701796
 20
207.620644193848
 10
768.741399584465
 20
207.645613943677
 10
768.76109025265
 20
207.668331520248
 10
768.783954164422
 20
207.688514718308
 10
768.809715777857
 20
207.705881332601
 10
768.838099551029
 20
207.720149157876
 10
768.868829942012
 20
207.731035988876
  0
LWPOLYLINE
  5
338
330
1F
100
AcDbEntity
  8
0
  6
AUSGEZOGEN
 62
   136
370
    25
100
AcDbPolyline
 90
       33
 70
     0
 43
0.0
 10
768.868829941999
 20
207.731035988897
 10
768.473829898399
 20
206.932768708897
 10
768.174574970499
 20
206.120744680197
 10
767.972473794999
 20
205.298786217797
 10
767.868477691299
 20
204.470762399797
 10
767.863076184199
 20
203.640570854397
 10
767.956294699499
 20
202.812119413997
 10
768.147694443899
 20
201.989307719897
 10
768.436374471199
 20
201.176008866197
 10
768.820975922499
 20
200.376051168897
 10
769.299688422799
 20
199.593200145097
 10
769.870258602799
 20
198.831140788297
 10
770.530000705899
 20
198.093460222697
 10
771.275809229999
 20
197.383630817797
 10
772.104173545999
 20
196.704993843797
 10
773.011194422799
 20
196.060743743597
 10
773.992602381399
 20
195.453913095897
 10
775.043777791699
 20
194.887358340997
 10
776.159772618399
 20
194.363746334197
 10
777.335333711699
 20
193.885541793397
 10
778.564927534799
 20
193.454995696797
 10
779.842766210699
 20
193.074134687597
 10
781.162834767299
 20
192.744751533797
 10
782.518919449799
 20
192.468396689697
 10
783.904636970799
 20
192.246370997897
 10
785.313464556499
 20
192.079719565397
 10
786.738770650699
 20
191.969226844797
 10
788.173846130499
 20
191.915412941397
 10
789.611935887099
 20
191.918531165097
 10
791.046270622999
 20
191.978566837897
 10
792.470098716199
 20
192.095237363097
 10
793.876718001099
 20
192.267993555697
 10
795.259507316099
 20
192.496022227197
  0
LWPOLYLINE
  5
339
330
1F
100
AcDbEntity
  8
0
  6
AUSGEZOGEN
 62
   136
370
    25
100
AcDbPolyline
 90
        2
 70
     0
 43
0.0
 10
795.247108992016
 20
192.555475440733
 10
795.259507316119
 20
192.49602222719
  0
LINE
  5
33A
330
1F
100
AcDbEntity
  8
0
  6
AUSGEZOGEN
 62
   136
370
    25
100
AcDbLine
 10
768.868829942012
 20
207.731035988876
 30
0.0
 11
768.929386840093
 21
207.748373049119
 31
0.0
  0
LWPOLYLINE
  5
33B
330
1F
100
AcDbEntity
  8
0
  6
AUSGEZOGEN
 62
   136
370
    25
100
AcDbPolyline
 90
       33
 70
     0
 43
0.0
 10
795.247108991999
 20
192.555475440697
 10
793.868087352899
 20
192.327795728397
 10
792.465262225799
 20
192.155255059697
 10
791.045240838499
 20
192.038666091297
 10
789.614711412099
 20
191.978577950797
 10
788.180411659899
 20
191.975273649997
 10
786.749097053299
 20
192.028768751897
 10
785.327509003999
 20
192.138811297697
 10
783.922343111799
 20
192.304882992997
 10
782.540217629299
 20
192.526201649597
 10
781.187642290099
 20
192.801724868897
 10
779.870987648199
 20
193.130154952097
 10
778.596455072999
 20
193.509945011797
 10
777.370047541499
 20
193.939306258297
 10
776.197541364499
 20
194.416216423997
 10
775.084458980299
 20
194.938429288897
 10
774.036042944399
 20
195.503485259597
 10
773.057231237699
 20
196.108722954297
 10
772.152634008299
 20
196.751291737197
 10
771.326511858599
 20
197.428165145597
 10
770.582755777499
 20
198.136155143497
 10
769.924868814299
 20
198.871927137797
 10
769.355949579999
 20
199.632015683597
 10
768.878677651999
 20
200.412840806597
 10
768.495300954499
 20
201.210724864197
 10
768.207625170199
 20
202.021909867197
 10
768.017005235899
 20
202.842575179797
 10
767.924338960799
 20
203.668855514297
 10
767.930062797899
 20
204.496859136597
 10
768.034149788199
 20
205.322686196297
 10
768.236109687799
 20
206.142447094097
 10
768.534991276999
 20
206.952280802097
 10
768.929386840099
 20
207.748373049097
  0
LWPOLYLINE
  5
33C
330
1F
100
AcDbEntity
  8
0
  6
AUSGEZOGEN
 62
   136
370
    25
100
AcDbPolyline
 90
        7
 70
     0
 43
0.0
 10
795.176383408284
 20
192.703935228756
 10
795.186439831952
 20
192.698412898775
 10
795.196372717962
 20
192.688639225377
 10
795.206070160042
 20
192.674877716909
 10
795.215420251922
 20
192.657391881721
 10
795.232630759997
 20
192.612301264577
 10
795.247108992016
 20
192.555475440733
  0
LWPOLYLINE
  5
33D
330
1F
100
AcDbEntity
  8
0
  6
AUSGEZOGEN
 62
   136
370
    25
100
AcDbPolyline
 90
        9
 70
     0
 43
0.0
 10
768.929386840093
 20
207.748373049119
 10
768.961703692994
 20
207.755510560052
 10
768.995166142355
 20
207.758860081485
 10
769.029327777836
 20
207.758479819449
 10
769.063742189094
 20
207.754427979975
 10
769.09796296579
 20
207.746762769095
 10
769.131543697581
 20
207.735542392838
 10
769.164037974128
 20
207.720825057237
 10
769.194999385088
 20
207.702668968323
  0
LWPOLYLINE
  5
33E
330
1F
100
AcDbEntity
  8
0
  6
AUSGEZOGEN
 62
   136
370
    25
100
AcDbPolyline
 90
       13
 70
     0
 43
0.0
 10
808.533205860396
 20
195.457577472967
 10
808.266787057667
 20
195.483689975192
 10
808.001398637475
 20
195.513483086775
 10
807.47250085622
 20
195.579781460405
 10
806.944332096352
 20
195.648785392255
 10
806.415590140632
 20
195.715466637948
 10
806.150715991959
 20
195.746510568621
 10
805.88546288684
 20
195.775528852074
 10
805.619788569956
 20
195.802295619691
 10
805.353650785989
 20
195.826585002857
 10
805.087021714125
 20
195.848248290148
 10
804.819935367078
 20
195.867467290733
 10
804.284592827308
 20
195.899652080854
  0
LINE
  5
33F
330
1F
100
AcDbEntity
  8
0
  6
AUSGEZOGEN
 62
   136
370
    25
100
AcDbLine
 10
816.786451393599
 20
194.718548579297
 30
0.0
 11
808.533205860399
 21
195.457577472997
 31
0.0
  0
LINE
  5
340
330
1F
100
AcDbEntity
  8
0
  6
AUSGEZOGEN
 62
   136
370
    25
100
AcDbLine
 10
796.445416916499
 20
188.479445449397
 30
0.0
 11
797.372847876499
 21
183.511313821597
 31
0.0
  0
LWPOLYLINE
  5
341
330
1F
100
AcDbEntity
  8
0
  6
AUSGEZOGEN
 62
   136
370
    25
100
AcDbPolyline
 90
       15
 70
     0
 43
0.0
 10
795.865174334429
 20
191.03922524201
 10
795.880517770723
 20
190.87833440267
 10
795.899052453959
 20
190.717571900688
 10
795.92123193914
 20
190.556955975972
 10
795.947509781271
 20
190.396504868431
 10
795.978195118081
 20
190.236221243371
 10
796.013038519622
 20
190.076099841104
 10
796.05165568938
 20
189.916147014052
 10
796.093662330841
 20
189.756369114634
 10
796.185339994198
 20
189.437370874515
 10
796.280887255139
 20
189.118695787427
 10
796.327660642382
 20
188.95928095766
 10
796.371884216847
 20
188.799683878308
 10
796.411741725803
 20
188.639780169005
 10
796.445416916522
 20
188.479445449385
  0
LINE
  5
342
330
1F
100
AcDbEntity
  8
0
  6
AUSGEZOGEN
 62
   136
370
    25
100
AcDbLine
 10
795.865174334399
 20
191.039225241997
 30
0.0
 11
804.284592827299
 21
195.899652080897
 31
0.0
  0
ARC
  5
343
330
1F
100
AcDbEntity
  8
0
  6
AUSGEZOGEN
 62
   136
370
    25
100
AcDbCircle
 10
799.484695178599
 20
174.156814674197
 30
0.0
 40
43.85114100870425
100
AcDbArc
 50
119.7686686761
 51
122.7485491992
  0
LWPOLYLINE
  5
344
330
1F
100
AcDbEntity
  8
0
  6
AUSGEZOGEN
 62
   136
370
    25
100
AcDbPolyline
 90
       20
 70
     0
 43
0.0
 10
799.915784555099
 20
212.322096783797
 10
800.643361918299
 20
211.896931530497
 10
801.445119291499
 20
211.357368052197
 10
802.173214196099
 20
210.784057631097
 10
802.823400440699
 20
210.180343767897
 10
803.391886190899
 20
209.549747273797
 10
803.875356082999
 20
208.895945737297
 10
804.270990559099
 20
208.222752076897
 10
804.576482310399
 20
207.534092304497
 10
804.790049733399
 20
206.833982629097
 10
804.910447319799
 20
206.126506034497
 10
804.936972920499
 20
205.415788467797
 10
804.869471840399
 20
204.705974777497
 10
804.708337740299
 20
204.001204540297
 10
804.454510341599
 20
203.305587920297
 10
804.109469945299
 20
202.623181697997
 10
803.675228799499
 20
201.957965612497
 10
803.154319364199
 20
201.313819150697
 10
802.549779541599
 20
200.694498923697
 10
801.865134959899
 20
200.103616757697
  0
ARC
  5
345
330
1F
100
AcDbEntity
  8
0
  6
AUSGEZOGEN
 62
   136
370
    25
100
AcDbCircle
 10
821.170499097899
 20
162.527489271897
 30
0.0
 40
42.24526531263139
100
AcDbArc
 50
117.1925906911
 51
122.8020327762
  0
LWPOLYLINE
  5
346
330
1F
100
AcDbEntity
  8
0
  6
AUSGEZOGEN
 62
   136
370
    25
100
AcDbPolyline
 90
       38
 70
     0
 43
0.0
 10
798.284632201899
 20
198.036636512497
 10
797.261083365399
 20
197.641399608297
 10
796.188273024899
 20
197.292406197197
 10
795.072457724699
 20
196.991691581097
 10
793.920144810999
 20
196.741009503597
 10
792.738054480799
 20
196.541821922597
 10
791.533080590799
 20
196.395290484297
 10
790.312250452899
 20
196.302269748297
 10
789.082683851199
 20
196.263302204197
 10
787.851551520199
 20
196.278615107597
 10
786.626033325699
 20
196.348119154797
 10
785.413276392199
 20
196.471409003797
 10
784.220353421599
 20
196.647765637997
 10
783.054221445699
 20
196.876160559497
 10
781.921681253399
 20
197.155261787397
 10
780.829337728799
 20
197.483441625397
 10
779.783561332399
 20
197.858786154997
 10
778.790450948999
 20
198.279106396697
 10
777.855798319099
 20
198.741951076297
 10
776.985054262599
 20
199.244620920497
 10
776.183296889499
 20
199.784184398797
 10
775.455201984799
 20
200.357494819897
 10
774.805015740199
 20
200.961208683097
 10
774.236529989999
 20
201.591805177197
 10
773.753060097999
 20
202.245606713697
 10
773.357425621899
 20
202.918800373997
 10
773.051933870599
 20
203.607460146397
 10
772.838366447599
 20
204.307569821897
 10
772.717968861099
 20
205.015046416497
 10
772.691443260399
 20
205.725763983097
 10
772.758944340499
 20
206.435577673497
 10
772.920078440599
 20
207.140347910597
 10
773.173905839399
 20
207.835964530697
 10
773.518946235699
 20
208.518370752897
 10
773.953187381399
 20
209.183586838497
 10
774.474096816699
 20
209.827733300197
 10
775.078636639299
 20
210.447053527197
 10
775.763281221099
 20
211.037935693197
  0
LINE
  5
347
330
1F
100
AcDbEntity
  8
0
  6
AUSGEZOGEN
 62
   136
370
    25
100
AcDbLine
 10
777.712631625799
 20
200.620627004497
 30
0.0
 11
777.296322834499
 21
200.216166713097
 31
0.0
  0
ARC
  5
348
330
1F
100
AcDbEntity
  8
0
  6
AUSGEZOGEN
 62
   136
370
    25
100
AcDbCircle
 10
755.878945489699
 20
161.104409048897
 30
0.0
 40
44.59185620613532
100
AcDbArc
 50
58.7102402626
 51
61.2951362701
  0
LWPOLYLINE
  5
349
330
1F
100
AcDbEntity
  8
0
  6
AUSGEZOGEN
 62
   136
370
    25
100
AcDbPolyline
 90
       15
 70
     0
 43
0.0
 10
779.038456840599
 20
199.210454158497
 10
780.533144465499
 20
200.581035909097
 10
782.044840974999
 20
201.885158009497
 10
783.570347704799
 20
203.120061011097
 10
785.106436769099
 20
204.283131928997
 10
786.649857890499
 20
205.371909771197
 10
788.197345277199
 20
206.384090745397
 10
789.745624533599
 20
207.317533133897
 10
791.291419588399
 20
208.170261825597
 10
792.831459626999
 20
208.940472494697
 10
794.362486011699
 20
209.626535419197
 10
795.881259177399
 20
210.226998928797
 10
797.384565486199
 20
210.740592476597
 10
798.869224026999
 20
211.166229327797
 10
800.332093346399
 20
211.503008858997
  0
LWPOLYLINE
  5
34A
330
1F
100
AcDbEntity
  8
0
  6
AUSGEZOGEN
 62
   136
370
    25
100
AcDbPolyline
 90
        3
 70
     0
 43
0.0
 10
800.332093346399
 20
211.503008858997
 10
800.114540889099
 20
211.634744283497
 10
799.915784555099
 20
211.753562250997
  0
LWPOLYLINE
  5
34B
330
1F
100
AcDbEntity
  8
0
  6
AUSGEZOGEN
 62
   136
370
    25
100
AcDbPolyline
 90
        6
 70
     0
 43
0.0
 10
774.669144594525
 20
210.421627243045
 10
774.562666491545
 20
210.347100202651
 10
774.509903747902
 20
210.307628965265
 10
774.457712573676
 20
210.265508467253
 10
774.375338682474
 20
210.191528837794
 10
774.293946030873
 20
210.113001100329
  0
LWPOLYLINE
  5
34C
330
1F
100
AcDbEntity
  8
0
  6
AUSGEZOGEN
 62
   136
370
    25
100
AcDbPolyline
 90
       35
 70
     0
 43
0.0
 10
774.669144594499
 20
210.421627242997
 10
774.062005831799
 20
209.773626122697
 10
773.543769867199
 20
209.100389255497
 10
773.117559802299
 20
208.405973841797
 10
772.785944152999
 20
207.694564712597
 10
772.550921370899
 20
206.970449110097
 10
772.413907799199
 20
206.237990850597
 10
772.375729137599
 20
205.501604026897
 10
772.436615466399
 20
204.765726406897
 10
772.596199859699
 20
204.034792689797
 10
772.853520596699
 20
203.313207780797
 10
773.207026957499
 20
202.605320245297
 10
773.654588568499
 20
201.915396102897
 10
774.193508240299
 20
201.247593118297
 10
774.820538222999
 20
200.605935745097
 10
775.531899777599
 20
199.994290872897
 10
776.323305948899
 20
199.416344523497
 10
777.189987399799
 20
198.875579637797
 10
778.126721153799
 20
198.375255085897
 10
779.127862070699
 20
197.918386027997
 10
780.187376866099
 20
197.507725743697
 10
781.298880471199
 20
197.145749039597
 10
782.455674510999
 20
196.834637335197
 10
783.650787672099
 20
196.576265516797
 10
784.877017714199
 20
196.372190638597
 10
786.126974874099
 20
196.223642538997
 10
787.393126399299
 20
196.131516429697
 10
788.667841943299
 20
196.096367500297
 10
789.943439549599
 20
196.118407572497
 10
791.212231945699
 20
196.197503823797
 10
792.466572870299
 20
196.333179587997
 10
793.698903152499
 20
196.524617227397
 10
794.901796266599
 20
196.770663060697
 10
796.068003087099
 20
197.069834314997
 10
797.190495575299
 20
197.420328062297
  0
LWPOLYLINE
  5
34D
330
1F
100
AcDbEntity
  8
0
  6
AUSGEZOGEN
 62
   136
370
    25
100
AcDbPolyline
 90
        9
 70
     0
 43
0.0
 10
796.699605814519
 20
196.971953024185
 10
796.724414702711
 20
197.010963344057
 10
796.752054316124
 20
197.047166730556
 10
796.810920582744
 20
197.1129136035
 10
796.872545760074
 20
197.172802962846
 10
796.935303323638
 20
197.228056802483
 10
796.998503238473
 20
197.279825075428
 10
797.062148086319
 20
197.328840759234
 10
797.190495575316
 20
197.420328062269
  0
LWPOLYLINE
  5
34E
330
1F
100
AcDbEntity
  8
0
  6
AUSGEZOGEN
 62
   136
370
    25
100
AcDbPolyline
 90
        9
 70
     0
 43
0.0
 10
775.76328122108
 20
211.037935693227
 10
775.642199444919
 20
210.981834819509
 10
775.52093447646
 20
210.923136139917
 10
775.399475731442
 20
210.861689561579
 10
775.277812625602
 20
210.797344991628
 10
775.155902921953
 20
210.729910872325
 10
775.033869966501
 20
210.658927323068
 10
774.911951549471
 20
210.583841766688
 10
774.79038546109
 20
210.504101626015
  0
LWPOLYLINE
  5
34F
330
1F
100
AcDbEntity
  8
0
  6
AUSGEZOGEN
 62
   136
370
    25
100
AcDbPolyline
 90
        9
 70
     0
 43
0.0
 10
797.311736441882
 20
197.502802445238
 10
797.433133848364
 20
197.582433420429
 10
797.554958670147
 20
197.657467751411
 10
797.676951375561
 20
197.728438203295
 10
797.798852432936
 20
197.795877541194
 10
797.920536009112
 20
197.860240036767
 10
798.04205489402
 20
197.921722741051
 10
798.163417490619
 20
197.98047258822
 10
798.284632201872
 20
198.03663651245
  0
LWPOLYLINE
  5
350
330
1F
100
AcDbEntity
  8
0
  6
AUSGEZOGEN
 62
   136
370
    25
100
AcDbPolyline
 90
       36
 70
     0
 43
0.0
 10
797.311736441899
 20
197.502802445197
 10
796.222280164899
 20
197.153669544597
 10
795.090044501799
 20
196.853303476497
 10
793.921567772799
 20
196.603438764397
 10
792.723597579199
 20
196.405518301897
 10
791.503051838099
 20
196.260685020097
 10
790.266978833899
 20
196.169775287597
 10
789.022516515999
 20
196.133314080697
 10
787.776851279699
 20
196.151511951897
 10
786.537176466599
 20
196.224263813897
 10
785.310650825699
 20
196.351149546697
 10
784.104357173199
 20
196.531436423397
 10
782.925261491899
 20
196.764083341497
 10
781.780172704399
 20
197.047746835097
 10
780.675703353699
 20
197.380788832997
 10
779.618231417799
 20
197.761286117797
 10
778.613863478699
 20
198.187041432297
 10
777.668399458999
 20
198.655596167697
 10
776.787299128699
 20
199.164244561397
 10
775.975650577099
 20
199.710049322197
 10
775.238140830099
 20
200.289858591897
 10
774.579028784499
 20
200.900324146397
 10
774.002120613999
 20
201.537920730897
 10
773.510747789499
 20
202.198966417197
 10
773.107747841199
 20
202.879643865397
 10
772.795447972499
 20
203.576022368097
 10
772.575651621199
 20
204.284080549197
 10
772.449628044799
 20
204.999729585697
 10
772.418104991799
 20
205.718836819997
 10
772.481264498099
 20
206.437249624297
 10
772.638741836799
 20
207.150819380897
 10
772.889627623499
 20
207.855425439197
 10
773.232473068399
 20
208.546998911497
 10
773.665298342199
 20
209.221546168997
 10
774.185604009299
 20
209.875171904497
 10
774.790385461099
 20
210.504101625997
  0
ARC
  5
351
330
1F
100
AcDbEntity
  8
0
  6
AUSGEZOGEN
 62
   136
370
    25
100
AcDbCircle
 10
801.802985851899
 20
170.664073158397
 30
0.0
 40
48.13427519111828
100
AcDbArc
 50
124.1383161015
 51
124.3128587035
  0
ARC
  5
352
330
1F
100
AcDbEntity
  8
0
  6
AUSGEZOGEN
 62
   136
370
    25
100
AcDbCircle
 10
824.324336829499
 20
157.662773982397
 30
0.0
 40
48.13427518536658
100
AcDbArc
 50
124.1383161015
 51
124.3128587035
  0
LWPOLYLINE
  5
353
330
1F
100
AcDbEntity
  8
0
  6
AUSGEZOGEN
 62
   136
370
    25
100
AcDbPolyline
 90
        9
 70
     0
 43
0.0
 10
801.865134959865
 20
200.103616757729
 10
801.986216736026
 20
200.187313927081
 10
802.107481704485
 20
200.268624799884
 10
802.228940449504
 20
200.347411503596
 10
802.350603555344
 20
200.423536165675
 10
802.472513258992
 20
200.496855994173
 10
802.594546214444
 20
200.56676869622
 10
802.716464631474
 20
200.632447147896
 10
802.838030719855
 20
200.693064225281
  0
ARC
  5
354
330
1F
100
AcDbEntity
  8
0
  6
AUSGEZOGEN
 62
   136
370
    25
100
AcDbCircle
 10
818.707701095699
 20
167.392109916797
 30
0.0
 40
36.88902269907792
100
AcDbArc
 50
115.2718552169
 51
115.4802753538
  0
LWPOLYLINE
  5
355
330
1F
100
AcDbEntity
  8
0
  6
AUSGEZOGEN
 62
   136
370
    25
100
AcDbPolyline
 90
       11
 70
     0
 43
0.0
 10
802.959271586421
 20
200.750571567253
 10
803.087777005189
 20
200.807327790011
 10
803.151678249648
 20
200.83188389975
 10
803.215108599892
 20
200.853137474531
 10
803.27771845363
 20
200.870266313924
 10
803.338952578313
 20
200.881418174395
 10
803.368903941974
 20
200.883975679172
 10
803.397933320517
 20
200.883607358384
 10
803.425481339429
 20
200.879306948698
 10
803.438298690695
 20
200.875049290613
 10
803.450161347218
 20
200.868965782962
  0
ARC
  5
356
330
1F
100
AcDbEntity
  8
0
  6
AUSGEZOGEN
 62
   136
370
    25
100
AcDbCircle
 10
817.604640257099
 20
169.696866974097
 30
0.0
 40
34.23520143592415
100
AcDbArc
 50
111.4680901385
 51
114.4216237634
  0
ARC
  5
357
330
1F
100
AcDbEntity
  8
0
  6
AUSGEZOGEN
 62
   136
370
    25
100
AcDbCircle
 10
804.561483226699
 20
200.495169646097
 30
0.0
 40
1.17943929355031
100
AcDbArc
 50
352.8449228952
 51
64.1823562654
  0
LINE
  5
358
330
1F
100
AcDbEntity
  8
0
  6
AUSGEZOGEN
 62
   136
370
    25
100
AcDbLine
 10
805.731737830399
 20
200.348264201297
 30
0.0
 11
805.731737830399
 21
198.715182577497
 31
0.0
  0
ARC
  5
359
330
1F
100
AcDbEntity
  8
0
  6
AUSGEZOGEN
 62
   136
370
    25
100
AcDbCircle
 10
802.018087016799
 20
198.862047400097
 30
0.0
 40
3.716553731791733
100
AcDbArc
 50
325.3408946553
 51
357.7352874095
  0
LWPOLYLINE
  5
35A
330
1F
100
AcDbEntity
  8
0
  6
AUSGEZOGEN
 62
   136
370
    25
100
AcDbPolyline
 90
       17
 70
     0
 43
0.0
 10
804.284592827308
 20
195.899652080854
 10
804.340390419171
 20
195.933262165527
 10
804.395830382795
 20
195.969485179065
 10
804.450908581305
 20
196.008351346605
 10
804.505620877824
 20
196.04989089328
 10
804.560048377497
 20
196.094251377662
 10
804.614058553437
 20
196.141449148925
 10
804.667326820726
 20
196.191317618117
 10
804.71952859444
 20
196.24369019628
 10
804.770432217592
 20
196.298444025152
 10
804.819963919723
 20
196.355669970887
 10
804.868035945714
 20
196.415522031162
 10
804.914560540445
 20
196.478154203653
 10
804.958972104792
 20
196.543051241394
 10
805.000651277665
 20
196.609665799832
 10
805.039429660989
 20
196.678103730263
 10
805.075138856691
 20
196.748470883982
  0
LWPOLYLINE
  5
35B
330
1F
100
AcDbEntity
  8
0
  6
AUSGEZOGEN
 62
   136
370
    25
100
AcDbPolyline
 90
        5
 70
     0
 43
0.0
 10
795.616005243492
 20
190.92638303312
 10
795.667462881673
 20
190.944353878046
 10
795.719147786531
 20
190.964685958058
 10
795.791939572548
 20
190.99965440443
 10
795.865174334429
 20
191.03922524201
  0
LWPOLYLINE
  5
35C
330
1F
100
AcDbEntity
  8
0
  6
AUSGEZOGEN
 62
   136
370
    25
100
AcDbPolyline
 90
       11
 70
     0
 43
0.0
 10
797.789248090699
 20
195.777787209597
 10
797.521468372899
 20
195.876952290497
 10
797.215844800099
 20
195.889160735597
 10
796.884223898999
 20
195.813884728297
 10
796.539349674899
 20
195.654017083397
 10
796.194475450799
 20
195.415701424697
 10
795.862854549799
 20
195.108096089497
 10
795.557230976999
 20
194.743022178197
 10
795.289349674899
 20
194.334509276597
 10
795.069505171899
 20
193.898256306197
 10
794.992763881299
 20
193.708544152597
  0
LWPOLYLINE
  5
35D
330
1F
100
AcDbEntity
  8
0
  6
AUSGEZOGEN
 62
   136
370
    25
100
AcDbPolyline
 90
       18
 70
     0
 43
0.0
 10
804.860315902599
 20
199.859827768697
 10
804.592536184799
 20
199.958992849697
 10
804.286912611999
 20
199.971201294697
 10
803.955291710899
 20
199.895925287397
 10
803.610417486799
 20
199.736057642497
 10
803.265543262699
 20
199.497741983897
 10
802.933922361599
 20
199.190136648597
 10
802.628298788799
 20
198.825062737397
 10
802.360417486799
 20
198.416549835697
 10
802.140572983799
 20
197.980296865297
 10
801.977213780699
 20
197.533068783297
 10
801.876617680099
 20
197.092052313997
 10
801.842650533799
 20
196.674195472997
 10
801.876617680099
 20
196.295556264397
 10
801.977213780699
 20
195.970685580497
 10
802.140572983799
 20
195.712068019697
 10
802.360417486799
 20
195.529642109697
 10
802.360519070999
 20
195.529583456797
  0
LWPOLYLINE
  5
35E
330
1F
100
AcDbEntity
  8
0
  6
AUSGEZOGEN
 62
   136
370
    25
100
AcDbPolyline
 90
       15
 70
     0
 43
0.0
 10
798.395504975599
 20
194.582149686497
 10
798.361537829199
 20
194.960788895097
 10
798.260941728699
 20
195.285659578897
 10
798.097582525599
 20
195.544277139797
 10
797.877738022599
 20
195.726703049797
 10
797.609856720599
 20
195.825926783597
 10
797.304233147799
 20
195.838135228597
 10
796.972612246699
 20
195.762859221297
 10
796.627738022599
 20
195.602991576397
 10
796.282863798499
 20
195.364675917797
 10
795.951242897399
 20
195.057070582497
 10
795.645619324599
 20
194.691996671197
 10
795.377738022599
 20
194.283483769597
 10
795.157893519599
 20
193.847230799197
 10
795.030873344499
 20
193.515449323297
  0
ARC
  5
35F
330
1F
100
AcDbEntity
  8
0
  6
AUSGEZOGEN
 62
   136
370
    25
100
AcDbCircle
 10
795.856495901699
 20
192.774898546997
 30
0.0
 40
1.481070128364824
100
AcDbArc
 50
256.4541973592
 51
308.0519965194
  0
LINE
  5
360
330
1F
100
AcDbEntity
  8
0
  6
AUSGEZOGEN
 62
   136
370
    25
100
AcDbLine
 10
798.389843315499
 20
194.415634628697
 30
0.0
 11
798.395504975599
 21
194.582149686497
 31
0.0
  0
LWPOLYLINE
  5
361
330
1F
100
AcDbEntity
  8
0
  6
AUSGEZOGEN
 62
   136
370
    25
100
AcDbPolyline
 90
       19
 70
     0
 43
0.0
 10
808.433416795857
 20
200.35705770211
 10
808.230105646984
 20
200.460257804733
 10
808.026004750241
 20
200.560860507062
 10
807.821079422966
 20
200.658685441695
 10
807.615294982496
 20
200.753552241227
 10
807.40861674617
 20
200.845280538256
 10
807.201010031324
 20
200.933689965377
 10
806.992440155296
 20
201.018600155187
 10
806.782872435424
 20
201.099830740283
 10
806.57225601895
 20
201.177121047296
 10
806.360494954517
 20
201.249989148755
 10
806.147486911569
 20
201.317922796099
 10
805.933129559548
 20
201.380409740769
 10
805.718052947122
 20
201.436692997903
 10
805.503158817916
 20
201.485611675612
 10
805.395875563233
 20
201.506959888088
 10
805.288752383812
 20
201.526047664794
 10
805.181827431136
 20
201.542735242092
 10
805.075138856691
 20
201.556882856345
  0
LWPOLYLINE
  5
362
330
1F
100
AcDbEntity
  8
0
  6
AUSGEZOGEN
 62
   136
370
    25
100
AcDbPolyline
 90
       15
 70
     0
 43
0.0
 10
803.450161347199
 20
200.868965782997
 10
804.001689147199
 20
201.517216296397
 10
804.467213416399
 20
202.187573738297
 10
804.844097988099
 20
202.876242014397
 10
805.130208643899
 20
203.579321340397
 10
805.323925198799
 20
204.292830324797
 10
805.424150676599
 20
205.012728515497
 10
805.430317521299
 20
205.734939279497
 10
805.342390811299
 20
206.455372888197
 10
805.160868457199
 20
207.169949676697
 10
804.886778382099
 20
207.874623145897
 10
804.521672700999
 20
208.565402877197
 10
804.067618930899
 20
209.238377129597
 10
803.527188283399
 20
209.889734990297
 10
803.271204088799
 20
210.160000907097
  0
LWPOLYLINE
  5
363
330
1F
100
AcDbEntity
  8
0
  6
AUSGEZOGEN
 62
   136
370
    25
100
AcDbPolyline
 90
       21
 70
     0
 43
0.0
 10
799.915784555099
 20
214.064472650497
 10
800.105798326099
 20
213.993565195997
 10
801.263733443299
 20
213.522691327497
 10
802.362957116399
 20
213.007049676697
 10
803.398285452399
 20
212.449071988397
 10
804.364835885899
 20
211.851389661997
 10
805.258050205099
 20
211.216821342697
 10
806.073716048499
 20
210.548359628097
 10
806.807986769799
 20
209.849156955997
 10
807.457399578899
 20
209.122510737097
 10
808.018891871899
 20
208.371847804797
 10
808.489815674599
 20
207.600708254197
 10
808.867950129899
 20
206.812728747397
 10
809.151511971299
 20
206.011625362997
 10
809.339163933099
 20
205.201176071297
 10
809.430021056299
 20
204.385202917397
 10
809.423654862699
 20
203.567553996797
 10
809.320095374799
 20
202.752085307797
 10
809.119830974899
 20
201.942642566897
 10
808.823806101599
 20
201.143043072297
 10
808.433416795899
 20
200.357057702097
  0
LINE
  5
364
330
1F
100
AcDbEntity
  8
0
  6
AUSGEZOGEN
 62
   136
370
    25
100
AcDbLine
 10
809.507726767899
 20
199.764179973397
 30
0.0
 11
805.731737830399
 21
200.348264201297
 31
0.0
  0
LWPOLYLINE
  5
365
330
1F
100
AcDbEntity
  8
0
  6
AUSGEZOGEN
 62
   136
370
    25
100
AcDbPolyline
 90
        9
 70
     0
 43
0.0
 10
808.699029340853
 20
200.32110376207
 10
808.666712487952
 20
200.336139125101
 10
808.63325003859
 20
200.348305036087
 10
808.59908840311
 20
200.357530346689
 10
808.564673991851
 20
200.363743908569
 10
808.530453215155
 20
200.366874573389
 10
808.496872483364
 20
200.366851192811
 10
808.464378206818
 20
200.363602618498
 10
808.433416795857
 20
200.35705770211
  0
LWPOLYLINE
  5
366
330
1F
100
AcDbEntity
  8
0
  6
AUSGEZOGEN
 62
   136
370
    25
100
AcDbPolyline
 90
        2
 70
     0
 43
0.0
 10
808.759586238934
 20
200.289451901516
 10
808.699029340853
 20
200.32110376207
  0
LWPOLYLINE
  5
367
330
1F
100
AcDbEntity
  8
0
  6
AUSGEZOGEN
 62
   136
370
    25
100
AcDbPolyline
 90
        9
 70
     0
 43
0.0
 10
808.924293720241
 20
200.095939395246
 10
808.915776034378
 20
200.124379819575
 10
808.90325847915
 20
200.152170171554
 10
808.88701659648
 20
200.179028150065
 10
808.867325928296
 20
200.204671453992
 10
808.844462016523
 20
200.228817782217
 10
808.818700403088
 20
200.251184833624
 10
808.790316629916
 20
200.271490307096
 10
808.759586238934
 20
200.289451901516
  0
LWPOLYLINE
  5
368
330
1F
100
AcDbEntity
  8
0
  6
AUSGEZOGEN
 62
   136
370
    25
100
AcDbPolyline
 90
        3
 70
     0
 43
0.0
 10
809.507726767853
 20
199.764179973374
 10
809.217153560088
 20
199.932264128349
 10
808.924293720241
 20
200.095939395246
  0
LINE
  5
369
330
1F
100
AcDbEntity
  8
0
  6
AUSGEZOGEN
 62
   136
370
    25
100
AcDbLine
 10
810.426388254099
 20
199.212773755897
 30
0.0
 11
810.426388254099
 21
197.988996321797
 31
0.0
  0
ARC
  5
36A
330
1F
100
AcDbEntity
  8
0
  6
AUSGEZOGEN
 62
   136
370
    25
100
AcDbCircle
 10
785.915075678899
 20
150.360301551497
 30
0.0
 40
54.65682468494635
100
AcDbArc
 50
60.4109223905
 51
63.355180062
  0
LWPOLYLINE
  5
36B
330
1F
100
AcDbEntity
  8
0
  6
AUSGEZOGEN
 62
   136
370
    25
100
AcDbPolyline
 90
        9
 70
     0
 43
0.0
 10
812.903309647106
 20
197.889279153805
 10
812.937184746762
 20
197.896448790997
 10
812.972232154924
 20
197.900251557584
 10
813.007977699524
 20
197.900641187211
 10
813.043947208491
 20
197.897571413522
 10
813.079534735104
 20
197.891068242385
 10
813.114207875159
 20
197.881252425438
 10
813.147602770368
 20
197.86821981499
 10
813.179355562444
 20
197.852066263349
  0
ARC
  5
36C
330
1F
100
AcDbEntity
  8
0
  6
AUSGEZOGEN
 62
   136
370
    25
100
AcDbCircle
 10
786.267942136299
 20
150.959758811997
 30
0.0
 40
54.06581795096861
100
AcDbArc
 50
60.0409530813
 51
60.1485611082
  0
LWPOLYLINE
  5
36D
330
1F
100
AcDbEntity
  8
0
  6
AUSGEZOGEN
 62
   136
370
    25
100
AcDbPolyline
 90
        9
 70
     0
 43
0.0
 10
813.267377164699
 20
197.801440878851
 10
813.296509964301
 20
197.78253955124
 10
813.322822109077
 20
197.761167290164
 10
813.346070452808
 20
197.737646851918
 10
813.366011849276
 20
197.712300992803
 10
813.382403152261
 20
197.685452469114
 10
813.395001215544
 20
197.65742403715
 10
813.403562892907
 20
197.628538453209
 10
813.407845038131
 20
197.599118473589
  0
LINE
  5
36E
330
1F
100
AcDbEntity
  8
0
  6
AUSGEZOGEN
 62
   136
370
    25
100
AcDbLine
 10
808.672018976399
 20
196.831523418897
 30
0.0
 11
815.670714535199
 21
196.204831990097
 31
0.0
  0
ELLIPSE
  5
36F
330
1F
100
AcDbEntity
  8
0
  6
AUSGEZOGEN
 62
   136
370
    25
100
AcDbEllipse
 10
805.868930132799
 20
198.284642196997
 30
0.0
 11
4.555907877582172
 21
-0.3375952257034669
 31
0.0
210
0.0
220
0.0
230
1.0
 40
0.3520814153
 41
5.400928604928162
 42
6.30926881263557
  0
LWPOLYLINE
  5
370
330
1F
100
AcDbEntity
  8
0
  6
AUSGEZOGEN
 62
   136
370
    25
100
AcDbPolyline
 90
       27
 70
     0
 43
0.0
 10
805.460911127399
 20
198.497675187797
 10
805.466572787399
 20
198.664190245597
 10
805.432605641099
 20
199.042829454197
 10
805.332009540499
 20
199.367700138097
 10
805.168650337499
 20
199.626317698897
 10
804.948805834499
 20
199.808743608897
 10
804.680924532399
 20
199.907967342697
 10
804.375300959599
 20
199.920175787797
 10
804.043680058599
 20
199.844899780497
 10
803.698805834499
 20
199.685032135497
 10
803.353931610299
 20
199.446716476897
 10
803.022310709299
 20
199.139111141597
 10
802.716687136499
 20
198.774037230397
 10
802.448805834499
 20
198.365524328697
 10
802.228961331399
 20
197.929271358297
 10
802.065602128399
 20
197.482043276297
 10
801.965006027799
 20
197.041026806997
 10
801.931038881499
 20
196.623169965997
 10
801.965006027799
 20
196.244530757397
 10
802.065602128399
 20
195.919660073497
 10
802.228961331399
 20
195.661042512697
 10
802.448805834499
 20
195.478616602697
 10
802.716687136499
 20
195.379392868897
 10
803.022310709299
 20
195.367184423797
 10
803.353931610299
 20
195.442460431097
 10
803.698805834499
 20
195.602328076097
 10
803.840460312999
 20
195.690667900997
  0
ARC
  5
371
330
1F
100
AcDbEntity
  8
0
  6
AUSGEZOGEN
 62
   136
370
    25
100
AcDbCircle
 10
797.804528883299
 20
197.235507209197
 30
0.0
 40
10.87499626789248
100
AcDbArc
 50
350.5905982612
 51
357.8710895607
  0
ARC
  5
372
330
1F
100
AcDbEntity
  8
0
  6
AUSGEZOGEN
 62
   136
370
    25
100
AcDbCircle
 10
779.246596289299
 20
148.307145078697
 30
0.0
 40
59.69558156169361
100
AcDbArc
 50
58.5124533719
 51
59.5408363986
  0
ARC
  5
373
330
1F
100
AcDbEntity
  8
0
  6
AUSGEZOGEN
 62
   136
370
    25
100
AcDbCircle
 10
802.288094216799
 20
203.849215596697
 30
0.0
 40
7.624055750973758
100
AcDbArc
 50
330.5085346692
 51
37.5937172347
  0
LWPOLYLINE
  5
374
330
1F
100
AcDbEntity
  8
0
  6
AUSGEZOGEN
 62
   136
370
    25
100
AcDbPolyline
 90
       24
 70
     0
 43
0.0
 10
799.915784555099
 20
215.022830745097
 10
801.065229985199
 20
214.674413937597
 10
802.387009012999
 20
214.217005639897
 10
803.657725409099
 20
213.713677381897
 10
804.872598573999
 20
213.166322749597
 10
806.027057997899
 20
212.577000961897
 10
807.116760455199
 20
211.947929123497
 10
808.137606344399
 20
211.281473883897
 10
809.085755111199
 20
210.580142534097
 10
809.957639697399
 20
209.846573573097
 10
810.749979960499
 20
209.083526782297
 10
811.459795013999
 20
208.293872842197
 10
812.084414441899
 20
207.480582533197
 10
812.621488345099
 20
206.646715558497
 10
813.068996182199
 20
205.795409033497
 10
813.425254370899
 20
204.929865683397
 10
813.688922621799
 20
204.053341794097
 10
813.859008980799
 20
203.169134961797
 10
813.934873561099
 20
202.280571686997
 10
813.916230950299
 20
201.390994859497
 10
813.803151284299
 20
200.503751182497
 10
813.596059983499
 20
199.622178581197
 10
813.295736152099
 20
198.749593645897
 10
812.903309647099
 20
197.889279153797
  0
LINE
  5
375
330
1F
100
AcDbEntity
  8
0
  6
AUSGEZOGEN
 62
   136
370
    25
100
AcDbLine
 10
810.426388254099
 20
197.988996321797
 30
0.0
 11
805.731737830399
 21
198.715182577497
 31
0.0
  0
ELLIPSE
  5
376
330
1F
100
AcDbEntity
  8
0
  6
AUSGEZOGEN
 62
   136
370
    25
100
AcDbEllipse
 10
805.868930132799
 20
198.284642196997
 30
0.0
 11
4.555907877582172
 21
-0.3375952257034669
 31
0.0
210
0.0
220
0.0
230
1.0
 40
0.3520814153
 41
4.563405475533322
 42
5.400928604928162
  0
ARC
  5
377
330
1F
100
AcDbEntity
  8
0
  6
AUSGEZOGEN
 62
   136
370
    25
100
AcDbCircle
 10
791.969571631399
 20
192.107382413797
 30
0.0
 40
23.53171718197915
100
AcDbArc
 50
61.3251451276
 51
70.2643513518
  0
ARC
  5
378
330
1F
100
AcDbEntity
  8
0
  6
AUSGEZOGEN
 62
   136
370
    25
100
AcDbCircle
 10
791.576330875199
 20
191.056281764897
 30
0.0
 40
24.67019047221989
100
AcDbArc
 50
64.3670015737
 51
70.2426367237
  0
ARC
  5
379
330
1F
100
AcDbEntity
  8
0
  6
AUSGEZOGEN
 62
   136
370
    25
100
AcDbCircle
 10
793.068605166599
 20
188.941634651397
 30
0.0
 40
27.11640974480186
100
AcDbArc
 50
53.5300800826
 51
75.3738768516
  0
ARC
  5
37A
330
1F
100
AcDbEntity
  8
0
  6
AUSGEZOGEN
 62
   136
370
    25
100
AcDbCircle
 10
792.940407812199
 20
188.478019594697
 30
0.0
 40
27.60806951865185
100
AcDbArc
 50
54.9273624904
 51
75.3651942327
  0
ARC
  5
37B
330
1F
100
AcDbEntity
  8
0
  6
AUSGEZOGEN
 62
   136
370
    25
100
AcDbCircle
 10
796.379960267499
 20
189.573745134297
 30
0.0
 40
1.096255614972571
100
AcDbArc
 50
244.2633570835
 51
273.4231266341
  0
LWPOLYLINE
  5
37C
330
1F
100
AcDbEntity
  8
0
  6
AUSGEZOGEN
 62
   136
370
    25
100
AcDbPolyline
 90
       20
 70
     0
 43
0.0
 10
799.915784555099
 20
212.565146693097
 10
799.960016721999
 20
212.541569683597
 10
800.841117052199
 20
212.032921289897
 10
801.652765603799
 20
211.487116529097
 10
802.390275350799
 20
210.907307259397
 10
803.049387396399
 20
210.296841704897
 10
803.626295566999
 20
209.659245120397
 10
804.117668391399
 20
208.998199434097
 10
804.520668339699
 20
208.317521985897
 10
804.832968208399
 20
207.621143483197
 10
805.052764559799
 20
206.913085302097
 10
805.178788136099
 20
206.197436265597
 10
805.210311189199
 20
205.478329031297
 10
805.147151682799
 20
204.759916226997
 10
804.989674344199
 20
204.046346470397
 10
804.738788557399
 20
203.341740412097
 10
804.395943112599
 20
202.650166939797
 10
803.963117838699
 20
201.975619682297
 10
803.442812171599
 20
201.321993946897
 10
802.838030719899
 20
200.693064225297
  0
LWPOLYLINE
  5
37D
330
1F
100
AcDbEntity
  8
0
  6
AUSGEZOGEN
 62
   136
370
    25
100
AcDbPolyline
 90
       19
 70
     0
 43
0.0
 10
802.959271586399
 20
200.750571567297
 10
803.566410349099
 20
201.398572687597
 10
804.084646313799
 20
202.071809554897
 10
804.510856378699
 20
202.766224968497
 10
804.842472027899
 20
203.477634097697
 10
805.077494809999
 20
204.201749700197
 10
805.214508381799
 20
204.934207959697
 10
805.252687043299
 20
205.670594783397
 10
805.191800714499
 20
206.406472403397
 10
805.032216321299
 20
207.137406120497
 10
804.774895584299
 20
207.858991029497
 10
804.421389223399
 20
208.566878564997
 10
803.973827612499
 20
209.256802707397
 10
803.434907940599
 20
209.924605691997
 10
802.807877957999
 20
210.566263065197
 10
802.096516403299
 20
211.177907937397
 10
801.305110232099
 20
211.755854286797
 10
800.438428781199
 20
212.296619172497
 10
799.915784555099
 20
212.585341257997
  0
LWPOLYLINE
  5
37E
330
1F
100
AcDbEntity
  8
0
  6
AUSGEZOGEN
 62
   136
370
    25
100
AcDbPolyline
 90
       18
 70
     0
 43
0.0
 10
803.260995558699
 20
212.753095267197
 10
803.592373236499
 20
212.565991551597
 10
804.571184943299
 20
211.960753856897
 10
805.475782172599
 20
211.318185073997
 10
806.301904322299
 20
210.641311665597
 10
807.045660403499
 20
209.933321667697
 10
807.703547366599
 20
209.197549673397
 10
808.272466600999
 20
208.437461127597
 10
808.749738528899
 20
207.656636004597
 10
809.133115226399
 20
206.858751946997
 10
809.420791010699
 20
206.047566943997
 10
809.611410944999
 20
205.226901631397
 10
809.704077220099
 20
204.400621296897
 10
809.698353382999
 20
203.572617674597
 10
809.594266392699
 20
202.746790614897
 10
809.392306493099
 20
201.927029717097
 10
809.093424903999
 20
201.117196008997
 10
808.699029340899
 20
200.321103762097
  0
LWPOLYLINE
  5
37F
330
1F
100
AcDbEntity
  8
0
  6
AUSGEZOGEN
 62
   136
370
    25
100
AcDbPolyline
 90
       19
 70
     0
 43
0.0
 10
808.759586238899
 20
200.289451901497
 10
809.154586282599
 20
201.087719181497
 10
809.453841210399
 20
201.899743210197
 10
809.655942385999
 20
202.721701672597
 10
809.759938489699
 20
203.549725490597
 10
809.765339996699
 20
204.379917035997
 10
809.672121481499
 20
205.208368476397
 10
809.480721736999
 20
206.031180170497
 10
809.192041709699
 20
206.844479024197
 10
808.807440258499
 20
207.644436721497
 10
808.328727758199
 20
208.427287745297
 10
807.758157578099
 20
209.189347102097
 10
807.098415475099
 20
209.927027667697
 10
806.352606950999
 20
210.636857072597
 10
805.524242634899
 20
211.315494046597
 10
804.617221758099
 20
211.959744146797
 10
803.635813799599
 20
212.566574794497
 10
802.584638389299
 20
213.133129549397
 10
802.248780365899
 20
213.298519057997
  0
LWPOLYLINE
  5
380
330
1F
100
AcDbEntity
  8
0
  6
AUSGEZOGEN
 62
   136
370
    25
100
AcDbPolyline
 90
       17
 70
     0
 43
0.0
 10
809.186617633299
 20
210.747811564597
 10
809.302332418299
 20
210.657364828697
 10
810.182556461999
 20
209.917301017097
 10
810.982676874999
 20
209.147527054697
 10
811.699694242099
 20
208.350928596597
 10
812.330920676699
 20
207.530491855297
 10
812.873989897299
 20
206.689292406197
 10
813.326866097699
 20
205.830483657497
 10
813.687851578699
 20
204.957285029797
 10
813.955593112199
 20
204.072969886997
 10
814.129087014399
 20
203.180853265497
 10
814.207682907599
 20
202.284279447297
 10
814.191086159299
 20
201.386609422897
 10
814.079358985599
 20
200.491208292297
 10
813.872920218799
 20
199.601432649997
 10
813.572543736799
 20
198.720618002397
 10
813.179355562399
 20
197.852066263397
  0
LWPOLYLINE
  5
381
330
1F
100
AcDbEntity
  8
0
  6
AUSGEZOGEN
 62
   136
370
    25
100
AcDbPolyline
 90
       17
 70
     0
 43
0.0
 10
813.267377164699
 20
197.801440878897
 10
813.660810304599
 20
198.672618916797
 10
813.961205596499
 20
199.556057622097
 10
814.167438213199
 20
200.448448967397
 10
814.278735918899
 20
201.346451402497
 10
814.294681960499
 20
202.246702366397
 10
814.215216628099
 20
203.145830878697
 10
814.040637478899
 20
204.040470161697
 10
813.771598222699
 20
204.927270247997
 10
813.409106274299
 20
205.802910523397
 10
812.954518980999
 20
206.664112162197
 10
812.409538540399
 20
207.507650403397
 10
811.776205626099
 20
208.330366626797
 10
811.056891746699
 20
209.129180179797
 10
810.254290365699
 20
209.901099913397
 10
809.371406815899
 20
210.643235381897
 10
808.804403946199
 20
211.073132544397
  0
LINE
  5
382
330
1F
100
AcDbEntity
  8
0
  6
AUSGEZOGEN
 62
   136
370
    25
100
AcDbLine
 10
760.841964787399
 20
204.600143740597
 30
0.0
 11
761.466654466699
 21
204.575032757297
 31
0.0
  0
LINE
  5
383
330
1F
100
AcDbEntity
  8
0
  6
AUSGEZOGEN
 62
     9
370
    25
100
AcDbLine
 10
487.28261156008
 20
213.67008834751
 30
0.0
 11
487.28261156008
 21
211.67008834751
 31
0.0
  0
LINE
  5
384
330
1F
100
AcDbEntity
  8
0
  6
AUSGEZOGEN
 62
     9
370
    25
100
AcDbLine
 10
605.28261156008
 20
211.67008834751
 30
0.0
 11
605.28261156008
 21
213.67008834751
 31
0.0
  0
ARC
  5
385
330
1F
100
AcDbEntity
  8
0
  6
AUSGEZOGEN
 62
     9
370
    25
100
AcDbCircle
 10
546.28261156008
 20
286.32252737191
 30
0.0
 40
95.1524390243903
100
AcDbArc
 50
308.2109827559
 51
308.320346244
  0
ARC
  5
386
330
1F
100
AcDbEntity
  8
0
  6
AUSGEZOGEN
 62
     9
370
    25
100
AcDbCircle
 10
546.28261156008
 20
286.32252737191
 30
0.0
 40
95.15243902439022
100
AcDbArc
 50
231.679653756
 51
231.7890172441
  0
LINE
  5
387
330
1F
100
AcDbEntity
  8
0
  6
AUSGEZOGEN
 62
     9
370
    25
100
AcDbLine
 10
501.93612442528
 20
205.47593204871
 30
0.0
 11
590.63297222568
 21
205.47593204871
 31
0.0
  0
LINE
  5
388
330
1F
100
AcDbEntity
  8
0
  6
AUSGEZOGEN
 62
     9
370
    25
100
AcDbLine
 10
509.28736160948
 20
200.50365488491
 30
0.0
 11
583.27789532168
 21
200.50365488491
 31
0.0
  0
LINE
  5
389
330
1F
100
AcDbEntity
  8
0
  6
AUSGEZOGEN
 62
     9
370
    25
100
AcDbLine
 10
514.37631924228
 20
196.69733130931
 30
0.0
 11
578.18939188208
 21
196.69733130931
 31
0.0
  0
ARC
  5
38A
330
1F
100
AcDbEntity
  8
0
  6
AUSGEZOGEN
 62
     9
370
    25
100
AcDbCircle
 10
546.28261156008
 20
286.32252737191
 30
0.0
 40
95.15243902439028
100
AcDbArc
 50
271.5865256635
 51
289.5558800125
  0
ARC
  5
38B
330
1F
100
AcDbEntity
  8
0
  6
AUSGEZOGEN
 62
     9
370
    25
100
AcDbCircle
 10
546.28261156008
 20
286.32252737191
 30
0.0
 40
95.15243902439028
100
AcDbArc
 50
250.4441199875
 51
268.4134743365
  0
LINE
  5
38C
330
1F
100
AcDbEntity
  8
0
  6
AUSGEZOGEN
 62
     9
370
    25
100
AcDbLine
 10
544.78261156008
 20
213.67008834751
 30
0.0
 11
544.78261156008
 21
216.61250626691
 31
0.0
  0
LINE
  5
38D
330
1F
100
AcDbEntity
  8
0
  6
AUSGEZOGEN
 62
     9
370
    25
100
AcDbLine
 10
544.78261156008
 20
216.61250626691
 30
0.0
 11
547.78261156008
 21
216.61250626691
 31
0.0
  0
LINE
  5
38E
330
1F
100
AcDbEntity
  8
0
  6
AUSGEZOGEN
 62
     9
370
    25
100
AcDbLine
 10
547.78261156008
 20
213.67008834751
 30
0.0
 11
547.78261156008
 21
216.61250626691
 31
0.0
  0
LINE
  5
38F
330
1F
100
AcDbEntity
  8
0
  6
AUSGEZOGEN
 62
     9
370
    25
100
AcDbLine
 10
544.78261156008
 20
138.21250626691
 30
0.0
 11
547.78261156008
 21
138.21250626691
 31
0.0
  0
LINE
  5
390
330
1F
100
AcDbEntity
  8
0
  6
AUSGEZOGEN
 62
     9
370
    25
100
AcDbLine
 10
544.78261156008
 20
138.21250626691
 30
0.0
 11
544.78261156008
 21
196.07367842591
 31
0.0
  0
LINE
  5
391
330
1F
100
AcDbEntity
  8
0
  6
AUSGEZOGEN
 62
     9
370
    25
100
AcDbLine
 10
547.78261156008
 20
138.21250626691
 30
0.0
 11
547.78261156008
 21
196.07367842591
 31
0.0
  0
LINE
  5
392
330
1F
100
AcDbEntity
  8
0
  6
AUSGEZOGEN
 62
     9
370
    25
100
AcDbLine
 10
544.78261156008
 20
133.21250626691
 30
0.0
 11
547.78261156008
 21
133.21250626691
 31
0.0
  0
LINE
  5
393
330
1F
100
AcDbEntity
  8
0
  6
AUSGEZOGEN
 62
     9
370
    25
100
AcDbLine
 10
544.78261156008
 20
133.21250626691
 30
0.0
 11
544.78261156008
 21
138.21250626691
 31
0.0
  0
LINE
  5
394
330
1F
100
AcDbEntity
  8
0
  6
AUSGEZOGEN
 62
     9
370
    25
100
AcDbLine
 10
547.78261156008
 20
133.21250626691
 30
0.0
 11
547.78261156008
 21
138.21250626691
 31
0.0
  0
LINE
  5
395
330
1F
100
AcDbEntity
  8
0
  6
AUSGEZOGEN
 62
     9
370
    25
100
AcDbLine
 10
487.28261156008
 20
211.67008834751
 30
0.0
 11
605.28261156008
 21
211.67008834751
 31
0.0
  0
LINE
  5
396
330
1F
100
AcDbEntity
  8
0
  6
AUSGEZOGEN
 62
     9
370
    25
100
AcDbLine
 10
487.28261156008
 20
213.67008834751
 30
0.0
 11
605.28261156008
 21
213.67008834751
 31
0.0
  0
LINE
  5
397
330
1F
100
AcDbEntity
  8
0
  6
AUSGEZOGEN
 62
     9
370
    25
100
AcDbLine
 10
605.14001110488
 20
211.55760798391
 30
0.0
 11
597.94508187008
 21
211.28120668331
 31
0.0
  0
LWPOLYLINE
  5
398
330
1F
100
AcDbEntity
  8
0
  6
AUSGEZOGEN
 62
     9
370
    25
100
AcDbPolyline
 90
       17
 70
     0
 43
0.0
 10
594.800841161956
 20
209.206863877972
 10
595.144843063506
 20
209.512972030462
 10
595.508685558661
 20
209.820015261981
 10
595.894791271073
 20
210.127805573761
 10
596.097998823849
 20
210.28211327267
 10
596.308173600972
 20
210.435780843846
 10
596.524050577581
 20
210.587004713825
 10
596.743878419211
 20
210.733211185533
 10
596.965828738784
 20
210.871477015073
 10
597.188073149222
 20
210.998878958551
 10
597.406385109735
 20
211.110700985734
 10
597.511592956018
 20
211.158488096794
 10
597.612972615895
 20
211.199753731894
 10
597.708363560382
 20
211.233231204849
 10
597.795857696641
 20
211.258086227169
 10
597.87493660608
 20
211.274138239684
 10
597.945081870106
 20
211.281206683225
  0
ARC
  5
399
330
1F
100
AcDbEntity
  8
0
  6
AUSGEZOGEN
 62
     9
370
    25
100
AcDbCircle
 10
543.62812279508
 20
265.22285232871
 30
0.0
 40
75.8711939221429
100
AcDbArc
 50
308.8695578367
 51
312.4128775032
  0
LINE
  5
39A
330
1F
100
AcDbEntity
  8
0
  6
AUSGEZOGEN
 62
     9
370
    25
100
AcDbLine
 10
591.24105078528
 20
206.15130964211
 30
0.0
 11
501.32417233488
 21
206.15130964211
 31
0.0
  0
ARC
  5
39B
330
1F
100
AcDbEntity
  8
0
  6
AUSGEZOGEN
 62
     9
370
    25
100
AcDbCircle
 10
548.93710032428
 20
265.22285232791
 30
0.0
 40
75.87119392103006
100
AcDbArc
 50
227.5871224967
 51
231.1304421633
  0
LWPOLYLINE
  5
39C
330
1F
100
AcDbEntity
  8
0
  6
AUSGEZOGEN
 62
     9
370
    25
100
AcDbPolyline
 90
       17
 70
     0
 43
0.0
 10
494.620141249928
 20
211.281206683225
 10
494.689951582531
 20
211.274219219271
 10
494.768573525309
 20
211.258321174388
 10
494.856213720829
 20
211.233433784469
 10
494.951340485678
 20
211.200099719436
 10
495.051947346109
 20
211.159183132246
 10
495.156925944066
 20
211.111558147915
 10
495.374696865029
 20
211.000216441083
 10
495.596696846073
 20
210.872930429545
 10
495.818942990123
 20
210.734495013446
 10
496.037143410379
 20
210.589647526882
 10
496.250656133965
 20
210.440356745356
 10
496.460222376201
 20
210.287324146986
 10
496.664342040279
 20
210.132508610149
 10
497.052760337294
 20
209.823116741772
 10
497.419068800085
 20
209.51409125989
 10
497.764381958079
 20
209.206863877972
  0
LINE
  5
39D
330
1F
100
AcDbEntity
  8
0
  6
AUSGEZOGEN
 62
     9
370
    25
100
AcDbLine
 10
494.62014124988
 20
211.28120668331
 30
0.0
 11
487.42521201508
 21
211.55760798391
 31
0.0
  0
LWPOLYLINE
  5
39E
330
1F
100
AcDbEntity
  8
0
  6
AUSGEZOGEN
 62
     9
370
    25
100
AcDbPolyline
 90
        9
 70
     0
 43
0.0
 10
501.32417233483
 20
206.151309642095
 10
501.330908618046
 20
206.079933469793
 10
501.344377343889
 20
206.010544264648
 10
501.364195935942
 20
205.943894413577
 10
501.389981817789
 20
205.880736303499
 10
501.421352413014
 20
205.821822321331
 10
501.457925145201
 20
205.767904853989
 10
501.499317437935
 20
205.719736288393
 10
501.545146714798
 20
205.678069011459
  0
LWPOLYLINE
  5
39F
330
1F
100
AcDbEntity
  8
0
  6
AUSGEZOGEN
 62
     9
370
    25
100
AcDbPolyline
 90
        9
 70
     0
 43
0.0
 10
591.020076405236
 20
205.678069011459
 10
591.065906118265
 20
205.719736151306
 10
591.107298571469
 20
205.767903668143
 10
591.143871263972
 20
205.821819650472
 10
591.175241694894
 20
205.880732186797
 10
591.201027363357
 20
205.943889365618
 10
591.220845768484
 20
206.01053927544
 10
591.234314409396
 20
206.079930004764
 10
591.241050785214
 20
206.151309642092
  0
LINE
  5
3A0
330
1F
100
AcDbEntity
  8
0
  6
AUSGEZOGEN
 62
     9
370
    25
100
AcDbLine
 10
591.02007640528
 20
205.67806901151
 30
0.0
 11
501.54514671488
 21
205.67806901151
 31
0.0
  0
ARC
  5
3A1
330
1F
100
AcDbEntity
  8
0
  6
AUSGEZOGEN
 62
     9
370
    25
100
AcDbCircle
 10
547.72924617248
 20
263.66584091931
 30
0.0
 40
74.1319953431226
100
AcDbArc
 50
231.4645891805
 51
231.6012765597
  0
ARC
  5
3A2
330
1F
100
AcDbEntity
  8
0
  6
AUSGEZOGEN
 62
     9
370
    25
100
AcDbCircle
 10
544.83597694748
 20
263.66584091931
 30
0.0
 40
74.1319953431102
100
AcDbArc
 50
308.3987234403
 51
308.5354108195
  0
LINE
  5
3A3
330
1F
100
AcDbEntity
  8
0
  6
AUSGEZOGEN
 62
     9
370
    25
100
AcDbLine
 10
501.68361623468
 20
205.56805527151
 30
0.0
 11
590.88160688548
 21
205.56805527151
 31
0.0
  0
LWPOLYLINE
  5
3A4
330
1F
100
AcDbEntity
  8
0
  6
AUSGEZOGEN
 62
     9
370
    25
100
AcDbPolyline
 90
        6
 70
     0
 43
0.0
 10
501.683616234608
 20
205.568055271502
 10
501.757050563668
 20
205.521812861445
 10
501.794570745234
 20
205.503341862305
 10
501.833054547243
 20
205.490451110229
 10
501.888771634263
 20
205.483255209365
 10
501.945746347588
 20
205.483342119437
  0
LWPOLYLINE
  5
3A5
330
1F
100
AcDbEntity
  8
0
  6
AUSGEZOGEN
 62
     9
370
    25
100
AcDbPolyline
 90
        8
 70
     0
 43
0.0
 10
590.584684042542
 20
205.486619457202
 10
590.635076870449
 20
205.480773614084
 10
590.685350691674
 20
205.480293624236
 10
590.725610662912
 20
205.486839737432
 10
590.765271671501
 20
205.499450385845
 10
590.803889151316
 20
205.517228570374
 10
590.841018536235
 20
205.539277291912
 10
590.881606885426
 20
205.568055271502
  0
ARC
  5
3A6
330
1F
100
AcDbEntity
  8
0
  6
AUSGEZOGEN
 62
     9
370
    25
100
AcDbCircle
 10
546.03520588428
 20
262.19064383511
 30
0.0
 40
71.999380380648
100
AcDbArc
 50
304.2442396599
 51
308.027877353
  0
ARC
  5
3A7
330
1F
100
AcDbEntity
  8
0
  6
AUSGEZOGEN
 62
     9
370
    25
100
AcDbCircle
 10
544.53366957168
 20
269.85797980911
 30
0.0
 40
79.2421235699284
100
AcDbArc
 50
300.6271680731
 51
302.0215145196
  0
LWPOLYLINE
  5
3A8
330
1F
100
AcDbEntity
  8
0
  6
AUSGEZOGEN
 62
     9
370
    25
100
AcDbPolyline
 90
        2
 70
     0
 43
0.0
 10
584.903529689084
 20
201.670088347575
 10
583.871346656948
 20
201.064541515564
  0
LINE
  5
3A9
330
1F
100
AcDbEntity
  8
0
  6
AUSGEZOGEN
 62
     9
370
    25
100
AcDbLine
 10
583.87134665688
 20
201.06454151551
 30
0.0
 11
508.69387646308
 21
201.06454151551
 31
0.0
  0
LWPOLYLINE
  5
3AA
330
1F
100
AcDbEntity
  8
0
  6
AUSGEZOGEN
 62
     9
370
    25
100
AcDbPolyline
 90
        2
 70
     0
 43
0.0
 10
508.693876463086
 20
201.064541515564
 10
507.66169343095
 20
201.670088347575
  0
ARC
  5
3AB
330
1F
100
AcDbEntity
  8
0
  6
AUSGEZOGEN
 62
     9
370
    25
100
AcDbCircle
 10
548.03155354828
 20
269.85797980891
 30
0.0
 40
79.24212356974766
100
AcDbArc
 50
237.9784854804
 51
239.3728319269
  0
ARC
  5
3AC
330
1F
100
AcDbEntity
  8
0
  6
AUSGEZOGEN
 62
     9
370
    25
100
AcDbCircle
 10
546.53001723588
 20
262.19064383511
 30
0.0
 40
71.99938038068905
100
AcDbArc
 50
231.972122647
 51
235.7557603401
  0
LWPOLYLINE
  5
3AD
330
1F
100
AcDbEntity
  8
0
  6
AUSGEZOGEN
 62
     9
370
    25
100
AcDbPolyline
 90
        9
 70
     0
 43
0.0
 10
508.960557697341
 20
200.624304488235
 10
508.90843230442
 20
200.659634667052
 10
508.86089606462
 20
200.7019757687
 10
508.818338721184
 20
200.75063653885
 10
508.781150017359
 20
200.804925723171
 10
508.749719696391
 20
200.864152067332
 10
508.724437501524
 20
200.927624317005
 10
508.705693176004
 20
200.994651217857
 10
508.693876463077
 20
201.06454151556
  0
LWPOLYLINE
  5
3AE
330
1F
100
AcDbEntity
  8
0
  6
AUSGEZOGEN
 62
     9
370
    25
100
AcDbPolyline
 90
        9
 70
     0
 43
0.0
 10
583.871346656948
 20
201.064541515564
 10
583.859529951096
 20
200.994651677746
 10
583.840785532023
 20
200.927624936381
 10
583.815503192278
 20
200.864152630298
 10
583.784072724409
 20
200.804926098331
 10
583.746883920967
 20
200.750636679309
 10
583.704326574501
 20
200.701975712065
 10
583.65679047756
 20
200.65963453543
 10
583.604665422693
 20
200.624304488235
  0
LINE
  5
3AF
330
1F
100
AcDbEntity
  8
0
  6
AUSGEZOGEN
 62
     9
370
    25
100
AcDbLine
 10
583.60466542268
 20
200.62430448831
 30
0.0
 11
508.96055769728
 21
200.62430448831
 31
0.0
  0
LINE
  5
3B0
330
1F
100
AcDbEntity
  8
0
  6
AUSGEZOGEN
 62
     9
370
    25
100
AcDbLine
 10
509.063731962
 20
200.564308808798
 30
0.0
 11
508.960557697341
 21
200.624304488235
 31
0.0
  0
LINE
  5
3B1
330
1F
100
AcDbEntity
  8
0
  6
AUSGEZOGEN
 62
     9
370
    25
100
AcDbLine
 10
583.604665422693
 20
200.624304488235
 30
0.0
 11
583.501491158034
 21
200.564308808798
 31
0.0
  0
LINE
  5
3B2
330
1F
100
AcDbEntity
  8
0
  6
AUSGEZOGEN
 62
     9
370
    25
100
AcDbLine
 10
509.06373196208
 20
200.56430880871
 30
0.0
 11
583.50149115808
 21
200.56430880871
 31
0.0
  0
LWPOLYLINE
  5
3B3
330
1F
100
AcDbEntity
  8
0
  6
AUSGEZOGEN
 62
     9
370
    25
100
AcDbPolyline
 90
        5
 70
     0
 43
0.0
 10
509.330808531456
 20
200.51180284833
 10
509.264480850333
 20
200.508061678687
 10
509.199781480681
 20
200.512437740486
 10
509.130741527339
 20
200.533312470969
 10
509.063731962
 20
200.564308808798
  0
LWPOLYLINE
  5
3B4
330
1F
100
AcDbEntity
  8
0
  6
AUSGEZOGEN
 62
     9
370
    25
100
AcDbPolyline
 90
        6
 70
     0
 43
0.0
 10
583.501491158034
 20
200.564308808798
 10
583.432056455154
 20
200.531839547999
 10
583.396611265514
 20
200.519372923605
 10
583.360292670036
 20
200.511427906416
 10
583.308791100443
 20
200.509048216448
 10
583.256192353482
 20
200.512348595101
  0
LWPOLYLINE
  5
3B5
330
1F
100
AcDbEntity
  8
0
  6
AUSGEZOGEN
 62
     9
370
    25
100
AcDbPolyline
 90
        7
 70
     0
 43
0.0
 10
582.898126277233
 20
200.503654884895
 10
581.652823371748
 20
199.795787513559
 10
580.984160386672
 20
199.419729568478
 10
580.336405336622
 20
199.056419776891
 10
579.092815108529
 20
198.353136887759
 10
578.586480694106
 20
198.058029705794
 10
578.132611560017
 20
197.781329448607
  0
LINE
  5
3B6
330
1F
100
AcDbEntity
  8
0
  6
AUSGEZOGEN
 62
     9
370
    25
100
AcDbLine
 10
578.13261156008
 20
197.16859222451
 30
0.0
 11
578.13261156008
 21
197.78132944851
 31
0.0
  0
LINE
  5
3B7
330
1F
100
AcDbEntity
  8
0
  6
AUSGEZOGEN
 62
     9
370
    25
100
AcDbLine
 10
578.13261156008
 20
197.16859222451
 30
0.0
 11
514.43261156008
 21
197.16859222451
 31
0.0
  0
LINE
  5
3B8
330
1F
100
AcDbEntity
  8
0
  6
AUSGEZOGEN
 62
     9
370
    25
100
AcDbLine
 10
514.43261156008
 20
197.78132944851
 30
0.0
 11
514.43261156008
 21
197.16859222451
 31
0.0
  0
LWPOLYLINE
  5
3B9
330
1F
100
AcDbEntity
  8
0
  6
AUSGEZOGEN
 62
     9
370
    25
100
AcDbPolyline
 90
        7
 70
     0
 43
0.0
 10
514.432611560017
 20
197.781329448607
 10
514.013627263428
 20
198.034487458582
 10
513.569666000675
 20
198.297129558025
 10
513.07153373678
 20
198.582599981288
 10
512.539731740867
 20
198.881847003174
 10
511.083599158336
 20
199.69932445058
 10
509.667220894026
 20
200.503654884895
  0
LINE
  5
3BA
330
1F
100
AcDbEntity
  8
0
  6
AUSGEZOGEN
 62
     9
370
    25
100
AcDbLine
 10
578.132611560017
 20
196.764471796434
 30
0.0
 11
578.132611560017
 21
197.168592224429
 31
0.0
  0
LINE
  5
3BB
330
1F
100
AcDbEntity
  8
0
  6
AUSGEZOGEN
 62
     9
370
    25
100
AcDbLine
 10
578.13261156008
 20
196.76447179651
 30
0.0
 11
514.43261156008
 21
196.76447179651
 31
0.0
  0
LINE
  5
3BC
330
1F
100
AcDbEntity
  8
0
  6
AUSGEZOGEN
 62
     9
370
    25
100
AcDbLine
 10
514.432611560017
 20
197.168592224428
 30
0.0
 11
514.432611560017
 21
196.764471796434
 31
0.0
  0
LINE
  5
3BD
330
1F
100
AcDbEntity
  8
0
  6
AUSGEZOGEN
 62
     9
370
    25
100
AcDbLine
 10
514.43261156008
 20
196.73389519731
 30
0.0
 11
578.13261156008
 21
196.73389519731
 31
0.0
  0
LINE
  5
3BE
330
1F
100
AcDbEntity
  8
0
  6
AUSGEZOGEN
 62
     9
370
    25
100
AcDbLine
 10
548.91705509208
 20
191.20656467611
 30
0.0
 11
548.74636109888
 21
196.09460110071
 31
0.0
  0
ARC
  5
3BF
330
1F
100
AcDbEntity
  8
0
  6
AUSGEZOGEN
 62
     9
370
    25
100
AcDbCircle
 10
546.28261156008
 20
287.37413956931
 30
0.0
 40
91.31278226426306
100
AcDbArc
 50
268.4538902427
 51
271.5461097573
  0
LINE
  5
3C0
330
1F
100
AcDbEntity
  8
0
  6
AUSGEZOGEN
 62
     9
370
    25
100
AcDbLine
 10
543.81886202108
 20
196.09460110071
 30
0.0
 11
543.64816802788
 21
191.20656467611
 31
0.0
  0
LINE
  5
3C1
330
1F
100
AcDbEntity
  8
FORMAT
  6
DASHDOT
 62
    56
370
    18
100
AcDbLine
 10
670.20849176125
 20
299.91643912651
 30
0.0
 11
760.0
 21
299.91643912651
 31
0.0
  0
LINE
  5
3C2
330
1F
100
AcDbEntity
  8
FORMAT
  6
DASHDOT
 62
    56
370
    18
100
AcDbLine
 10
485.0
 20
299.91643912651
 30
0.0
 11
609.132357901654
 21
299.91643912651
 31
0.0
  0
LINE
  5
3C3
330
1F
100
AcDbEntity
  8
FORMAT
  6
DASHDOT
 62
    56
370
    18
100
AcDbLine
 10
546.28261156008
 20
240.0
 30
0.0
 11
546.28261156008
 21
360.0
 31
0.0
  0
LINE
  5
3C4
330
1F
100
AcDbEntity
  8
FORMAT
  6
DASHDOT
 62
    56
370
    18
100
AcDbLine
 10
509.201883626813
 20
309.91643912651
 30
0.0
 11
518.791171562278
 21
309.91643912651
 31
0.0
  0
LINE
  5
3C5
330
1F
100
AcDbEntity
  8
FORMAT
  6
DASHDOT
 62
    56
370
    18
100
AcDbLine
 10
509.033650505138
 20
289.91643912651
 30
0.0
 11
519.127637805627
 21
289.91643912651
 31
0.0
  0
DIMENSION
  5
3D0
330
1F
100
AcDbEntity
  8
Layer6
  6
AUSGEZOGEN
 62
   136
370
    18
100
AcDbDimension
  2
*D8
 10
605.28261156008
 20
231.833454246294
 30
0.0
 11
547.552477342259
 21
234.333454246294
 31
0.0
 70
   160
 71
     5
 42
-1.0
  3
ISO-25
100
AcDbAlignedDimension
 13
487.28261156008
 23
299.91643912651
 33
0.0
 14
605.28261156008
 24
299.91643912651
 34
0.0
100
AcDbRotatedDimension
1001
ACAD
1000
DSTYLE
1002
{
1070
     3
1000
<>
1070
    44
1040
1.785714285714
1070
   280
1070
     0
1070
    77
1070
     1
1070
    78
1070
     8
1070
   179
1070
     2
1070
   271
1070
     2
1070
   173
1070
     1
1070
    41
1040
2.5
1070
   147
1040
0.357142857143
1070
   140
1040
2.5
1070
   178
1070
   136
1070
   177
1070
   136
1070
   176
1070
   136
1002
}
  0
DIMENSION
  5
3DD
330
1F
100
AcDbEntity
  8
Layer6
  6
AUSGEZOGEN
 62
   136
370
    18
100
AcDbDimension
  2
*D9
 10
480.0
 20
309.91643912651
 30
0.0
 11
477.5
 21
299.920008585712
 31
0.0
 70
   160
 71
     5
 42
-1.0
 53
90.0
  3
ISO-25
100
AcDbAlignedDimension
 13
509.033650505138
 23
289.91643912651
 33
0.0
 14
509.201883626813
 24
309.91643912651
 34
0.0
 50
90.0
100
AcDbRotatedDimension
1001
ACAD
1000
DSTYLE
1002
{
1070
     3
1000
<>
1070
    44
1040
1.785714285714
1070
   280
1070
     0
1070
    77
1070
     1
1070
    78
1070
     8
1070
   179
1070
     2
1070
   271
1070
     2
1070
   173
1070
     1
1070
    41
1040
2.5
1070
   147
1040
0.357142857143
1070
   140
1040
2.5
1070
   178
1070
   136
1070
   177
1070
   136
1070
   176
1070
   136
1002
}
  0
DIMENSION
  5
3E9
330
1F
100
AcDbEntity
  8
Layer6
  6
AUSGEZOGEN
 62
   136
370
    18
100
AcDbDimension
  2
*D10
 10
698.095065202013
 20
232.996229405343
 30
0.0
 11
686.40897450954
 21
235.496229405343
 31
0.0
 70
   160
 71
     5
 42
-1.0
  3
ISO-25
100
AcDbAlignedDimension
 13
675.63151258188
 23
240.91643912651
 33
0.0
 14
698.095065202013
 24
299.91643912651
 34
0.0
100
AcDbRotatedDimension
1001
ACAD
1000
DSTYLE
1002
{
1070
     3
1000
<>
1070
    44
1040
1.785714285714
1070
   280
1070
     0
1070
    77
1070
     1
1070
    78
1070
     8
1070
   179
1070
     1
1070
   271
1070
     1
1070
   173
1070
     1
1070
    41
1040
2.5
1070
   147
1040
0.357142857143
1070
   140
1040
2.5
1070
   178
1070
   136
1070
   177
1070
   136
1070
   176
1070
   136
1002
}
  0
DIMENSION
  5
3F5
330
1F
100
AcDbEntity
  8
Layer6
  6
AUSGEZOGEN
 62
   136
370
    18
100
AcDbDimension
  2
*D11
 10
756.08909466268
 20
225.997448864345
 30
0.0
 11
715.219074103727
 21
228.497448864345
 31
0.0
 70
   160
 71
     5
 42
-1.0
  3
ISO-25
100
AcDbAlignedDimension
 13
675.63151258188
 23
240.91643912651
 33
0.0
 14
756.08909466268
 24
275.01643912651
 34
0.0
100
AcDbRotatedDimension
1001
ACAD
1000
DSTYLE
1002
{
1070
     3
1000
<>
1070
    44
1040
1.785714285714
1070
   280
1070
     0
1070
    77
1070
     1
1070
    78
1070
     8
1070
   179
1070
     1
1070
   271
1070
     1
1070
   173
1070
     1
1070
    41
1040
2.5
1070
   147
1040
0.357142857143
1070
   140
1040
2.5
1070
   178
1070
   136
1070
   177
1070
   136
1070
   176
1070
   136
1002
}
  0
DIMENSION
  5
400
330
1F
100
AcDbEntity
  8
Layer6
  6
AUSGEZOGEN
 62
   136
370
    18
100
AcDbDimension
  2
*D12
 10
767.51432061876
 20
329.81643912651
 30
0.0
 11
765.01432061876
 21
298.223050197609
 31
0.0
 70
   160
 71
     5
 42
-1.0
 53
90.0
  3
ISO-25
100
AcDbAlignedDimension
 13
751.08909466268
 23
270.01643912651
 33
0.0
 14
751.08909466268
 24
329.81643912651
 34
0.0
 50
90.0
100
AcDbRotatedDimension
1001
ACAD
1000
DSTYLE
1002
{
1070
     3
1000
<>
1070
    44
1040
1.785714285714
1070
   280
1070
     0
1070
    77
1070
     1
1070
    78
1070
     8
1070
   179
1070
     1
1070
   271
1070
     1
1070
   173
1070
     1
1070
    41
1040
2.5
1070
   147
1040
0.357142857143
1070
   140
1040
2.5
1070
   178
1070
   136
1070
   177
1070
   136
1070
   176
1070
   136
1002
}
  0
ENDSEC
  0
SECTION
  2
OBJECTS
  0
DICTIONARY
  5
C
330
0
100
AcDbDictionary
281
     1
  3
ACAD_GROUP
350
D
  3
ACAD_LAYOUT
350
1A
  3
ACAD_MATERIAL
350
3B
  3
ACAD_MLEADERSTYLE
350
428
  3
ACAD_MLINESTYLE
350
17
  3
ACAD_PLOTSETTINGS
350
19
  3
ACAD_PLOTSTYLENAME
350
E
  3
ACAD_TABLESTYLE
350
427
  3
ACAD_VISUALSTYLE
350
2A
  3
ACAD_WIPEOUT_VARS
350
3F
  0
DICTIONARY
  5
D
102
{ACAD_REACTORS
330
C
102
}
330
C
100
AcDbDictionary
281
     1
  0
DICTIONARY
  5
1A
102
{ACAD_REACTORS
330
C
102
}
330
C
100
AcDbDictionary
281
     1
  3
Layout1
350
1E
  3
Layout2
350
26
  3
Model
350
22
  0
DICTIONARY
  5
3B
102
{ACAD_REACTORS
330
C
102
}
330
C
100
AcDbDictionary
281
     1
  3
ByBlock
350
3D
  3
ByLayer
350
3C
  3
Global
350
3E
  0
DICTIONARY
  5
428
102
{ACAD_REACTORS
330
C
102
}
330
C
100
AcDbDictionary
281
     1
  0
DICTIONARY
  5
17
102
{ACAD_REACTORS
330
C
102
}
330
C
100
AcDbDictionary
281
     1
  3
Standard
350
18
  0
DICTIONARY
  5
19
102
{ACAD_REACTORS
330
C
102
}
330
C
100
AcDbDictionary
281
     1
  0
ACDBDICTIONARYWDFLT
  5
E
102
{ACAD_REACTORS
330
C
102
}
330
C
100
AcDbDictionary
281
     1
  3
Normal
350
F
100
AcDbDictionaryWithDefault
340
F
  0
DICTIONARY
  5
427
102
{ACAD_REACTORS
330
C
102
}
330
C
100
AcDbDictionary
281
     1
  0
DICTIONARY
  5
2A
102
{ACAD_REACTORS
330
C
102
}
330
C
100
AcDbDictionary
281
     1
  3
2dWireframe
350
2F
  3
3D Hidden
350
31
  3
3dWireframe
350
30
  3
Basic
350
32
  3
Brighten
350
36
  3
ColorChange
350
3A
  3
Conceptual
350
34
  3
Dim
350
35
  3
Facepattern
350
39
  3
Flat
350
2B
  3
FlatWithEdges
350
2C
  3
Gouraud
350
2D
  3
GouraudWithEdges
350
2E
  3
Linepattern
350
38
  3
Realistic
350
33
  3
Thicken
350
37
  0
WIPEOUTVARIABLES
  5
3F
102
{ACAD_REACTORS
330
C
102
}
330
C
100
AcDbWipeoutVariables
 70
     0
  0
LAYOUT
  5
1E
102
{ACAD_REACTORS
330
1A
102
}
330
1A
100
AcDbPlotSettings
  1

  2
none_device
  4

  6

 40
0.0
 41
0.0
 42
0.0
 43
0.0
 44
0.0
 45
0.0
 46
0.0
 47
0.0
 48
0.0
 49
0.0
140
0.0
141
0.0
142
1.0
143
1.0
 70
   688
 72
     0
 73
     0
 74
     5
  7

 75
    16
 76
     0
 77
     2
 78
   300
147
1.0
148
0.0
149
0.0
100
AcDbLayout
  1
Layout1
 70
     1
 71
     1
 10
0.0
 20
0.0
 11
420.0
 21
297.0
 12
0.0
 22
0.0
 32
0.0
 14
1.000000000000E+20
 24
1.000000000000E+20
 34
1.000000000000E+20
 15
-1.000000000000E+20
 25
-1.000000000000E+20
 35
-1.000000000000E+20
146
0.0
 13
0.0
 23
0.0
 33
0.0
 16
1.0
 26
0.0
 36
0.0
 17
0.0
 27
1.0
 37
0.0
 76
     0
330
1B
  0
LAYOUT
  5
26
102
{ACAD_REACTORS
330
1A
102
}
330
1A
100
AcDbPlotSettings
  1

  2
none_device
  4

  6

 40
0.0
 41
0.0
 42
0.0
 43
0.0
 44
0.0
 45
0.0
 46
0.0
 47
0.0
 48
0.0
 49
0.0
140
0.0
141
0.0
142
1.0
143
1.0
 70
   688
 72
     0
 73
     0
 74
     5
  7

 75
    16
 76
     0
 77
     2
 78
   300
147
1.0
148
0.0
149
0.0
100
AcDbLayout
  1
Layout2
 70
     1
 71
     2
 10
0.0
 20
0.0
 11
0.0
 21
0.0
 12
0.0
 22
0.0
 32
0.0
 14
0.0
 24
0.0
 34
0.0
 15
0.0
 25
0.0
 35
0.0
146
0.0
 13
0.0
 23
0.0
 33
0.0
 16
1.0
 26
0.0
 36
0.0
 17
0.0
 27
1.0
 37
0.0
 76
     0
330
23
  0
LAYOUT
  5
22
102
{ACAD_REACTORS
330
1A
102
}
330
1A
100
AcDbPlotSettings
  1

  2
none_device
  4

  6

 40
0.0
 41
0.0
 42
0.0
 43
0.0
 44
0.0
 45
0.0
 46
0.0
 47
0.0
 48
0.0
 49
0.0
140
0.0
141
0.0
142
1.0
143
1.0
 70
  1712
 72
     0
 73
     0
 74
     0
  7

 75
     0
 76
     0
 77
     2
 78
   300
147
1.0
148
0.0
149
0.0
100
AcDbLayout
  1
Model
 70
     1
 71
     0
 10
0.0
 20
0.0
 11
420.0
 21
297.0
 12
0.0
 22
0.0
 32
0.0
 14
246.668474214482
 24
96.506129422918
 34
0.0
 15
1020.20427621939
 25
410.138129422917
 35
0.0
146
0.0
 13
0.0
 23
0.0
 33
0.0
 16
1.0
 26
0.0
 36
0.0
 17
0.0
 27
1.0
 37
0.0
 76
     0
330
1F
331
29
  0
MATERIAL
  5
3D
102
{ACAD_REACTORS
330
3B
102
}
102
{ACAD_XDICTIONARY
360
423
102
}
330
3B
100
AcDbMaterial
  1
ByBlock
  0
MATERIAL
  5
3C
102
{ACAD_REACTORS
330
3B
102
}
102
{ACAD_XDICTIONARY
360
421
102
}
330
3B
100
AcDbMaterial
  1
ByLayer
  0
MATERIAL
  5
3E
102
{ACAD_REACTORS
330
3B
102
}
102
{ACAD_XDICTIONARY
360
425
102
}
330
3B
100
AcDbMaterial
  1
Global
  0
MLINESTYLE
  5
18
102
{ACAD_REACTORS
330
17
102
}
330
17
100
AcDbMlineStyle
  2
Standard
 70
     0
  3

 62
   256
 51
90.0
 52
90.0
 71
     2
 49
0.5
 62
   256
  6
BYLAYER
 49
-0.5
 62
   256
  6
BYLAYER
  0
ACDBPLACEHOLDER
  5
F
102
{ACAD_REACTORS
330
E
102
}
330
E
  0
VISUALSTYLE
  5
2F
102
{ACAD_REACTORS
330
2A
102
}
102
{ACAD_XDICTIONARY
360
409
102
}
330
2A
100
AcDbVisualStyle
  2
2dWireframe
 70
     4
 71
     0
 72
     2
 73
     0
 90
        0
 40
-0.6
 41
-30.0
 62
     5
 63
     7
421
 16777215
 74
     1
 91
        4
 64
     7
 65
   257
 75
     1
175
     1
 42
1.0
 92
        0
 66
   257
 43
1.0
 76
     1
 77
     6
 78
     2
 67
     7
 79
     5
170
     0
171
     0
290
     0
174
     0
 93
        1
 44
0.0
173
     0
291
     0
 45
0.0
1001
ACAD
1000
AcDbSavedByObjectVersion
1070
     0
  0
VISUALSTYLE
  5
31
102
{ACAD_REACTORS
330
2A
102
}
102
{ACAD_XDICTIONARY
360
40D
102
}
330
2A
100
AcDbVisualStyle
  2
3D Hidden
 70
     6
 71
     1
 72
     2
 73
     2
 90
        0
 40
-0.6
 41
-30.0
 62
     5
 63
     7
421
 16777215
 74
     2
 91
        2
 64
     7
 65
   257
 75
     2
175
     1
 42
40.0
 92
        0
 66
   257
 43
1.0
 76
     1
 77
     6
 78
     2
 67
     7
 79
     3
170
     0
171
     0
290
     0
174
     0
 93
        1
 44
0.0
173
     0
291
     0
 45
0.0
1001
ACAD
1000
AcDbSavedByObjectVersion
1070
     0
  0
VISUALSTYLE
  5
30
102
{ACAD_REACTORS
330
2A
102
}
102
{ACAD_XDICTIONARY
360
40B
102
}
330
2A
100
AcDbVisualStyle
  2
3dWireframe
 70
     5
 71
     0
 72
     2
 73
     0
 90
        0
 40
-0.6
 41
-30.0
 62
     5
 63
     7
421
 16777215
 74
     1
 91
        4
 64
     7
 65
   257
 75
     1
175
     1
 42
1.0
 92
        0
 66
   257
 43
1.0
 76
     1
 77
     6
 78
     2
 67
     7
 79
     5
170
     0
171
     0
290
     0
174
     0
 93
        1
 44
0.0
173
     0
291
     0
 45
0.0
1001
ACAD
1000
AcDbSavedByObjectVersion
1070
     0
  0
VISUALSTYLE
  5
32
102
{ACAD_REACTORS
330
2A
102
}
102
{ACAD_XDICTIONARY
360
40F
102
}
330
2A
100
AcDbVisualStyle
  2
Basic
 70
     7
 71
     1
 72
     0
 73
     1
 90
        0
 40
-0.6
 41
-30.0
 62
     5
 63
     7
421
 16777215
 74
     0
 91
        4
 64
     7
 65
   257
 75
     1
175
     1
 42
1.0
 92
        8
 66
     7
 43
1.0
 76
     1
 77
     6
 78
     2
 67
     7
 79
     5
170
     0
171
     0
290
     0
174
     0
 93
        1
 44
0.0
173
     0
291
     1
 45
0.0
1001
ACAD
1000
AcDbSavedByObjectVersion
1070
     0
  0
VISUALSTYLE
  5
36
102
{ACAD_REACTORS
330
2A
102
}
102
{ACAD_XDICTIONARY
360
417
102
}
330
2A
100
AcDbVisualStyle
  2
Brighten
 70
    12
 71
     2
 72
     2
 73
     0
 90
        0
 40
-0.6
 41
-30.0
 62
     5
 63
     7
421
 16777215
 74
     1
 91
        4
 64
     7
 65
   257
 75
     1
175
     1
 42
1.0
 92
        8
 66
     7
 43
1.0
 76
     1
 77
     6
 78
     2
 67
     7
 79
     5
170
     0
171
     0
290
     0
174
     0
 93
        1
 44
50.0
173
     0
291
     1
 45
0.0
1001
ACAD
1000
AcDbSavedByObjectVersion
1070
     0
  0
VISUALSTYLE
  5
3A
102
{ACAD_REACTORS
330
2A
102
}
102
{ACAD_XDICTIONARY
360
41F
102
}
330
2A
100
AcDbVisualStyle
  2
ColorChange
 70
    16
 71
     2
 72
     2
 73
     3
 90
        0
 40
-0.6
 41
-30.0
 62
     5
 63
     8
421
  8421504
 74
     1
 91
        4
 64
     7
 65
   257
 75
     1
175
     1
 42
1.0
 92
        8
 66
     8
424
  8421504
 43
1.0
 76
     1
 77
     6
 78
     2
 67
     7
 79
     5
170
     0
171
     0
290
     0
174
     0
 93
        1
 44
0.0
173
     0
291
     1
 45
0.0
1001
ACAD
1000
AcDbSavedByObjectVersion
1070
     0
  0
VISUALSTYLE
  5
34
102
{ACAD_REACTORS
330
2A
102
}
102
{ACAD_XDICTIONARY
360
413
102
}
330
2A
100
AcDbVisualStyle
  2
Conceptual
 70
     9
 71
     3
 72
     2
 73
     0
 90
        0
 40
-0.6
 41
-30.0
 62
     5
 63
     7
421
 16777215
 74
     2
 91
        2
 64
     7
 65
   257
 75
     1
175
     1
 42
40.0
 92
        8
 66
     7
 43
1.0
 76
     1
 77
     6
 78
     2
 67
     7
 79
     3
170
     0
171
     0
290
     0
174
     0
 93
        1
 44
0.0
173
     0
291
     0
 45
0.0
1001
ACAD
1000
AcDbSavedByObjectVersion
1070
     0
  0
VISUALSTYLE
  5
35
102
{ACAD_REACTORS
330
2A
102
}
102
{ACAD_XDICTIONARY
360
415
102
}
330
2A
100
AcDbVisualStyle
  2
Dim
 70
    11
 71
     2
 72
     2
 73
     0
 90
        0
 40
-0.6
 41
-30.0
 62
     5
 63
     7
421
 16777215
 74
     1
 91
        4
 64
     7
 65
   257
 75
     1
175
     1
 42
1.0
 92
        8
 66
     7
 43
1.0
 76
     1
 77
     6
 78
     2
 67
     7
 79
     5
170
     0
171
     0
290
     0
174
     0
 93
        1
 44
-50.0
173
     0
291
     1
 45
0.0
1001
ACAD
1000
AcDbSavedByObjectVersion
1070
     0
  0
VISUALSTYLE
  5
39
102
{ACAD_REACTORS
330
2A
102
}
102
{ACAD_XDICTIONARY
360
41D
102
}
330
2A
100
AcDbVisualStyle
  2
Facepattern
 70
    15
 71
     2
 72
     2
 73
     0
 90
        0
 40
-0.6
 41
-30.0
 62
     5
 63
     7
421
 16777215
 74
     1
 91
        4
 64
     7
 65
   257
 75
     1
175
     1
 42
1.0
 92
        8
 66
     7
 43
1.0
 76
     1
 77
     6
 78
     2
 67
     7
 79
     5
170
     0
171
     0
290
     0
174
     0
 93
        1
 44
0.0
173
     0
291
     1
 45
0.0
1001
ACAD
1000
AcDbSavedByObjectVersion
1070
     0
  0
VISUALSTYLE
  5
2B
102
{ACAD_REACTORS
330
2A
102
}
102
{ACAD_XDICTIONARY
360
401
102
}
330
2A
100
AcDbVisualStyle
  2
Flat
 70
     0
 71
     2
 72
     1
 73
     1
 90
        2
 40
-0.6
 41
30.0
 62
     5
 63
     7
421
 16777215
 74
     0
 91
        4
 64
     7
 65
   257
 75
     1
175
     1
 42
1.0
 92
        8
 66
     7
 43
1.0
 76
     1
 77
     6
 78
     2
 67
     7
 79
     5
170
     0
171
     0
290
     0
174
     0
 93
       13
 44
0.0
173
     0
291
     1
 45
0.0
1001
ACAD
1000
AcDbSavedByObjectVersion
1070
     0
  0
VISUALSTYLE
  5
2C
102
{ACAD_REACTORS
330
2A
102
}
102
{ACAD_XDICTIONARY
360
403
102
}
330
2A
100
AcDbVisualStyle
  2
FlatWithEdges
 70
     1
 71
     2
 72
     1
 73
     1
 90
        2
 40
-0.6
 41
30.0
 62
     5
 63
     7
421
 16777215
 74
     1
 91
        4
 64
     7
 65
   257
 75
     1
175
     1
 42
1.0
 92
        0
 66
   257
 43
1.0
 76
     1
 77
     6
 78
     2
 67
     7
 79
     5
170
     0
171
     0
290
     0
174
     0
 93
       13
 44
0.0
173
     0
291
     1
 45
0.0
1001
ACAD
1000
AcDbSavedByObjectVersion
1070
     0
  0
VISUALSTYLE
  5
2D
102
{ACAD_REACTORS
330
2A
102
}
102
{ACAD_XDICTIONARY
360
405
102
}
330
2A
100
AcDbVisualStyle
  2
Gouraud
 70
     2
 71
     2
 72
     2
 73
     1
 90
        2
 40
-0.6
 41
30.0
 62
     5
 63
     7
421
 16777215
 74
     0
 91
        4
 64
     7
 65
   257
 75
     1
175
     1
 42
1.0
 92
        0
 66
     7
 43
1.0
 76
     1
 77
     6
 78
     2
 67
     7
 79
     5
170
     0
171
     0
290
     0
174
     0
 93
       13
 44
0.0
173
     0
291
     1
 45
0.0
1001
ACAD
1000
AcDbSavedByObjectVersion
1070
     0
  0
VISUALSTYLE
  5
2E
102
{ACAD_REACTORS
330
2A
102
}
102
{ACAD_XDICTIONARY
360
407
102
}
330
2A
100
AcDbVisualStyle
  2
GouraudWithEdges
 70
     3
 71
     2
 72
     2
 73
     1
 90
        2
 40
-0.6
 41
30.0
 62
     5
 63
     7
421
 16777215
 74
     1
 91
        4
 64
     7
 65
   257
 75
     1
175
     1
 42
1.0
 92
        0
 66
   257
 43
1.0
 76
     1
 77
     6
 78
     2
 67
     7
 79
     5
170
     0
171
     0
290
     0
174
     0
 93
       13
 44
0.0
173
     0
291
     1
 45
0.0
1001
ACAD
1000
AcDbSavedByObjectVersion
1070
     0
  0
VISUALSTYLE
  5
38
102
{ACAD_REACTORS
330
2A
102
}
102
{ACAD_XDICTIONARY
360
41B
102
}
330
2A
100
AcDbVisualStyle
  2
Linepattern
 70
    14
 71
     2
 72
     2
 73
     0
 90
        0
 40
-0.6
 41
-30.0
 62
     5
 63
     7
421
 16777215
 74
     1
 91
        4
 64
     7
 65
   257
 75
     7
175
     7
 42
1.0
 92
        8
 66
     7
 43
1.0
 76
     1
 77
     6
 78
     2
 67
     7
 79
     5
170
     0
171
     0
290
     0
174
     0
 93
        1
 44
0.0
173
     0
291
     1
 45
0.0
1001
ACAD
1000
AcDbSavedByObjectVersion
1070
     0
  0
VISUALSTYLE
  5
33
102
{ACAD_REACTORS
330
2A
102
}
102
{ACAD_XDICTIONARY
360
411
102
}
330
2A
100
AcDbVisualStyle
  2
Realistic
 70
     8
 71
     2
 72
     2
 73
     0
 90
        0
 40
-0.6
 41
-30.0
 62
     5
 63
     7
421
 16777215
 74
     1
 91
        0
 64
     7
 65
   257
 75
     1
175
     1
 42
1.0
 92
        8
 66
     8
424
  7895160
 43
1.0
 76
     1
 77
     6
 78
     2
 67
     7
 79
     5
170
     0
171
     0
290
     0
174
     0
 93
       13
 44
0.0
173
     0
291
     0
 45
0.0
1001
ACAD
1000
AcDbSavedByObjectVersion
1070
     0
  0
VISUALSTYLE
  5
37
102
{ACAD_REACTORS
330
2A
102
}
102
{ACAD_XDICTIONARY
360
419
102
}
330
2A
100
AcDbVisualStyle
  2
Thicken
 70
    13
 71
     2
 72
     2
 73
     0
 90
        0
 40
-0.6
 41
-30.0
 62
     5
 63
     7
421
 16777215
 74
     1
 91
        4
 64
     7
 65
   257
 75
     1
175
     1
 42
1.0
 92
       12
 66
     7
 43
1.0
 76
     1
 77
     6
 78
     2
 67
     7
 79
     5
170
     0
171
     0
290
     0
174
     0
 93
        1
 44
0.0
173
     0
291
     1
 45
0.0
1001
ACAD
1000
AcDbSavedByObjectVersion
1070
     0
  0
DICTIONARY
  5
423
330
3D
100
AcDbDictionary
280
     1
281
     1
  3
ACAD_XREC_ROUNDTRIP
360
424
  0
DICTIONARY
  5
421
330
3C
100
AcDbDictionary
280
     1
281
     1
  3
ACAD_XREC_ROUNDTRIP
360
422
  0
DICTIONARY
  5
425
330
3E
100
AcDbDictionary
280
     1
281
     1
  3
ACAD_XREC_ROUNDTRIP
360
426
  0
DICTIONARY
  5
409
330
2F
100
AcDbDictionary
280
     1
281
     1
  3
ACAD_XREC_ROUNDTRIP
360
40A
  0
DICTIONARY
  5
40D
330
31
100
AcDbDictionary
280
     1
281
     1
  3
ACAD_XREC_ROUNDTRIP
360
40E
  0
DICTIONARY
  5
40B
330
30
100
AcDbDictionary
280
     1
281
     1
  3
ACAD_XREC_ROUNDTRIP
360
40C
  0
DICTIONARY
  5
40F
330
32
100
AcDbDictionary
280
     1
281
     1
  3
ACAD_XREC_ROUNDTRIP
360
410
  0
DICTIONARY
  5
417
330
36
100
AcDbDictionary
280
     1
281
     1
  3
ACAD_XREC_ROUNDTRIP
360
418
  0
DICTIONARY
  5
41F
330
3A
100
AcDbDictionary
280
     1
281
     1
  3
ACAD_XREC_ROUNDTRIP
360
420
  0
DICTIONARY
  5
413
330
34
100
AcDbDictionary
280
     1
281
     1
  3
ACAD_XREC_ROUNDTRIP
360
414
  0
DICTIONARY
  5
415
330
35
100
AcDbDictionary
280
     1
281
     1
  3
ACAD_XREC_ROUNDTRIP
360
416
  0
DICTIONARY
  5
41D
330
39
100
AcDbDictionary
280
     1
281
     1
  3
ACAD_XREC_ROUNDTRIP
360
41E
  0
DICTIONARY
  5
401
330
2B
100
AcDbDictionary
280
     1
281
     1
  3
ACAD_XREC_ROUNDTRIP
360
402
  0
DICTIONARY
  5
403
330
2C
100
AcDbDictionary
280
     1
281
     1
  3
ACAD_XREC_ROUNDTRIP
360
404
  0
DICTIONARY
  5
405
330
2D
100
AcDbDictionary
280
     1
281
     1
  3
ACAD_XREC_ROUNDTRIP
360
406
  0
DICTIONARY
  5
407
330
2E
100
AcDbDictionary
280
     1
281
     1
  3
ACAD_XREC_ROUNDTRIP
360
408
  0
DICTIONARY
  5
41B
330
38
100
AcDbDictionary
280
     1
281
     1
  3
ACAD_XREC_ROUNDTRIP
360
41C
  0
DICTIONARY
  5
411
330
33
100
AcDbDictionary
280
     1
281
     1
  3
ACAD_XREC_ROUNDTRIP
360
412
  0
DICTIONARY
  5
419
330
37
100
AcDbDictionary
280
     1
281
     1
  3
ACAD_XREC_ROUNDTRIP
360
41A
  0
XRECORD
  5
424
102
{ACAD_REACTORS
330
423
102
}
330
423
100
AcDbXrecord
280
     1
102
MATERIAL
148
0.0
149
0.0
149
0.0
 93
        0
 94
      127
282
     0
 72
     1
 77
     1
171
     1
175
     1
179
     1
273
     0
  0
XRECORD
  5
422
102
{ACAD_REACTORS
330
421
102
}
330
421
100
AcDbXrecord
280
     1
102
MATERIAL
148
0.0
149
0.0
149
0.0
 93
        0
 94
      127
282
     0
 72
     1
 77
     1
171
     1
175
     1
179
     1
273
     0
  0
XRECORD
  5
426
102
{ACAD_REACTORS
330
425
102
}
330
425
100
AcDbXrecord
280
     1
102
MATERIAL
148
0.0
149
0.0
149
0.0
 93
        0
 94
      127
282
     0
 72
     1
 77
     1
171
     1
175
     1
179
     1
273
     0
  0
XRECORD
  5
40A
102
{ACAD_REACTORS
330
409
102
}
330
409
100
AcDbXrecord
280
     1
102
RTVSPropertyOp0
 70
     1
102
RTVSPropertyOp1
 70
     1
102
RTVSPropertyOp2
 70
     1
102
RTVSPropertyOp3
 70
     1
102
RTVSPropertyOp4
 70
     1
102
RTVSPropertyOp5
 70
     1
102
RTVSPropertyOp6
 70
     1
102
RTVSPropertyOp7
 70
     1
102
RTVSPropertyOp8
 70
     1
102
RTVSPropertyOp9
 70
     1
102
RTVSPropertyOp10
 70
     1
102
RTVSPropertyOp11
 70
     1
102
RTVSPropertyOp12
 70
     1
102
RTVSPropertyOp13
 70
     1
102
RTVSPropertyOp14
 70
     1
102
RTVSPropertyOp15
 70
     1
102
RTVSPropertyOp16
 70
     1
102
RTVSPropertyOp17
 70
     1
102
RTVSPropertyOp18
 70
     1
102
RTVSPropertyOp19
 70
     1
102
RTVSPropertyOp20
 70
     1
102
RTVSPropertyOp21
 70
     1
102
RTVSPropertyOp22
 70
     1
102
RTVSPropertyOp23
 70
     1
102
RTVSPropertyOp24
 70
     1
102
RTVSPropertyOp25
 70
     1
102
RTVSPropertyOp26
 70
     1
102
RTVSPropertyOp27
 70
     1
102
RTVSPropertyOp28
 70
     1
102
RTVSPropertyOp29
 70
     1
102
RTVSPropertyOp30
 70
     1
102
RTVSPropertyOp31
 70
     1
102
RTVSPropertyOp32
 70
     1
  0
XRECORD
  5
40E
102
{ACAD_REACTORS
330
40D
102
}
330
40D
100
AcDbXrecord
280
     1
102
RTVSPropertyOp0
 70
     1
102
RTVSPropertyOp1
 70
     1
102
RTVSPropertyOp2
 70
     1
102
RTVSPropertyOp3
 70
     1
102
RTVSPropertyOp4
 70
     1
102
RTVSPropertyOp5
 70
     1
102
RTVSPropertyOp6
 70
     1
102
RTVSPropertyOp7
 70
     1
102
RTVSPropertyOp8
 70
     1
102
RTVSPropertyOp9
 70
     1
102
RTVSPropertyOp10
 70
     1
102
RTVSPropertyOp11
 70
     1
102
RTVSPropertyOp12
 70
     1
102
RTVSPropertyOp13
 70
     1
102
RTVSPropertyOp14
 70
     1
102
RTVSPropertyOp15
 70
     1
102
RTVSPropertyOp16
 70
     1
102
RTVSPropertyOp17
 70
     1
102
RTVSPropertyOp18
 70
     1
102
RTVSPropertyOp19
 70
     1
102
RTVSPropertyOp20
 70
     1
102
RTVSPropertyOp21
 70
     1
102
RTVSPropertyOp22
 70
     1
102
RTVSPropertyOp23
 70
     1
102
RTVSPropertyOp24
 70
     1
102
RTVSPropertyOp25
 70
     1
102
RTVSPropertyOp26
 70
     1
102
RTVSPropertyOp27
 70
     1
102
RTVSPropertyOp28
 70
     1
102
RTVSPropertyOp29
 70
     1
102
RTVSPropertyOp30
 70
     1
102
RTVSPropertyOp31
 70
     1
102
RTVSPropertyOp32
 70
     1
  0
XRECORD
  5
40C
102
{ACAD_REACTORS
330
40B
102
}
330
40B
100
AcDbXrecord
280
     1
102
RTVSPropertyOp0
 70
     1
102
RTVSPropertyOp1
 70
     1
102
RTVSPropertyOp2
 70
     1
102
RTVSPropertyOp3
 70
     1
102
RTVSPropertyOp4
 70
     1
102
RTVSPropertyOp5
 70
     1
102
RTVSPropertyOp6
 70
     1
102
RTVSPropertyOp7
 70
     1
102
RTVSPropertyOp8
 70
     1
102
RTVSPropertyOp9
 70
     1
102
RTVSPropertyOp10
 70
     1
102
RTVSPropertyOp11
 70
     1
102
RTVSPropertyOp12
 70
     1
102
RTVSPropertyOp13
 70
     1
102
RTVSPropertyOp14
 70
     1
102
RTVSPropertyOp15
 70
     1
102
RTVSPropertyOp16
 70
     1
102
RTVSPropertyOp17
 70
     1
102
RTVSPropertyOp18
 70
     1
102
RTVSPropertyOp19
 70
     1
102
RTVSPropertyOp20
 70
     1
102
RTVSPropertyOp21
 70
     1
102
RTVSPropertyOp22
 70
     1
102
RTVSPropertyOp23
 70
     1
102
RTVSPropertyOp24
 70
     1
102
RTVSPropertyOp25
 70
     1
102
RTVSPropertyOp26
 70
     1
102
RTVSPropertyOp27
 70
     1
102
RTVSPropertyOp28
 70
     1
102
RTVSPropertyOp29
 70
     1
102
RTVSPropertyOp30
 70
     1
102
RTVSPropertyOp31
 70
     1
102
RTVSPropertyOp32
 70
     1
  0
XRECORD
  5
410
102
{ACAD_REACTORS
330
40F
102
}
330
40F
100
AcDbXrecord
280
     1
102
RTVSPropertyOp0
 70
     1
102
RTVSPropertyOp1
 70
     1
102
RTVSPropertyOp2
 70
     1
102
RTVSPropertyOp3
 70
     1
102
RTVSPropertyOp4
 70
     1
102
RTVSPropertyOp5
 70
     1
102
RTVSPropertyOp6
 70
     1
102
RTVSPropertyOp7
 70
     1
102
RTVSPropertyOp8
 70
     1
102
RTVSPropertyOp9
 70
     1
102
RTVSPropertyOp10
 70
     1
102
RTVSPropertyOp11
 70
     1
102
RTVSPropertyOp12
 70
     1
102
RTVSPropertyOp13
 70
     1
102
RTVSPropertyOp14
 70
     1
102
RTVSPropertyOp15
 70
     1
102
RTVSPropertyOp16
 70
     1
102
RTVSPropertyOp17
 70
     1
102
RTVSPropertyOp18
 70
     1
102
RTVSPropertyOp19
 70
     1
102
RTVSPropertyOp20
 70
     1
102
RTVSPropertyOp21
 70
     1
102
RTVSPropertyOp22
 70
     1
102
RTVSPropertyOp23
 70
     1
102
RTVSPropertyOp24
 70
     1
102
RTVSPropertyOp25
 70
     1
102
RTVSPropertyOp26
 70
     1
102
RTVSPropertyOp27
 70
     1
102
RTVSPropertyOp28
 70
     1
102
RTVSPropertyOp29
 70
     1
102
RTVSPropertyOp30
 70
     1
102
RTVSPropertyOp31
 70
     1
102
RTVSPropertyOp32
 70
     1
  0
XRECORD
  5
418
102
{ACAD_REACTORS
330
417
102
}
330
417
100
AcDbXrecord
280
     1
102
RTVSPropertyOp0
 70
     1
102
RTVSPropertyOp1
 70
     1
102
RTVSPropertyOp2
 70
     1
102
RTVSPropertyOp3
 70
     1
102
RTVSPropertyOp4
 70
     1
102
RTVSPropertyOp5
 70
     1
102
RTVSPropertyOp6
 70
     1
102
RTVSPropertyOp7
 70
     1
102
RTVSPropertyOp8
 70
     1
102
RTVSPropertyOp9
 70
     1
102
RTVSPropertyOp10
 70
     1
102
RTVSPropertyOp11
 70
     1
102
RTVSPropertyOp12
 70
     1
102
RTVSPropertyOp13
 70
     1
102
RTVSPropertyOp14
 70
     1
102
RTVSPropertyOp15
 70
     1
102
RTVSPropertyOp16
 70
     1
102
RTVSPropertyOp17
 70
     1
102
RTVSPropertyOp18
 70
     1
102
RTVSPropertyOp19
 70
     1
102
RTVSPropertyOp20
 70
     1
102
RTVSPropertyOp21
 70
     1
102
RTVSPropertyOp22
 70
     1
102
RTVSPropertyOp23
 70
     1
102
RTVSPropertyOp24
 70
     1
102
RTVSPropertyOp25
 70
     1
102
RTVSPropertyOp26
 70
     1
102
RTVSPropertyOp27
 70
     1
102
RTVSPropertyOp28
 70
     1
102
RTVSPropertyOp29
 70
     1
102
RTVSPropertyOp30
 70
     1
102
RTVSPropertyOp31
 70
     1
102
RTVSPropertyOp32
 70
     1
  0
XRECORD
  5
420
102
{ACAD_REACTORS
330
41F
102
}
330
41F
100
AcDbXrecord
280
     1
102
RTVSPropertyOp0
 70
     1
102
RTVSPropertyOp1
 70
     1
102
RTVSPropertyOp2
 70
     1
102
RTVSPropertyOp3
 70
     1
102
RTVSPropertyOp4
 70
     1
102
RTVSPropertyOp5
 70
     1
102
RTVSPropertyOp6
 70
     1
102
RTVSPropertyOp7
 70
     1
102
RTVSPropertyOp8
 70
     1
102
RTVSPropertyOp9
 70
     1
102
RTVSPropertyOp10
 70
     1
102
RTVSPropertyOp11
 70
     1
102
RTVSPropertyOp12
 70
     1
102
RTVSPropertyOp13
 70
     1
102
RTVSPropertyOp14
 70
     1
102
RTVSPropertyOp15
 70
     1
102
RTVSPropertyOp16
 70
     1
102
RTVSPropertyOp17
 70
     1
102
RTVSPropertyOp18
 70
     1
102
RTVSPropertyOp19
 70
     1
102
RTVSPropertyOp20
 70
     1
102
RTVSPropertyOp21
 70
     1
102
RTVSPropertyOp22
 70
     1
102
RTVSPropertyOp23
 70
     1
102
RTVSPropertyOp24
 70
     1
102
RTVSPropertyOp25
 70
     1
102
RTVSPropertyOp26
 70
     1
102
RTVSPropertyOp27
 70
     1
102
RTVSPropertyOp28
 70
     1
102
RTVSPropertyOp29
 70
     1
102
RTVSPropertyOp30
 70
     1
102
RTVSPropertyOp31
 70
     1
102
RTVSPropertyOp32
 70
     1
  0
XRECORD
  5
414
102
{ACAD_REACTORS
330
413
102
}
330
413
100
AcDbXrecord
280
     1
102
RTVSPropertyOp0
 70
     1
102
RTVSPropertyOp1
 70
     1
102
RTVSPropertyOp2
 70
     1
102
RTVSPropertyOp3
 70
     1
102
RTVSPropertyOp4
 70
     1
102
RTVSPropertyOp5
 70
     1
102
RTVSPropertyOp6
 70
     1
102
RTVSPropertyOp7
 70
     1
102
RTVSPropertyOp8
 70
     1
102
RTVSPropertyOp9
 70
     1
102
RTVSPropertyOp10
 70
     1
102
RTVSPropertyOp11
 70
     1
102
RTVSPropertyOp12
 70
     1
102
RTVSPropertyOp13
 70
     1
102
RTVSPropertyOp14
 70
     1
102
RTVSPropertyOp15
 70
     1
102
RTVSPropertyOp16
 70
     1
102
RTVSPropertyOp17
 70
     1
102
RTVSPropertyOp18
 70
     1
102
RTVSPropertyOp19
 70
     1
102
RTVSPropertyOp20
 70
     1
102
RTVSPropertyOp21
 70
     1
102
RTVSPropertyOp22
 70
     1
102
RTVSPropertyOp23
 70
     1
102
RTVSPropertyOp24
 70
     1
102
RTVSPropertyOp25
 70
     1
102
RTVSPropertyOp26
 70
     1
102
RTVSPropertyOp27
 70
     1
102
RTVSPropertyOp28
 70
     1
102
RTVSPropertyOp29
 70
     1
102
RTVSPropertyOp30
 70
     1
102
RTVSPropertyOp31
 70
     1
102
RTVSPropertyOp32
 70
     1
  0
XRECORD
  5
416
102
{ACAD_REACTORS
330
415
102
}
330
415
100
AcDbXrecord
280
     1
102
RTVSPropertyOp0
 70
     1
102
RTVSPropertyOp1
 70
     1
102
RTVSPropertyOp2
 70
     1
102
RTVSPropertyOp3
 70
     1
102
RTVSPropertyOp4
 70
     1
102
RTVSPropertyOp5
 70
     1
102
RTVSPropertyOp6
 70
     1
102
RTVSPropertyOp7
 70
     1
102
RTVSPropertyOp8
 70
     1
102
RTVSPropertyOp9
 70
     1
102
RTVSPropertyOp10
 70
     1
102
RTVSPropertyOp11
 70
     1
102
RTVSPropertyOp12
 70
     1
102
RTVSPropertyOp13
 70
     1
102
RTVSPropertyOp14
 70
     1
102
RTVSPropertyOp15
 70
     1
102
RTVSPropertyOp16
 70
     1
102
RTVSPropertyOp17
 70
     1
102
RTVSPropertyOp18
 70
     1
102
RTVSPropertyOp19
 70
     1
102
RTVSPropertyOp20
 70
     1
102
RTVSPropertyOp21
 70
     1
102
RTVSPropertyOp22
 70
     1
102
RTVSPropertyOp23
 70
     1
102
RTVSPropertyOp24
 70
     1
102
RTVSPropertyOp25
 70
     1
102
RTVSPropertyOp26
 70
     1
102
RTVSPropertyOp27
 70
     1
102
RTVSPropertyOp28
 70
     1
102
RTVSPropertyOp29
 70
     1
102
RTVSPropertyOp30
 70
     1
102
RTVSPropertyOp31
 70
     1
102
RTVSPropertyOp32
 70
     1
  0
XRECORD
  5
41E
102
{ACAD_REACTORS
330
41D
102
}
330
41D
100
AcDbXrecord
280
     1
102
RTVSPropertyOp0
 70
     1
102
RTVSPropertyOp1
 70
     1
102
RTVSPropertyOp2
 70
     1
102
RTVSPropertyOp3
 70
     1
102
RTVSPropertyOp4
 70
     1
102
RTVSPropertyOp5
 70
     1
102
RTVSPropertyOp6
 70
     1
102
RTVSPropertyOp7
 70
     1
102
RTVSPropertyOp8
 70
     1
102
RTVSPropertyOp9
 70
     1
102
RTVSPropertyOp10
 70
     1
102
RTVSPropertyOp11
 70
     1
102
RTVSPropertyOp12
 70
     1
102
RTVSPropertyOp13
 70
     1
102
RTVSPropertyOp14
 70
     1
102
RTVSPropertyOp15
 70
     1
102
RTVSPropertyOp16
 70
     1
102
RTVSPropertyOp17
 70
     1
102
RTVSPropertyOp18
 70
     1
102
RTVSPropertyOp19
 70
     1
102
RTVSPropertyOp20
 70
     1
102
RTVSPropertyOp21
 70
     1
102
RTVSPropertyOp22
 70
     1
102
RTVSPropertyOp23
 70
     1
102
RTVSPropertyOp24
 70
     1
102
RTVSPropertyOp25
 70
     1
102
RTVSPropertyOp26
 70
     1
102
RTVSPropertyOp27
 70
     1
102
RTVSPropertyOp28
 70
     1
102
RTVSPropertyOp29
 70
     1
102
RTVSPropertyOp30
 70
     1
102
RTVSPropertyOp31
 70
     1
102
RTVSPropertyOp32
 70
     1
  0
XRECORD
  5
402
102
{ACAD_REACTORS
330
401
102
}
330
401
100
AcDbXrecord
280
     1
102
RTVSPropertyOp0
 70
     1
102
RTVSPropertyOp1
 70
     1
102
RTVSPropertyOp2
 70
     1
102
RTVSPropertyOp3
 70
     1
102
RTVSPropertyOp4
 70
     1
102
RTVSPropertyOp5
 70
     1
102
RTVSPropertyOp6
 70
     1
102
RTVSPropertyOp7
 70
     1
102
RTVSPropertyOp8
 70
     1
102
RTVSPropertyOp9
 70
     1
102
RTVSPropertyOp10
 70
     1
102
RTVSPropertyOp11
 70
     1
102
RTVSPropertyOp12
 70
     1
102
RTVSPropertyOp13
 70
     1
102
RTVSPropertyOp14
 70
     1
102
RTVSPropertyOp15
 70
     1
102
RTVSPropertyOp16
 70
     1
102
RTVSPropertyOp17
 70
     1
102
RTVSPropertyOp18
 70
     1
102
RTVSPropertyOp19
 70
     1
102
RTVSPropertyOp20
 70
     1
102
RTVSPropertyOp21
 70
     1
102
RTVSPropertyOp22
 70
     1
102
RTVSPropertyOp23
 70
     1
102
RTVSPropertyOp24
 70
     1
102
RTVSPropertyOp25
 70
     1
102
RTVSPropertyOp26
 70
     1
102
RTVSPropertyOp27
 70
     1
102
RTVSPropertyOp28
 70
     1
102
RTVSPropertyOp29
 70
     1
102
RTVSPropertyOp30
 70
     1
102
RTVSPropertyOp31
 70
     1
102
RTVSPropertyOp32
 70
     1
  0
XRECORD
  5
404
102
{ACAD_REACTORS
330
403
102
}
330
403
100
AcDbXrecord
280
     1
102
RTVSPropertyOp0
 70
     1
102
RTVSPropertyOp1
 70
     1
102
RTVSPropertyOp2
 70
     1
102
RTVSPropertyOp3
 70
     1
102
RTVSPropertyOp4
 70
     1
102
RTVSPropertyOp5
 70
     1
102
RTVSPropertyOp6
 70
     1
102
RTVSPropertyOp7
 70
     1
102
RTVSPropertyOp8
 70
     1
102
RTVSPropertyOp9
 70
     1
102
RTVSPropertyOp10
 70
     1
102
RTVSPropertyOp11
 70
     1
102
RTVSPropertyOp12
 70
     1
102
RTVSPropertyOp13
 70
     1
102
RTVSPropertyOp14
 70
     1
102
RTVSPropertyOp15
 70
     1
102
RTVSPropertyOp16
 70
     1
102
RTVSPropertyOp17
 70
     1
102
RTVSPropertyOp18
 70
     1
102
RTVSPropertyOp19
 70
     1
102
RTVSPropertyOp20
 70
     1
102
RTVSPropertyOp21
 70
     1
102
RTVSPropertyOp22
 70
     1
102
RTVSPropertyOp23
 70
     1
102
RTVSPropertyOp24
 70
     1
102
RTVSPropertyOp25
 70
     1
102
RTVSPropertyOp26
 70
     1
102
RTVSPropertyOp27
 70
     1
102
RTVSPropertyOp28
 70
     1
102
RTVSPropertyOp29
 70
     1
102
RTVSPropertyOp30
 70
     1
102
RTVSPropertyOp31
 70
     1
102
RTVSPropertyOp32
 70
     1
  0
XRECORD
  5
406
102
{ACAD_REACTORS
330
405
102
}
330
405
100
AcDbXrecord
280
     1
102
RTVSPropertyOp0
 70
     1
102
RTVSPropertyOp1
 70
     1
102
RTVSPropertyOp2
 70
     1
102
RTVSPropertyOp3
 70
     1
102
RTVSPropertyOp4
 70
     1
102
RTVSPropertyOp5
 70
     1
102
RTVSPropertyOp6
 70
     1
102
RTVSPropertyOp7
 70
     1
102
RTVSPropertyOp8
 70
     1
102
RTVSPropertyOp9
 70
     1
102
RTVSPropertyOp10
 70
     1
102
RTVSPropertyOp11
 70
     1
102
RTVSPropertyOp12
 70
     1
102
RTVSPropertyOp13
 70
     1
102
RTVSPropertyOp14
 70
     1
102
RTVSPropertyOp15
 70
     1
102
RTVSPropertyOp16
 70
     1
102
RTVSPropertyOp17
 70
     1
102
RTVSPropertyOp18
 70
     1
102
RTVSPropertyOp19
 70
     1
102
RTVSPropertyOp20
 70
     1
102
RTVSPropertyOp21
 70
     1
102
RTVSPropertyOp22
 70
     1
102
RTVSPropertyOp23
 70
     1
102
RTVSPropertyOp24
 70
     1
102
RTVSPropertyOp25
 70
     1
102
RTVSPropertyOp26
 70
     1
102
RTVSPropertyOp27
 70
     1
102
RTVSPropertyOp28
 70
     1
102
RTVSPropertyOp29
 70
     1
102
RTVSPropertyOp30
 70
     1
102
RTVSPropertyOp31
 70
     1
102
RTVSPropertyOp32
 70
     1
  0
XRECORD
  5
408
102
{ACAD_REACTORS
330
407
102
}
330
407
100
AcDbXrecord
280
     1
102
RTVSPropertyOp0
 70
     1
102
RTVSPropertyOp1
 70
     1
102
RTVSPropertyOp2
 70
     1
102
RTVSPropertyOp3
 70
     1
102
RTVSPropertyOp4
 70
     1
102
RTVSPropertyOp5
 70
     1
102
RTVSPropertyOp6
 70
     1
102
RTVSPropertyOp7
 70
     1
102
RTVSPropertyOp8
 70
     1
102
RTVSPropertyOp9
 70
     1
102
RTVSPropertyOp10
 70
     1
102
RTVSPropertyOp11
 70
     1
102
RTVSPropertyOp12
 70
     1
102
RTVSPropertyOp13
 70
     1
102
RTVSPropertyOp14
 70
     1
102
RTVSPropertyOp15
 70
     1
102
RTVSPropertyOp16
 70
     1
102
RTVSPropertyOp17
 70
     1
102
RTVSPropertyOp18
 70
     1
102
RTVSPropertyOp19
 70
     1
102
RTVSPropertyOp20
 70
     1
102
RTVSPropertyOp21
 70
     1
102
RTVSPropertyOp22
 70
     1
102
RTVSPropertyOp23
 70
     1
102
RTVSPropertyOp24
 70
     1
102
RTVSPropertyOp25
 70
     1
102
RTVSPropertyOp26
 70
     1
102
RTVSPropertyOp27
 70
     1
102
RTVSPropertyOp28
 70
     1
102
RTVSPropertyOp29
 70
     1
102
RTVSPropertyOp30
 70
     1
102
RTVSPropertyOp31
 70
     1
102
RTVSPropertyOp32
 70
     1
  0
XRECORD
  5
41C
102
{ACAD_REACTORS
330
41B
102
}
330
41B
100
AcDbXrecord
280
     1
102
RTVSPropertyOp0
 70
     1
102
RTVSPropertyOp1
 70
     1
102
RTVSPropertyOp2
 70
     1
102
RTVSPropertyOp3
 70
     1
102
RTVSPropertyOp4
 70
     1
102
RTVSPropertyOp5
 70
     1
102
RTVSPropertyOp6
 70
     1
102
RTVSPropertyOp7
 70
     1
102
RTVSPropertyOp8
 70
     1
102
RTVSPropertyOp9
 70
     1
102
RTVSPropertyOp10
 70
     1
102
RTVSPropertyOp11
 70
     1
102
RTVSPropertyOp12
 70
     1
102
RTVSPropertyOp13
 70
     1
102
RTVSPropertyOp14
 70
     1
102
RTVSPropertyOp15
 70
     1
102
RTVSPropertyOp16
 70
     1
102
RTVSPropertyOp17
 70
     1
102
RTVSPropertyOp18
 70
     1
102
RTVSPropertyOp19
 70
     1
102
RTVSPropertyOp20
 70
     1
102
RTVSPropertyOp21
 70
     1
102
RTVSPropertyOp22
 70
     1
102
RTVSPropertyOp23
 70
     1
102
RTVSPropertyOp24
 70
     1
102
RTVSPropertyOp25
 70
     1
102
RTVSPropertyOp26
 70
     1
102
RTVSPropertyOp27
 70
     1
102
RTVSPropertyOp28
 70
     1
102
RTVSPropertyOp29
 70
     1
102
RTVSPropertyOp30
 70
     1
102
RTVSPropertyOp31
 70
     1
102
RTVSPropertyOp32
 70
     1
  0
XRECORD
  5
412
102
{ACAD_REACTORS
330
411
102
}
330
411
100
AcDbXrecord
280
     1
102
RTVSPropertyOp0
 70
     1
102
RTVSPropertyOp1
 70
     1
102
RTVSPropertyOp2
 70
     1
102
RTVSPropertyOp3
 70
     1
102
RTVSPropertyOp4
 70
     1
102
RTVSPropertyOp5
 70
     1
102
RTVSPropertyOp6
 70
     1
102
RTVSPropertyOp7
 70
     1
102
RTVSPropertyOp8
 70
     1
102
RTVSPropertyOp9
 70
     1
102
RTVSPropertyOp10
 70
     1
102
RTVSPropertyOp11
 70
     1
102
RTVSPropertyOp12
 70
     1
102
RTVSPropertyOp13
 70
     1
102
RTVSPropertyOp14
 70
     1
102
RTVSPropertyOp15
 70
     1
102
RTVSPropertyOp16
 70
     1
102
RTVSPropertyOp17
 70
     1
102
RTVSPropertyOp18
 70
     1
102
RTVSPropertyOp19
 70
     1
102
RTVSPropertyOp20
 70
     1
102
RTVSPropertyOp21
 70
     1
102
RTVSPropertyOp22
 70
     1
102
RTVSPropertyOp23
 70
     1
102
RTVSPropertyOp24
 70
     1
102
RTVSPropertyOp25
 70
     1
102
RTVSPropertyOp26
 70
     1
102
RTVSPropertyOp27
 70
     1
102
RTVSPropertyOp28
 70
     1
102
RTVSPropertyOp29
 70
     1
102
RTVSPropertyOp30
 70
     1
102
RTVSPropertyOp31
 70
     1
102
RTVSPropertyOp32
 70
     1
  0
XRECORD
  5
41A
102
{ACAD_REACTORS
330
419
102
}
330
419
100
AcDbXrecord
280
     1
102
RTVSPropertyOp0
 70
     1
102
RTVSPropertyOp1
 70
     1
102
RTVSPropertyOp2
 70
     1
102
RTVSPropertyOp3
 70
     1
102
RTVSPropertyOp4
 70
     1
102
RTVSPropertyOp5
 70
     1
102
RTVSPropertyOp6
 70
     1
102
RTVSPropertyOp7
 70
     1
102
RTVSPropertyOp8
 70
     1
102
RTVSPropertyOp9
 70
     1
102
RTVSPropertyOp10
 70
     1
102
RTVSPropertyOp11
 70
     1
102
RTVSPropertyOp12
 70
     1
102
RTVSPropertyOp13
 70
     1
102
RTVSPropertyOp14
 70
     1
102
RTVSPropertyOp15
 70
     1
102
RTVSPropertyOp16
 70
     1
102
RTVSPropertyOp17
 70
     1
102
RTVSPropertyOp18
 70
     1
102
RTVSPropertyOp19
 70
     1
102
RTVSPropertyOp20
 70
     1
102
RTVSPropertyOp21
 70
     1
102
RTVSPropertyOp22
 70
     1
102
RTVSPropertyOp23
 70
     1
102
RTVSPropertyOp24
 70
     1
102
RTVSPropertyOp25
 70
     1
102
RTVSPropertyOp26
 70
     1
102
RTVSPropertyOp27
 70
     1
102
RTVSPropertyOp28
 70
     1
102
RTVSPropertyOp29
 70
     1
102
RTVSPropertyOp30
 70
     1
102
RTVSPropertyOp31
 70
     1
102
RTVSPropertyOp32
 70
     1
  0
ENDSEC
  0
EOF
